osu file format v14

[General]
AudioFilename: audio.mp3
AudioLeadIn: 0
PreviewTime: 224027
Countdown: 0
SampleSet: Soft
StackLeniency: 0.7
Mode: 3
LetterboxInBreaks: 0
SpecialStyle: 0
WidescreenStoryboard: 0

[Editor]
DistanceSpacing: 1.8
BeatDivisor: 4
GridSize: 4
TimelineZoom: 1.6

[Metadata]
Title:Kimi no Tonari
TitleUnicode:キミの隣
Artist:halca
ArtistUnicode:halca
Creator:- Ly0572 -
Version:HITSOUND
Source:ヲタクに恋は難しい
Tags:Wotaku ni Koi wa Muzukashii ヲタ恋 Wotakoi Love is Hard for Otaku Ed Ending
BeatmapID:1657958
BeatmapSetID:790064

[Difficulty]
HPDrainRate:5
CircleSize:6
OverallDifficulty:5
ApproachRate:5
SliderMultiplier:1.4
SliderTickRate:1

[Events]
//Background and Video events
0,0,"WotakoBG2.png",0,0
//Break Periods
//Storyboard Layer 0 (Background)
//Storyboard Layer 1 (Fail)
//Storyboard Layer 2 (Pass)
//Storyboard Layer 3 (Foreground)
//Storyboard Sound Samples

[TimingPoints]
2139,444.444444444444,4,2,1,100,1,0

[HitObjects]
64,192,2027,5,0,0:0:0:0:
128,192,2083,1,0,0:0:0:0:
384,192,2139,1,0,0:0:0:0:
448,192,2139,1,0,0:0:0:0:
448,192,2694,1,0,0:0:0:0:
384,192,2750,1,0,0:0:0:0:
128,192,2805,1,0,0:0:0:0:
64,192,2805,1,0,0:0:0:0:
192,192,5250,128,0,5694:0:0:0:0:
448,192,5694,128,0,6805:0:0:0:0:
320,192,6361,128,0,6805:0:0:0:0:
192,192,6805,128,0,7027:0:0:0:0:
64,192,7027,128,0,7250:0:0:0:0:
448,192,7250,128,0,8361:0:0:0:0:
320,192,7472,128,0,7916:0:0:0:0:
64,192,7916,128,0,8361:0:0:0:0:
213,192,8361,128,0,8805:0:0:0:0:
384,192,8805,128,0,9250:0:0:0:0:
298,192,9250,1,4,0:0:0:0:
64,192,9250,1,2,0:0:0:0:
213,192,9250,1,2,0:0:0:0:
192,192,9472,1,2,0:0:0:0:
192,192,9694,1,2,0:0:0:0:
192,192,9916,1,2,0:0:0:0:
448,192,10138,1,8,0:0:0:0:
213,192,10138,1,2,0:0:0:0:
64,192,10138,1,0,0:0:0:70:Tom.wav
192,192,10583,1,2,0:0:0:0:
64,192,10805,1,0,0:0:0:70:Tom.wav
192,192,11027,1,2,0:0:0:0:
192,192,11250,1,2,0:0:0:0:
192,192,11472,1,2,0:0:0:0:
192,192,11694,1,2,0:0:0:0:
213,192,11916,1,2,0:0:0:0:
448,192,11916,1,8,0:0:0:0:
64,192,11916,1,0,0:0:0:70:Tom.wav
192,192,12138,1,2,0:0:0:0:
192,192,12361,1,2,0:0:0:0:
192,192,12583,1,2,0:0:0:0:
42,192,12805,1,0,0:0:0:70:Tom.wav
320,192,12805,1,4,0:0:0:0:
213,192,12805,1,2,0:0:0:0:
192,192,13027,1,2,0:0:0:0:
192,192,13250,1,2,0:0:0:0:
192,192,13472,1,2,0:0:0:0:
448,192,13694,1,8,0:0:0:0:
64,192,13694,1,0,0:0:0:70:Tom.wav
213,192,13694,1,2,0:0:0:0:
192,192,13916,1,2,0:0:0:0:
192,192,14138,1,2,0:0:0:0:
213,192,14361,1,2,0:0:0:0:
298,192,14361,1,4,0:0:0:0:
448,192,14361,1,0,0:0:0:0:
448,192,14805,1,8,0:0:0:0:
192,192,14805,1,2,0:0:0:0:
448,192,15027,1,8,0:0:0:0:
192,192,15027,1,2,0:0:0:0:
448,192,15250,1,8,0:0:0:0:
192,192,15250,1,2,0:0:0:0:
448,192,15472,128,8,15916:0:0:0:0:
192,192,15472,1,2,0:0:0:0:
320,192,15916,1,4,0:0:0:0:
128,192,15916,1,0,0:0:0:70:hihat.wav
192,192,16361,1,4,0:0:0:0:
64,192,16361,1,2,0:0:0:0:
192,192,16805,1,8,0:0:0:0:
64,192,16805,1,0,0:0:0:0:
192,192,17250,1,2,0:0:0:0:
448,192,17694,1,8,0:0:0:0:
213,192,18138,1,2,0:0:0:0:
448,192,18583,1,8,0:0:0:0:
64,192,18583,1,0,0:0:0:0:
213,192,19027,1,2,0:0:0:0:
469,192,19138,1,8,0:0:0:0:
213,192,19250,1,2,0:0:0:0:
320,192,19472,1,4,0:0:0:0:
469,192,19472,1,8,0:0:0:0:
469,192,19694,1,8,0:0:0:0:
469,192,19805,1,8,0:0:0:0:
213,192,19916,1,2,0:0:0:0:
469,192,20361,1,8,0:0:0:0:
213,192,20805,1,2,0:0:0:0:
448,192,21250,1,8,0:0:0:0:
213,192,21694,1,2,0:0:0:0:
448,192,22138,1,8,0:0:0:0:
128,192,22361,1,0,0:0:0:70:hihat.wav
213,192,22583,1,2,0:0:0:0:
298,192,22583,1,4,0:0:0:0:
469,192,23027,1,8,0:0:0:0:
448,192,23250,1,8,0:0:0:0:
469,192,23361,1,8,0:0:0:0:
192,192,23472,1,2,0:0:0:0:
298,192,23472,1,4,0:0:0:0:
469,192,23916,1,8,0:0:0:0:
192,192,24361,1,2,0:0:0:0:
448,192,24805,1,8,0:0:0:0:
213,192,25250,1,2,0:0:0:0:
448,192,25694,1,8,0:0:0:0:
213,192,26138,1,2,0:0:0:0:
469,192,26250,1,8,0:0:0:0:
213,192,26361,1,2,0:0:0:0:
320,192,26583,1,4,0:0:0:0:
469,192,26583,1,8,0:0:0:0:
469,192,26805,1,8,0:0:0:0:
469,192,26916,1,8,0:0:0:0:
213,192,27027,1,2,0:0:0:0:
298,192,27027,1,4,0:0:0:0:
213,192,27250,1,2,0:0:0:0:
448,192,27472,1,8,0:0:0:0:
213,192,27916,1,2,0:0:0:0:
448,192,28361,1,8,0:0:0:0:
469,192,28583,1,8,0:0:0:0:
320,192,28583,1,4,0:0:0:0:
213,192,28805,1,2,0:0:0:0:
213,192,29027,1,2,0:0:0:0:
64,192,29250,1,0,0:0:0:70:Tom.wav
64,192,29472,1,0,0:0:0:70:Tom.wav
213,192,29694,1,2,0:0:0:0:
469,192,29805,1,8,0:0:0:0:
64,192,29916,1,0,0:0:0:70:Tom.wav
469,192,30138,1,8,0:0:0:0:
298,192,30138,1,4,0:0:0:0:
469,192,30250,1,8,0:0:0:0:
213,192,30361,1,2,0:0:0:0:
320,192,30583,1,4,0:0:0:0:
213,192,30583,1,2,0:0:0:0:
192,192,31250,1,2,0:0:0:0:
384,192,31472,1,0,0:0:0:70:Rimclick.wav
192,192,31916,1,2,0:0:0:0:
192,192,32583,1,2,0:0:0:0:
192,192,32805,1,2,0:0:0:0:
384,192,33250,1,0,0:0:0:70:Rimclick.wav
192,192,34138,1,2,0:0:0:0:
192,192,34805,1,2,0:0:0:0:
384,192,35027,1,0,0:0:0:70:Rimclick.wav
192,192,35472,1,2,0:0:0:0:
192,192,35694,1,2,0:0:0:0:
192,192,36138,1,2,0:0:0:0:
128,192,36361,1,0,0:0:0:70:hihat.wav
384,192,36805,1,0,0:0:0:70:Rimclick.wav
192,192,37694,1,2,0:0:0:0:
192,192,38361,1,2,0:0:0:0:
384,192,38583,1,0,0:0:0:70:Rimclick.wav
192,192,39027,1,2,0:0:0:0:
192,192,39694,1,2,0:0:0:0:
192,192,39916,1,2,0:0:0:0:
384,192,40361,1,0,0:0:0:70:Rimclick.wav
192,192,41250,1,2,0:0:0:0:
192,192,41916,1,2,0:0:0:0:
384,192,42138,1,0,0:0:0:70:Rimclick.wav
192,192,42583,1,2,0:0:0:0:
192,192,42805,1,2,0:0:0:0:
448,192,44805,1,8,0:0:0:0:
320,192,44805,1,4,0:0:0:0:
213,192,44805,1,2,0:0:0:0:
192,192,45250,1,2,0:0:0:0:
448,192,45250,1,8,0:0:0:0:
192,192,45694,1,2,0:0:0:0:
448,192,46138,1,8,0:0:0:0:
192,192,46361,1,2,0:0:0:0:
192,192,46805,1,2,0:0:0:0:
448,192,47027,1,8,0:0:0:0:
192,192,47250,1,2,0:0:0:0:
448,192,47361,1,8,0:0:0:0:
192,192,47472,1,2,0:0:0:0:
448,192,47694,1,8,0:0:0:0:
192,192,47694,1,2,0:0:0:0:
448,192,47916,1,8,0:0:0:0:
192,192,47916,1,2,0:0:0:0:
192,192,48361,1,2,0:0:0:0:
448,192,48805,1,8,0:0:0:0:
192,192,49250,1,2,0:0:0:0:
448,192,49694,1,8,0:0:0:0:
192,192,49916,1,2,0:0:0:0:
192,192,50138,1,2,0:0:0:0:
192,192,50361,1,2,0:0:0:0:
448,192,50583,1,8,0:0:0:0:
192,192,50805,1,2,0:0:0:0:
192,192,51027,1,2,0:0:0:0:
448,192,51138,1,8,0:0:0:0:
192,192,51250,1,2,0:0:0:0:
448,192,51472,1,8,0:0:0:0:
448,192,51694,1,8,0:0:0:0:
448,192,51805,1,8,0:0:0:0:
192,192,51916,1,2,0:0:0:0:
320,192,51916,1,0,0:0:0:0:
448,192,52361,1,8,0:0:0:0:
192,192,52361,1,2,0:0:0:0:
192,192,52805,1,2,0:0:0:0:
448,192,53250,1,8,0:0:0:0:
192,192,53472,1,2,0:0:0:0:
192,192,53694,1,2,0:0:0:0:
192,192,53916,1,2,0:0:0:0:
448,192,54138,1,8,0:0:0:0:
192,192,54361,1,2,0:0:0:0:
192,192,54583,1,2,0:0:0:0:
448,192,54694,1,8,0:0:0:0:
192,192,54805,1,2,0:0:0:0:
448,192,55027,1,8,0:0:0:0:
192,192,55250,1,2,0:0:0:0:
192,192,55472,1,2,0:0:0:0:
320,192,55472,1,4,0:0:0:0:
448,192,55916,1,8,0:0:0:0:
192,192,56361,1,2,0:0:0:0:
448,192,56805,5,8,0:0:0:0:
192,192,57027,1,2,0:0:0:0:
320,192,57027,1,4,0:0:0:0:
213,192,57472,1,2,0:0:0:0:
469,192,57694,1,8,0:0:0:0:
192,192,57916,1,2,0:0:0:0:
213,192,58138,1,2,0:0:0:0:
42,192,58361,1,0,0:0:0:70:Tom.wav
469,192,58583,1,8,0:0:0:0:
213,192,58805,1,2,0:0:0:0:
298,192,59027,1,4,0:0:0:0:
213,192,59027,1,2,0:0:0:0:
192,192,59472,1,2,0:0:0:0:
192,192,59916,1,2,0:0:0:0:
128,192,60138,1,0,0:0:0:70:hihat.wav
192,192,60361,1,2,0:0:0:0:
128,192,60583,1,0,0:0:0:70:hihat.wav
192,192,60805,1,2,0:0:0:0:
128,192,61027,1,0,0:0:0:70:hihat.wav
192,192,61250,1,2,0:0:0:0:
128,192,61472,1,0,0:0:0:70:hihat.wav
192,192,61694,1,2,0:0:0:0:
128,192,61916,1,0,0:0:0:70:hihat.wav
192,192,62138,1,2,0:0:0:0:
320,192,62138,1,8,0:0:0:0:
192,192,62583,1,2,0:0:0:0:
192,192,63027,1,2,0:0:0:0:
128,192,63250,1,0,0:0:0:70:hihat.wav
192,192,63472,1,2,0:0:0:0:
128,192,63694,1,0,0:0:0:70:hihat.wav
192,192,63916,1,2,0:0:0:0:
128,192,64138,1,0,0:0:0:70:hihat.wav
213,192,64361,1,2,0:0:0:0:
128,192,64583,1,0,0:0:0:70:hihat.wav
213,192,64805,1,2,0:0:0:0:
128,192,65027,1,0,0:0:0:70:hihat.wav
213,192,65250,1,2,0:0:0:0:
448,192,65472,1,8,0:0:0:0:
469,192,65694,1,8,0:0:0:0:
469,192,65916,1,8,0:0:0:0:
469,192,66027,1,8,0:0:0:0:
298,192,66138,1,4,0:0:0:0:
213,192,66138,1,2,0:0:0:0:
448,192,66138,1,8,0:0:0:0:
192,192,66583,1,2,0:0:0:0:
128,192,66805,1,0,0:0:0:70:hihat.wav
192,192,67027,1,2,0:0:0:0:
128,192,67250,1,0,0:0:0:70:hihat.wav
192,192,67472,1,2,0:0:0:0:
128,192,67694,1,0,0:0:0:70:hihat.wav
192,192,67916,1,2,0:0:0:0:
128,192,68138,1,0,0:0:0:70:hihat.wav
192,192,68361,1,2,0:0:0:0:
128,192,68583,1,0,0:0:0:70:hihat.wav
192,192,68805,1,2,0:0:0:0:
448,192,69250,1,8,0:0:0:0:
213,192,69250,1,2,0:0:0:0:
320,192,69250,1,4,0:0:0:0:
192,192,69694,1,2,0:0:0:0:
320,192,69694,1,4,0:0:0:0:
448,192,70138,1,8,0:0:0:0:
64,192,70583,1,0,0:0:0:70:Tom.wav
192,192,70805,1,2,0:0:0:0:
64,192,71027,1,0,0:0:0:70:Tom.wav
192,192,71250,1,2,0:0:0:0:
448,192,71250,1,8,0:0:0:0:
192,192,71694,1,2,0:0:0:0:
448,192,71694,1,8,0:0:0:0:
192,192,71916,1,2,0:0:0:0:
448,192,71916,1,8,0:0:0:0:
192,192,72361,1,2,0:0:0:0:
448,192,72361,1,8,0:0:0:0:
192,192,72583,1,2,0:0:0:0:
448,192,72583,1,8,0:0:0:0:
448,192,73250,1,2,0:0:0:0:
320,192,73250,1,4,0:0:0:0:
192,192,73250,1,2,0:0:0:0:
448,192,73694,1,8,0:0:0:0:
192,192,73694,1,2,0:0:0:0:
192,192,74138,1,2,0:0:0:0:
448,192,74583,1,8,0:0:0:0:
192,192,74583,1,2,0:0:0:0:
128,192,74805,1,0,0:0:0:70:hihat.wav
192,192,75027,1,2,0:0:0:0:
128,192,75250,1,0,0:0:0:70:hihat.wav
448,192,75472,1,8,0:0:0:0:
192,192,75472,1,2,0:0:0:0:
448,192,75805,1,8,0:0:0:0:
192,192,75916,1,2,0:0:0:0:
448,192,76027,1,8,0:0:0:0:
192,192,76138,1,2,0:0:0:0:
448,192,76361,1,8,0:0:0:0:
320,192,76361,1,4,0:0:0:0:
192,192,76805,1,2,0:0:0:0:
448,192,77250,1,8,0:0:0:0:
192,192,77250,1,2,0:0:0:0:
192,192,77694,1,2,0:0:0:0:
192,192,78138,1,2,0:0:0:0:
448,192,78138,1,8,0:0:0:0:
192,192,78583,1,2,0:0:0:0:
192,192,79027,1,2,0:0:0:0:
448,192,79027,1,8,0:0:0:0:
448,192,79361,1,8,0:0:0:0:
192,192,79472,1,2,0:0:0:0:
448,192,79583,1,8,0:0:0:0:
192,192,79694,1,2,0:0:0:0:
320,192,79916,1,4,0:0:0:0:
448,192,79916,1,8,0:0:0:0:
448,192,80138,1,8,0:0:0:0:
448,192,80250,1,8,0:0:0:0:
320,192,80361,1,4,0:0:0:0:
192,192,80361,1,2,0:0:0:0:
448,192,80805,1,8,0:0:0:0:
192,192,80805,1,2,0:0:0:0:
192,192,81250,1,2,0:0:0:0:
448,192,81694,1,8,0:0:0:0:
192,192,81694,1,2,0:0:0:0:
192,192,82138,1,2,0:0:0:0:
448,192,82583,1,8,0:0:0:0:
192,192,82583,1,2,0:0:0:0:
448,192,82916,1,8,0:0:0:0:
192,192,83027,1,2,0:0:0:0:
448,192,83138,1,8,0:0:0:0:
192,192,83250,1,2,0:0:0:0:
448,192,83472,1,8,0:0:0:0:
320,192,83472,1,4,0:0:0:0:
320,192,83916,1,4,0:0:0:0:
448,192,83916,1,8,0:0:0:0:
192,192,83916,1,2,0:0:0:0:
448,192,84361,1,8,0:0:0:0:
192,192,84361,1,2,0:0:0:0:
192,192,84805,1,2,0:0:0:0:
192,192,85250,1,2,0:0:0:0:
448,192,85250,1,8,0:0:0:0:
192,192,85694,1,2,0:0:0:0:
448,192,85916,5,8,0:0:0:0:
320,192,85916,1,4,0:0:0:0:
192,192,85916,1,2,0:0:0:0:
448,192,86138,1,8,0:0:0:0:
64,192,86138,1,2,0:0:0:0:
320,192,86361,1,0,0:0:0:70:hihat.wav
64,192,86583,1,0,0:0:0:70:Tom.wav
448,192,86805,1,8,0:0:0:0:
448,192,86916,1,8,0:0:0:0:
448,192,87027,1,8,0:0:0:0:
320,192,87027,1,4,0:0:0:0:
192,192,87250,1,2,0:0:0:0:
64,192,87472,1,0,0:0:0:0:
448,192,87472,1,2,0:0:0:0:
320,192,87472,1,4,0:0:0:0:
448,192,87916,1,8,0:0:0:0:
192,192,87916,1,2,0:0:0:0:
192,192,88361,1,2,0:0:0:0:
448,192,88805,1,8,0:0:0:0:
192,192,88805,1,2,0:0:0:0:
128,192,89027,1,0,0:0:0:70:hihat.wav
192,192,89250,1,2,0:0:0:0:
128,192,89472,1,0,0:0:0:70:hihat.wav
448,192,89694,1,8,0:0:0:0:
192,192,89694,1,2,0:0:0:0:
448,192,90027,1,8,0:0:0:0:
192,192,90138,1,2,0:0:0:0:
448,192,90250,1,8,0:0:0:0:
192,192,90361,1,2,0:0:0:0:
448,192,90583,1,8,0:0:0:0:
320,192,90583,1,4,0:0:0:0:
192,192,91027,1,2,0:0:0:0:
448,192,91472,1,8,0:0:0:0:
192,192,91472,1,2,0:0:0:0:
192,192,91916,1,2,0:0:0:0:
192,192,92361,1,2,0:0:0:0:
448,192,92361,1,8,0:0:0:0:
192,192,92805,1,2,0:0:0:0:
192,192,93250,1,2,0:0:0:0:
448,192,93250,1,8,0:0:0:0:
448,192,93583,1,8,0:0:0:0:
192,192,93694,1,2,0:0:0:0:
448,192,93805,1,8,0:0:0:0:
192,192,93916,1,2,0:0:0:0:
448,192,94138,1,8,0:0:0:0:
320,192,94138,1,4,0:0:0:0:
42,192,94361,1,0,0:0:0:70:Tom.wav
213,192,94583,1,2,0:0:0:0:
298,192,94583,1,4,0:0:0:0:
469,192,95027,1,8,0:0:0:0:
213,192,95027,1,2,0:0:0:0:
213,192,95472,1,2,0:0:0:0:
469,192,95916,1,8,0:0:0:0:
213,192,95916,1,2,0:0:0:0:
213,192,96361,1,2,0:0:0:0:
469,192,96805,1,8,0:0:0:0:
213,192,96805,1,2,0:0:0:0:
213,192,97250,1,2,0:0:0:0:
469,192,97361,1,8,0:0:0:0:
213,192,97472,1,2,0:0:0:0:
469,192,97694,1,8,0:0:0:0:
213,192,97916,1,2,0:0:0:0:
213,192,98138,1,2,0:0:0:0:
298,192,98138,1,4,0:0:0:0:
469,192,98583,1,8,0:0:0:0:
213,192,98583,1,2,0:0:0:0:
213,192,99027,1,2,0:0:0:0:
469,192,99472,1,8,0:0:0:0:
213,192,99472,1,2,0:0:0:0:
469,192,99694,1,8,0:0:0:0:
42,192,99805,1,0,0:0:0:70:Tom.wav
213,192,99916,1,2,0:0:0:0:
298,192,99916,1,4,0:0:0:0:
42,192,100027,1,0,0:0:0:70:Tom.wav
42,192,100138,1,0,0:0:0:70:Tom.wav
42,192,100250,1,0,0:0:0:70:Tom.wav
213,192,100361,1,2,0:0:0:0:
42,192,100472,1,0,0:0:0:70:Tom.wav
42,192,100583,1,0,0:0:0:70:Tom.wav
42,192,100694,1,0,0:0:0:70:Tom.wav
213,192,100805,1,2,0:0:0:0:
42,192,100916,1,0,0:0:0:70:Tom.wav
42,192,101027,1,0,0:0:0:70:Tom.wav
213,192,101250,1,2,0:0:0:0:
469,192,101250,1,8,0:0:0:0:
213,192,101694,1,2,0:0:0:0:
298,192,101694,1,4,0:0:0:0:
469,192,102138,1,8,0:0:0:0:
213,192,102138,1,2,0:0:0:0:
213,192,102583,1,2,0:0:0:0:
469,192,103027,1,8,0:0:0:0:
213,192,103027,1,2,0:0:0:0:
469,192,103361,1,8,0:0:0:0:
213,192,103472,1,2,0:0:0:0:
469,192,103583,1,8,0:0:0:0:
213,192,103694,1,2,0:0:0:0:
469,192,103916,1,8,0:0:0:0:
298,192,103916,1,4,0:0:0:0:
213,192,104138,1,2,0:0:0:0:
213,192,104361,1,2,0:0:0:0:
469,192,104472,1,8,0:0:0:0:
213,192,104583,1,2,0:0:0:0:
469,192,104805,1,8,0:0:0:0:
213,192,105027,1,2,0:0:0:0:
469,192,105138,1,8,0:0:0:0:
213,192,105250,1,2,0:0:0:0:
213,192,105472,1,2,0:0:0:0:
469,192,105694,1,8,0:0:0:0:
213,192,105916,1,2,0:0:0:0:
469,192,106027,1,8,0:0:0:0:
213,192,106138,1,2,0:0:0:0:
213,192,106361,1,2,0:0:0:0:
469,192,106583,1,8,0:0:0:0:
42,192,106805,1,0,0:0:0:70:Tom.wav
213,192,107027,1,2,0:0:0:0:
469,192,107138,1,8,0:0:0:0:
213,192,107250,1,2,0:0:0:0:
469,192,107472,1,8,0:0:0:0:
213,192,107472,1,2,0:0:0:0:
469,192,107694,1,8,0:0:0:0:
469,192,107805,1,8,0:0:0:0:
298,192,107916,1,4,0:0:0:0:
213,192,107916,1,2,0:0:0:0:
469,192,108250,1,8,0:0:0:0:
469,192,108305,1,8,0:0:0:0:
298,192,108361,1,4,0:0:0:0:
213,192,108361,1,2,0:0:0:0:
469,192,108472,1,8,0:0:0:0:
469,192,108583,1,8,0:0:0:0:
469,192,108694,1,8,0:0:0:0:
469,192,108805,1,8,0:0:0:0:
298,192,108805,1,4,0:0:0:0:
213,192,108805,1,2,0:0:0:0:
213,192,109027,1,2,0:0:0:0:
469,192,109250,1,8,0:0:0:0:
213,192,109694,1,2,0:0:0:0:
469,192,110138,1,8,0:0:0:0:
213,192,110138,1,2,0:0:0:0:
213,192,110583,1,2,0:0:0:0:
469,192,111027,1,8,0:0:0:0:
213,192,111027,1,2,0:0:0:0:
469,192,111361,1,8,0:0:0:0:
213,192,111472,1,2,0:0:0:0:
469,192,111583,1,8,0:0:0:0:
213,192,111694,1,2,0:0:0:0:
469,192,111916,1,8,0:0:0:0:
213,192,112138,1,2,0:0:0:0:
213,192,112361,1,2,0:0:0:0:
469,192,112361,1,8,0:0:0:0:
298,192,112361,1,4,0:0:0:0:
469,192,112805,1,8,0:0:0:0:
213,192,112805,1,2,0:0:0:0:
213,192,113027,1,2,0:0:0:0:
298,192,113027,1,4,0:0:0:0:
469,192,113361,1,8,0:0:0:0:
469,192,113472,1,8,0:0:0:0:
469,192,113694,1,8,0:0:0:0:
213,192,113694,1,2,0:0:0:0:
213,192,113916,1,2,0:0:0:0:
298,192,113916,1,4,0:0:0:0:
213,192,114361,1,2,0:0:0:0:
469,192,114583,1,8,0:0:0:0:
42,192,114805,1,0,0:0:0:70:Tom.wav
469,192,115027,1,8,0:0:0:0:
213,192,115138,1,2,0:0:0:0:
469,192,115250,1,8,0:0:0:0:
298,192,115472,1,4,0:0:0:0:
213,192,115472,1,2,0:0:0:0:
469,192,115472,1,8,0:0:0:0:
320,192,115916,1,4,0:0:0:0:
213,192,115916,1,2,0:0:0:0:
192,192,116583,1,2,0:0:0:0:
384,192,116805,1,0,0:0:0:70:Rimclick.wav
192,192,117250,1,2,0:0:0:0:
192,192,117916,1,2,0:0:0:0:
192,192,118138,1,2,0:0:0:0:
384,192,118583,1,0,0:0:0:70:Rimclick.wav
192,192,119472,1,2,0:0:0:0:
192,192,120138,1,2,0:0:0:0:
384,192,120361,1,0,0:0:0:70:Rimclick.wav
192,192,120805,1,2,0:0:0:0:
192,192,121027,1,2,0:0:0:0:
192,192,121472,1,2,0:0:0:0:
128,192,121694,1,0,0:0:0:70:hihat.wav
384,192,122138,1,0,0:0:0:70:Rimclick.wav
192,192,123027,1,2,0:0:0:0:
192,192,123694,1,2,0:0:0:0:
384,192,123916,1,0,0:0:0:70:Rimclick.wav
192,192,124361,1,2,0:0:0:0:
192,192,125027,1,2,0:0:0:0:
192,192,125250,1,2,0:0:0:0:
384,192,125694,1,0,0:0:0:70:Rimclick.wav
192,192,126583,1,2,0:0:0:0:
192,192,127250,1,2,0:0:0:0:
384,192,127472,1,0,0:0:0:70:Rimclick.wav
192,192,127916,1,2,0:0:0:0:
192,192,128138,1,2,0:0:0:0:
42,192,129250,1,0,0:0:0:70:Tom.wav
469,192,129472,1,8,0:0:0:0:
469,192,129527,1,8,0:0:0:0:
469,192,129583,1,8,0:0:0:0:
469,192,129638,1,8,0:0:0:0:
298,192,129694,1,4,0:0:0:0:
469,192,129694,1,8,0:0:0:0:
213,192,129805,1,2,0:0:0:0:
42,192,129916,1,0,0:0:0:70:Tom.wav
448,192,130138,1,8,0:0:0:0:
320,192,130138,1,4,0:0:0:0:
213,192,130138,1,2,0:0:0:0:
192,192,130583,1,2,0:0:0:0:
448,192,130583,1,8,0:0:0:0:
192,192,131027,1,2,0:0:0:0:
448,192,131472,1,8,0:0:0:0:
192,192,131694,1,2,0:0:0:0:
192,192,132138,1,2,0:0:0:0:
448,192,132361,1,8,0:0:0:0:
192,192,132583,1,2,0:0:0:0:
448,192,132694,1,8,0:0:0:0:
192,192,132805,1,2,0:0:0:0:
448,192,133027,1,8,0:0:0:0:
192,192,133027,1,2,0:0:0:0:
448,192,133250,1,8,0:0:0:0:
192,192,133250,1,2,0:0:0:0:
192,192,133694,1,2,0:0:0:0:
448,192,134138,1,8,0:0:0:0:
192,192,134583,1,2,0:0:0:0:
448,192,135027,1,8,0:0:0:0:
192,192,135250,1,2,0:0:0:0:
192,192,135472,1,2,0:0:0:0:
192,192,135694,1,2,0:0:0:0:
448,192,135916,1,8,0:0:0:0:
192,192,136138,1,2,0:0:0:0:
192,192,136361,1,2,0:0:0:0:
448,192,136472,1,8,0:0:0:0:
192,192,136583,1,2,0:0:0:0:
448,192,136805,1,8,0:0:0:0:
448,192,137027,1,8,0:0:0:0:
448,192,137138,1,8,0:0:0:0:
192,192,137250,1,2,0:0:0:0:
320,192,137250,1,0,0:0:0:0:
448,192,137694,1,8,0:0:0:0:
192,192,137694,1,2,0:0:0:0:
192,192,138138,1,2,0:0:0:0:
448,192,138583,1,8,0:0:0:0:
192,192,138805,1,2,0:0:0:0:
192,192,139027,1,2,0:0:0:0:
192,192,139250,1,2,0:0:0:0:
448,192,139472,1,8,0:0:0:0:
192,192,139694,1,2,0:0:0:0:
192,192,139916,1,2,0:0:0:0:
448,192,140027,1,8,0:0:0:0:
192,192,140138,1,2,0:0:0:0:
448,192,140361,1,8,0:0:0:0:
192,192,140583,1,2,0:0:0:0:
192,192,140805,1,2,0:0:0:0:
320,192,140805,1,4,0:0:0:0:
448,192,141250,1,8,0:0:0:0:
192,192,141694,1,2,0:0:0:0:
448,192,142138,5,8,0:0:0:0:
192,192,142361,1,2,0:0:0:0:
320,192,142361,1,4,0:0:0:0:
213,192,142805,1,2,0:0:0:0:
469,192,143027,1,8,0:0:0:0:
192,192,143250,1,2,0:0:0:0:
213,192,143472,1,2,0:0:0:0:
42,192,143694,1,0,0:0:0:70:Tom.wav
469,192,143916,1,8,0:0:0:0:
213,192,144138,1,2,0:0:0:0:
298,192,144361,1,4,0:0:0:0:
213,192,144361,1,2,0:0:0:0:
192,192,144805,1,2,0:0:0:0:
192,192,145250,1,2,0:0:0:0:
128,192,145472,1,0,0:0:0:70:hihat.wav
192,192,145694,1,2,0:0:0:0:
128,192,145916,1,0,0:0:0:70:hihat.wav
192,192,146138,1,2,0:0:0:0:
128,192,146361,1,0,0:0:0:70:hihat.wav
192,192,146583,1,2,0:0:0:0:
128,192,146805,1,0,0:0:0:70:hihat.wav
192,192,147027,1,2,0:0:0:0:
128,192,147250,1,0,0:0:0:70:hihat.wav
192,192,147472,1,2,0:0:0:0:
320,192,147472,1,8,0:0:0:0:
192,192,147916,1,2,0:0:0:0:
192,192,148361,1,2,0:0:0:0:
128,192,148583,1,0,0:0:0:70:hihat.wav
192,192,148805,1,2,0:0:0:0:
128,192,149027,1,0,0:0:0:70:hihat.wav
192,192,149250,1,2,0:0:0:0:
128,192,149472,1,0,0:0:0:70:hihat.wav
213,192,149694,1,2,0:0:0:0:
128,192,149916,1,0,0:0:0:70:hihat.wav
213,192,150138,1,2,0:0:0:0:
128,192,150361,1,0,0:0:0:70:hihat.wav
213,192,150583,1,2,0:0:0:0:
448,192,150805,1,8,0:0:0:0:
469,192,151027,1,8,0:0:0:0:
469,192,151250,1,8,0:0:0:0:
469,192,151361,1,8,0:0:0:0:
298,192,151472,1,4,0:0:0:0:
213,192,151472,1,2,0:0:0:0:
448,192,151472,1,8,0:0:0:0:
192,192,151916,1,2,0:0:0:0:
128,192,152138,1,0,0:0:0:70:hihat.wav
192,192,152361,1,2,0:0:0:0:
128,192,152583,1,0,0:0:0:70:hihat.wav
192,192,152805,1,2,0:0:0:0:
128,192,153027,1,0,0:0:0:70:hihat.wav
192,192,153250,1,2,0:0:0:0:
128,192,153472,1,0,0:0:0:70:hihat.wav
192,192,153694,1,2,0:0:0:0:
128,192,153916,1,0,0:0:0:70:hihat.wav
192,192,154138,1,2,0:0:0:0:
448,192,154583,1,8,0:0:0:0:
213,192,154583,1,2,0:0:0:0:
320,192,154583,1,4,0:0:0:0:
192,192,155027,1,2,0:0:0:0:
320,192,155027,1,4,0:0:0:0:
213,192,155250,1,2,0:0:0:0:
213,192,155361,1,2,0:0:0:0:
448,192,155472,1,8,0:0:0:0:
213,192,155472,1,2,0:0:0:0:
213,192,155583,1,2,0:0:0:0:
213,192,155694,1,2,0:0:0:0:
213,192,155805,1,2,0:0:0:0:
64,192,155916,1,0,0:0:0:70:Tom.wav
469,192,155916,1,8,0:0:0:0:
213,192,156027,1,2,0:0:0:0:
469,192,156138,1,8,0:0:0:0:
213,192,156250,1,2,0:0:0:0:
64,192,156361,1,0,0:0:0:70:Tom.wav
469,192,156361,1,8,0:0:0:0:
192,192,156583,1,2,0:0:0:0:
448,192,156583,1,8,0:0:0:0:
192,192,157027,1,2,0:0:0:0:
448,192,157027,1,8,0:0:0:0:
192,192,157250,1,2,0:0:0:0:
448,192,157250,1,8,0:0:0:0:
192,192,157694,5,2,0:0:0:0:
448,192,157694,1,8,0:0:0:0:
192,192,157916,1,2,0:0:0:0:
448,192,157916,1,8,0:0:0:0:
192,192,158583,5,2,0:0:0:0:
320,192,158583,1,4,0:0:0:0:
448,192,158583,1,2,0:0:0:0:
192,192,159027,1,2,0:0:0:0:
448,192,159027,1,8,0:0:0:0:
192,192,159472,1,2,0:0:0:0:
192,192,159916,1,2,0:0:0:0:
448,192,159916,1,8,0:0:0:0:
128,192,160138,1,0,0:0:0:70:hihat.wav
192,192,160361,1,2,0:0:0:0:
128,192,160583,1,0,0:0:0:70:hihat.wav
192,192,160805,1,2,0:0:0:0:
448,192,160805,1,8,0:0:0:0:
448,192,161138,1,8,0:0:0:0:
192,192,161250,1,2,0:0:0:0:
448,192,161361,1,8,0:0:0:0:
192,192,161472,1,2,0:0:0:0:
320,192,161694,1,4,0:0:0:0:
448,192,161694,1,8,0:0:0:0:
192,192,162138,1,2,0:0:0:0:
192,192,162583,1,2,0:0:0:0:
448,192,162583,1,8,0:0:0:0:
192,192,163027,1,2,0:0:0:0:
448,192,163472,1,8,0:0:0:0:
192,192,163472,1,2,0:0:0:0:
192,192,163916,1,2,0:0:0:0:
448,192,164361,1,8,0:0:0:0:
192,192,164361,1,2,0:0:0:0:
448,192,164694,1,8,0:0:0:0:
192,192,164805,1,2,0:0:0:0:
448,192,164916,1,8,0:0:0:0:
192,192,165027,1,2,0:0:0:0:
448,192,165250,1,8,0:0:0:0:
320,192,165250,1,4,0:0:0:0:
448,192,165472,1,8,0:0:0:0:
448,192,165583,1,8,0:0:0:0:
192,192,165694,1,2,0:0:0:0:
320,192,165694,1,4,0:0:0:0:
192,192,166138,1,2,0:0:0:0:
448,192,166138,1,8,0:0:0:0:
192,192,166583,1,2,0:0:0:0:
192,192,167027,1,2,0:0:0:0:
448,192,167027,1,8,0:0:0:0:
192,192,167472,1,2,0:0:0:0:
192,192,167916,1,2,0:0:0:0:
448,192,167916,1,8,0:0:0:0:
448,192,168250,1,8,0:0:0:0:
192,192,168361,1,2,0:0:0:0:
448,192,168472,1,8,0:0:0:0:
192,192,168583,1,2,0:0:0:0:
320,192,168805,1,4,0:0:0:0:
448,192,168805,1,8,0:0:0:0:
192,192,169250,1,2,0:0:0:0:
448,192,169250,1,8,0:0:0:0:
320,192,169250,1,4,0:0:0:0:
192,192,169694,1,2,0:0:0:0:
448,192,169694,1,8,0:0:0:0:
192,192,170138,1,2,0:0:0:0:
448,192,170583,1,8,0:0:0:0:
192,192,170583,1,2,0:0:0:0:
192,192,171027,1,2,0:0:0:0:
448,192,171250,5,8,0:0:0:0:
192,192,171250,1,2,0:0:0:0:
320,192,171250,1,4,0:0:0:0:
64,192,171472,1,2,0:0:0:0:
448,192,171472,1,8,0:0:0:0:
320,192,171694,1,0,0:0:0:70:hihat.wav
64,192,171916,1,0,0:0:0:70:Tom.wav
448,192,172138,1,8,0:0:0:0:
448,192,172250,1,8,0:0:0:0:
320,192,172361,1,4,0:0:0:0:
448,192,172361,1,8,0:0:0:0:
192,192,172583,1,2,0:0:0:0:
320,192,172805,1,4,0:0:0:0:
448,192,172805,1,2,0:0:0:0:
64,192,172805,1,0,0:0:0:0:
192,192,173250,1,2,0:0:0:0:
448,192,173250,1,8,0:0:0:0:
192,192,173694,1,2,0:0:0:0:
192,192,174138,1,2,0:0:0:0:
448,192,174138,1,8,0:0:0:0:
128,192,174361,1,0,0:0:0:70:hihat.wav
192,192,174583,1,2,0:0:0:0:
128,192,174805,1,0,0:0:0:70:hihat.wav
192,192,175027,1,2,0:0:0:0:
448,192,175027,1,8,0:0:0:0:
448,192,175361,1,8,0:0:0:0:
192,192,175472,1,2,0:0:0:0:
448,192,175583,1,8,0:0:0:0:
192,192,175694,1,2,0:0:0:0:
320,192,175916,1,4,0:0:0:0:
448,192,175916,1,8,0:0:0:0:
192,192,176361,1,2,0:0:0:0:
192,192,176805,1,2,0:0:0:0:
448,192,176805,1,8,0:0:0:0:
192,192,177250,1,2,0:0:0:0:
448,192,177694,1,8,0:0:0:0:
192,192,177694,1,2,0:0:0:0:
192,192,178138,1,2,0:0:0:0:
448,192,178583,1,8,0:0:0:0:
192,192,178583,1,2,0:0:0:0:
448,192,178916,1,8,0:0:0:0:
192,192,179027,1,2,0:0:0:0:
448,192,179138,1,8,0:0:0:0:
192,192,179250,1,2,0:0:0:0:
320,192,179472,1,4,0:0:0:0:
448,192,179472,1,8,0:0:0:0:
42,192,179694,1,0,0:0:0:70:Tom.wav
298,192,179916,1,4,0:0:0:0:
213,192,179916,1,2,0:0:0:0:
213,192,180361,1,2,0:0:0:0:
469,192,180361,1,8,0:0:0:0:
213,192,180805,1,2,0:0:0:0:
213,192,181250,1,2,0:0:0:0:
469,192,181250,1,8,0:0:0:0:
213,192,181694,1,2,0:0:0:0:
213,192,182138,1,2,0:0:0:0:
469,192,182138,1,8,0:0:0:0:
213,192,182583,1,2,0:0:0:0:
469,192,182694,1,8,0:0:0:0:
213,192,182805,1,2,0:0:0:0:
469,192,183027,1,8,0:0:0:0:
213,192,183250,1,2,0:0:0:0:
298,192,183472,1,4,0:0:0:0:
213,192,183472,1,2,0:0:0:0:
213,192,183916,1,2,0:0:0:0:
469,192,183916,1,8,0:0:0:0:
213,192,184361,1,2,0:0:0:0:
213,192,184805,1,2,0:0:0:0:
469,192,184805,1,8,0:0:0:0:
469,192,185027,1,8,0:0:0:0:
42,192,185138,1,0,0:0:0:70:Tom.wav
298,192,185250,1,4,0:0:0:0:
213,192,185250,1,2,0:0:0:0:
213,192,185472,1,2,0:0:0:0:
42,192,185472,1,0,0:0:0:70:Tom.wav
213,192,185694,1,2,0:0:0:0:
42,192,185694,1,0,0:0:0:70:Tom.wav
213,192,185916,1,2,0:0:0:0:
42,192,185916,1,0,0:0:0:70:Tom.wav
213,192,186138,1,2,0:0:0:0:
42,192,186138,1,0,0:0:0:70:Tom.wav
213,192,186361,1,2,0:0:0:0:
42,192,186361,1,0,0:0:0:70:Tom.wav
469,192,186583,1,8,0:0:0:0:
213,192,186583,1,2,0:0:0:0:
42,192,186583,1,0,0:0:0:70:Tom.wav
213,192,187472,1,2,0:0:0:0:
469,192,187472,1,8,0:0:0:0:
469,192,187694,1,8,0:0:0:0:
469,192,187750,1,8,0:0:0:0:
469,192,187805,1,8,0:0:0:0:
469,192,187861,1,8,0:0:0:0:
213,192,187916,1,2,0:0:0:0:
213,192,188138,1,2,0:0:0:0:
128,192,188138,1,0,0:0:0:70:hihat.wav
298,192,188583,1,4,0:0:0:0:
213,192,188583,1,2,0:0:0:0:
469,192,188805,1,8,0:0:0:0:
469,192,188916,1,8,0:0:0:0:
213,192,189027,1,2,0:0:0:0:
469,192,189138,1,8,0:0:0:0:
213,192,189250,1,2,0:0:0:0:
469,192,189472,1,8,0:0:0:0:
469,192,189694,1,8,0:0:0:0:
213,192,189694,1,2,0:0:0:0:
469,192,189805,1,8,0:0:0:0:
213,192,189916,1,2,0:0:0:0:
469,192,190027,1,8,0:0:0:0:
213,192,190138,1,2,0:0:0:0:
213,192,190361,1,2,0:0:0:0:
213,192,190583,1,2,0:0:0:0:
469,192,190805,1,8,0:0:0:0:
298,192,190805,1,4,0:0:0:0:
469,192,191027,1,8,0:0:0:0:
298,192,191027,1,4,0:0:0:0:
213,192,191250,1,2,0:0:0:0:
213,192,191361,1,2,0:0:0:0:
42,192,191472,1,0,0:0:0:70:Tom.wav
469,192,191694,1,8,0:0:0:0:
298,192,191694,1,4,0:0:0:0:
469,192,192138,1,8,0:0:0:0:
298,192,192138,1,4,0:0:0:0:
213,192,192583,1,2,0:0:0:0:
213,192,192638,1,2,0:0:0:0:
213,192,192694,1,2,0:0:0:0:
213,192,192750,1,2,0:0:0:0:
469,192,192805,1,8,0:0:0:0:
213,192,193027,1,2,0:0:0:0:
213,192,193083,1,2,0:0:0:0:
213,192,193138,1,2,0:0:0:0:
298,192,194138,1,4,0:0:0:0:
213,192,194138,1,2,0:0:0:0:
469,192,194138,1,8,0:0:0:0:
213,192,194805,1,2,0:0:0:0:
469,192,195027,1,8,0:0:0:0:
213,192,195694,1,2,0:0:0:0:
213,192,196138,1,2,0:0:0:0:
213,192,196361,1,2,0:0:0:0:
469,192,196805,1,8,0:0:0:0:
469,192,197472,1,8,0:0:0:0:
213,192,197694,1,2,0:0:0:0:
298,192,197694,1,4,0:0:0:0:
469,192,198583,1,8,0:0:0:0:
213,192,199250,1,2,0:0:0:0:
42,192,199694,1,0,0:0:0:70:Tom.wav
213,192,199916,1,2,0:0:0:0:
213,192,200138,1,2,0:0:0:0:
469,192,200361,1,8,0:0:0:0:
213,192,200583,1,2,0:0:0:0:
42,192,200805,1,0,0:0:0:70:Tom.wav
469,192,201027,1,8,0:0:0:0:
213,192,201250,1,2,0:0:0:0:
298,192,201250,1,4,0:0:0:0:
213,192,201694,1,2,0:0:0:0:
469,192,202138,1,8,0:0:0:0:
213,192,202805,1,2,0:0:0:0:
298,192,202805,1,4,0:0:0:0:
213,192,203250,1,2,0:0:0:0:
213,192,203472,1,2,0:0:0:0:
469,192,203916,1,8,0:0:0:0:
128,192,204361,1,0,0:0:0:70:hihat.wav
213,192,204361,1,2,0:0:0:0:
469,192,204583,1,8,0:0:0:0:
213,192,204805,1,2,0:0:0:0:
298,192,204805,1,4,0:0:0:0:
213,192,205250,1,2,0:0:0:0:
469,192,205694,1,8,0:0:0:0:
298,192,205694,1,4,0:0:0:0:
213,192,206361,1,2,0:0:0:0:
298,192,206361,1,4,0:0:0:0:
213,192,206805,1,2,0:0:0:0:
213,192,207027,1,2,0:0:0:0:
469,192,207472,1,8,0:0:0:0:
298,192,207472,1,4,0:0:0:0:
42,192,207694,1,0,0:0:0:70:Tom.wav
213,192,207916,1,2,0:0:0:0:
469,192,208027,1,8,0:0:0:0:
213,192,208138,1,2,0:0:0:0:
469,192,208250,1,8,0:0:0:0:
213,192,208361,1,2,0:0:0:0:
298,192,208361,1,4,0:0:0:0:
213,192,208805,1,2,0:0:0:0:
128,192,209027,1,0,0:0:0:70:hihat.wav
213,192,209250,1,2,0:0:0:0:
128,192,209472,1,0,0:0:0:70:hihat.wav
213,192,209694,1,2,0:0:0:0:
128,192,209916,1,0,0:0:0:70:hihat.wav
213,192,210138,1,2,0:0:0:0:
128,192,210361,1,0,0:0:0:70:hihat.wav
213,192,210583,1,2,0:0:0:0:
128,192,210805,1,0,0:0:0:70:hihat.wav
213,192,211027,1,2,0:0:0:0:
469,192,211250,1,8,0:0:0:0:
469,192,211472,1,8,0:0:0:0:
213,192,211472,1,2,0:0:0:0:
128,192,211694,1,0,0:0:0:70:hihat.wav
213,192,211916,1,2,0:0:0:0:
128,192,212138,1,0,0:0:0:70:hihat.wav
213,192,212361,1,2,0:0:0:0:
128,192,212583,1,0,0:0:0:70:hihat.wav
213,192,212805,1,2,0:0:0:0:
128,192,213027,1,0,0:0:0:70:hihat.wav
213,192,213250,1,2,0:0:0:0:
128,192,213472,1,0,0:0:0:70:hihat.wav
213,192,213694,1,2,0:0:0:0:
469,192,213916,1,8,0:0:0:0:
469,192,214138,1,8,0:0:0:0:
298,192,214361,1,4,0:0:0:0:
469,192,214361,1,8,0:0:0:0:
469,192,214805,1,8,0:0:0:0:
469,192,215027,1,8,0:0:0:0:
213,192,215250,1,2,0:0:0:0:
42,192,215361,1,0,0:0:0:70:Tom.wav
42,192,215472,1,0,0:0:0:70:Tom.wav
213,192,215472,1,2,0:0:0:0:
469,192,215472,1,8,0:0:0:0:
213,192,215916,1,2,0:0:0:0:
469,192,215916,1,8,0:0:0:0:
213,192,216361,1,2,0:0:0:0:
469,192,216361,1,8,0:0:0:0:
213,192,216583,1,2,0:0:0:0:
469,192,216805,1,8,0:0:0:0:
213,192,217027,1,2,0:0:0:0:
298,192,217027,1,4,0:0:0:0:
213,192,217472,1,2,0:0:0:0:
469,192,217694,1,8,0:0:0:0:
213,192,217694,1,2,0:0:0:0:
298,192,217694,1,4,0:0:0:0:
213,192,217916,1,2,0:0:0:0:
213,192,218027,1,2,0:0:0:0:
213,192,218138,1,2,0:0:0:0:
469,192,218138,1,8,0:0:0:0:
298,192,218138,1,4,0:0:0:0:
213,192,218361,1,2,0:0:0:0:
469,192,218583,1,8,0:0:0:0:
213,192,218805,1,2,0:0:0:0:
213,192,219027,1,2,0:0:0:0:
213,192,219472,1,2,0:0:0:0:
469,192,219472,1,8,0:0:0:0:
213,192,219916,1,2,0:0:0:0:
469,192,219916,1,8,0:0:0:0:
213,192,220138,1,2,0:0:0:0:
213,192,220361,1,2,0:0:0:0:
469,192,220361,1,8,0:0:0:0:
298,192,220583,1,4,0:0:0:0:
213,192,220583,1,2,0:0:0:0:
42,192,221027,1,0,0:0:0:70:Tom.wav
213,192,221027,1,2,0:0:0:0:
42,192,221250,1,0,0:0:0:70:Tom.wav
213,192,221250,1,2,0:0:0:0:
42,192,221472,1,0,0:0:0:70:Tom.wav
213,192,221472,1,2,0:0:0:0:
42,192,221694,1,0,0:0:0:70:Tom.wav
469,192,221694,1,8,0:0:0:0:
42,192,221916,1,0,0:0:0:70:Tom.wav
469,192,221916,1,8,0:0:0:0:
42,192,222138,1,0,0:0:0:70:Tom.wav
469,192,222138,1,8,0:0:0:0:
42,192,222361,1,0,0:0:0:70:Tom.wav
469,192,222361,1,8,0:0:0:0:
448,192,224361,5,2,0:0:0:0:
320,192,224361,1,4,0:0:0:0:
192,192,224361,1,2,0:0:0:0:
448,192,224805,1,8,0:0:0:0:
192,192,224805,1,2,0:0:0:0:
192,192,225250,1,2,0:0:0:0:
448,192,225694,1,8,0:0:0:0:
192,192,225694,1,2,0:0:0:0:
128,192,225916,1,0,0:0:0:70:hihat.wav
192,192,226138,1,2,0:0:0:0:
128,192,226361,1,0,0:0:0:70:hihat.wav
448,192,226583,1,8,0:0:0:0:
192,192,226583,1,2,0:0:0:0:
448,192,226916,1,8,0:0:0:0:
192,192,227027,1,2,0:0:0:0:
448,192,227138,1,8,0:0:0:0:
192,192,227250,1,2,0:0:0:0:
448,192,227472,1,8,0:0:0:0:
320,192,227472,1,4,0:0:0:0:
192,192,227916,1,2,0:0:0:0:
448,192,228361,1,8,0:0:0:0:
192,192,228361,1,2,0:0:0:0:
192,192,228805,1,2,0:0:0:0:
192,192,229250,1,2,0:0:0:0:
448,192,229250,1,8,0:0:0:0:
192,192,229694,1,2,0:0:0:0:
192,192,230138,1,2,0:0:0:0:
448,192,230138,1,8,0:0:0:0:
448,192,230472,1,8,0:0:0:0:
192,192,230583,1,2,0:0:0:0:
448,192,230694,1,8,0:0:0:0:
192,192,230805,1,2,0:0:0:0:
320,192,231027,1,4,0:0:0:0:
448,192,231027,1,8,0:0:0:0:
448,192,231250,1,8,0:0:0:0:
448,192,231361,1,8,0:0:0:0:
320,192,231472,1,4,0:0:0:0:
192,192,231472,1,2,0:0:0:0:
448,192,231916,1,8,0:0:0:0:
192,192,231916,1,2,0:0:0:0:
192,192,232361,1,2,0:0:0:0:
448,192,232805,1,8,0:0:0:0:
192,192,232805,1,2,0:0:0:0:
192,192,233250,1,2,0:0:0:0:
448,192,233694,1,8,0:0:0:0:
192,192,233694,1,2,0:0:0:0:
448,192,234027,1,8,0:0:0:0:
192,192,234138,1,2,0:0:0:0:
448,192,234250,1,8,0:0:0:0:
192,192,234361,1,2,0:0:0:0:
448,192,234583,1,8,0:0:0:0:
320,192,234583,1,4,0:0:0:0:
320,192,235027,1,4,0:0:0:0:
448,192,235027,1,8,0:0:0:0:
192,192,235027,1,2,0:0:0:0:
448,192,235472,1,8,0:0:0:0:
192,192,235472,1,2,0:0:0:0:
192,192,235916,1,2,0:0:0:0:
192,192,236361,1,2,0:0:0:0:
448,192,236361,1,8,0:0:0:0:
192,192,236805,1,2,0:0:0:0:
448,192,237027,5,8,0:0:0:0:
320,192,237027,1,4,0:0:0:0:
192,192,237027,1,2,0:0:0:0:
448,192,237250,1,8,0:0:0:0:
64,192,237250,1,2,0:0:0:0:
320,192,237472,1,0,0:0:0:70:hihat.wav
64,192,237694,1,0,0:0:0:70:Tom.wav
448,192,237916,1,8,0:0:0:0:
448,192,238027,1,8,0:0:0:0:
448,192,238138,1,8,0:0:0:0:
320,192,238138,1,4,0:0:0:0:
192,192,238361,1,2,0:0:0:0:
64,192,238583,1,0,0:0:0:0:
448,192,238583,1,2,0:0:0:0:
320,192,238583,1,4,0:0:0:0:
448,192,239027,1,8,0:0:0:0:
192,192,239027,1,2,0:0:0:0:
192,192,239472,1,2,0:0:0:0:
448,192,239916,1,8,0:0:0:0:
192,192,239916,1,2,0:0:0:0:
128,192,240138,1,0,0:0:0:70:hihat.wav
192,192,240361,1,2,0:0:0:0:
128,192,240583,1,0,0:0:0:70:hihat.wav
448,192,240805,1,8,0:0:0:0:
192,192,240805,1,2,0:0:0:0:
448,192,241138,1,8,0:0:0:0:
192,192,241250,1,2,0:0:0:0:
448,192,241361,1,8,0:0:0:0:
192,192,241472,1,2,0:0:0:0:
448,192,241694,1,8,0:0:0:0:
320,192,241694,1,4,0:0:0:0:
192,192,242138,1,2,0:0:0:0:
448,192,242583,1,8,0:0:0:0:
192,192,242583,1,2,0:0:0:0:
192,192,243027,1,2,0:0:0:0:
192,192,243472,1,2,0:0:0:0:
448,192,243472,1,8,0:0:0:0:
192,192,243916,1,2,0:0:0:0:
192,192,244361,1,2,0:0:0:0:
448,192,244361,1,8,0:0:0:0:
448,192,244694,1,8,0:0:0:0:
192,192,244805,1,2,0:0:0:0:
448,192,244916,1,8,0:0:0:0:
192,192,245027,1,2,0:0:0:0:
448,192,245250,1,8,0:0:0:0:
320,192,245250,1,4,0:0:0:0:
42,192,245472,1,0,0:0:0:70:Tom.wav
213,192,245694,1,2,0:0:0:0:
298,192,245694,1,4,0:0:0:0:
469,192,246138,1,8,0:0:0:0:
213,192,246138,1,2,0:0:0:0:
213,192,246583,1,2,0:0:0:0:
469,192,247027,1,8,0:0:0:0:
213,192,247027,1,2,0:0:0:0:
213,192,247472,1,2,0:0:0:0:
469,192,247916,1,8,0:0:0:0:
213,192,247916,1,2,0:0:0:0:
469,192,248250,1,8,0:0:0:0:
213,192,248361,1,2,0:0:0:0:
469,192,248472,1,8,0:0:0:0:
213,192,248583,1,2,0:0:0:0:
469,192,248805,1,8,0:0:0:0:
213,192,249027,1,2,0:0:0:0:
213,192,249250,1,2,0:0:0:0:
298,192,249250,1,4,0:0:0:0:
469,192,249694,1,8,0:0:0:0:
213,192,249694,1,2,0:0:0:0:
213,192,250138,1,2,0:0:0:0:
469,192,250583,1,8,0:0:0:0:
213,192,250583,1,2,0:0:0:0:
469,192,250805,1,8,0:0:0:0:
42,192,250916,1,0,0:0:0:70:Tom.wav
213,192,251027,1,2,0:0:0:0:
298,192,251027,1,4,0:0:0:0:
42,192,251138,1,0,0:0:0:70:Tom.wav
42,192,251250,1,0,0:0:0:70:Tom.wav
42,192,251361,1,0,0:0:0:70:Tom.wav
213,192,251472,1,2,0:0:0:0:
42,192,251583,1,0,0:0:0:70:Tom.wav
42,192,251694,1,0,0:0:0:70:Tom.wav
42,192,251805,1,0,0:0:0:70:Tom.wav
213,192,251916,1,2,0:0:0:0:
42,192,252027,1,0,0:0:0:70:Tom.wav
42,192,252138,1,0,0:0:0:70:Tom.wav
213,192,252361,1,2,0:0:0:0:
469,192,252361,1,8,0:0:0:0:
213,192,252805,1,2,0:0:0:0:
298,192,252805,1,4,0:0:0:0:
469,192,253250,1,8,0:0:0:0:
213,192,253250,1,2,0:0:0:0:
213,192,253694,1,2,0:0:0:0:
469,192,254138,1,8,0:0:0:0:
213,192,254138,1,2,0:0:0:0:
213,192,254583,1,2,0:0:0:0:
213,192,255027,1,2,0:0:0:0:
469,192,255027,1,8,0:0:0:0:
448,192,255361,1,8,0:0:0:0:
192,192,255472,1,2,0:0:0:0:
448,192,255583,1,8,0:0:0:0:
192,192,255694,1,2,0:0:0:0:
320,192,255916,1,4,0:0:0:0:
448,192,255916,1,8,0:0:0:0:
469,192,256138,1,8,0:0:0:0:
469,192,256250,1,8,0:0:0:0:
213,192,256361,1,2,0:0:0:0:
213,192,256805,1,2,0:0:0:0:
469,192,256805,1,8,0:0:0:0:
213,192,257250,1,2,0:0:0:0:
213,192,257694,1,2,0:0:0:0:
469,192,257694,1,8,0:0:0:0:
213,192,258138,1,2,0:0:0:0:
469,192,258361,1,8,0:0:0:0:
469,192,258583,1,8,0:0:0:0:
213,192,258583,1,2,0:0:0:0:
42,192,258805,1,0,0:0:0:70:Tom.wav
213,192,259027,1,2,0:0:0:0:
128,192,259027,1,2,0:0:0:0:
213,192,259472,1,2,0:0:0:0:
298,192,259472,1,4,0:0:0:0:
469,192,259694,1,8,0:0:0:0:
469,192,259805,1,8,0:0:0:0:
213,192,259916,1,2,0:0:0:0:
298,192,259916,1,4,0:0:0:0:
213,192,260361,1,2,0:0:0:0:
469,192,260361,1,8,0:0:0:0:
213,192,260805,1,2,0:0:0:0:
213,192,261250,1,2,0:0:0:0:
469,192,261250,1,8,0:0:0:0:
213,192,261694,1,2,0:0:0:0:
213,192,262138,1,2,0:0:0:0:
469,192,262138,1,8,0:0:0:0:
469,192,262472,1,8,0:0:0:0:
213,192,262583,1,2,0:0:0:0:
42,192,262805,1,0,0:0:0:70:Tom.wav
213,192,262805,1,2,0:0:0:0:
469,192,263027,1,8,0:0:0:0:
213,192,263027,1,2,0:0:0:0:
213,192,263250,1,2,0:0:0:0:
469,192,263472,1,8,0:0:0:0:
298,192,263472,1,4,0:0:0:0:
469,192,263916,1,8,0:0:0:0:
213,192,263916,1,2,0:0:0:0:
213,192,264361,1,2,0:0:0:0:
469,192,264805,1,8,0:0:0:0:
213,192,264805,1,2,0:0:0:0:
213,192,265027,1,2,0:0:0:0:
213,192,265472,1,2,0:0:0:0:
42,192,265694,1,0,0:0:0:70:Tom.wav
469,192,265694,1,8,0:0:0:0:
298,192,265694,1,4,0:0:0:0:
42,192,265916,1,0,0:0:0:70:Tom.wav
213,192,266027,1,2,0:0:0:0:
213,192,266138,5,2,0:0:0:0:
469,192,266138,1,8,0:0:0:0:
469,192,266250,1,8,0:0:0:0:
469,192,266361,1,8,0:0:0:0:
469,192,266583,1,8,0:0:0:0:
213,192,266583,1,2,0:0:0:0:
469,192,266694,1,8,0:0:0:0:
42,192,266805,1,0,0:0:0:70:Tom.wav
213,192,267250,5,2,0:0:0:0:
469,192,267250,1,8,0:0:0:0:
213,192,267472,1,2,0:0:0:0:
469,192,267472,1,8,0:0:0:0:
213,192,267916,1,2,0:0:0:0:
469,192,267916,1,8,0:0:0:0:
469,192,268138,1,8,0:0:0:0:
213,192,268138,1,2,0:0:0:0:
213,192,268583,1,2,0:0:0:0:
298,192,268583,1,4,0:0:0:0:
469,192,268583,1,8,0:0:0:0:
