osu file format v14

[General]
AudioFilename: audio.mp3
AudioLeadIn: 0
PreviewTime: 224027
Countdown: 0
SampleSet: Soft
StackLeniency: 0.7
Mode: 3
LetterboxInBreaks: 0
SpecialStyle: 0
WidescreenStoryboard: 1

[Editor]
DistanceSpacing: 1.8
BeatDivisor: 4
GridSize: 4
TimelineZoom: 1

[Metadata]
Title:Kimi no Tonari
TitleUnicode:キミの隣
Artist:halca
ArtistUnicode:halca
Creator:- Ly0572 -
Version:HD
Source:ヲタクに恋は難しい
Tags:Wotaku ni Koi wa Muzukashii ヲタ恋 Wotakoi Love is Hard for Otaku Ed Ending
BeatmapID:1657957
BeatmapSetID:790064

[Difficulty]
HPDrainRate:5
CircleSize:4
OverallDifficulty:5
ApproachRate:5
SliderMultiplier:1.4
SliderTickRate:1

[Events]
//Background and Video events
0,0,"WotakoiBG.jpg",0,0
//Break Periods
//Storyboard Layer 0 (Background)
//Storyboard Layer 1 (Fail)
//Storyboard Layer 2 (Pass)
//Storyboard Layer 3 (Foreground)
//Storyboard Sound Samples

[TimingPoints]
2139,444.444444444444,4,2,1,100,1,0
15472,-62.5,4,2,1,100,0,0
15583,-250,4,2,1,100,0,0
15916,-62.5,4,2,1,100,0,0
16027,-250,4,2,1,100,0,0
16361,-100,4,2,1,100,0,0
22583,-62.5,4,2,1,100,0,0
22694,-250,4,2,1,100,0,0
23027,-62.5,4,2,1,100,0,0
23146,-250,4,2,1,100,0,0
23250,-100,4,2,1,100,0,0

[HitObjects]
64,192,2027,5,0,0:0:0:0:
192,192,2083,1,0,0:0:0:0:
320,192,2139,1,0,0:0:0:0:
448,192,2139,128,0,2694:0:0:0:0:
64,192,2694,1,0,0:0:0:0:
192,192,2750,1,0,0:0:0:0:
320,192,2805,1,0,0:0:0:0:
448,192,2805,128,0,5250:0:0:0:0:
192,192,4361,128,0,4583:0:0:0:0:
64,192,4583,128,0,4805:0:0:0:0:
320,192,5250,128,0,5694:0:0:0:0:
192,192,5694,128,0,6805:0:0:0:0:
64,192,6361,128,0,6805:0:0:0:0:
320,192,6805,128,0,7027:0:0:0:0:
448,192,7027,128,0,7250:0:0:0:0:
64,192,7250,128,0,8361:0:0:0:0:
192,192,7472,128,0,7916:0:0:0:0:
320,192,7916,128,0,8361:0:0:0:0:
448,192,8361,128,0,8805:0:0:0:0:
64,192,8805,128,0,9250:0:0:0:0:
192,192,9250,1,0,0:0:0:0:
320,192,9250,1,0,0:0:0:0:
448,192,9250,1,0,0:0:0:0:
448,192,9472,1,0,0:0:0:0:
448,192,9694,1,0,0:0:0:0:
448,192,9916,1,0,0:0:0:0:
320,192,10138,1,0,0:0:0:0:
64,192,10138,1,0,0:0:0:0:
192,192,10361,1,0,0:0:0:0:
192,192,10583,1,0,0:0:0:0:
64,192,10805,1,0,0:0:0:0:
192,192,11027,1,0,0:0:0:0:
192,192,11250,1,0,0:0:0:0:
192,192,11472,1,0,0:0:0:0:
192,192,11694,1,0,0:0:0:0:
320,192,11916,1,0,0:0:0:0:
448,192,11916,1,0,0:0:0:0:
64,192,12138,1,0,0:0:0:0:
64,192,12361,1,0,0:0:0:0:
64,192,12583,1,0,0:0:0:0:
320,192,12805,1,0,0:0:0:0:
192,192,12805,1,0,0:0:0:0:
64,192,12805,1,0,0:0:0:0:
448,192,13027,1,0,0:0:0:0:
448,192,13250,1,0,0:0:0:0:
448,192,13472,1,0,0:0:0:0:
320,192,13694,1,0,0:0:0:0:
64,192,13694,1,0,0:0:0:0:
192,192,13916,1,0,0:0:0:0:
192,192,14138,1,0,0:0:0:0:
448,192,14361,1,0,0:0:0:0:
64,192,14361,1,0,0:0:0:0:
192,192,14361,1,0,0:0:0:0:
192,192,14805,1,0,0:0:0:0:
320,192,14805,1,0,0:0:0:0:
192,192,15027,1,0,0:0:0:0:
320,192,15027,1,0,0:0:0:0:
192,192,15250,1,0,0:0:0:0:
320,192,15250,1,0,0:0:0:0:
192,192,15472,1,0,0:0:0:0:
320,192,15472,128,0,15916:0:0:0:0:
64,192,15916,1,0,0:0:0:0:
448,192,15916,1,0,0:0:0:0:
192,192,16361,1,0,0:0:0:0:
320,192,16361,128,0,16583:0:0:0:0:
64,192,16583,128,0,16805:0:0:0:0:
192,192,16805,1,0,0:0:0:0:
448,192,16805,1,0,0:0:0:0:
320,192,17027,1,0,0:0:0:0:
192,192,17138,1,0,0:0:0:0:
64,192,17250,1,0,0:0:0:0:
448,192,17250,128,0,17472:0:0:0:0:
320,192,17472,128,0,17694:0:0:0:0:
192,192,17694,1,0,0:0:0:0:
448,192,17694,1,0,0:0:0:0:
64,192,17916,1,0,0:0:0:0:
448,192,18027,1,0,0:0:0:0:
320,192,18138,1,0,0:0:0:0:
192,192,18138,128,0,18361:0:0:0:0:
448,192,18361,128,0,18583:0:0:0:0:
320,192,18583,1,0,0:0:0:0:
64,192,18583,1,0,0:0:0:0:
192,192,18805,1,0,0:0:0:0:
320,192,18916,1,0,0:0:0:0:
448,192,18916,1,0,0:0:0:0:
64,192,19027,1,0,0:0:0:0:
192,192,19138,1,0,0:0:0:0:
448,192,19138,1,0,0:0:0:0:
320,192,19250,128,0,19472:0:0:0:0:
192,192,19472,1,0,0:0:0:0:
64,192,19472,1,0,0:0:0:0:
448,192,19583,1,0,0:0:0:0:
320,192,19583,1,0,0:0:0:0:
192,192,19694,1,0,0:0:0:0:
64,192,19694,1,0,0:0:0:0:
320,192,19805,1,0,0:0:0:0:
448,192,19916,1,0,0:0:0:0:
192,192,19916,128,0,20138:0:0:0:0:
320,192,20138,128,0,20361:0:0:0:0:
448,192,20361,1,0,0:0:0:0:
64,192,20361,1,0,0:0:0:0:
320,192,20583,1,0,0:0:0:0:
192,192,20694,1,0,0:0:0:0:
448,192,20805,1,0,0:0:0:0:
64,192,20805,1,0,0:0:0:0:
320,192,21027,1,0,0:0:0:0:
192,192,21250,1,0,0:0:0:0:
64,192,21250,128,0,21472:0:0:0:0:
448,192,21472,128,0,21916:0:0:0:0:
320,192,21583,1,0,0:0:0:0:
64,192,21694,1,0,0:0:0:0:
192,192,21694,1,0,0:0:0:0:
64,192,21916,128,0,22138:0:0:0:0:
320,192,22138,1,0,0:0:0:0:
192,192,22138,128,0,22361:0:0:0:0:
64,192,22361,1,0,0:0:0:0:
320,192,22472,1,0,0:0:0:0:
448,192,22472,1,0,0:0:0:0:
192,192,22583,1,0,0:0:0:0:
64,192,22583,1,0,0:0:0:0:
64,192,23027,1,0,0:0:0:0:
448,192,23027,1,0,0:0:0:0:
192,192,23250,1,0,0:0:0:0:
320,192,23361,1,0,0:0:0:0:
448,192,23472,1,0,0:0:0:0:
192,192,23472,128,0,23694:0:0:0:0:
64,192,23472,1,0,0:0:0:0:
448,192,23694,128,0,23916:0:0:0:0:
320,192,23916,1,0,0:0:0:0:
64,192,23916,1,0,0:0:0:0:
192,192,24138,1,0,0:0:0:0:
320,192,24250,1,0,0:0:0:0:
448,192,24361,1,0,0:0:0:0:
64,192,24361,128,0,24583:0:0:0:0:
192,192,24583,128,0,24805:0:0:0:0:
320,192,24805,1,0,0:0:0:0:
64,192,24805,1,0,0:0:0:0:
448,192,25027,1,0,0:0:0:0:
64,192,25138,1,0,0:0:0:0:
192,192,25250,1,0,0:0:0:0:
320,192,25250,128,0,25472:0:0:0:0:
64,192,25472,128,0,25694:0:0:0:0:
192,192,25694,1,0,0:0:0:0:
448,192,25694,1,0,0:0:0:0:
320,192,25916,1,0,0:0:0:0:
192,192,26027,1,0,0:0:0:0:
64,192,26027,1,0,0:0:0:0:
448,192,26138,1,0,0:0:0:0:
320,192,26250,1,0,0:0:0:0:
64,192,26250,1,0,0:0:0:0:
192,192,26361,128,0,26583:0:0:0:0:
320,192,26583,1,0,0:0:0:0:
448,192,26583,1,0,0:0:0:0:
64,192,26694,1,0,0:0:0:0:
192,192,26694,1,0,0:0:0:0:
320,192,26805,1,0,0:0:0:0:
448,192,26805,1,0,0:0:0:0:
192,192,26916,1,0,0:0:0:0:
64,192,27027,1,0,0:0:0:0:
320,192,27027,128,0,27250:0:0:0:0:
448,192,27027,1,0,0:0:0:0:
192,192,27250,128,0,27472:0:0:0:0:
64,192,27472,1,0,0:0:0:0:
448,192,27472,1,0,0:0:0:0:
320,192,27694,1,0,0:0:0:0:
192,192,27805,1,0,0:0:0:0:
64,192,27916,1,0,0:0:0:0:
448,192,27916,1,0,0:0:0:0:
320,192,28138,1,0,0:0:0:0:
448,192,28361,128,0,28583:0:0:0:0:
192,192,28361,1,0,0:0:0:0:
64,192,28583,128,0,29027:0:0:0:0:
320,192,28583,1,0,0:0:0:0:
448,192,29027,128,0,29250:0:0:0:0:
320,192,29250,1,0,0:0:0:0:
192,192,29250,128,0,29472:0:0:0:0:
64,192,29472,1,0,0:0:0:0:
448,192,29583,1,0,0:0:0:0:
320,192,29583,1,0,0:0:0:0:
192,192,29694,1,0,0:0:0:0:
64,192,29694,128,0,30027:0:0:0:0:
448,192,29805,1,0,0:0:0:0:
320,192,29805,1,0,0:0:0:0:
320,192,30138,1,0,0:0:0:0:
448,192,30138,1,0,0:0:0:0:
192,192,30250,1,0,0:0:0:0:
64,192,30250,1,0,0:0:0:0:
320,192,30361,1,0,0:0:0:0:
448,192,30361,1,0,0:0:0:0:
192,192,30472,1,0,0:0:0:0:
320,192,30583,1,0,0:0:0:0:
448,192,30583,1,0,0:0:0:0:
64,192,30583,1,0,0:0:0:0:
320,192,31250,1,0,0:0:0:0:
448,192,31472,1,0,0:0:0:0:
192,192,31916,1,0,0:0:0:0:
64,192,32583,1,0,0:0:0:0:
64,192,32805,1,0,0:0:0:0:
320,192,33250,1,0,0:0:0:0:
192,192,34138,1,0,0:0:0:0:
320,192,34805,1,0,0:0:0:0:
448,192,35027,1,0,0:0:0:0:
192,192,35472,1,0,0:0:0:0:
192,192,35694,1,0,0:0:0:0:
64,192,36138,1,0,0:0:0:0:
64,192,36361,1,0,0:0:0:0:
448,192,36805,1,0,0:0:0:0:
192,192,37694,1,0,0:0:0:0:
320,192,38361,1,0,0:0:0:0:
448,192,38583,1,0,0:0:0:0:
64,192,39027,1,0,0:0:0:0:
320,192,39694,1,0,0:0:0:0:
320,192,39916,1,0,0:0:0:0:
448,192,40361,1,0,0:0:0:0:
192,192,41250,1,0,0:0:0:0:
64,192,41916,1,0,0:0:0:0:
448,192,42138,1,0,0:0:0:0:
192,192,42583,1,0,0:0:0:0:
192,192,42805,1,0,0:0:0:0:
448,192,44805,1,0,0:0:0:0:
320,192,44805,1,0,0:0:0:0:
64,192,44805,1,0,0:0:0:0:
192,192,45250,1,0,0:0:0:0:
320,192,45250,1,0,0:0:0:0:
64,192,45694,1,0,0:0:0:0:
192,192,46138,1,0,0:0:0:0:
448,192,46138,1,0,0:0:0:0:
320,192,46361,1,0,0:0:0:0:
320,192,46805,1,0,0:0:0:0:
448,192,47027,1,0,0:0:0:0:
192,192,47027,1,0,0:0:0:0:
320,192,47250,1,0,0:0:0:0:
64,192,47361,1,0,0:0:0:0:
192,192,47472,1,0,0:0:0:0:
448,192,47694,1,0,0:0:0:0:
320,192,47694,1,0,0:0:0:0:
320,192,47916,1,0,0:0:0:0:
448,192,47916,1,0,0:0:0:0:
64,192,47916,1,0,0:0:0:0:
192,192,48138,1,0,0:0:0:0:
64,192,48361,1,0,0:0:0:0:
320,192,48361,1,0,0:0:0:0:
192,192,48805,1,0,0:0:0:0:
448,192,48805,1,0,0:0:0:0:
320,192,49250,1,0,0:0:0:0:
64,192,49250,1,0,0:0:0:0:
192,192,49694,1,0,0:0:0:0:
448,192,49694,1,0,0:0:0:0:
320,192,49916,1,0,0:0:0:0:
320,192,50361,1,0,0:0:0:0:
448,192,50583,1,0,0:0:0:0:
64,192,50583,1,0,0:0:0:0:
192,192,50805,1,0,0:0:0:0:
320,192,51027,1,0,0:0:0:0:
192,192,51138,1,0,0:0:0:0:
64,192,51138,1,0,0:0:0:0:
448,192,51250,1,0,0:0:0:0:
320,192,51472,1,0,0:0:0:0:
64,192,51472,1,0,0:0:0:0:
448,192,51694,1,0,0:0:0:0:
320,192,51805,1,0,0:0:0:0:
192,192,51916,1,0,0:0:0:0:
64,192,51916,1,0,0:0:0:0:
448,192,52361,1,0,0:0:0:0:
64,192,52361,1,0,0:0:0:0:
320,192,52805,1,0,0:0:0:0:
192,192,52805,1,0,0:0:0:0:
192,192,53250,1,0,0:0:0:0:
448,192,53250,1,0,0:0:0:0:
320,192,53472,1,0,0:0:0:0:
64,192,53694,1,0,0:0:0:0:
448,192,53694,1,0,0:0:0:0:
192,192,53916,1,0,0:0:0:0:
320,192,54138,1,0,0:0:0:0:
448,192,54138,1,0,0:0:0:0:
192,192,54361,1,0,0:0:0:0:
448,192,54472,1,0,0:0:0:0:
64,192,54583,1,0,0:0:0:0:
320,192,54694,1,0,0:0:0:0:
448,192,54694,1,0,0:0:0:0:
192,192,54805,1,0,0:0:0:0:
192,192,55027,1,0,0:0:0:0:
64,192,55027,1,0,0:0:0:0:
320,192,55250,1,0,0:0:0:0:
448,192,55472,1,0,0:0:0:0:
64,192,55472,1,0,0:0:0:0:
192,192,55916,1,0,0:0:0:0:
320,192,55916,1,0,0:0:0:0:
448,192,56361,5,0,0:0:0:0:
64,192,56805,1,0,0:0:0:0:
192,192,56805,1,0,0:0:0:0:
320,192,57027,1,0,0:0:0:0:
448,192,57027,1,0,0:0:0:0:
64,192,57027,1,0,0:0:0:0:
448,192,57472,128,0,57694:0:0:0:0:
192,192,57694,128,0,57916:0:0:0:0:
320,192,57694,1,0,0:0:0:0:
64,192,57916,128,0,58138:0:0:0:0:
320,192,58138,128,0,58361:0:0:0:0:
448,192,58138,1,0,0:0:0:0:
448,192,58361,128,0,58583:0:0:0:0:
64,192,58583,1,0,0:0:0:0:
192,192,58583,128,0,58805:0:0:0:0:
320,192,58805,128,0,59027:0:0:0:0:
64,192,59027,1,0,0:0:0:0:
448,192,59027,1,0,0:0:0:0:
192,192,59472,1,0,0:0:0:0:
64,192,59916,128,0,60138:0:0:0:0:
320,192,60138,1,0,0:0:0:0:
192,192,60361,128,0,60583:0:0:0:0:
448,192,60583,1,0,0:0:0:0:
320,192,60805,128,0,61027:0:0:0:0:
64,192,61027,1,0,0:0:0:0:
448,192,61250,128,0,61472:0:0:0:0:
192,192,61472,1,0,0:0:0:0:
320,192,61694,128,0,61916:0:0:0:0:
64,192,61916,1,0,0:0:0:0:
320,192,62138,1,0,0:0:0:0:
448,192,62138,1,0,0:0:0:0:
64,192,65472,1,0,0:0:0:0:
192,192,65472,1,0,0:0:0:0:
320,192,65694,1,0,0:0:0:0:
448,192,65694,1,0,0:0:0:0:
64,192,65916,1,0,0:0:0:0:
192,192,66027,1,0,0:0:0:0:
320,192,66138,1,0,0:0:0:0:
448,192,66138,1,0,0:0:0:0:
448,192,69250,1,0,0:0:0:0:
320,192,69250,1,0,0:0:0:0:
192,192,69694,1,0,0:0:0:0:
64,192,69694,1,0,0:0:0:0:
448,192,70138,1,0,0:0:0:0:
64,192,70138,1,0,0:0:0:0:
192,192,70583,1,0,0:0:0:0:
320,192,70805,1,0,0:0:0:0:
448,192,70805,1,0,0:0:0:0:
64,192,71027,1,0,0:0:0:0:
192,192,71250,1,0,0:0:0:0:
320,192,71250,1,0,0:0:0:0:
448,192,71694,1,0,0:0:0:0:
64,192,71694,1,0,0:0:0:0:
64,192,71916,1,0,0:0:0:0:
448,192,71916,1,0,0:0:0:0:
192,192,72361,1,0,0:0:0:0:
320,192,72361,1,0,0:0:0:0:
320,192,72583,1,0,0:0:0:0:
192,192,72583,1,0,0:0:0:0:
64,192,73250,1,0,0:0:0:0:
448,192,73250,1,0,0:0:0:0:
320,192,73250,128,0,75916:0:0:0:0:
192,192,73472,1,0,0:0:0:0:
448,192,73694,1,0,0:0:0:0:
64,192,73694,1,0,0:0:0:0:
64,192,75805,1,0,0:0:0:0:
192,192,75916,128,0,76361:0:0:0:0:
448,192,75916,1,0,0:0:0:0:
64,192,76027,1,0,0:0:0:0:
320,192,76138,1,0,0:0:0:0:
448,192,76138,1,0,0:0:0:0:
448,192,76361,128,0,76805:0:0:0:0:
64,192,76805,128,0,79472:0:0:0:0:
192,192,79361,1,0,0:0:0:0:
448,192,79472,128,0,79916:0:0:0:0:
320,192,79472,1,0,0:0:0:0:
64,192,79583,1,0,0:0:0:0:
192,192,79694,1,0,0:0:0:0:
320,192,79694,1,0,0:0:0:0:
192,192,79916,128,0,80361:0:0:0:0:
64,192,79916,1,0,0:0:0:0:
320,192,80138,1,0,0:0:0:0:
64,192,80250,1,0,0:0:0:0:
320,192,80361,128,0,83027:0:0:0:0:
448,192,80361,1,0,0:0:0:0:
64,192,83027,128,0,83472:0:0:0:0:
448,192,83472,128,0,83916:0:0:0:0:
192,192,83916,128,0,85694:0:0:0:0:
320,192,85694,5,0,0:0:0:0:
320,192,85916,5,0,0:0:0:0:
448,192,85916,1,0,0:0:0:0:
64,192,85916,1,0,0:0:0:0:
192,192,86138,1,0,0:0:0:0:
64,192,86138,1,0,0:0:0:0:
448,192,86361,1,0,0:0:0:0:
320,192,86583,1,0,0:0:0:0:
64,192,86805,1,0,0:0:0:0:
192,192,86916,1,0,0:0:0:0:
320,192,87027,1,0,0:0:0:0:
448,192,87027,1,0,0:0:0:0:
64,192,87250,1,0,0:0:0:0:
192,192,87250,1,0,0:0:0:0:
448,192,87472,1,0,0:0:0:0:
320,192,87472,1,0,0:0:0:0:
64,192,87472,1,0,0:0:0:0:
192,192,87916,1,0,0:0:0:0:
320,192,87916,1,0,0:0:0:0:
