osu file format v14

[General]
AudioFilename: audio.mp3
AudioLeadIn: 0
PreviewTime: 54107
Countdown: 0
SampleSet: Soft
StackLeniency: 0.4
Mode: 0
LetterboxInBreaks: 0
WidescreenStoryboard: 1

[Editor]
DistanceSpacing: 0.8
BeatDivisor: 4
GridSize: 32
TimelineZoom: 1.5

[Metadata]
Title:Houkago no Liberty (TV Size)
TitleUnicode:放課後のリバティ (TV Size)
Artist:halca
ArtistUnicode:halca
Creator:dkblaze
Version:nautzz's Advanced
Source:ぼくたちは勉強ができない!
Tags:Shizuku- nautzz Kowari Asuka_- We can't study bokutachi wa benkyou ga dekinai bokuben cant never learn S2 Season 2 ending ed jpop j pop anime japanese 古橋文乃 furuhashi fumino 緒方理珠 ogata rizu 武元うるか takemoto uruka
BeatmapID:2348597
BeatmapSetID:1078714

[Difficulty]
HPDrainRate:3.5
CircleSize:3.5
OverallDifficulty:5.2
ApproachRate:7
SliderMultiplier:1.6
SliderTickRate:1

[Events]
//Background and Video events
0,0,"BG.png",0,0
Video,-120,"bokuben.mp4"
//Break Periods
//Storyboard Layer 0 (Background)
//Storyboard Layer 1 (Fail)
//Storyboard Layer 2 (Pass)
//Storyboard Layer 3 (Foreground)
//Storyboard Layer 4 (Overlay)
//Storyboard Sound Samples

[TimingPoints]
-643,428.571428571429,4,2,2,60,1,0
428,-100,4,2,2,60,0,0
1071,-100,4,2,2,60,0,0
7928,-100,4,2,2,75,0,0
16499,-111.111111111111,4,2,2,70,0,0
40499,-111.111111111111,4,2,2,60,0,0
47357,-100,4,2,2,65,0,0
50785,-100,4,2,2,70,0,0
54214,-83.3333333333333,4,2,2,80,0,1
78214,-100,4,2,2,70,0,0

[Colours]
Combo1 : 202,99,94
Combo2 : 106,131,244
Combo3 : 251,173,121

[HitObjects]
0,384,1071,6,0,P|26:362|67:316,1,80,2|2,3:2|0:0,0:0:0:0:
136,273,1499,2,0,L|149:351,1,80,2|2,3:2|0:0,0:0:0:0:
193,373,1821,2,0,P|233:334|296:313,1,120,2|10,3:2|0:0,0:0:0:0:
382,350,2357,1,10,3:2:0:0:
382,350,2571,1,10,0:0:0:0:
451,283,2785,6,0,P|455:249|451:186,1,80,2|10,3:2|0:0,0:0:0:0:
500,119,3214,2,0,P|461:85|421:105,1,80,10|2,3:2|0:0,0:0:0:0:
405,126,3536,2,0,P|364:164|301:186,1,120,2|10,3:2|0:0,0:0:0:0:
273,94,4071,2,0,L|233:87,3,40,10|8|10|8,0:0|0:0|0:0|0:0,0:0:0:0:
206,47,4499,6,0,P|172:43|110:47,1,80,2|2,3:2|0:0,0:0:0:0:
74,125,4928,2,0,P|113:123|153:127,1,80,2|2,3:2|0:0,0:0:0:0:
166,173,5249,2,0,P|204:213|226:276,1,120,2|8,3:2|0:0,0:0:0:0:
170,352,5785,1,14,0:0:0:0:
170,352,5999,1,2,0:0:0:0:
75,373,6214,6,0,P|71:339|75:277,1,80,10|10,0:0|0:0,0:0:0:0:
120,209,6643,2,0,P|169:232|183:259,1,80,10|6,3:2|0:3,0:0:0:0:
224,273,6964,2,0,L|342:252,1,120,2|10,3:2|0:0,0:0:0:0:
436,235,7499,1,14,0:0:0:0:
506,56,7928,5,4,3:2:0:0:
416,20,8142,1,10,0:0:0:0:
355,95,8357,2,0,P|315:119|259:95,1,80,2|8,3:2|0:0,0:0:0:0:
223,40,8785,2,0,P|185:83|202:158,1,120,2|2,0:0|0:0,0:0:0:0:
289,246,9428,2,0,L|210:259,1,80,10|0,0:0|3:0,0:0:0:0:
128,209,9857,5,10,0:0:0:0:
45,159,10071,2,0,P|21:199|45:255,1,80,2|8,3:2|0:0,0:0:0:0:
29,326,10499,2,0,P|82:304|147:346,1,120,2|2,0:0|0:0,0:0:0:0:
217,278,11035,2,0,P|235:298|231:329,1,40,10|6,0:0|0:3,0:0:0:0:
299,383,11357,6,0,L|377:369,1,80,4|10,3:2|0:0,0:0:0:0:
472,351,11785,1,2,3:2:0:0:
490,256,11999,2,0,L|496:216,1,40,10|2,0:0|3:2,0:0:0:0:
452,79,12428,6,0,L|373:92,1,80,10|2,0:0|3:2,0:0:0:0:
345,185,12857,2,0,L|305:191,1,40,10|2,0:0|3:2,0:0:0:0:
217,78,13285,5,10,0:0:0:0:
146,13,13499,2,0,L|67:0,1,80,10|10,0:0|0:0,0:0:0:0:
25,23,13821,2,0,P|68:78|55:154,1,120,6|8,3:2|0:0,0:0:0:0:
4,198,14357,2,0,L|11:238,3,40,8|6|6|6,0:0|0:3|0:3|0:3,0:0:0:0:
17,284,14785,5,10,0:0:0:0:
180,384,15214,1,10,0:0:0:0:
264,267,15535,2,0,P|307:211|294:136,1,120,2|10,3:2|0:0,0:0:0:0:
223,117,16071,2,0,L|216:77,3,40,14|2|2|2,0:0|0:0|0:0|0:0,0:0:0:0:
228,31,16499,6,0,P|260:2|315:15,1,71.9999978027344,2|2,3:2|3:2,0:0:0:0:
326,77,16928,2,0,L|405:81,1,71.9999978027344,10|2,0:0|3:2,0:0:0:0:
454,146,17357,2,0,L|494:148,3,35.9999989013672,2|2|0|2,3:2|0:0|0:0|3:2,0:0:0:0:
459,273,17999,6,0,P|435:236|321:252,1,143.999995605469,10|2,0:0|3:2,0:0:0:0:
284,296,18642,2,0,P|243:286|223:235,1,71.9999978027344,10|2,0:0|0:0,0:0:0:0:
230,219,18964,2,0,L|236:94,1,107.999996704102,2|6,0:0|3:2,0:0:0:0:
239,24,19499,1,2,0:0:0:0:
239,24,19714,1,2,0:0:0:0:
155,3,19928,6,0,P|113:15|97:69,1,71.9999978027344,0|2,3:0|3:2,0:0:0:0:
7,40,20357,2,0,L|10:114,1,71.9999978027344,10|2,0:0|3:2,0:0:0:0:
75,169,20786,2,0,L|115:167,3,35.9999989013672,2|2|0|2,3:2|0:0|0:0|3:2,0:0:0:0:
29,267,21428,6,0,P|114:270|146:348,1,143.999995605469,10|2,0:0|3:2,0:0:0:0:
206,373,22071,2,0,P|238:345|235:291,1,71.9999978027344,10|2,0:0|3:2,0:0:0:0:
221,281,22393,2,0,L|346:275,1,107.999996704102,14|2,0:0|3:2,0:0:0:0:
393,333,22928,1,10,0:0:0:0:
393,333,23142,1,2,3:2:0:0:
450,268,23357,6,0,P|430:231|456:185,1,71.9999978027344,4|2,3:2|0:0,0:0:0:0:
466,121,23786,2,0,L|387:125,1,71.9999978027344,10|2,0:0|3:2,0:0:0:0:
311,151,24215,2,0,L|309:111,3,35.9999989013672,2|2|0|10,3:2|0:0|0:0|0:0,0:0:0:0:
234,9,24857,6,0,P|202:87|117:91,1,143.999995605469,2|2,3:2|3:2,0:0:0:0:
88,40,25500,2,0,P|45:51|24:102,1,71.9999978027344,10|2,0:0|0:0,0:0:0:0:
55,106,25822,2,0,L|61:231,1,107.999996704102,2|10,0:0|3:2,0:0:0:0:
65,300,26357,1,2,0:0:0:0:
65,300,26571,1,2,0:0:0:0:
140,258,26785,6,0,P|179:270|194:320,1,71.9999978027344,0|2,3:0|3:2,0:0:0:0:
276,322,27214,2,0,L|272:243,1,71.9999978027344,10|2,0:0|3:2,0:0:0:0:
212,187,27643,2,0,L|210:147,3,35.9999989013672,10|2|0|2,0:0|0:0|3:0|0:0,0:0:0:0:
241,25,28285,6,0,P|303:82|381:50,1,143.999995605469,14|2,0:0|3:2,0:0:0:0:
439,97,28928,2,0,P|460:133|439:184,1,71.9999978027344,14|2,0:0|3:2,0:0:0:0:
427,193,29250,2,0,L|302:199,1,107.999996704102,14|0,0:0|3:0,0:0:0:0:
261,262,29785,1,10,0:0:0:0:
261,262,29999,1,0,3:0:0:0:
191,209,30214,6,0,P|182:161|242:119,2,107.999996704102,6|2|2,3:2|3:2|3:2,0:0:0:0:
322,321,31285,1,2,3:2:0:0:
379,256,31499,2,0,L|375:176,1,71.9999978027344,10|2,0:0|0:0,0:0:0:0:
404,151,31821,2,0,L|397:29,1,107.999996704102,2|2,0:0|3:2,0:0:0:0:
314,67,32357,2,0,P|276:45|225:67,1,71.9999978027344,10|2,0:0|0:0,0:0:0:0:
214,23,32678,2,0,P|188:37|205:119,1,107.999996704102,2|10,3:2|0:0,0:0:0:0:
216,190,33214,2,0,L|176:192,3,35.9999989013672,10|4|4|0,0:0|0:3|0:3|0:0,0:0:0:0:
142,212,33642,6,0,P|114:171|42:184,2,107.999996704102,2|2|14,3:2|3:2|3:2,0:0:0:0:
25,340,34714,1,2,3:2:0:0:
120,334,34928,2,0,L|203:329,1,71.9999978027344,10|6,0:0|0:3,0:0:0:0:
209,290,35249,2,0,P|271:299|329:326,1,107.999996704102,6|10,0:3|0:0,0:0:0:0:
377,373,35785,2,0,P|405:339|392:283,1,71.9999978027344,10|2,0:0|3:2,0:0:0:0:
386,275,36107,2,0,L|379:155,1,107.999996704102,10|14,0:0|0:0,0:0:0:0:
465,155,36642,2,0,L|463:119,3,35.9999989013672,2|8|8|8,3:2|0:0|3:2|0:0,0:0:0:0:
461,75,37071,6,0,P|434:33|362:46,1,107.999996704102,6|6,3:2|3:2,0:0:0:0:
252,6,37714,2,0,L|256:86,1,71.9999978027344,14|0,3:2|0:0,0:0:0:0:
258,164,38142,1,10,0:0:0:0:
184,119,38356,2,0,L|104:123,1,71.9999978027344,10|2,0:0|3:2,0:0:0:0:
80,92,38678,2,0,L|86:219,1,107.999996704102,10|10,0:0|3:2,0:0:0:0:
47,278,39214,2,0,P|90:280|120:329,1,71.9999978027344,10|10,0:0|0:0,0:0:0:0:
145,285,39535,2,0,P|133:311|199:364,1,107.999996704102,2|10,3:2|0:0,0:0:0:0:
246,313,40071,2,0,L|253:274,3,35.9999989013672,10|8|4|4,0:3|0:0|0:3|0:3,0:0:0:0:
288,254,40499,6,0,P|273:218|340:125,1,143.999995605469,6|8,3:2|0:0,0:0:0:0:
393,177,41142,1,2,0:0:0:0:
466,222,41357,2,0,L|486:340,2,107.999996704102,2|2|2,3:2|0:0|0:0,0:0:0:0:
511,148,42214,2,0,L|490:29,2,107.999996704102,2|2|2,3:2|0:0|0:0,0:0:0:0:
466,222,43071,2,0,P|435:283|337:286,1,143.999995605469,2|8,3:0|3:2,0:0:0:0:
301,242,43714,1,2,0:0:0:0:
301,242,43928,6,0,P|318:207|259:107,1,143.999995605469,2|8,3:0|0:0,0:0:0:0:
206,162,44571,1,2,0:0:0:0:
132,116,44786,2,0,L|14:136,2,107.999996704102,2|2|2,3:2|0:0|0:0,0:0:0:0:
175,41,45642,2,0,L|294:20,2,107.999996704102,6|2|2,3:2|0:0|0:0,0:0:0:0:
221,114,46500,2,0,P|280:129|310:123,1,71.9999978027344,2|8,3:2|0:3,0:0:0:0:
346,193,46928,2,0,P|403:158|421:131,1,71.9999978027344,14|4,3:0|0:3,0:0:0:0:
485,103,47357,6,0,L|500:185,1,80,6|8,3:2|0:0,0:0:0:0:
507,229,47678,1,2,0:0:0:0:
419,343,47999,1,6,0:3:0:0:
331,301,48214,6,0,L|212:321,2,120,6|2|10,3:2|3:2|0:3,0:0:0:0:
344,207,49071,6,0,L|427:193,1,80,6|8,3:2|0:0,0:0:0:0:
470,185,49392,1,2,0:0:0:0:
380,71,49714,1,10,0:3:0:0:
296,117,49928,6,0,L|276:-2,2,120,6|14|10,3:2|0:0|0:0,0:0:0:0:
240,195,50785,2,0,P|199:139|38:124,1,240,6|10,3:2|0:0,0:0:0:0:
81,209,51642,2,0,L|41:215,3,40,2|8|8|10,3:2|0:0|0:0|0:0,0:0:0:0:
120,237,52071,2,0,L|159:230,3,40,0|8|10|8,3:0|0:0|0:0|0:0,0:0:0:0:
93,277,52499,1,6,3:2:0:0:
256,384,52928,5,2,0:0:0:0:
256,192,53357,1,2,3:2:0:0:
424,280,53785,2,0,P|439:253|419:181,1,80,10|10,0:0|0:0,0:0:0:0:
371,121,54214,6,0,L|464:104,1,95.9999970703126,6|10,3:2|0:0,0:0:0:0:
512,9,54642,1,2,3:2:0:0:
512,9,54857,1,10,0:0:0:0:
407,0,55071,2,0,P|387:14|364:19,1,47.9999985351563,2|2,0:0|3:2,0:0:0:0:
287,91,55392,2,0,P|216:82|164:34,1,143.999995605469,2|10,0:0|0:0,0:0:0:0:
63,2,55928,6,0,L|43:108,1,95.9999970703126,0|10,3:0|0:0,0:0:0:0:
23,199,56356,1,2,3:2:0:0:
23,199,56571,1,10,0:0:0:0:
70,293,56785,2,0,P|92:276|119:270,1,47.9999985351563,2|2,0:0|3:2,0:0:0:0:
147,171,57107,2,0,P|214:191|257:247,1,143.999995605469,2|10,0:0|0:0,0:0:0:0:
187,325,57642,6,0,P|203:357|269:383,1,95.9999970703126,0|10,3:0|0:0,0:0:0:0:
355,349,58071,2,0,L|346:253,1,95.9999970703126,2|10,3:2|0:0,0:0:0:0:
365,204,58392,2,0,P|419:214|480:156,1,143.999995605469,2|10,3:2|0:0,0:0:0:0:
381,119,58928,6,0,P|348:101|322:35,1,95.9999970703126,2|10,3:2|0:0,0:0:0:0:
347,3,59249,2,0,L|203:10,1,143.999995605469,6|10,3:2|0:0,0:0:0:0:
115,70,59785,6,0,P|133:103|199:129,1,95.9999970703126,2|10,3:2|0:0,0:0:0:0:
225,88,60106,2,0,L|217:231,1,143.999995605469,6|10,3:2|0:0,0:0:0:0:
101,223,60642,2,0,L|93:175,3,47.9999985351563,10|8|10|8,0:0|0:0|0:0|0:0,0:0:0:0:
43,158,61071,6,0,L|59:252,1,95.9999970703126,6|10,3:2|0:0,0:0:0:0:
75,356,61499,1,2,3:2:0:0:
75,356,61714,1,10,0:0:0:0:
159,293,61928,2,0,P|179:273|189:249,1,47.9999985351563,2|2,0:0|3:2,0:0:0:0:
202,151,62249,2,0,P|252:171|300:268,1,143.999995605469,2|10,0:0|0:0,0:0:0:0:
245,337,62785,6,0,L|338:353,1,95.9999970703126,0|10,3:0|0:0,0:0:0:0:
443,372,63213,1,2,3:2:0:0:
443,372,63428,1,10,0:0:0:0:
389,281,63642,2,0,P|409:265|433:260,1,47.9999985351563,2|2,0:0|3:2,0:0:0:0:
509,190,63963,2,0,P|476:154|384:144,1,143.999995605469,2|10,0:0|0:0,0:0:0:0:
310,219,64499,6,0,L|292:121,1,95.9999970703126,4|10,3:2|0:0,0:0:0:0:
274,20,64927,1,2,3:2:0:0:
200,96,65142,2,0,P|176:92|157:80,1,47.9999985351563,10|6,0:0|3:2,0:0:0:0:
18,0,65571,6,0,L|1:94,1,95.9999970703126,10|2,0:0|3:2,0:0:0:0:
70,173,65999,2,0,L|85:88,1,47.9999985351563,10|6,0:0|3:2,0:0:0:0:
53,282,66428,1,10,0:0:0:0:
120,363,66642,6,0,P|157:335|209:337,1,95.9999970703126,2|10,3:2|0:0,0:0:0:0:
236,292,66964,2,0,P|264:329|356:334,1,143.999995605469,6|8,3:2|0:0,0:0:0:0:
409,244,67499,2,0,L|401:196,3,47.9999985351563,8|4|4|4,0:0|0:3|0:3|0:3,0:0:0:0:
355,171,67928,6,0,P|322:184|238:124,1,143.999995605469,6|2,0:2|0:0,0:0:0:0:
355,20,68571,1,10,0:0:0:0:
355,20,68785,2,0,P|412:22|474:90,1,143.999995605469,2|2,0:0|0:0,0:0:0:0:
507,234,69428,1,10,0:0:0:0:
507,234,69642,2,0,P|467:258|450:329,1,95.9999970703126,2|8,3:2|0:0,0:0:0:0:
371,375,70071,2,0,L|272:358,1,95.9999970703126,0|10,3:0|0:0,0:0:0:0:
173,382,70499,6,0,P|132:338|119:287,1,95.9999970703126,2|8,0:0|0:0,0:0:0:0:
15,289,70928,2,0,P|16:230|43:183,1,95.9999970703126,2|8,3:2|0:0,0:0:0:0:
136,150,71357,6,0,P|103:163|22:104,1,143.999995605469,6|2,3:2|0:0,0:0:0:0:
190,64,72000,1,10,0:0:0:0:
190,64,72214,2,0,P|229:106|225:198,1,143.999995605469,2|2,0:0|0:0,0:0:0:0:
65,243,72857,1,10,0:0:0:0:
65,243,73071,2,0,P|122:245|184:313,1,143.999995605469,2|2,3:2|0:0,0:0:0:0:
336,380,73714,1,10,0:0:0:0:
336,380,73928,2,0,P|376:336|381:286,1,95.9999970703126,10|8,0:0|0:0,0:0:0:0:
323,190,74357,2,0,L|276:198,3,47.9999985351563,6|4|10|4,3:3|0:3|0:0|0:3,0:0:0:0:
239,242,74785,6,0,L|227:94,1,143.999995605469,6|2,3:2|0:0,0:0:0:0:
369,0,75428,1,10,0:0:0:0:
369,0,75642,2,0,L|515:12,1,143.999995605469,2|2,0:0|0:0,0:0:0:0:
365,102,76285,1,10,0:0:0:0:
365,102,76499,6,0,P|405:145|410:196,1,95.9999970703126,6|8,3:2|0:0,0:0:0:0:
296,175,76928,2,0,P|294:233|261:273,1,95.9999970703126,2|0,3:2|3:0,0:0:0:0:
189,342,77357,2,0,L|183:285,3,47.9999985351563,10|0|4|4,0:0|3:0|0:3|0:3,0:0:0:0:
177,241,77785,2,0,L|165:145,1,95.9999970703126,14|0,0:0|0:0,0:0:0:0:
79,100,78214,6,0,P|38:100|-8:140,1,80,2|2,3:2|0:0,0:0:0:0:
12,215,78642,2,0,L|-1:293,1,80,2|2,3:2|0:0,0:0:0:0:
14,339,78964,2,0,P|68:325|133:338,1,120,2|8,3:2|0:0,0:0:0:0:
214,383,79500,1,10,3:2:0:0:
214,383,79714,1,2,0:0:0:0:
297,336,79928,6,0,P|301:302|297:239,1,80,10|10,3:2|0:0,0:0:0:0:
209,222,80357,2,0,P|182:177|208:141,1,80,10|2,3:2|3:2,0:0:0:0:
165,114,80679,2,0,P|206:76|269:54,1,120,10|10,0:0|0:0,0:0:0:0:
349,8,81214,2,0,L|356:48,3,40,2|8|8|8,3:2|0:0|0:0|0:0,0:0:0:0:
340,92,81642,6,0,P|336:126|340:188,1,80,2|2,3:2|0:0,0:0:0:0:
430,196,82071,2,0,P|432:235|428:275,1,80,2|2,3:2|0:0,0:0:0:0:
465,305,82392,2,0,P|414:327|347:326,1,120,2|8,3:2|0:0,0:0:0:0:
261,290,82928,1,14,0:0:0:0:
261,290,83142,1,2,0:0:0:0:
201,214,83357,6,0,P|167:210|105:214,1,80,14|10,3:2|0:0,0:0:0:0:
85,300,83786,2,0,P|48:270|18:269,1,80,10|6,0:0|0:3,0:0:0:0:
1,223,84107,2,0,P|27:173|28:103,1,120,2|10,3:2|3:2,0:0:0:0:
0,19,84642,1,14,0:0:0:0:
164,118,85071,6,0,P|160:84|164:22,1,80,2|10,3:2|0:0,0:0:0:0:
251,3,85500,2,0,P|253:42|249:82,1,80,10|10,3:2|0:0,0:0:0:0:
254,130,85821,2,0,P|294:92|357:70,1,120,6|8,3:2|0:0,0:0:0:0:
444,103,86357,1,10,0:0:0:0:
444,103,86571,1,10,0:0:0:0:
497,183,86785,6,0,P|501:217|497:279,1,80,14|10,3:2|3:2,0:0:0:0:
406,236,87214,2,0,P|383:187|356:173,1,80,2|10,3:2|0:3,0:0:0:0:
319,198,87536,2,0,L|298:316,1,120,6|10,3:2|3:2,0:0:0:0:
225,378,88071,1,10,3:2:0:0:
193,287,88285,2,0,P|160:200|69:213,1,200,6|0,3:2|0:0,0:0:0:0:
61,261,88928,2,0,L|22:268,2,40,8|8|6,0:0|0:0|3:2,0:0:0:0:
