osu file format v14

[General]
AudioFilename: audio.mp3
AudioLeadIn: 0
PreviewTime: 54107
Countdown: 0
SampleSet: Soft
StackLeniency: 0.4
Mode: 0
LetterboxInBreaks: 0
WidescreenStoryboard: 1

[Editor]
DistanceSpacing: 0.8
BeatDivisor: 4
GridSize: 32
TimelineZoom: 1.5

[Metadata]
Title:Houkago no Liberty (TV Size)
TitleUnicode:放課後のリバティ (TV Size)
Artist:halca
ArtistUnicode:halca
Creator:dkblaze
Version:Kowari's Hard
Source:ぼくたちは勉強ができない!
Tags:Shizuku- nautzz Kowari Asuka_- We can't study bokutachi wa benkyou ga dekinai bokuben cant never learn S2 Season 2 ending ed jpop j pop anime japanese 古橋文乃 furuhashi fumino 緒方理珠 ogata rizu 武元うるか takemoto uruka
BeatmapID:2264555
BeatmapSetID:1078714

[Difficulty]
HPDrainRate:4
CircleSize:4
OverallDifficulty:6.5
ApproachRate:8
SliderMultiplier:1.8
SliderTickRate:1

[Events]
//Background and Video events
0,0,"BG.png",0,0
Video,-120,"bokuben.mp4"
//Break Periods
//Storyboard Layer 0 (Background)
//Storyboard Layer 1 (Fail)
//Storyboard Layer 2 (Pass)
//Storyboard Layer 3 (Foreground)
//Storyboard Layer 4 (Overlay)
//Storyboard Sound Samples

[TimingPoints]
-643,428.571428571429,4,2,2,60,1,0
428,-100,4,2,2,60,0,0
1071,-125,4,2,2,60,0,0
7820,-125,4,2,2,5,0,0
7928,-100,4,2,2,75,0,0
16392,-100,4,2,2,5,0,0
16499,-111.111111111111,4,2,2,70,0,0
16928,-111.111111111111,4,2,2,70,0,0
19178,-111.111111111111,4,2,2,70,0,0
19285,-111.111111111111,4,2,2,70,0,0
19821,-111.111111111111,4,2,2,70,0,0
19928,-111.111111111111,4,2,2,70,0,0
20356,-111.111111111111,4,2,2,70,0,0
23035,-111.111111111111,4,2,2,70,0,0
23142,-111.111111111111,4,2,2,70,0,0
26785,-111.111111111111,4,2,2,70,0,0
26999,-111.111111111111,4,2,2,70,0,0
27106,-111.111111111111,4,2,2,70,0,0
27214,-111.111111111111,4,2,2,70,0,0
30214,-111.111111111111,4,2,2,70,0,0
36321,-111.111111111111,4,2,2,70,0,0
36428,-111.111111111111,4,2,2,70,0,0
40499,-111.111111111111,4,2,2,60,0,0
47357,-111.111111111111,4,2,2,65,0,0
49928,-83.3333333333333,4,2,2,65,0,0
50142,-83.3333333333333,4,2,2,65,0,0
50249,-83.3333333333333,4,2,2,65,0,0
50463,-83.3333333333333,4,2,2,65,0,0
50571,-83.3333333333333,4,2,2,65,0,0
50678,-83.3333333333333,4,2,2,65,0,0
50785,-100,4,2,2,70,0,0
52499,-83.3333333333333,4,2,2,70,0,0
53357,-111.111111111111,4,2,2,70,0,0
53571,-111.111111111111,4,2,2,60,0,0
53678,-111.111111111111,4,2,2,70,0,0
53785,-76.9230769230769,4,2,2,70,0,0
54214,-83.3333333333333,4,2,2,80,0,1
78214,-125,4,2,2,70,0,0
85071,-111.111111111111,4,2,2,70,0,0

[Colours]
Combo1 : 202,99,94
Combo2 : 106,131,244
Combo3 : 251,173,121

[HitObjects]
16,260,1071,6,0,L|176:234,1,144,2|2,3:2|3:2,0:0:0:0:
240,227,1714,1,2,0:0:0:0:
240,227,1821,2,0,P|271:271|254:332,1,108,2|10,3:2|0:0,0:0:0:0:
327,366,2357,2,0,L|386:357,3,36,10|8|10|8,3:2|0:0|0:0|0:0,0:0:0:0:
401,355,2785,6,0,L|413:273,2,72,2|10|10,3:2|0:0|3:2,0:0:0:0:
347,233,3428,1,2,0:0:0:0:
347,233,3535,2,0,P|339:196|391:139,1,108,2|10,3:2|0:0,0:0:0:0:
453,83,4071,1,10,0:0:0:0:
453,83,4178,1,8,0:0:0:0:
453,83,4285,2,0,L|395:72,1,36,10|8,0:0|0:0,0:0:0:0:
394,43,4499,6,0,B|335:38|335:38|310:57|310:57|241:58,1,144,2|2,3:2|3:2,0:0:0:0:
198,11,5142,1,2,0:0:0:0:
198,11,5249,2,0,B|165:58|165:58|198:106,1,108,2|8,3:2|0:0,0:0:0:0:
254,151,5785,2,0,L|240:264,1,108,14|0,0:0|0:0,0:0:0:0:
246,297,6214,6,0,P|282:317|329:306,2,72,10|10|10,0:0|0:0|3:2,0:0:0:0:
170,241,6857,1,6,0:3:0:0:
170,241,6964,2,0,P|133:218|91:228,1,72,2|0,3:2|0:0,0:0:0:0:
75,245,7285,1,10,0:0:0:0:
27,181,7499,2,0,B|47:115|47:115|19:72,1,108,14|0,0:0|0:0,0:0:0:0:
1,38,7928,6,0,P|46:17|102:32,1,90,4|10,3:2|0:0,0:0:0:0:
146,100,8357,2,0,L|133:204,1,90,2|8,3:2|0:0,0:0:0:0:
220,248,8785,1,2,0:0:0:0:
220,248,8892,1,2,3:2:0:0:
314,216,9107,2,0,P|335:167|286:83,1,135,2|10,0:0|0:0,0:0:0:0:
368,18,9642,6,0,L|471:11,1,90,0|10,3:0|0:0,0:0:0:0:
502,100,10071,2,0,B|514:147|514:147|491:195,1,90,2|8,3:2|0:0,0:0:0:0:
416,243,10499,1,2,0:0:0:0:
416,243,10607,1,2,3:2:0:0:
317,232,10821,1,2,0:0:0:0:
303,332,11035,1,10,0:0:0:0:
303,332,11142,2,0,L|246:324,1,45,6|4,0:3|0:3,0:0:0:0:
209,318,11357,6,0,P|194:280|212:225,1,90,4|10,3:2|0:0,0:0:0:0:
276,165,11785,1,2,3:2:0:0:
191,125,11999,1,10,0:0:0:0:
191,125,12107,2,0,L|87:134,1,90,2|0,3:2|3:0,0:0:0:0:
52,136,12428,1,10,0:0:0:0:
99,222,12642,1,2,3:2:0:0:
25,288,12857,5,10,0:0:0:0:
25,288,12964,2,0,B|8:332|8:332|36:383,1,90,2|0,3:2|3:0,0:0:0:0:
76,383,13285,1,10,0:0:0:0:
151,318,13499,2,0,L|195:325,1,45,10|4,0:0|0:3,0:0:0:0:
238,348,13714,1,10,0:0:0:0:
238,348,13821,2,0,B|292:343|292:343|314:324|314:324|389:318,1,135,6|8,3:2|0:0,0:0:0:0:
441,255,14357,1,8,0:0:0:0:
437,232,14464,1,6,0:3:0:0:
434,210,14571,2,0,L|429:159,1,45,6|6,0:3|0:3,0:0:0:0:
428,146,14785,5,10,0:0:0:0:
221,142,15214,1,10,0:0:0:0:
325,35,15535,2,0,P|346:83|326:132,1,90,2|8,3:2|0:0,0:0:0:0:
299,150,15857,2,0,L|306:203,1,45,10|8,0:0|0:0,0:0:0:0:
319,241,16071,2,0,B|372:239|372:239|397:222|397:222|459:222,1,135,14|2,0:0|0:0,0:0:0:0:
493,222,16499,5,2,3:2:0:0:
459,304,16714,2,0,L|509:315,2,40.4999987640381,2|0|10,3:2|0:0|0:0,0:0:0:0:
385,253,17142,1,2,3:2:0:0:
304,287,17357,1,2,3:2:0:0:
304,287,17464,2,0,P|318:330|305:362,1,80.9999975280763,2|2,0:0|3:2,0:0:0:0:
173,384,17999,6,0,P|137:320|203:248,1,161.999995056153,10|2,0:0|3:2,0:0:0:0:
251,197,18642,1,10,0:0:0:0:
192,136,18857,1,2,0:0:0:0:
192,136,18964,2,0,L|104:149,1,80.9999975280763,2|0,0:0|0:0,0:0:0:0:
69,134,19285,2,0,P|35:162|29:215,1,80.9999975280763,6|2,3:2|0:0,0:0:0:0:
9,238,19607,2,0,P|28:278|78:296,1,80.9999975280763,4|0,3:2|0:0,0:0:0:0:
102,286,19928,5,0,3:0:0:0:
181,246,20142,2,0,L|172:192,2,40.4999987640381,2|0|10,3:2|3:0|0:0,0:0:0:0:
231,319,20571,1,2,3:2:0:0:
303,265,20785,1,2,3:2:0:0:
303,265,20892,2,0,L|311:176,1,80.9999975280763,2|2,0:0|3:2,0:0:0:0:
400,85,21428,6,0,B|446:50|446:50|417:164,1,161.999995056153,10|2,0:0|3:2,0:0:0:0:
452,234,22071,1,10,0:0:0:0:
380,346,22392,2,0,B|315:335|349:301|263:297,1,121.499996292114,14|2,0:0|3:2,0:0:0:0:
216,247,22928,1,10,0:0:0:0:
216,247,23035,1,0,3:0:0:0:
216,247,23142,2,0,L|207:202,1,40.4999987640381,2|8,3:2|0:0,0:0:0:0:
199,163,23357,5,4,3:2:0:0:
125,113,23571,2,0,L|76:127,1,40.4999987640381,2|0,0:0|3:0,0:0:0:0:
44,141,23785,2,0,P|18:103|20:63,1,80.9999975280763,10|2,0:0|3:2,0:0:0:0:
86,11,24214,1,2,3:2:0:0:
86,11,24321,1,2,0:0:0:0:
168,45,24535,1,10,0:0:0:0:
297,10,24857,6,0,B|282:68|282:68|301:105|301:105|285:169,1,161.999995056153,2|2,3:2|3:2,0:0:0:0:
345,230,25499,1,10,0:0:0:0:
410,169,25714,1,2,0:0:0:0:
410,169,25821,2,0,L|392:78,1,80.9999975280763,2|8,0:0|0:0,0:0:0:0:
425,69,26142,2,0,P|479:87|488:119,1,80.9999975280763,10|2,3:2|0:0,0:0:0:0:
511,130,26464,2,0,P|512:171|465:215,1,80.9999975280763,8|8,0:0|0:0,0:0:0:0:
462,229,26785,5,0,3:0:0:0:
436,312,26999,2,0,L|384:306,1,40.4999987640381,2|0,3:2|0:0,0:0:0:0:
356,284,27214,2,0,L|269:298,1,80.9999975280763,10|2,0:0|3:2,0:0:0:0:
206,249,27642,1,10,0:0:0:0:
206,249,27749,2,0,L|219:184,1,40.4999987640381,2|0,0:0|3:0,0:0:0:0:
225,166,27964,1,2,0:0:0:0:
188,37,28285,6,0,P|141:17|51:76,1,161.999995056153,14|2,0:0|3:2,0:0:0:0:
104,143,28928,1,14,0:0:0:0:
36,200,29142,1,2,3:2:0:0:
36,200,29249,1,14,0:0:0:0:
129,276,29571,1,0,3:0:0:0:
39,333,29785,2,0,L|-10:324,2,40.4999987640381,10|8|0,0:0|0:0|3:0,0:0:0:0:
146,378,30214,6,0,L|302:366,1,121.499996292114,6|2,3:2|3:2,0:0:0:0:
400,357,30857,1,2,3:2:0:0:
508,215,31285,5,2,3:2:0:0:
424,256,31499,2,0,L|333:241,1,80.9999975280763,10|2,0:0|0:0,0:0:0:0:
302,260,31821,6,0,P|274:193|298:139,1,121.499996292114,2|2,0:0|3:2,0:0:0:0:
376,130,32357,2,0,L|443:146,2,40.4999987640381,10|0|2,0:0|3:0|0:0,0:0:0:0:
383,86,32678,1,2,3:2:0:0:
279,1,32999,2,0,L|193:14,1,80.9999975280763,10|10,0:0|0:0,0:0:0:0:
109,14,33428,1,4,0:3:0:0:
75,96,33642,6,0,P|113:134|96:200,1,121.499996292114,2|2,3:2|3:2,0:0:0:0:
5,290,34285,1,14,3:2:0:0:
158,373,34714,5,2,3:2:0:0:
166,284,34928,2,0,L|180:189,1,80.9999975280763,10|6,0:0|0:3,0:0:0:0:
186,160,35249,6,0,B|247:150|247:150|312:191,1,121.499996292114,6|10,0:3|0:0,0:0:0:0:
376,222,35785,2,0,P|390:177|364:120,1,80.9999975280763,10|2,0:0|3:2,0:0:0:0:
359,106,36107,2,0,P|345:53|359:22,1,80.9999975280763,10|0,0:0|0:0,0:0:0:0:
390,5,36428,1,14,0:0:0:0:
468,47,36642,2,0,L|461:108,1,40.4999987640381,2|8,3:2|0:0,0:0:0:0:
466,132,36857,2,0,L|473:193,1,40.4999987640381,8|8,3:2|0:0,0:0:0:0:
477,216,37071,6,0,B|432:209|432:209|401:223|401:223|333:218,1,121.499996292114,6|6,3:2|3:2,0:0:0:0:
235,173,37714,1,14,3:2:0:0:
239,376,38142,5,10,0:0:0:0:
325,381,38357,2,0,B|349:347|349:347|335:310,1,80.9999975280763,10|2,0:0|3:2,0:0:0:0:
307,275,38678,2,0,L|169:298,1,121.499996292114,10|10,0:0|3:2,0:0:0:0:
159,215,39214,1,10,0:0:0:0:
159,215,39321,2,0,L|173:161,1,40.4999987640381,0|10,3:0|0:0,0:0:0:0:
213,179,39535,2,0,P|243:109|206:45,1,121.499996292114,2|10,3:2|0:0,0:0:0:0:
170,2,40071,2,0,L|111:15,1,40.4999987640381,10|8,0:3|0:0,0:0:0:0:
105,47,40285,2,0,L|65:38,1,40.4999987640381,4|4,0:3|0:3,0:0:0:0:
28,63,40499,6,0,P|-17:116|27:208,1,161.999995056153,6|8,3:2|0:0,0:0:0:0:
76,138,41142,1,2,0:0:0:0:
163,154,41357,2,0,P|208:207|164:299,1,161.999995056153,2|8,3:2|0:0,0:0:0:0:
98,319,41999,1,2,0:0:0:0:
85,230,42214,6,0,L|155:226,2,40.4999987640381,2|8|0,3:2|0:0|0:0,0:0:0:0:
182,291,42642,2,0,L|282:298,1,80.9999975280763,8|2,0:0|0:0,0:0:0:0:
315,368,43071,2,0,P|354:369|387:346,1,80.9999975280763,2|0,3:0|0:0,0:0:0:0:
364,259,43499,1,8,3:2:0:0:
454,301,43714,5,2,0:0:0:0:
502,226,43928,2,0,L|484:50,1,161.999995056153,2|8,3:0|0:0,0:0:0:0:
403,100,44571,1,2,0:0:0:0:
401,9,44785,2,0,B|301:4|341:58|245:51,1,161.999995056153,2|8,3:2|0:0,0:0:0:0:
178,104,45428,1,2,0:0:0:0:
250,155,45642,6,0,P|275:212|261:242,1,80.9999975280763,6|14,3:2|0:0,0:0:0:0:
205,287,46071,1,8,3:2:0:0:
123,250,46285,1,2,0:0:0:0:
123,250,46392,1,8,0:0:0:0:
123,250,46499,2,0,L|57:262,3,40.4999987640381,2|8|8|8,3:2|0:0|0:3|0:3,0:0:0:0:
56,221,46928,2,0,L|-10:233,3,40.4999987640381,14|4|4|8,3:0|0:3|0:3|0:0,0:0:0:0:
1,185,47357,6,0,P|0:125|24:106,1,80.9999975280763,6|8,3:2|0:0,0:0:0:0:
30,72,47678,2,0,P|102:83|129:146,1,121.499996292114,2|6,0:0|0:3,0:0:0:0:
216,193,48214,6,0,P|167:228|166:258,1,80.9999975280763,6|8,3:2|0:0,0:0:0:0:
143,284,48535,2,0,P|195:334|261:318,1,121.499996292114,2|10,3:2|0:3,0:0:0:0:
345,351,49071,6,0,P|376:300|416:292,1,80.9999975280763,6|8,3:2|0:0,0:0:0:0:
471,250,49499,2,0,L|462:180,3,40.4999987640381,0|8|10|8,3:0|0:3|0:3|0:0,0:0:0:0:
491,168,49928,6,0,B|448:158|448:158|423:169|423:169|369:160,1,107.999996704102,6|0,3:2|0:0,0:0:0:0:
348,134,50249,2,0,B|309:140|309:140|288:128|288:128|239:139,1,107.999996704102,14|0,0:0|0:0,0:0:0:0:
213,173,50571,2,0,L|144:164,1,53.9999983520508,10|0,0:0|0:0,0:0:0:0:
105,160,50785,5,6,3:2:0:0:
169,42,51106,1,2,0:0:0:0:
31,14,51428,1,10,0:0:0:0:
31,14,51535,1,8,0:0:0:0:
31,14,51642,2,0,L|47:118,1,90,2|8,3:2|0:0,0:0:0:0:
76,141,51964,2,0,L|62:249,1,90,10|8,0:0|0:0,0:0:0:0:
56,279,52285,5,10,0:0:0:0:
56,279,52392,1,8,0:0:0:0:
56,279,52499,2,0,B|120:288|120:288|150:266|150:266|244:278,2,161.999995056153,6|2|2,3:2|3:2|3:2,0:0:0:0:
34,366,53357,6,0,P|85:383|136:362,1,80.9999975280763,2|0,3:2|0:0,0:0:0:0:
144,274,53785,2,0,L|133:154,1,116.999994644165,10|10,0:0|0:0,0:0:0:0:
134,110,54107,5,10,0:0:0:0:
134,110,54214,2,0,P|185:89|251:130,1,107.999996704102,6|10,3:2|0:0,0:0:0:0:
292,195,54642,1,2,3:2:0:0:
398,174,54857,1,10,0:0:0:0:
430,71,55071,1,2,0:0:0:0:
430,71,55178,2,0,L|354:59,1,53.9999983520508,2|8,3:2|0:0,0:0:0:0:
342,20,55392,2,0,P|290:4|239:33,1,107.999996704102,2|0,0:0|0:0,0:0:0:0:
208,68,55714,1,10,0:0:0:0:
100,65,55928,6,0,P|83:121|104:166,1,107.999996704102,0|10,3:0|0:0,0:0:0:0:
209,146,56357,1,2,3:2:0:0:
275,230,56571,1,10,0:0:0:0:
240,332,56785,1,2,0:0:0:0:
240,332,56892,2,0,L|173:316,1,53.9999983520508,2|8,3:2|0:0,0:0:0:0:
146,283,57107,2,0,L|24:295,1,107.999996704102,2|0,0:0|0:0,0:0:0:0:
2,333,57428,1,10,0:0:0:0:
0,220,57642,6,0,P|48:187|99:198,1,107.999996704102,0|10,3:0|0:0,0:0:0:0:
199,222,58071,2,0,L|213:100,1,107.999996704102,2|10,3:2|0:0,0:0:0:0:
218,61,58392,1,2,3:2:0:0:
310,4,58607,1,0,3:0:0:0:
310,4,58714,2,0,L|378:20,1,53.9999983520508,10|0,0:0|0:0,0:0:0:0:
414,31,58928,1,2,3:2:0:0:
479,126,59142,5,10,0:0:0:0:
479,126,59249,2,0,B|471:179|471:179|492:218|492:218|481:285,1,161.999995056153,6|10,3:2|0:0,0:0:0:0:
401,354,59785,1,2,3:2:0:0:
298,319,59999,1,10,0:0:0:0:
298,319,60107,2,0,P|286:265|310:220,1,107.999996704102,6|0,3:2|3:0,0:0:0:0:
363,213,60428,2,0,L|350:157,1,53.9999983520508,10|0,0:0|3:0,0:0:0:0:
315,135,60642,1,10,0:0:0:0:
315,135,60749,1,8,0:0:0:0:
315,135,60857,2,0,L|326:79,1,53.9999983520508,10|8,0:0|0:0,0:0:0:0:
316,37,61071,6,0,P|266:19|215:37,1,107.999996704102,6|10,3:2|0:0,0:0:0:0:
132,100,61499,1,2,3:2:0:0:
196,186,61714,1,10,0:0:0:0:
119,262,61928,1,2,0:0:0:0:
119,262,62035,2,0,L|59:259,1,53.9999983520508,2|8,3:2|0:0,0:0:0:0:
15,257,62249,2,0,P|-6:309|12:358,1,107.999996704102,2|0,0:0|0:0,0:0:0:0:
60,377,62571,1,10,0:0:0:0:
160,337,62785,6,0,L|274:351,1,107.999996704102,0|10,3:0|0:0,0:0:0:0:
346,296,63214,1,2,3:2:0:0:
273,229,63428,1,10,0:0:0:0:
273,229,63535,1,0,3:0:0:0:
273,229,63642,2,0,L|212:241,2,53.9999983520508,2|2|8,0:0|3:2|0:0,0:0:0:0:
321,205,63964,2,0,P|329:155|300:89,1,107.999996704102,2|0,0:0|0:0,0:0:0:0:
269,66,64285,1,10,0:0:0:0:
366,5,64499,6,0,P|422:-3|462:25,1,107.999996704102,4|10,3:2|0:0,0:0:0:0:
495,120,64928,1,2,3:2:0:0:
411,188,65142,1,10,0:0:0:0:
411,188,65249,2,0,B|388:234|388:234|424:287,1,107.999996704102,6|0,3:2|3:0,0:0:0:0:
454,322,65571,1,10,0:0:0:0:
363,380,65785,1,2,3:2:0:0:
285,304,65999,5,10,0:0:0:0:
285,304,66107,2,0,B|226:306|226:306|193:326|193:326|114:323,1,161.999995056153,6|10,3:2|0:0,0:0:0:0:
39,262,66642,2,0,L|56:148,1,107.999996704102,2|10,3:2|0:0,0:0:0:0:
39,103,66964,2,0,P|96:75|147:102,1,107.999996704102,6|8,3:2|0:0,0:0:0:0:
172,127,67285,1,8,0:0:0:0:
261,67,67499,1,8,0:0:0:0:
356,118,67714,1,4,0:3:0:0:
356,118,67821,1,4,0:3:0:0:
356,118,67928,6,0,P|376:178|354:227,1,107.999996704102,6|8,0:2|0:0,0:0:0:0:
314,245,68249,1,2,0:0:0:0:
163,223,68571,2,0,L|99:212,1,53.9999983520508,10|0,0:0|3:0,0:0:0:0:
61,209,68785,2,0,B|38:254|38:254|55:315,1,107.999996704102,2|8,0:0|0:0,0:0:0:0:
71,354,69107,2,0,L|185:337,1,107.999996704102,2|0,0:0|0:0,0:0:0:0:
225,329,69428,1,10,0:0:0:0:
311,284,69642,6,0,L|428:304,1,107.999996704102,2|8,3:2|0:0,0:0:0:0:
470,220,70071,2,0,L|353:200,1,107.999996704102,0|10,3:0|0:0,0:0:0:0:
315,192,70392,1,0,3:0:0:0:
315,192,70499,2,0,L|307:118,2,53.9999983520508,2|0|8,0:0|3:0|0:0,0:0:0:0:
226,232,70928,1,2,3:2:0:0:
133,201,71142,1,8,0:0:0:0:
113,108,71357,6,0,P|158:84|212:93,1,107.999996704102,6|8,3:2|0:0,0:0:0:0:
237,134,71678,1,2,0:0:0:0:
226,232,71892,1,0,0:0:0:0:
226,232,71999,2,0,L|210:300,1,53.9999983520508,10|0,0:0|3:0,0:0:0:0:
227,339,72214,2,0,P|283:362|330:324,1,107.999996704102,2|8,0:0|0:0,0:0:0:0:
339,295,72535,1,2,0:0:0:0:
339,295,72642,2,0,P|389:283|437:311,1,107.999996704102,0|10,3:0|0:0,0:0:0:0:
475,207,73071,6,0,L|492:97,1,107.999996704102,2|8,3:2|0:0,0:0:0:0:
500,52,73392,1,2,0:0:0:0:
500,52,73499,1,0,3:0:0:0:
402,14,73714,2,0,L|386:68,1,53.9999983520508,10|0,0:0|3:0,0:0:0:0:
353,103,73928,2,0,L|363:181,2,53.9999983520508,10|0|8,0:0|3:0|0:0,0:0:0:0:
318,60,74249,2,0,P|261:32|210:52,1,107.999996704102,0|4,3:0|0:3,0:0:0:0:
197,84,74571,1,10,0:0:0:0:
215,191,74785,6,0,L|108:179,1,107.999996704102,6|8,3:2|0:0,0:0:0:0:
61,176,75107,1,2,0:0:0:0:
0,329,75428,2,0,L|65:340,1,53.9999983520508,10|0,0:0|3:0,0:0:0:0:
78,378,75642,2,0,P|152:372|172:340,1,107.999996704102,2|8,0:0|0:0,0:0:0:0:
176,252,76071,1,0,3:0:0:0:
275,316,76285,5,10,0:0:0:0:
275,316,76392,1,8,0:0:0:0:
275,316,76499,2,0,B|390:299,1,107.999996704102,6|8,3:2|0:0,0:0:0:0:
448,223,76928,1,2,3:2:0:0:
448,223,77035,2,0,B|465:175|465:175|427:128,1,107.999996704102,8|0,0:0|0:0,0:0:0:0:
381,120,77357,2,0,L|315:139,1,53.9999983520508,10|0,0:0|3:0,0:0:0:0:
282,153,77571,2,0,L|222:135,1,53.9999983520508,4|4,0:3|0:3,0:0:0:0:
180,147,77785,2,0,B|169:105|169:105|182:82|182:82|174:41,1,107.999996704102,14|0,0:0|0:0,0:0:0:0:
238,3,78214,6,0,B|320:-8|295:52|400:33,1,144,2|2,3:2|3:2,0:0:0:0:
455,24,78857,1,2,0:0:0:0:
455,24,78964,2,0,L|443:147,1,108,2|8,3:2|0:0,0:0:0:0:
381,179,79499,2,0,L|396:270,1,72,10|2,3:2|0:0,0:0:0:0:
398,329,79928,6,0,P|444:340|473:333,2,72,10|10|10,3:2|0:0|3:2,0:0:0:0:
325,310,80571,1,2,3:2:0:0:
325,310,80678,2,0,L|193:325,1,108,10|10,0:0|0:0,0:0:0:0:
138,337,81214,2,0,L|126:286,3,36,2|8|8|8,3:2|0:0|0:0|0:0,0:0:0:0:
99,275,81642,6,0,P|63:247|87:158,1,144,2|2,3:2|3:2,0:0:0:0:
146,113,82285,1,2,0:0:0:0:
146,113,82392,2,0,L|253:134,1,108,2|8,3:2|0:0,0:0:0:0:
325,104,82928,2,0,P|335:146|321:186,1,72,14|2,0:0|0:0,0:0:0:0:
277,234,83357,6,0,L|199:219,2,72,14|10|10,3:2|0:0|0:0,0:0:0:0:
352,271,83999,1,6,0:3:0:0:
352,271,84107,2,0,L|473:256,1,108,2|10,3:2|3:2,0:0:0:0:
498,189,84642,2,0,P|508:148|484:106,1,72,14|0,0:0|0:0,0:0:0:0:
430,62,85071,5,2,3:2:0:0:
363,121,85285,1,10,0:0:0:0:
275,104,85499,2,0,L|176:96,1,80.9999975280763,10|10,3:2|0:0,0:0:0:0:
149,95,85821,1,6,3:2:0:0:
80,38,86035,2,0,P|59:83|70:122,1,80.9999975280763,2|2,3:2|3:2,0:0:0:0:
86,151,86357,1,10,0:0:0:0:
152,209,86571,1,10,0:0:0:0:
72,249,86785,6,0,L|56:331,1,80.9999975280763,14|10,3:2|3:2,0:0:0:0:
135,370,87214,2,0,L|236:357,1,80.9999975280763,2|10,3:2|0:3,0:0:0:0:
259,357,87535,2,0,B|328:361|302:312|386:316,1,121.499996292114,6|10,3:2|3:2,0:0:0:0:
453,347,88071,1,10,3:2:0:0:
492,267,88285,6,0,P|455:163|350:196,1,242.999992584229,6|8,3:2|0:0,0:0:0:0:
366,242,89035,1,8,0:0:0:0:
366,242,89142,1,6,3:2:0:0:
