osu file format v14

[General]
AudioFilename: audio.mp3
AudioLeadIn: 0
PreviewTime: 54107
Countdown: 0
SampleSet: Soft
StackLeniency: 0.4
Mode: 0
LetterboxInBreaks: 0
WidescreenStoryboard: 0

[Editor]
DistanceSpacing: 0.8
BeatDivisor: 4
GridSize: 32
TimelineZoom: 2.4

[Metadata]
Title:Houkago no Liberty (TV Size)
TitleUnicode:放課後のリバティ (TV Size)
Artist:halca
ArtistUnicode:halca
Creator:dkblaze
Version:Expert
Source:ぼくたちは勉強ができない!
Tags:Shizuku- nautzz Kowari Asuka_- We can't study bokutachi wa benkyou ga dekinai bokuben cant never learn S2 Season 2 ending ed jpop j pop anime japanese 古橋文乃 furuhashi fumino 緒方理珠 ogata rizu 武元うるか takemoto uruka
BeatmapID:2261708
BeatmapSetID:1078714

[Difficulty]
HPDrainRate:5
CircleSize:4
OverallDifficulty:8.8
ApproachRate:9.3
SliderMultiplier:1.7
SliderTickRate:1

[Events]
//Background and Video events
0,0,"BG.png",0,0
Video,-120,"bokuben.mp4"
//Break Periods
//Storyboard Layer 0 (Background)
//Storyboard Layer 1 (Fail)
//Storyboard Layer 2 (Pass)
//Storyboard Layer 3 (Foreground)
//Storyboard Layer 4 (Overlay)
//Storyboard Sound Samples

[TimingPoints]
-643,428.571428571429,4,2,2,60,1,0
428,-200,4,2,2,60,0,0
964,-200,4,2,2,5,0,0
1071,-55.5555555555556,4,2,2,60,0,0
4928,-43.4782608695652,4,2,2,60,0,0
5249,-55.5555555555556,4,2,2,60,0,0
7821,-55.5555555555556,4,2,2,5,0,0
7928,-45.4545454545455,4,2,2,75,0,0
11571,-40,4,2,2,75,0,0
11785,-45.4545454545455,4,2,2,75,0,0
12964,-40,4,2,2,75,0,0
13821,-45.4545454545455,4,2,2,75,0,0
14785,-41.6666666666667,4,2,2,75,0,0
14892,-41.6666666666667,4,2,2,5,0,0
14999,-41.6666666666667,4,2,2,75,0,0
15321,-41.6666666666667,4,2,2,5,0,0
15428,-41.6666666666667,4,2,2,75,0,0
16392,-41.6666666666667,4,2,2,5,0,0
16499,-71.4285714285714,4,2,2,70,0,0
28285,-45.4545454545455,4,2,2,70,0,0
30214,-62.5,4,2,2,70,0,0
30857,-40,4,2,2,70,0,0
31071,-62.5,4,2,2,70,0,0
33642,-55.5555555555556,4,2,2,70,0,0
34285,-40,4,2,2,70,0,0
34392,-40,4,2,2,5,0,0
34499,-40,4,2,2,70,0,0
34714,-62.5,4,2,2,70,0,0
37071,-55.5555555555556,4,2,2,70,0,0
37714,-40,4,2,2,70,0,0
37821,-40,4,2,2,5,0,0
37928,-40,4,2,2,70,0,0
38142,-62.5,4,2,2,70,0,0
40499,-76.9230769230769,4,2,2,60,0,0
43499,-55.5555555555556,4,2,2,60,0,0
43928,-76.9230769230769,4,2,2,60,0,0
47357,-45.4545454545455,4,2,2,65,0,0
49071,-41.6666666666667,4,2,2,65,0,0
49928,-38.4615384615385,4,2,2,65,0,0
50785,-50,4,2,2,70,0,0
52499,-50,4,2,2,70,0,0
52821,-35.7142857142857,4,2,2,70,0,0
53357,-250,4,2,2,70,0,0
53785,-58.8235294117647,4,2,2,50,0,0
54214,-38.4615384615385,4,2,2,80,0,1
67928,-43.4782608695652,4,2,2,80,0,1
74785,-40,4,2,2,80,0,1
76499,-37.037037037037,4,2,2,80,0,1
78214,-50,4,2,2,70,0,0
81749,-50,4,2,2,5,0,0
81857,-50,4,2,2,70,0,0
82178,-50,4,2,2,5,0,0
82285,-50,4,2,2,70,0,0
84642,-41.6666666666667,4,2,2,70,0,0
84964,-41.6666666666667,4,2,2,5,0,0
85071,-45.4545454545455,4,2,2,70,0,0
88285,-200,4,2,2,70,0,0
88821,-200,4,2,2,5,0,0
88928,-62.5,4,2,2,70,0,0
89357,-62.5,4,2,2,5,0,0

[Colours]
Combo1 : 202,99,94
Combo2 : 106,131,244
Combo3 : 251,173,121

[HitObjects]
93,79,428,5,2,0:0:0:0:
93,79,535,1,2,0:0:0:0:
93,79,642,2,0,L|105:151,1,63.75,2|0,0:0|0:0,0:0:0:0:
121,236,1071,5,2,3:2:0:0:
9,159,1285,1,2,0:0:0:0:
240,90,1499,1,2,3:2:0:0:
332,214,1714,1,2,0:0:0:0:
332,214,1821,2,0,L|318:293,1,76.4999976654054,2|0,3:2|0:0,0:0:0:0:
497,202,2035,2,0,P|455:141|381:144,1,152.999995330811,2|0,3:2|0:0,0:0:0:0:
318,288,2357,2,0,P|356:290|388:270,1,76.4999976654054,10|0,3:2|0:0,0:0:0:0:
366,57,2571,1,10,0:0:0:0:
366,57,2678,1,8,0:0:0:0:
366,57,2785,5,2,3:2:0:0:
497,202,2999,1,10,0:0:0:0:
366,57,3214,1,10,3:2:0:0:
138,232,3428,1,2,0:0:0:0:
129,186,3535,2,0,L|102:28,1,152.999995330811,2|0,3:2|3:0,0:0:0:0:
6,140,3857,2,0,P|39:120|78:127,1,76.4999976654054,10|0,0:0|0:0,0:0:0:0:
201,288,4071,1,10,0:0:0:0:
281,313,4178,1,8,0:0:0:0:
340,272,4285,1,10,0:0:0:0:
389,290,4392,1,8,0:0:0:0:
393,304,4499,6,0,L|226:279,1,152.999995330811,2|2,3:2|0:0,0:0:0:0:
0,53,4928,6,0,B|-7:38|5:-6|80:-17|106:37|91:41|111:74|168:69,1,195.500003728867,2|2,3:2|0:0,0:0:0:0:
321,22,5249,1,2,3:2:0:0:
297,4,5464,6,0,L|323:105,1,76.4999976654053,2|8,3:2|0:0,0:0:0:0:
475,200,5678,1,2,0:0:0:0:
475,200,5785,2,0,P|446:175|408:177,1,76.4999976654053,14|0,0:0|0:0,0:0:0:0:
250,331,5999,2,0,L|276:230,1,76.4999976654053,2|0,0:0|0:0,0:0:0:0:
299,157,6214,5,10,0:0:0:0:
414,353,6428,1,10,0:0:0:0:
121,292,6642,1,10,3:2:0:0:
166,284,6749,1,4,0:3:0:0:
211,276,6857,1,6,0:3:0:0:
256,268,6964,1,2,3:2:0:0:
123,0,7285,6,0,L|107:88,1,76.4999976654053,10|0,0:0|0:0,0:0:0:0:
0,121,7499,2,0,B|136:72|86:199|267:149,1,229.499992996216,14|0,0:0|0:0,0:0:0:0:
315,27,7928,6,0,L|293:136,1,93.5000028533936,4|0,3:2|0:0,0:0:0:0:
499,255,8142,2,0,L|467:152,1,93.5000028533936,10|0,0:0|0:0,0:0:0:0:
273,230,8357,2,0,B|382:252|346:171|477:199,1,187.000005706787,2|8,3:2|0:0,0:0:0:0:
503,342,8678,1,0,3:0:0:0:
421,361,8785,1,2,0:0:0:0:
364,297,8892,2,0,L|384:173,1,93.5000028533936,2|8,3:2|0:0,0:0:0:0:
211,63,9107,2,0,L|230:154,1,93.5000028533936,2|0,0:0|3:0,0:0:0:0:
41,254,9321,1,0,0:0:0:0:
0,185,9428,2,0,P|45:172|88:190,1,93.5000028533936,10|0,0:0|0:0,0:0:0:0:
149,282,9642,5,0,3:0:0:0:
358,154,9857,2,0,L|338:258,1,93.5000028533936,10|0,0:0|0:0,0:0:0:0:
507,102,10071,2,0,B|413:128|436:45|332:63,1,187.000005706787,2|8,3:2|0:0,0:0:0:0:
122,46,10392,1,0,3:0:0:0:
192,8,10499,1,2,0:0:0:0:
251,59,10607,2,0,L|240:169,1,93.5000028533936,2|8,3:2|0:0,0:0:0:0:
50,221,10821,2,0,P|56:178|116:150,1,93.5000028533936,2|8,0:0|0:0,0:0:0:0:
238,231,11035,1,10,0:0:0:0:
221,303,11142,1,6,0:3:0:0:
177,336,11249,1,4,0:3:0:0:
158,341,11357,5,4,3:2:0:0:
0,9,11571,2,0,L|146:34,1,106.25,10|0,0:0|0:0,0:0:0:0:
322,0,11785,2,0,P|287:33|310:112,1,93.5000028533936,2|0,3:2|0:0,0:0:0:0:
393,291,11999,1,10,0:0:0:0:
449,241,12107,2,0,P|462:173|466:30,1,187.000005706787,2|0,3:2|3:0,0:0:0:0:
273,140,12428,2,0,L|385:158,1,93.5000028533936,10|0,0:0|0:0,0:0:0:0:
196,102,12642,2,0,P|188:166|223:206,1,93.5000028533936,2|0,3:2|0:0,0:0:0:0:
444,32,12857,1,10,0:0:0:0:
360,0,12964,6,0,P|268:15|83:5,1,212.5,2|0,3:2|3:0,0:0:0:0:
0,68,13285,2,0,P|52:64|103:111,1,106.25,10|0,0:0|3:0,0:0:0:0:
232,283,13499,1,10,0:0:0:0:
137,302,13607,1,4,0:3:0:0:
68,219,13714,1,10,0:0:0:0:
94,176,13821,6,0,L|71:370,1,187.000005706787,6|0,3:2|3:0,0:0:0:0:
0,155,14142,1,8,0:0:0:0:
74,104,14249,1,0,3:0:0:0:
185,150,14357,1,8,0:0:0:0:
200,222,14464,1,6,0:3:0:0:
224,239,14571,1,6,0:3:0:0:
236,241,14678,1,6,0:3:0:0:
334,183,14785,6,0,L|313:289,1,101.999996887207,10|0,0:0|0:0,0:0:0:0:
319,293,15214,6,0,L|339:193,1,101.999996887207,10|0,0:0|0:0,0:0:0:0:
153,54,15428,1,4,0:3:0:0:
94,110,15535,2,0,P|136:135|212:114,1,101.999996887207,2|0,3:2|0:0,0:0:0:0:
305,65,15749,1,8,0:0:0:0:
334,42,15857,1,10,0:0:0:0:
410,31,15964,1,8,0:0:0:0:
479,84,16071,6,0,B|491:211|491:211|456:269|456:269|469:392,1,305.999990661621,14|2,0:0|0:0,0:0:0:0:
395,191,16499,5,2,3:2:0:0:
244,292,16714,1,2,3:2:0:0:
166,231,16928,1,10,0:0:0:0:
72,264,17142,1,2,3:2:0:0:
234,350,17357,1,2,3:2:0:0:
234,350,17464,2,0,L|251:249,1,59.4999981842042,2|0,0:0|0:0,0:0:0:0:
292,170,17678,1,2,3:2:0:0:
310,194,17999,6,0,B|224:208|248:124|127:153,1,178.499994552612,10|0,0:0|0:0,0:0:0:0:
253,128,18428,2,0,L|267:49,1,59.4999981842042,2|0,3:2|0:0,0:0:0:0:
148,0,18642,2,0,L|162:79,1,59.4999981842042,10|0,0:0|0:0,0:0:0:0:
37,179,18857,1,2,0:0:0:0:
0,108,18964,2,0,P|59:99|113:161,1,118.999996368408,2|0,0:0|0:0,0:0:0:0:
108,259,19285,6,0,L|93:340,1,59.4999981842042,6|0,3:2|0:0,0:0:0:0:
191,247,19499,1,2,0:0:0:0:
191,247,19607,2,0,L|167:373,1,118.999996368408,4|0,3:2|0:0,0:0:0:0:
279,226,19928,5,0,3:0:0:0:
458,331,20142,1,2,3:2:0:0:
504,249,20357,1,10,0:0:0:0:
467,142,20571,1,2,3:2:0:0:
265,225,20785,1,2,3:2:0:0:
265,225,20892,2,0,L|338:215,1,59.4999981842042,2|0,0:0|0:0,0:0:0:0:
236,130,21107,1,2,3:2:0:0:
0,218,21428,6,0,L|208:193,1,178.499994552612,10|0,0:0|0:0,0:0:0:0:
132,134,21857,2,0,P|105:170|106:228,1,59.4999981842042,2|0,3:2|0:0,0:0:0:0:
254,300,22071,2,0,L|175:281,1,59.4999981842042,10|0,0:0|0:0,0:0:0:0:
53,379,22285,1,2,3:2:0:0:
37,307,22392,2,0,L|9:166,1,118.999996368408,14|0,0:0|0:0,0:0:0:0:
70,50,22714,1,2,3:2:0:0:
80,44,22821,1,0,3:0:0:0:
112,39,22928,1,10,0:0:0:0:
153,59,23035,1,0,3:0:0:0:
195,116,23142,1,2,3:2:0:0:
261,138,23249,1,8,0:0:0:0:
339,103,23357,5,4,3:2:0:0:
177,333,23571,1,2,0:0:0:0:
127,265,23785,1,10,0:0:0:0:
175,192,23999,1,2,3:2:0:0:
290,298,24214,1,2,3:2:0:0:
290,298,24321,2,0,L|361:315,1,59.4999981842042,2|0,0:0|0:0,0:0:0:0:
489,143,24535,1,10,0:0:0:0:
512,169,24857,6,0,L|308:140,1,178.499994552612,2|0,3:2|0:0,0:0:0:0:
232,35,25285,2,0,P|237:71|246:111,1,59.4999981842042,2|0,3:2|0:0,0:0:0:0:
133,250,25499,2,0,P|140:219|156:158,1,59.4999981842042,10|0,0:0|3:0,0:0:0:0:
0,31,25714,1,2,0:0:0:0:
46,39,25821,2,0,P|67:101|58:196,1,118.999996368408,2|8,0:0|0:0,0:0:0:0:
58,263,26142,6,0,L|-21:246,1,59.4999981842042,10|0,3:2|0:0,0:0:0:0:
0,166,26357,1,2,0:0:0:0:
0,166,26464,2,0,L|123:191,1,118.999996368408,8|8,0:0|0:0,0:0:0:0:
152,335,26785,5,0,3:0:0:0:
473,187,26999,2,0,L|459:261,1,59.4999981842042,2|0,3:2|0:0,0:0:0:0:
364,336,27214,2,0,L|350:262,1,59.4999981842042,10|0,0:0|0:0,0:0:0:0:
239,64,27428,2,0,L|225:138,1,59.4999981842042,2|0,3:2|0:0,0:0:0:0:
97,215,27642,1,10,0:0:0:0:
76,229,27749,2,0,L|62:155,1,59.4999981842042,2|0,0:0|3:0,0:0:0:0:
32,0,27964,1,2,0:0:0:0:
100,318,28285,6,0,B|209:261|206:389|392:362,1,280.500008560181,14|0,0:0|0:0,0:0:0:0:
509,164,28714,2,0,P|507:115|445:82,1,93.5000028533936,2|0,3:2|0:0,0:0:0:0:
310,257,28928,1,14,0:0:0:0:
251,204,29035,2,0,P|241:171|237:98,1,93.5000028533936,0|2,0:0|3:2,0:0:0:0:
118,364,29249,6,0,P|144:307|146:142,1,187.000005706787,14|0,0:0|0:0,0:0:0:0:
93,25,29571,1,0,3:0:0:0:
84,17,29678,1,8,0:0:0:0:
30,31,29785,5,10,0:0:0:0:
3,102,29892,1,8,0:0:0:0:
29,161,29999,1,0,3:0:0:0:
52,175,30107,1,0,0:0:0:0:
188,161,30214,6,0,P|192:96|139:130,1,136,6|0,3:2|0:0,0:0:0:0:
24,325,30535,2,0,B|53:345|66:380|66:380|63:342|92:295,1,136,2|0,3:2|0:0,0:0:0:0:
364,112,30857,6,0,L|340:253,1,106.25,2|0,3:2|0:0,0:0:0:0:
346,216,31285,5,2,3:2:0:0:
217,248,31499,2,0,P|251:247|293:286,1,68,10|0,0:0|0:0,0:0:0:0:
394,384,31714,1,2,0:0:0:0:
425,354,31821,2,0,L|439:171,1,136,2|0,0:0|0:0,0:0:0:0:
449,65,32142,1,2,3:2:0:0:
512,162,32357,6,0,L|428:141,1,68,10|0,0:0|3:0,0:0:0:0:
307,242,32571,1,2,0:0:0:0:
291,263,32678,2,0,L|110:280,1,136,2|0,3:2|3:0,0:0:0:0:
20,159,32999,2,0,P|19:121|56:81,1,68,10|0,0:0|3:0,0:0:0:0:
181,37,33214,1,10,0:0:0:0:
181,37,33321,1,4,0:3:0:0:
181,37,33428,1,4,0:3:0:0:
286,146,33642,6,0,B|225:137|225:137|196:155|196:155|79:138,1,152.999995330811,2|0,3:2|0:0,0:0:0:0:
287,288,33964,2,0,B|367:285|367:285|287:218,1,152.999995330811,2|0,3:2|0:0,0:0:0:0:
3,50,34285,6,0,L|29:199,1,106.25,14|0,3:2|0:0,0:0:0:0:
21,154,34714,6,0,L|123:166,1,68,2|0,3:2|0:0,0:0:0:0:
236,60,34928,2,0,L|137:75,1,68,10|0,0:0|0:0,0:0:0:0:
265,247,35142,1,6,0:3:0:0:
302,217,35249,2,0,P|318:170|319:45,1,136,6|0,0:3|0:0,0:0:0:0:
428,0,35571,2,0,L|441:67,1,68,10|0,0:0|3:0,0:0:0:0:
512,237,35785,6,0,P|461:218|398:283,1,136,10|2,0:0|3:2,0:0:0:0:
294,384,36107,2,0,L|269:199,1,136,10|0,0:0|0:0,0:0:0:0:
176,369,36428,2,0,L|159:245,1,68,14|0,0:0|0:0,0:0:0:0:
197,94,36642,1,2,3:2:0:0:
236,69,36749,1,8,0:0:0:0:
313,71,36857,1,8,3:2:0:0:
381,119,36964,1,8,0:0:0:0:
466,137,37071,6,0,L|298:152,1,152.999995330811,6|0,3:2|0:0,0:0:0:0:
86,274,37392,2,0,P|161:242|270:245,1,152.999995330811,6|0,3:2|0:0,0:0:0:0:
506,384,37714,6,0,L|480:264,1,106.25,14|0,3:2|0:0,0:0:0:0:
483,280,38142,6,0,P|468:290|405:287,1,68,10|0,0:0|3:0,0:0:0:0:
278,135,38357,1,10,0:0:0:0:
351,159,38464,2,0,L|433:150,1,68,0|2,0:0|3:2,0:0:0:0:
511,70,38678,1,10,0:0:0:0:
441,14,38785,5,8,3:2:0:0:
441,14,38999,1,10,3:2:0:0:
509,323,39214,2,0,L|486:234,1,68,10|0,0:0|3:0,0:0:0:0:
396,139,39428,1,10,0:0:0:0:
364,182,39535,2,0,P|298:202|202:210,1,136,2|0,3:2|3:0,0:0:0:0:
135,136,39857,5,10,0:0:0:0:
131,162,39964,1,4,0:3:0:0:
40,283,40071,5,10,0:3:0:0:
11,198,40178,1,8,0:0:0:0:
62,121,40285,1,4,0:3:0:0:
67,82,40392,1,4,0:3:0:0:
26,14,40499,6,0,P|45:70|9:213,2,165.749992412568,6|2|2,3:2|0:0|0:0,0:0:0:0:
280,162,41357,2,0,P|237:185|127:186,1,110.499994941712,2|0,3:2|0:0,0:0:0:0:
0,253,41678,2,0,P|54:257|132:306,1,110.499994941712,2|0,0:0|0:0,0:0:0:0:
193,382,41999,2,0,L|205:304,1,55.2499974708558,2|0,0:0|0:0,0:0:0:0:
356,206,42214,6,0,P|334:297|353:402,2,165.749992412568,2|2|2,3:2|0:0|0:0,0:0:0:0:
512,44,43071,1,2,3:0:0:0:
496,66,43178,1,0,0:0:0:0:
411,15,43285,1,0,0:0:0:0:
171,84,43499,2,0,P|205:164|200:282,1,152.999995330811,8|2,3:2|0:0,0:0:0:0:
88,340,43821,1,8,0:0:0:0:
112,362,43928,6,0,L|292:387,2,165.749992412568,2|2|2,3:0|0:0|0:0,0:0:0:0:
6,162,44785,2,0,P|61:214|85:286,1,110.499994941712,2|0,3:2|0:0,0:0:0:0:
216,333,45107,2,0,P|217:292|272:220,1,110.499994941712,2|0,0:0|0:0,0:0:0:0:
338,94,45428,2,0,L|253:109,1,55.2499974708558,2|0,0:0|0:0,0:0:0:0:
75,16,45642,5,6,3:2:0:0:
6,162,45857,1,14,0:0:0:0:
248,108,46071,2,0,L|194:98,1,55.2499974708558,8|0,3:2|0:0,0:0:0:0:
50,235,46285,1,2,0:0:0:0:
60,280,46392,1,8,0:0:0:0:
133,310,46499,5,2,3:2:0:0:
208,277,46607,1,8,0:0:0:0:
223,250,46714,2,0,L|158:241,1,55.2499974708558,8|8,0:3|0:3,0:0:0:0:
6,162,46928,2,0,L|62:153,1,55.2499974708558,14|4,3:0|0:3,0:0:0:0:
161,77,47142,1,4,0:3:0:0:
106,21,47249,1,8,0:0:0:0:
33,36,47357,6,0,P|102:58|219:38,1,187.000005706787,6|8,3:2|0:0,0:0:0:0:
360,0,47678,2,0,P|334:38|332:109,1,93.5000028533936,2|0,0:0|3:0,0:0:0:0:
458,187,47892,1,8,0:3:0:0:
451,159,47999,1,6,0:3:0:0:
134,384,48214,6,0,P|172:322|191:175,1,187.000005706787,6|8,3:2|0:0,0:0:0:0:
369,128,48535,2,0,P|331:100|258:98,1,93.5000028533936,2|0,3:2|3:0,0:0:0:0:
95,148,48749,1,0,0:0:0:0:
125,164,48857,1,10,0:3:0:0:
433,2,49071,6,0,L|397:252,1,203.999993774414,6|8,3:2|0:0,0:0:0:0:
170,227,49392,2,0,P|193:138|266:233,1,203.999993774414,2|8,0:0|0:3,0:0:0:0:
325,343,49714,1,10,0:3:0:0:
389,384,49821,1,8,0:0:0:0:
462,359,49928,6,0,P|468:248|514:144,1,220.999989883423,6|0,3:2|0:0,0:0:0:0:
158,231,50249,2,0,P|296:227|391:295,1,220.999989883423,14|0,0:0|0:0,0:0:0:0:
425,6,50571,2,0,L|407:119,1,110.499994941712,10|0,0:0|0:0,0:0:0:0:
128,114,50785,5,6,3:2:0:0:
164,78,50892,2,0,L|253:64,1,85,0|0,0:0|0:0,0:0:0:0:
433,233,51107,1,2,0:0:0:0:
490,179,51214,2,0,L|504:90,1,85,0|8,3:0|0:0,0:0:0:0:
318,0,51428,1,10,0:0:0:0:
331,77,51535,1,8,0:0:0:0:
416,127,51642,5,2,3:2:0:0:
424,108,51749,1,8,0:0:0:0:
409,78,51857,1,8,0:0:0:0:
332,69,51964,1,10,0:0:0:0:
264,127,52071,1,0,3:0:0:0:
251,214,52178,1,8,0:0:0:0:
169,279,52285,1,10,0:0:0:0:
71,263,52392,1,8,0:0:0:0:
0,177,52499,6,0,L|199:207,1,170,6|0,3:2|0:0,0:0:0:0:
333,82,52821,2,0,L|74:108,1,237.999992736817,2|0,3:2|0:0,0:0:0:0:
257,252,53142,2,0,L|285:99,1,118.999996368408,2|0,3:2|0:0,0:0:0:0:
212,14,53357,6,0,L|222:73,1,51,2|0,3:2|3:0,0:0:0:0:
115,169,53785,2,0,L|107:153,8,18.0625003445149,10|0|0|0|0|0|0|0|10,0:0|0:0|0:0|0:0|0:0|0:0|0:0|0:0|0:0,0:0:0:0:
0,45,54214,6,0,P|40:47|114:-7,1,110.499994941712,6|0,3:2|0:0,0:0:0:0:
115,169,54428,2,0,P|164:149|236:182,1,110.499994941712,10|0,0:0|0:0,0:0:0:0:
378,279,54642,2,0,L|403:153,1,110.499994941712,2|0,3:2|0:0,0:0:0:0:
290,6,54857,1,10,0:0:0:0:
262,80,54964,1,2,3:2:0:0:
302,148,55071,1,2,0:0:0:0:
400,171,55178,2,0,P|406:122|362:61,1,110.499994941712,2|8,3:2|0:0,0:0:0:0:
138,201,55392,2,0,B|249:167|224:271|352:239,1,220.999989883423,2|0,0:0|0:0,0:0:0:0:
512,35,55714,2,0,L|497:161,1,110.499994941712,10|0,0:0|0:0,0:0:0:0:
479,282,55928,5,0,3:0:0:0:
511,265,56142,2,0,P|456:257|401:199,1,110.499994941712,10|0,0:0|0:0,0:0:0:0:
311,355,56357,2,0,P|251:360|197:394,1,110.499994941712,2|0,3:2|0:0,0:0:0:0:
184,117,56571,2,0,L|203:238,1,110.499994941712,10|0,0:0|3:0,0:0:0:0:
0,373,56785,1,2,0:0:0:0:
31,303,56892,2,0,P|78:282|163:332,1,110.499994941712,2|8,3:2|0:0,0:0:0:0:
284,133,57107,2,0,P|220:206|73:127,1,220.999989883423,2|0,0:0|0:0,0:0:0:0:
33,0,57428,2,0,B|77:42|58:104,1,110.499994941712,10|0,0:0|0:0,0:0:0:0:
10,214,57642,5,0,3:0:0:0:
0,191,57857,2,0,L|127:207,1,110.499994941712,10|0,0:0|0:0,0:0:0:0:
398,192,58071,2,0,P|417:245|395:307,1,110.499994941712,2|0,3:2|0:0,0:0:0:0:
329,156,58285,1,10,0:0:0:0:
464,231,58392,2,0,L|162:268,1,220.999989883423,2|0,3:2|3:0,0:0:0:0:
109,181,58714,2,0,L|0:167,1,110.499994941712,10|0,0:0|0:0,0:0:0:0:
134,271,58928,2,0,L|243:257,1,110.499994941712,2|0,3:2|0:0,0:0:0:0:
427,34,59142,1,10,0:0:0:0:
465,119,59249,6,0,B|330:142|378:33|224:56,1,220.999989883423,6|0,3:2|0:0,0:0:0:0:
82,158,59571,2,0,P|111:214|102:293,1,110.499994941712,10|0,0:0|0:0,0:0:0:0:
177,110,59785,2,0,L|195:-25,1,110.499994941712,2|0,3:2|0:0,0:0:0:0:
229,284,59999,1,10,0:0:0:0:
174,345,60107,6,0,B|17:371|17:371|70:337,1,220.999989883423,6|0,3:2|3:0,0:0:0:0:
308,248,60428,2,0,P|314:302|278:353,1,110.499994941712,10|0,0:0|3:0,0:0:0:0:
77,204,60642,1,10,0:0:0:0:
70,178,60749,1,8,0:0:0:0:
127,93,60857,1,10,0:0:0:0:
255,106,60964,1,8,0:0:0:0:
292,226,61071,6,0,P|243:237|167:257,1,110.499994941712,6|0,3:2|0:0,0:0:0:0:
38,57,61285,2,0,P|87:44|134:87,1,110.499994941712,10|0,0:0|0:0,0:0:0:0:
173,251,61499,2,0,L|190:127,1,110.499994941712,2|0,3:2|0:0,0:0:0:0:
388,5,61714,2,0,P|350:51|356:130,1,110.499994941712,10|0,0:0|3:0,0:0:0:0:
484,284,61928,1,2,0:0:0:0:
436,222,62035,2,0,P|380:195|282:181,1,110.499994941712,2|8,3:2|0:0,0:0:0:0:
119,316,62249,2,0,P|226:328|357:285,1,220.999989883423,2|0,0:0|0:0,0:0:0:0:
204,125,62571,2,0,L|187:253,1,110.499994941712,10|0,0:0|0:0,0:0:0:0:
390,365,62785,5,0,3:0:0:0:
415,339,62999,2,0,P|370:356|278:351,1,110.499994941712,10|0,0:0|0:0,0:0:0:0:
184,207,63214,2,0,L|198:97,1,110.499994941712,2|0,3:2|0:0,0:0:0:0:
302,22,63428,1,10,0:0:0:0:
330,49,63535,1,0,3:0:0:0:
416,8,63642,1,2,0:0:0:0:
507,91,63749,2,0,L|489:218,1,110.499994941712,2|8,3:2|0:0,0:0:0:0:
512,384,63964,2,0,P|440:317|274:326,1,220.999989883423,2|0,0:0|0:0,0:0:0:0:
92,384,64285,2,0,P|147:368|176:286,1,110.499994941712,10|0,0:0|0:0,0:0:0:0:
166,196,64499,5,4,3:2:0:0:
138,221,64714,2,0,P|194:220|263:247,1,110.499994941712,10|0,0:0|0:0,0:0:0:0:
384,129,64928,2,0,P|338:157|284:152,1,110.499994941712,2|0,3:2|0:0,0:0:0:0:
106,289,65142,1,10,0:0:0:0:
144,211,65249,2,0,P|225:219|340:312,1,220.999989883423,6|0,3:2|3:0,0:0:0:0:
512,176,65571,2,0,L|494:308,1,110.499994941712,10|0,0:0|0:0,0:0:0:0:
259,346,65785,1,2,3:2:0:0:
251,259,65892,1,0,0:0:0:0:
189,209,65999,1,10,0:0:0:0:
50,305,66107,6,0,P|85:221|96:62,1,220.999989883423,6|0,3:2|0:0,0:0:0:0:
356,151,66428,2,0,P|312:174|218:141,1,110.499994941712,10|0,0:0|0:0,0:0:0:0:
33,45,66642,1,2,3:2:0:0:
44,23,66749,1,0,0:0:0:0:
126,0,66857,1,10,0:0:0:0:
182,79,66964,6,0,P|181:187|133:315,1,220.999989883423,6|8,3:2|0:0,0:0:0:0:
329,112,67285,2,0,P|353:164|357:232,1,110.499994941712,8|0,0:0|3:0,0:0:0:0:
485,366,67499,1,8,0:0:0:0:
476,263,67607,1,4,0:3:0:0:
424,207,67714,1,4,0:3:0:0:
388,195,67821,1,4,0:3:0:0:
313,226,67928,6,0,P|400:234|520:204,1,195.500003728867,6|8,0:2|0:0,0:0:0:0:
277,103,68249,2,0,L|259:314,1,195.500003728867,2|0,0:0|0:0,0:0:0:0:
168,342,68571,2,0,L|146:228,1,97.7500018644333,10|0,0:0|3:0,0:0:0:0:
0,24,68785,2,0,P|31:53|123:52,1,97.7500018644333,2|0,0:0|3:0,0:0:0:0:
240,0,68999,1,8,0:0:0:0:
250,11,69107,2,0,L|239:118,1,97.7500018644333,2|0,0:0|3:0,0:0:0:0:
397,282,69321,1,0,0:0:0:0:
318,269,69428,2,0,P|295:227|322:158,1,97.7500018644333,10|0,0:0|0:0,0:0:0:0:
481,0,69642,6,0,P|504:91|508:231,1,195.500003728867,2|8,3:2|0:0,0:0:0:0:
280,355,69964,2,0,B|360:352|360:352|387:322|387:322|461:318,1,195.500003728867,2|0,0:0|0:0,0:0:0:0:
382,157,70285,2,0,P|348:121|277:112,1,97.7500018644333,10|0,0:0|3:0,0:0:0:0:
87,217,70499,1,2,0:0:0:0:
93,248,70607,1,0,3:0:0:0:
162,308,70714,2,0,P|187:270|171:179,1,97.7500018644333,8|0,0:0|0:0,0:0:0:0:
0,37,70928,2,0,L|19:146,1,97.7500018644333,2|0,3:2|0:0,0:0:0:0:
193,220,71142,2,0,L|212:111,1,97.7500018644333,8|0,0:0|0:0,0:0:0:0:
0,259,71357,6,0,P|106:249|170:330,1,195.500003728867,6|8,3:2|0:0,0:0:0:0:
428,134,71678,2,0,L|221:154,1,195.500003728867,2|0,0:0|0:0,0:0:0:0:
98,0,71999,2,0,P|84:54|113:109,1,97.7500018644333,10|0,0:0|3:0,0:0:0:0:
347,110,72214,2,0,L|363:14,1,97.7500018644333,2|0,0:0|3:0,0:0:0:0:
178,86,72428,1,8,0:0:0:0:
240,136,72535,2,0,P|253:186|244:250,1,97.7500018644333,2|0,0:0|3:0,0:0:0:0:
407,65,72749,1,0,0:0:0:0:
330,77,72857,2,0,P|282:68|233:5,1,97.7500018644333,10|0,0:0|0:0,0:0:0:0:
460,0,73071,6,0,L|431:226,1,195.500003728867,2|8,3:2|0:0,0:0:0:0:
133,176,73392,2,0,P|201:126|201:223,1,195.500003728867,2|0,0:0|0:0,0:0:0:0:
103,384,73714,2,0,P|112:338|126:276,1,97.7500018644333,10|0,0:0|3:0,0:0:0:0:
279,150,73928,5,10,0:0:0:0:
374,126,74035,1,0,3:0:0:0:
442,156,74142,1,8,0:0:0:0:
460,195,74249,1,0,3:0:0:0:
458,221,74357,5,6,3:3:0:0:
452,230,74464,1,4,0:3:0:0:
362,197,74571,1,10,0:0:0:0:
351,95,74678,1,4,0:3:0:0:
451,36,74785,6,0,P|437:143|422:259,1,212.5,6|8,3:2|0:0,0:0:0:0:
209,63,75107,2,0,B|197:41|158:7|158:7|221:32|288:51,1,212.5,2|0,0:0|0:0,0:0:0:0:
401,184,75428,2,0,P|366:208|295:230,1,106.25,10|0,0:0|3:0,0:0:0:0:
181,289,75642,2,0,P|180:183|124:93,1,212.5,2|8,0:0|0:0,0:0:0:0:
398,173,75964,1,2,0:0:0:0:
332,212,76071,2,0,P|286:222|219:229,1,106.25,0|0,3:0|0:0,0:0:0:0:
27,121,76285,1,10,0:0:0:0:
5,43,76392,1,8,0:0:0:0:
20,15,76499,6,0,L|7:144,1,114.750000437737,6|0,3:2|0:0,0:0:0:0:
42,298,76714,1,8,0:0:0:0:
80,325,76821,1,0,0:0:0:0:
155,319,76928,1,2,3:2:0:0:
201,255,77035,1,8,0:0:0:0:
283,237,77142,1,0,3:0:0:0:
362,278,77249,1,0,0:0:0:0:
378,373,77357,5,10,0:0:0:0:
369,357,77464,1,0,3:0:0:0:
294,308,77571,1,4,0:3:0:0:
196,304,77678,1,4,0:3:0:0:
124,384,77785,2,0,P|92:243|63:38,1,344.25000131321,14|0,0:0|0:0,0:0:0:0:
20,121,78214,5,2,3:2:0:0:
173,177,78428,1,2,0:0:0:0:
379,54,78642,1,2,3:2:0:0:
512,181,78857,1,2,0:0:0:0:
438,136,78964,2,0,P|405:153|314:135,1,85,2|0,3:2|0:0,0:0:0:0:
160,218,79178,2,0,P|246:221|333:284,1,170,2|2,3:2|0:0,0:0:0:0:
366,384,79499,1,10,3:2:0:0:
366,384,79714,1,2,0:0:0:0:
162,137,79928,5,10,3:2:0:0:
0,290,80142,1,10,0:0:0:0:
252,223,80357,1,10,3:2:0:0:
37,140,80571,1,2,3:2:0:0:
107,218,80678,6,0,P|126:304|90:386,1,170,10|0,0:0|3:0,0:0:0:0:
297,384,80999,2,0,P|277:346|276:304,1,85,10|0,0:0|0:0,0:0:0:0:
512,147,81214,1,2,3:2:0:0:
468,209,81321,1,8,0:0:0:0:
393,229,81428,1,8,0:0:0:0:
322,193,81535,1,8,0:0:0:0:
309,175,81642,6,0,P|267:157|197:164,1,85,2|0,3:2|0:0,0:0:0:0:
219,164,82071,6,0,P|261:166|299:183,1,85,2|0,3:2|0:0,0:0:0:0:
435,384,82285,1,2,0:0:0:0:
491,329,82392,2,0,L|509:186,1,85,2|0,3:2|0:0,0:0:0:0:
455,60,82607,2,0,P|381:94|279:79,1,170,2|2,3:2|0:0,0:0:0:0:
138,0,82928,2,0,P|154:46|143:103,1,85,14|0,0:0|0:0,0:0:0:0:
28,176,83142,2,0,P|9:212|23:278,1,85,2|0,0:0|0:0,0:0:0:0:
75,333,83357,5,14,3:2:0:0:
151,81,83571,1,10,0:0:0:0:
397,205,83785,1,10,0:0:0:0:
326,169,83892,1,4,0:3:0:0:
261,192,83999,1,6,0:3:0:0:
230,186,84107,2,0,P|309:194|377:278,1,170,2|0,3:2|0:0,0:0:0:0:
138,338,84428,2,0,P|178:319|273:324,1,85,10|0,3:2|0:0,0:0:0:0:
404,383,84642,6,0,L|429:69,1,305.999990661621,14|0,0:0|0:0,0:0:0:0:
236,152,85071,6,0,P|247:199|268:260,1,93.5000028533936,2|0,3:2|0:0,0:0:0:0:
347,124,85285,1,10,0:0:0:0:
393,140,85392,1,8,3:2:0:0:
485,95,85499,1,10,3:2:0:0:
455,16,85607,1,0,3:0:0:0:
378,0,85714,1,10,0:0:0:0:
312,45,85821,6,0,P|268:62|209:77,1,93.5000028533936,6|0,3:2|0:0,0:0:0:0:
0,0,86035,2,0,P|46:10|100:40,1,93.5000028533936,2|8,3:2|0:0,0:0:0:0:
193,218,86249,5,2,3:2:0:0:
107,258,86357,1,10,0:0:0:0:
38,218,86464,1,0,3:0:0:0:
31,168,86571,2,0,P|35:140|43:107,2,62.3333352355958,10|4|4,0:0|0:3|0:3,0:0:0:0:
76,188,86785,5,14,3:2:0:0:
263,36,86999,1,10,3:2:0:0:
400,216,87214,2,0,P|414:265|408:318,1,93.5000028533936,2|4,3:2|0:3,0:0:0:0:
391,384,87428,1,10,0:3:0:0:
512,372,87535,1,6,3:2:0:0:
305,246,87749,1,0,3:0:0:0:
246,346,87857,6,0,P|290:339|344:313,1,93.5000028533936,10|0,3:2|0:0,0:0:0:0:
398,101,88071,2,0,P|386:147|385:192,1,93.5000028533936,10|0,3:2|0:0,0:0:0:0:
512,372,88285,6,0,P|499:339|444:289,1,106.25,6|0,3:2|0:0,0:0:0:0:
170,305,88928,5,8,0:0:0:0:
246,346,89035,1,8,0:0:0:0:
304,259,89142,6,0,B|310:218|318:174|318:174|301:203|288:223,1,136,6|0,3:2|0:0,0:0:0:0:
