osu file format v14

[General]
AudioFilename: audio.mp3
AudioLeadIn: 0
PreviewTime: 54107
Countdown: 0
SampleSet: Soft
StackLeniency: 0.4
Mode: 0
LetterboxInBreaks: 0
WidescreenStoryboard: 1

[Editor]
DistanceSpacing: 0.8
BeatDivisor: 4
GridSize: 32
TimelineZoom: 1.5

[Metadata]
Title:Houkago no Liberty (TV Size)
TitleUnicode:放課後のリバティ (TV Size)
Artist:halca
ArtistUnicode:halca
Creator:dkblaze
Version:Asuka_-'s Insane
Source:ぼくたちは勉強ができない!
Tags:Shizuku- nautzz Kowari Asuka_- We can't study bokutachi wa benkyou ga dekinai bokuben cant never learn S2 Season 2 ending ed jpop j pop anime japanese 古橋文乃 furuhashi fumino 緒方理珠 ogata rizu 武元うるか takemoto uruka
BeatmapID:2257091
BeatmapSetID:1078714

[Difficulty]
HPDrainRate:5
CircleSize:3.8
OverallDifficulty:7
ApproachRate:9.2
SliderMultiplier:2.5
SliderTickRate:1

[Events]
//Background and Video events
0,0,"BG.png",0,0
Video,-120,"bokuben.mp4"
//Break Periods
//Storyboard Layer 0 (Background)
//Storyboard Layer 1 (Fail)
//Storyboard Layer 2 (Pass)
//Storyboard Layer 3 (Foreground)
//Storyboard Layer 4 (Overlay)
//Storyboard Sound Samples

[TimingPoints]
-643,428.571428571429,4,2,2,60,1,0
428,-166.666666666667,4,2,2,60,0,0
1071,-166.666666666667,4,2,2,60,0,0
7928,-111.111111111111,4,2,2,75,0,0
16499,-142.857142857143,4,2,2,70,0,0
30214,-83.3333333333333,4,2,2,70,0,0
31285,-142.857142857143,4,2,2,70,0,0
33642,-83.3333333333333,4,2,2,70,0,0
34714,-142.857142857143,4,2,2,70,0,0
37071,-83.3333333333333,4,2,2,70,0,0
38142,-142.857142857143,4,2,2,70,0,0
40499,-142.857142857143,4,2,2,60,0,0
45642,-100,4,2,2,60,0,0
47357,-111.111111111111,4,2,2,65,0,0
50785,-111.111111111111,4,2,2,70,0,0
54214,-100,4,2,2,80,0,1
78214,-100,4,2,2,70,0,0
88285,-111.111111111111,4,2,2,70,0,0
88928,-166.666666666667,4,2,2,70,0,0

[Colours]
Combo1 : 202,99,94
Combo2 : 106,131,244
Combo3 : 251,173,121

[HitObjects]
72,68,428,6,0,L|143:53,2,37.4999988555909,2|2|2,0:0|0:0|0:0,0:0:0:0:
303,120,1071,6,0,L|216:103,2,74.9999977111817,2|2|2,3:2|0:0|3:2,0:0:0:0:
467,55,1714,1,2,0:0:0:0:
479,62,1821,2,0,P|490:81|488:116,1,37.4999988555909,2|0,3:2|0:0,0:0:0:0:
406,183,2035,2,0,L|394:79,1,74.9999977111817,2|0,3:2|0:0,0:0:0:0:
493,182,2357,1,10,3:2:0:0:
372,333,2571,1,10,0:0:0:0:
234,225,2785,6,0,L|220:309,2,74.9999977111817,2|10|10,3:2|0:0|3:2,0:0:0:0:
84,189,3428,1,2,0:0:0:0:
92,197,3535,2,0,P|144:184|172:158,1,74.9999977111817,2|0,3:2|3:0,0:0:0:0:
234,225,3857,2,0,L|245:167,1,37.4999988555909,10|0,0:0|0:0,0:0:0:0:
210,108,4071,2,0,L|201:56,2,37.4999988555909,10|8|10,0:0|0:0|0:0,0:0:0:0:
457,33,4499,6,0,L|447:124,1,74.9999977111817,2|2,3:2|0:0,0:0:0:0:
448,107,4928,2,0,L|457:202,1,74.9999977111817,2|2,3:2|0:0,0:0:0:0:
486,259,5249,2,0,P|441:260|401:232,2,74.9999977111817,2|2|2,3:2|3:2|0:0,0:0:0:0:
371,173,5785,1,14,0:0:0:0:
295,357,5999,1,2,0:0:0:0:
163,209,6214,5,10,0:0:0:0:
371,173,6428,1,10,0:0:0:0:
169,319,6642,1,10,3:2:0:0:
2,129,6857,1,6,0:3:0:0:
7,115,6964,1,2,3:2:0:0:
7,115,7285,5,10,0:0:0:0:
169,319,7499,2,0,L|189:178,1,112.499996566773,14|0,0:0|0:0,0:0:0:0:
151,121,7928,5,4,3:2:0:0:
410,110,8142,2,0,P|386:106|344:63,1,56.2499982833863,10|0,0:0|0:0,0:0:0:0:
294,31,8357,2,0,P|236:23|188:64,1,112.499996566773,2|8,3:2|0:0,0:0:0:0:
87,309,8785,1,2,0:0:0:0:
100,325,8892,2,0,P|135:320|161:299,1,56.2499982833863,2|8,3:2|0:0,0:0:0:0:
229,364,9107,2,0,L|242:236,1,112.499996566773,2|0,0:0|0:0,0:0:0:0:
158,218,9428,1,10,0:0:0:0:
324,367,9642,5,0,3:0:0:0:
504,233,9857,2,0,P|481:213|451:207,1,56.2499982833863,10|0,0:0|0:0,0:0:0:0:
372,230,10071,2,0,L|390:90,1,112.499996566773,2|8,3:2|0:0,0:0:0:0:
184,32,10499,1,2,0:0:0:0:
176,44,10607,2,0,L|184:116,1,56.2499982833863,2|8,3:2|0:0,0:0:0:0:
258,171,10821,2,0,L|274:92,1,56.2499982833863,2|8,0:0|0:0,0:0:0:0:
174,186,11035,1,10,0:0:0:0:
166,201,11142,2,0,L|95:188,1,56.2499982833863,6|4,0:3|0:3,0:0:0:0:
269,115,11357,5,4,3:2:0:0:
395,344,11571,2,0,P|415:319|416:270,1,56.2499982833863,10|0,0:0|0:0,0:0:0:0:
352,241,11785,2,0,P|314:281|334:369,1,112.499996566773,2|10,3:2|0:0,0:0:0:0:
505,304,12107,6,0,L|484:175,1,112.499996566773,2|0,3:2|3:0,0:0:0:0:
422,129,12428,1,10,0:0:0:0:
234,244,12642,1,2,3:2:0:0:
53,77,12857,1,10,0:0:0:0:
37,69,12964,6,0,L|49:196,1,112.499996566773,2|0,3:2|3:0,0:0:0:0:
72,270,13285,2,0,P|99:258|119:233,1,56.2499982833863,10|0,0:0|3:0,0:0:0:0:
192,151,13499,2,0,L|121:138,1,56.2499982833863,10|4,0:0|0:3,0:0:0:0:
234,244,13714,1,10,0:0:0:0:
244,232,13821,2,0,L|230:368,1,112.499996566773,6|0,3:2|3:0,0:0:0:0:
153,319,14142,1,8,0:0:0:0:
485,180,14357,5,8,0:0:0:0:
446,143,14464,1,6,0:3:0:0:
397,139,14571,1,6,0:3:0:0:
361,166,14678,1,6,0:3:0:0:
343,215,14785,5,10,0:0:0:0:
43,146,15214,1,10,0:0:0:0:
220,92,15535,1,2,3:2:0:0:
172,269,15857,1,10,0:0:0:0:
152,180,16071,1,14,0:0:0:0:
152,180,16178,1,2,0:0:0:0:
152,180,16285,1,2,0:0:0:0:
126,89,16499,5,2,3:2:0:0:
126,89,16714,2,0,L|1:75,2,87.499997329712,2|10|2,3:2|0:0|3:2,0:0:0:0:
256,203,17357,1,2,3:2:0:0:
268,218,17464,2,0,P|288:190|289:149,1,43.749998664856,2|0,0:0|0:0,0:0:0:0:
152,180,17678,2,0,L|161:239,1,43.749998664856,2|0,3:2|0:0,0:0:0:0:
256,73,17999,6,0,L|403:61,1,131.249995994568,10|0,0:0|0:0,0:0:0:0:
457,13,18428,1,2,3:2:0:0:
505,254,18642,1,10,0:0:0:0:
379,175,18857,1,2,0:0:0:0:
363,172,18964,2,0,P|339:209|351:275,1,87.499997329712,2|0,0:0|0:0,0:0:0:0:
415,324,19285,2,0,L|425:269,1,43.749998664856,6|0,3:2|0:0,0:0:0:0:
241,205,19499,2,0,L|230:269,1,43.749998664856,2|4,0:0|3:2,0:0:0:0:
339,251,19714,1,2,0:0:0:0:
61,346,19928,5,0,3:0:0:0:
164,121,20142,1,2,3:2:0:0:
50,193,20357,1,10,0:0:0:0:
233,248,20571,1,2,3:2:0:0:
279,57,20785,1,2,3:2:0:0:
268,43,20892,2,0,P|258:62|260:93,1,43.749998664856,2|0,0:0|0:0,0:0:0:0:
368,191,21107,2,0,L|357:105,1,87.499997329712,2|0,3:2|3:0,0:0:0:0:
480,33,21428,6,0,L|459:169,1,131.249995994568,10|0,0:0|0:0,0:0:0:0:
512,238,21857,1,2,3:2:0:0:
294,282,22071,1,10,0:0:0:0:
475,340,22285,1,2,3:2:0:0:
462,348,22392,2,0,L|372:335,1,87.499997329712,14|0,0:0|0:0,0:0:0:0:
294,282,22714,2,0,L|283:337,1,43.749998664856,2|0,3:2|3:0,0:0:0:0:
363,236,22928,1,10,0:0:0:0:
328,204,23035,1,0,3:0:0:0:
281,196,23142,1,2,3:2:0:0:
235,219,23249,1,8,0:0:0:0:
214,266,23357,5,4,3:2:0:0:
472,57,23571,1,2,0:0:0:0:
347,99,23785,1,10,0:0:0:0:
508,180,23999,1,2,3:2:0:0:
272,49,24214,1,2,3:2:0:0:
259,60,24321,2,0,L|253:125,1,43.749998664856,2|0,0:0|0:0,0:0:0:0:
353,142,24535,2,0,L|345:90,1,43.749998664856,10|0,0:0|0:0,0:0:0:0:
150,208,24857,6,0,L|298:194,1,131.249995994568,2|0,3:2|0:0,0:0:0:0:
353,142,25285,1,2,3:2:0:0:
257,310,25499,1,10,0:0:0:0:
72,248,25714,1,2,0:0:0:0:
59,255,25821,2,0,P|49:205|92:160,1,87.499997329712,2|8,0:0|0:0,0:0:0:0:
83,89,26142,2,0,L|144:120,1,43.749998664856,10|0,3:2|0:0,0:0:0:0:
208,81,26357,2,0,L|225:125,1,43.749998664856,2|8,0:0|0:0,0:0:0:0:
300,159,26571,2,0,L|282:215,1,43.749998664856,2|8,0:0|0:0,0:0:0:0:
284,295,26785,5,0,3:0:0:0:
439,257,26999,1,2,3:2:0:0:
286,200,27214,1,10,0:0:0:0:
405,353,27428,1,2,3:2:0:0:
387,98,27642,1,10,0:0:0:0:
378,90,27749,2,0,L|369:156,1,43.749998664856,2|0,0:0|3:0,0:0:0:0:
439,257,27964,2,0,L|453:148,1,87.499997329712,2|0,0:0|0:0,0:0:0:0:
491,62,28285,6,0,P|409:58|370:107,1,131.249995994568,14|0,0:0|0:0,0:0:0:0:
303,25,28714,1,2,3:2:0:0:
79,144,28928,1,14,0:0:0:0:
296,286,29142,1,2,3:2:0:0:
296,286,29249,2,0,L|308:180,1,87.499997329712,14|0,0:0|0:0,0:0:0:0:
296,116,29571,1,0,3:0:0:0:
430,322,29785,5,10,0:0:0:0:
481,274,29892,1,8,0:0:0:0:
465,205,29999,1,0,3:0:0:0:
92,118,30214,6,0,P|168:128|216:49,1,149.999995422363,6|0,3:2|0:0,0:0:0:0:
334,34,30535,2,0,P|258:26|210:105,1,149.999995422363,2|0,3:2|0:0,0:0:0:0:
400,250,30857,1,2,3:2:0:0:
400,250,31285,5,2,3:2:0:0:
266,353,31499,2,0,L|279:245,1,87.499997329712,10|2,0:0|0:0,0:0:0:0:
305,185,31821,2,0,P|245:187|212:237,1,87.499997329712,2|0,0:0|0:0,0:0:0:0:
184,279,32142,1,2,3:2:0:0:
361,326,32357,1,10,0:0:0:0:
109,360,32571,1,2,0:0:0:0:
101,367,32678,6,0,L|81:249,1,87.499997329712,2|0,3:2|3:0,0:0:0:0:
184,279,32999,2,0,L|195:215,1,43.749998664856,10|0,0:0|3:0,0:0:0:0:
12,214,33214,1,10,0:0:0:0:
124,37,33428,1,4,0:3:0:0:
220,207,33642,6,0,P|285:211|338:133,1,149.999995422363,2|0,3:2|0:0,0:0:0:0:
410,256,33964,2,0,P|346:221|335:149,1,149.999995422363,2|0,3:2|0:0,0:0:0:0:
502,24,34285,1,14,3:2:0:0:
502,24,34714,5,2,3:2:0:0:
378,69,34928,2,0,L|261:58,1,87.499997329712,10|6,0:0|0:3,0:0:0:0:
236,2,35249,2,0,P|214:37|228:114,1,87.499997329712,6|0,0:3|0:0,0:0:0:0:
271,144,35571,1,10,0:0:0:0:
149,246,35785,6,0,L|142:180,1,43.749998664856,10|0,0:0|0:0,0:0:0:0:
60,170,35999,1,2,3:2:0:0:
56,184,36107,2,0,L|69:306,1,87.499997329712,10|0,0:0|0:0,0:0:0:0:
125,327,36428,1,14,0:0:0:0:
271,144,36642,1,2,3:2:0:0:
271,144,36749,1,8,0:0:0:0:
271,144,36857,1,8,3:2:0:0:
271,144,36964,1,8,0:0:0:0:
271,144,37071,6,0,P|370:132|424:201,1,149.999995422363,6|0,3:2|0:0,0:0:0:0:
250,277,37392,2,0,P|241:177|312:126,1,149.999995422363,6|0,3:2|0:0,0:0:0:0:
457,350,37714,1,14,3:2:0:0:
457,350,38142,5,10,0:0:0:0:
277,305,38357,2,0,L|154:320,1,87.499997329712,10|2,0:0|3:2,0:0:0:0:
133,384,38678,2,0,P|102:329|120:279,1,87.499997329712,10|0,0:0|0:0,0:0:0:0:
157,229,38999,1,10,3:2:0:0:
63,35,39214,6,0,L|54:88,1,43.749998664856,10|0,0:0|3:0,0:0:0:0:
127,120,39428,1,10,0:0:0:0:
142,114,39535,2,0,L|159:3,1,87.499997329712,2|0,3:2|3:0,0:0:0:0:
243,8,39857,1,10,0:0:0:0:
370,219,40071,1,10,0:3:0:0:
370,219,40178,1,8,0:0:0:0:
370,219,40285,1,4,0:3:0:0:
440,105,40499,6,0,L|306:82,2,131.249995994568,6|2|2,3:2|0:0|0:0,0:0:0:0:
76,170,41357,6,0,L|225:150,2,131.249995994568,2|2|2,3:2|0:0|0:0,0:0:0:0:
433,256,42214,6,0,L|304:234,2,131.249995994568,2|2|2,3:2|0:0|0:0,0:0:0:0:
115,309,43071,6,0,L|237:292,1,87.499997329712,2|0,3:0|0:0,0:0:0:0:
293,354,43499,1,8,3:2:0:0:
196,152,43714,1,2,0:0:0:0:
362,229,43928,6,0,P|406:166|383:100,2,131.249995994568,2|2|2,3:0|0:0|0:0,0:0:0:0:
150,229,44785,6,0,P|108:180|116:116,2,131.249995994568,2|2|2,3:2|0:0|0:0,0:0:0:0:
320,295,45642,5,6,3:2:0:0:
226,201,45857,2,0,P|252:213|284:223,1,62.5,14|2,0:0|0:0,0:0:0:0:
282,365,46071,2,0,P|246:376|203:389,1,62.5,8|0,3:2|0:0,0:0:0:0:
96,275,46285,2,0,P|102:246|123:222,1,62.5,2|8,0:0|0:0,0:0:0:0:
239,292,46499,1,2,3:2:0:0:
239,292,46607,1,8,0:0:0:0:
239,292,46714,2,0,L|173:283,2,62.5,8|8|14,0:3|0:3|3:0,0:0:0:0:
302,125,47142,1,4,0:3:0:0:
58,197,47357,6,0,L|73:62,1,112.499996566773,6|8,3:2|0:0,0:0:0:0:
64,0,47678,2,0,P|116:11|150:93,1,112.499996566773,2|8,0:0|0:3,0:0:0:0:
148,140,47999,1,6,0:3:0:0:
251,260,48214,6,0,L|381:233,1,112.499996566773,6|8,3:2|0:0,0:0:0:0:
449,262,48535,2,0,P|448:207|363:155,1,112.499996566773,2|0,3:2|0:0,0:0:0:0:
328,151,48857,1,10,0:3:0:0:
46,359,49071,6,0,L|68:230,1,112.499996566773,6|8,3:2|0:0,0:0:0:0:
0,189,49392,2,0,P|41:158|129:196,1,112.499996566773,2|8,0:0|0:3,0:0:0:0:
166,234,49714,1,10,0:3:0:0:
257,363,49928,6,0,P|330:347|360:287,1,112.499996566773,6|0,3:2|0:0,0:0:0:0:
472,255,50249,2,0,L|348:234,1,112.499996566773,14|0,0:0|0:0,0:0:0:0:
267,156,50571,1,10,0:0:0:0:
267,156,50678,1,0,0:0:0:0:
267,156,50785,6,0,L|274:283,1,112.499996566773,6|0,3:2|0:0,0:0:0:0:
246,342,51107,1,2,0:0:0:0:
227,359,51214,2,0,P|203:366|173:371,3,56.2499982833863,0|8|10|8,3:0|0:0|0:0|0:0,0:0:0:0:
119,310,51642,2,0,P|95:304|49:298,3,56.2499982833863,2|8|8|10,3:2|0:0|0:0|0:0,0:0:0:0:
30,223,52071,1,0,3:0:0:0:
34,179,52178,1,8,0:0:0:0:
59,142,52285,1,10,0:0:0:0:
100,124,52392,1,8,0:0:0:0:
145,128,52499,5,6,3:2:0:0:
323,297,52821,1,2,3:2:0:0:
411,60,53142,1,2,3:2:0:0:
285,175,53357,1,2,3:2:0:0:
312,77,53571,1,0,0:0:0:0:
206,3,53785,1,10,0:0:0:0:
83,38,53999,1,10,0:0:0:0:
83,38,54107,1,10,0:0:0:0:
83,38,54214,6,0,P|64:68|69:121,1,62.5,6|0,3:2|0:0,0:0:0:0:
173,160,54428,2,0,L|150:75,1,62.5,10|0,0:0|0:0,0:0:0:0:
72,254,54642,2,0,L|86:163,1,62.5,2|0,3:2|0:0,0:0:0:0:
165,359,54857,2,0,L|145:261,1,62.5,10|2,0:0|3:2,0:0:0:0:
258,346,55071,5,2,0:0:0:0:
341,300,55178,2,0,P|354:339|348:379,1,62.5,2|8,3:2|0:0,0:0:0:0:
512,240,55392,2,0,L|351:220,1,125,2|0,0:0|0:0,0:0:0:0:
311,176,55714,1,10,0:0:0:0:
476,20,55928,5,0,3:0:0:0:
311,176,56142,2,0,P|292:134|299:96,1,62.5,10|0,0:0|0:0,0:0:0:0:
390,59,56357,2,0,L|383:147,1,62.5,2|0,3:2|0:0,0:0:0:0:
246,35,56571,2,0,L|314:24,1,62.5,10|0,0:0|3:0,0:0:0:0:
473,119,56785,5,2,0:0:0:0:
390,183,56892,2,0,L|385:121,1,62.5,2|8,3:2|0:0,0:0:0:0:
484,243,57107,2,0,L|469:80,1,125,2|0,0:0|0:0,0:0:0:0:
393,288,57428,1,10,0:0:0:0:
310,239,57535,1,0,0:0:0:0:
390,183,57642,5,0,3:0:0:0:
219,18,57857,2,0,L|208:91,1,62.5,10|0,0:0|0:0,0:0:0:0:
138,179,58071,2,0,L|118:55,1,125,2|10,3:2|0:0,0:0:0:0:
308,126,58392,6,0,P|254:74|183:102,1,125,2|0,3:2|3:0,0:0:0:0:
138,179,58714,1,10,0:0:0:0:
154,172,58821,1,0,0:0:0:0:
54,146,58928,2,0,L|40:240,1,62.5,2|0,3:2|0:0,0:0:0:0:
81,302,59142,1,10,0:0:0:0:
240,215,59249,6,0,P|183:168|118:197,1,125,6|0,3:2|0:0,0:0:0:0:
186,341,59571,2,0,P|222:332|256:301,1,62.5,10|0,0:0|0:0,0:0:0:0:
348,231,59785,2,0,L|334:360,1,125,2|10,3:2|0:0,0:0:0:0:
227,90,60107,6,0,L|240:216,1,125,6|0,3:2|3:0,0:0:0:0:
319,100,60428,1,10,0:0:0:0:
336,91,60535,1,0,3:0:0:0:
236,28,60642,2,0,L|223:111,1,62.5,10|8,0:0|0:0,0:0:0:0:
413,153,60857,1,10,0:0:0:0:
421,103,60964,1,8,0:0:0:0:
428,48,61071,5,6,3:2:0:0:
451,299,61285,2,0,P|417:321|373:318,1,62.5,10|0,0:0|0:0,0:0:0:0:
295,293,61499,2,0,P|269:280|226:280,1,62.5,2|0,3:2|0:0,0:0:0:0:
139,337,61714,2,0,L|130:276,1,62.5,10|0,0:0|3:0,0:0:0:0:
274,178,61928,5,2,0:0:0:0:
190,135,62035,2,0,L|177:216,1,62.5,2|8,3:2|0:0,0:0:0:0:
2,125,62249,2,0,P|65:136|112:80,1,125,2|0,0:0|0:0,0:0:0:0:
178,32,62571,1,10,0:0:0:0:
139,337,62785,5,0,3:0:0:0:
467,203,62999,2,0,P|434:182|389:179,1,62.5,10|0,0:0|0:0,0:0:0:0:
356,97,63214,2,0,P|332:120|316:166,1,62.5,2|0,3:2|0:0,0:0:0:0:
227,170,63428,2,0,P|240:199|266:221,1,62.5,10|0,0:0|3:0,0:0:0:0:
452,292,63642,5,2,0:0:0:0:
369,346,63749,2,0,L|356:263,1,62.5,2|8,3:2|0:0,0:0:0:0:
485,79,63964,2,0,L|466:208,1,125,2|0,0:0|0:0,0:0:0:0:
409,19,64285,1,10,0:0:0:0:
321,54,64392,1,0,0:0:0:0:
395,110,64499,5,4,3:2:0:0:
186,6,64714,2,0,L|192:89,1,62.5,10|0,0:0|0:0,0:0:0:0:
272,177,64928,2,0,L|116:159,1,125,2|10,3:2|0:0,0:0:0:0:
63,298,65249,6,0,P|27:223|51:173,1,125,6|0,3:2|3:0,0:0:0:0:
170,259,65571,2,0,L|154:339,1,62.5,10|0,0:0|0:0,0:0:0:0:
31,126,65785,2,0,L|40:188,1,62.5,2|0,3:2|0:0,0:0:0:0:
114,65,65999,1,10,0:0:0:0:
170,259,66107,6,0,L|197:112,1,125,6|0,3:2|0:0,0:0:0:0:
203,46,66428,2,0,P|243:60|260:80,1,62.5,10|0,0:0|0:0,0:0:0:0:
293,226,66642,2,0,P|361:236|403:168,1,125,2|10,3:2|0:0,0:0:0:0:
360,42,66964,6,0,P|305:32|250:94,1,125,6|8,3:2|0:0,0:0:0:0:
429,109,67285,1,8,0:0:0:0:
293,226,67499,1,8,0:0:0:0:
442,360,67714,1,4,0:3:0:0:
442,360,67821,1,4,0:3:0:0:
442,360,67928,6,0,L|278:340,1,125,6|8,0:2|0:0,0:0:0:0:
232,379,68249,2,0,P|199:313|247:250,1,125,2|0,0:0|0:0,0:0:0:0:
293,226,68571,1,10,0:0:0:0:
194,43,68785,6,0,P|122:37|85:107,1,125,2|8,0:0|0:0,0:0:0:0:
2,58,69107,2,0,L|18:198,1,125,2|0,0:0|0:0,0:0:0:0:
79,242,69428,1,10,0:0:0:0:
343,127,69642,6,0,L|505:152,2,125,2|8|0,3:2|0:0|3:0,0:0:0:0:
193,269,70285,1,10,0:0:0:0:
192,249,70392,1,0,3:0:0:0:
260,188,70499,6,0,P|277:219|278:257,1,62.5,2|0,0:0|3:0,0:0:0:0:
108,211,70714,2,0,L|123:136,1,62.5,8|0,0:0|0:0,0:0:0:0:
246,64,70928,2,0,L|263:214,1,125,2|8,3:2|0:0,0:0:0:0:
296,336,71249,1,0,0:0:0:0:
309,344,71357,6,0,P|387:341|418:299,1,125,6|8,3:2|0:0,0:0:0:0:
502,340,71678,2,0,L|480:196,1,125,2|0,0:0|0:0,0:0:0:0:
414,163,71999,1,10,0:0:0:0:
148,275,72214,6,0,L|170:128,1,125,2|8,0:0|0:0,0:0:0:0:
95,99,72535,2,0,P|144:60|230:95,1,125,2|0,0:0|0:0,0:0:0:0:
251,139,72857,1,10,0:0:0:0:
148,275,73071,6,0,L|0:255,1,125,2|8,3:2|0:0,0:0:0:0:
63,351,73392,2,0,L|197:369,1,125,2|0,0:0|0:0,0:0:0:0:
239,277,73714,1,10,0:0:0:0:
231,290,73821,1,0,3:0:0:0:
140,213,73928,6,0,L|150:291,1,62.5,10|0,0:0|3:0,0:0:0:0:
233,132,74142,1,8,0:0:0:0:
229,149,74249,1,0,3:0:0:0:
140,213,74357,2,0,L|127:123,1,62.5,6|4,3:3|0:3,0:0:0:0:
53,72,74571,6,0,L|42:156,1,62.5,10|4,0:0|0:3,0:0:0:0:
256,38,74785,2,0,P|192:24|137:92,1,125,6|8,3:2|0:0,0:0:0:0:
150,274,75107,2,0,L|129:130,1,125,2|0,0:0|0:0,0:0:0:0:
147,57,75428,1,10,0:0:0:0:
474,180,75642,6,0,P|416:227|343:196,1,125,2|8,0:0|0:0,0:0:0:0:
272,174,75964,2,0,L|296:330,1,125,2|0,0:0|0:0,0:0:0:0:
358,110,76285,1,10,0:0:0:0:
352,127,76392,1,8,0:0:0:0:
272,174,76499,6,0,P|225:171|195:149,1,62.5,6|0,3:2|0:0,0:0:0:0:
148,266,76714,2,0,P|119:238|103:190,1,62.5,8|0,0:0|0:0,0:0:0:0:
9,157,76928,5,2,3:2:0:0:
0,134,77035,1,8,0:0:0:0:
3,106,77142,2,0,L|64:134,1,62.5,0|0,3:0|0:0,0:0:0:0:
260,83,77357,5,10,0:0:0:0:
271,53,77464,1,0,3:0:0:0:
260,25,77571,2,0,L|180:50,1,62.5,4|4,0:3|0:3,0:0:0:0:
3,106,77785,1,14,0:0:0:0:
490,291,78214,5,2,3:2:0:0:
417,247,78428,1,2,0:0:0:0:
325,254,78642,1,2,3:2:0:0:
267,322,78857,1,2,0:0:0:0:
267,322,78964,1,2,3:2:0:0:
176,333,79178,1,2,3:2:0:0:
176,333,79285,2,0,P|171:298|166:254,1,62.5,8|2,0:0|0:0,0:0:0:0:
142,102,79499,1,10,3:2:0:0:
226,161,79714,1,2,0:0:0:0:
0,131,79928,5,10,3:2:0:0:
81,184,80142,1,10,0:0:0:0:
151,40,80357,2,0,P|146:71|142:101,1,62.5,10|0,3:2|0:0,0:0:0:0:
81,184,80571,1,2,3:2:0:0:
81,184,80678,2,0,P|93:259|104:331,1,125,10|0,0:0|3:0,0:0:0:0:
108,384,80999,1,10,0:0:0:0:
253,285,81214,1,2,3:2:0:0:
283,280,81321,1,8,0:0:0:0:
313,290,81428,1,8,0:0:0:0:
334,312,81535,1,8,0:0:0:0:
344,341,81642,5,2,3:2:0:0:
441,369,81857,1,2,0:0:0:0:
509,295,82071,1,2,3:2:0:0:
490,196,82285,1,2,0:0:0:0:
490,196,82392,1,2,3:2:0:0:
393,167,82607,1,2,3:2:0:0:
393,167,82714,2,0,P|361:175|324:184,1,62.5,8|2,0:0|0:0,0:0:0:0:
195,211,82928,1,14,0:0:0:0:
243,114,83142,1,2,0:0:0:0:
350,274,83357,5,14,3:2:0:0:
300,193,83571,1,10,0:0:0:0:
225,318,83785,2,0,P|194:310|164:303,1,62.5,10|4,0:0|0:3,0:0:0:0:
76,232,83999,1,6,0:3:0:0:
36,243,84107,2,0,P|13:296|48:371,1,125,2|0,3:2|0:0,0:0:0:0:
132,384,84428,1,10,3:2:0:0:
273,195,84642,2,0,B|384:185|343:274|461:269,1,187.5,14|0,0:0|0:0,0:0:0:0:
512,239,85071,5,2,3:2:0:0:
418,384,85285,1,10,0:0:0:0:
245,324,85499,2,0,P|275:316|305:307,1,62.5,10|0,3:2|3:0,0:0:0:0:
436,268,85714,1,10,0:0:0:0:
436,268,85821,1,6,3:2:0:0:
304,114,86035,1,2,3:2:0:0:
129,217,86249,1,2,3:2:0:0:
129,217,86357,2,0,P|159:226|194:236,1,62.5,10|0,0:0|3:0,0:0:0:0:
222,119,86571,2,0,P|191:130|154:143,1,62.5,10|0,0:0|0:0,0:0:0:0:
27,198,86785,5,14,3:2:0:0:
210,35,86999,1,10,3:2:0:0:
291,197,87214,2,0,L|276:278,1,62.5,2|4,3:2|0:3,0:0:0:0:
255,375,87428,1,10,0:3:0:0:
255,375,87535,1,6,3:2:0:0:
368,245,87749,1,0,3:0:0:0:
368,245,87857,5,10,3:2:0:0:
222,119,88071,1,10,3:2:0:0:
41,308,88285,2,0,B|115:261|127:198|127:198|117:261|176:329,1,281.249991416931,6|0,3:2|0:0,0:0:0:0:
247,290,88928,6,0,L|267:228,2,37.4999988555909,8|8|6,0:0|0:0|3:2,0:0:0:0:
