osu file format v14

[General]
AudioFilename: audio.mp3
AudioLeadIn: 0
PreviewTime: 49127
Countdown: 0
SampleSet: Soft
StackLeniency: 0.6
Mode: 0
LetterboxInBreaks: 0
WidescreenStoryboard: 1

[Editor]
DistanceSpacing: 0.9
BeatDivisor: 4
GridSize: 32
TimelineZoom: 2.1

[Metadata]
Title:FIRST DROP (TV Size)
TitleUnicode:FIRST DROP (TV Size)
Artist:halca
ArtistUnicode:halca
Creator:dkblaze
Version:Insane
Source:彼女、お借りします
Tags:Kanojo Okarishimasu Rent-A-Girlfriend rental girlfriend KanoKari Ending ED TMS Entertainment jpop J-pop j pop anime japanese Yuuma
BeatmapID:2593389
BeatmapSetID:1246982

[Difficulty]
HPDrainRate:5
CircleSize:3.8
OverallDifficulty:8
ApproachRate:8.8
SliderMultiplier:1.4
SliderTickRate:1

[Events]
//Background and Video events
0,0,"BG.jpg",0,0
Video,-621,"video.mp4"
//Break Periods
//Storyboard Layer 0 (Background)
//Storyboard Layer 1 (Fail)
//Storyboard Layer 2 (Pass)
//Storyboard Layer 3 (Foreground)
//Storyboard Layer 4 (Overlay)
//Storyboard Sound Samples

[TimingPoints]
-176,434.782608695652,4,2,2,70,1,0
41,-100,4,2,2,70,0,0
1138,434.782608695652,4,2,2,75,1,0
1138,-83.3333333333333,4,2,2,75,0,0
7116,-76.9230769230769,4,2,2,75,0,0
8094,-100,4,2,2,50,0,0
21137,-100,4,2,2,70,0,0
22007,-90.9090909090909,4,2,2,70,0,0
33964,-83.3333333333333,4,2,2,70,0,0
35920,-111.111111111111,4,2,2,70,0,0
42877,-90.9090909090909,4,2,2,75,0,0
43094,-90.9090909090909,4,2,2,65,0,0
44616,-83.3333333333333,4,2,2,70,0,0
46355,-100,4,2,2,75,0,0
49833,-71.4285714285714,4,2,2,80,0,1
67224,-66.6666666666667,4,2,2,80,0,1
70703,-71.4285714285714,4,2,2,75,0,0
88529,-71.4285714285714,4,2,2,5,0,0

[Colours]
Combo1 : 133,225,241
Combo2 : 108,146,244
Combo3 : 145,129,252
Combo4 : 240,188,140

[HitObjects]
178,148,41,5,2,0:0:0:0:
178,148,150,1,2,0:0:0:0:
178,148,258,1,8,0:0:0:0:
358,241,584,1,8,0:0:0:0:
426,194,693,6,0,L|430:175,9,11.6666666666667,2|0|0|0|0|0|0|0|0|0,0:0|0:0|0:0|0:0|0:0|0:0|0:0|0:0|0:0|0:0,0:0:0:0:
443,215,1138,5,6,3:2:0:0:
343,148,1355,1,0,3:0:0:0:
210,269,1572,2,0,P|222:314|230:351,1,83.9999974365235,10|0,0:0|0:0,0:0:0:0:
315,362,1898,2,0,P|337:354|383:338,1,41.9999987182618,2|0,3:2|0:0,0:0:0:0:
403,332,2116,1,10,0:0:0:0:
403,332,2224,1,2,3:2:0:0:
267,199,2442,2,0,L|156:173,1,83.9999974365235,10|2,0:0|0:0,0:0:0:0:
137,170,2768,1,2,0:0:0:0:
137,170,2877,5,2,3:2:0:0:
239,106,3094,1,0,3:0:0:0:
69,270,3311,2,0,P|60:230|45:164,1,83.9999974365235,10|0,0:0|0:0,0:0:0:0:
5,121,3637,2,0,P|10:95|16:61,1,41.9999987182618,2|0,3:2|0:0,0:0:0:0:
23,27,3855,1,10,0:0:0:0:
23,27,3964,1,2,3:2:0:0:
231,69,4181,1,10,0:0:0:0:
92,115,4398,1,2,0:0:0:0:
194,206,4616,5,2,3:2:0:0:
144,43,4833,1,0,3:0:0:0:
303,133,5051,2,0,P|294:184|289:226,1,83.9999974365235,10|0,0:0|0:0,0:0:0:0:
240,277,5377,2,0,P|245:303|250:329,1,41.9999987182618,2|0,3:2|0:0,0:0:0:0:
258,366,5594,1,10,0:0:0:0:
258,366,5703,1,2,3:2:0:0:
344,277,5920,1,10,0:0:0:0:
194,206,6137,1,2,0:0:0:0:
410,94,6355,5,10,3:2:0:0:
116,174,6790,1,10,3:2:0:0:
344,277,7116,6,0,P|347:252|357:157,1,90.9999958343508,6|0,3:2|0:0,0:0:0:0:
234,88,7442,2,0,P|239:117|245:145,1,45.4999979171754,8|4,0:0|0:3,0:0:0:0:
261,211,7659,1,8,0:0:0:0:
261,211,7768,1,4,0:3:0:0:
261,211,7877,1,6,0:3:0:0:
115,377,8094,6,0,P|58:382|7:322,1,140,6|0,3:2|3:0,0:0:0:0:
29,227,8746,1,2,0:0:0:0:
29,227,8964,2,0,P|91:212|171:195,1,140,2|0,3:2|3:0,0:0:0:0:
228,262,9616,1,2,0:0:0:0:
228,262,9833,6,0,P|294:280|379:299,1,140,2|0,3:2|3:0,0:0:0:0:
411,372,10485,1,2,0:0:0:0:
411,372,10703,2,0,P|392:347|421:227,1,140,2|0,3:2|3:0,0:0:0:0:
476,193,11355,1,2,0:0:0:0:
329,95,11572,5,2,3:2:0:0:
329,95,11790,1,2,0:0:0:0:
409,50,12007,1,2,3:2:0:0:
409,50,12224,1,0,0:0:0:0:
374,175,12442,1,2,3:2:0:0:
329,95,12659,1,2,0:0:0:0:
252,138,12877,1,2,3:2:0:0:
156,89,13094,6,0,P|163:134|168:173,1,70,2|0,0:0|3:0,0:0:0:0:
241,207,13529,2,0,P|248:162|253:123,1,70,2|0,0:0|3:0,0:0:0:0:
329,95,13964,2,0,P|336:140|341:179,1,70,2|0,0:0|3:0,0:0:0:0:
292,279,14398,2,0,P|264:295|213:290,1,70,2|0,0:0|3:0,0:0:0:0:
137,251,14833,1,2,0:0:0:0:
29,361,15051,6,0,P|33:325|50:198,1,140,2|0,3:2|3:0,0:0:0:0:
7,128,15703,1,2,0:0:0:0:
7,128,15920,2,0,P|50:92|131:110,1,140,2|0,3:2|3:0,0:0:0:0:
210,67,16572,1,2,0:0:0:0:
210,67,16790,6,0,P|235:153|202:221,1,140,2|0,3:2|3:0,0:0:0:0:
151,269,17442,1,2,0:0:0:0:
151,269,17659,2,0,P|218:253|307:235,1,140,2|0,3:2|3:0,0:0:0:0:
369,287,18311,1,2,0:0:0:0:
470,208,18529,5,2,3:2:0:0:
449,215,18746,1,2,0:0:0:0:
364,181,18964,1,2,3:2:0:0:
355,95,19181,1,2,0:0:0:0:
450,29,19398,2,0,P|442:76|437:125,1,70,2|0,3:2|0:0,0:0:0:0:
437,116,19724,1,2,0:0:0:0:
437,116,19833,1,0,3:0:0:0:
256,32,20051,1,6,3:2:0:0:
256,32,21137,5,8,0:0:0:0:
252,56,21245,1,8,0:0:0:0:
250,80,21354,1,8,3:3:0:0:
248,105,21463,1,0,3:0:0:0:
247,129,21571,1,8,0:0:0:0:
247,129,22007,6,0,P|191:110|95:83,1,154.000004699707,6|8,3:2|0:0,0:0:0:0:
188,198,22659,1,2,0:0:0:0:
338,89,22877,1,2,0:0:0:0:
338,89,22985,1,8,0:0:0:0:
338,89,23094,1,0,3:0:0:0:
170,20,23311,1,8,0:0:0:0:
247,129,23529,1,2,0:0:0:0:
396,20,23746,6,0,P|454:68|452:145,1,154.000004699707,2|8,3:2|0:0,0:0:0:0:
386,255,24398,1,2,0:0:0:0:
247,129,24616,1,2,0:0:0:0:
247,129,24724,1,8,0:0:0:0:
247,129,24833,1,0,3:0:0:0:
444,177,25051,1,8,0:0:0:0:
386,255,25268,1,2,0:0:0:0:
316,71,25485,5,2,3:2:0:0:
380,267,25703,1,2,0:0:0:0:
450,168,25920,1,10,0:0:0:0:
374,279,26137,1,2,0:0:0:0:
273,208,26355,1,2,0:0:0:0:
273,208,26464,1,8,0:0:0:0:
273,208,26572,1,2,3:2:0:0:
374,279,26790,1,10,0:0:0:0:
221,377,27007,6,0,P|178:365|123:349,1,77.0000023498536,2|0,0:0|3:0,0:0:0:0:
5,291,27442,1,2,0:0:0:0:
55,375,27659,1,10,0:0:0:0:
192,282,27877,2,0,P|197:261|177:197,1,77.0000023498536,2|0,0:0|0:0,0:0:0:0:
159,181,28203,1,8,0:0:0:0:
159,181,28311,1,2,3:2:0:0:
5,291,28529,1,8,0:0:0:0:
104,253,28746,1,2,0:0:0:0:
0,124,28964,6,0,P|10:215|18:283,1,154.000004699707,6|8,3:2|0:0,0:0:0:0:
128,174,29616,1,2,0:0:0:0:
222,244,29833,1,2,0:0:0:0:
222,244,29942,1,8,0:0:0:0:
222,244,30051,1,0,3:0:0:0:
328,124,30268,1,8,0:0:0:0:
393,181,30485,1,2,0:0:0:0:
222,244,30703,6,0,P|279:229|344:289,1,154.000004699707,2|8,3:2|0:0,0:0:0:0:
333,384,31355,1,2,0:0:0:0:
461,316,31572,1,2,0:0:0:0:
461,316,31681,1,8,0:0:0:0:
461,316,31790,1,0,3:0:0:0:
291,198,32007,1,8,0:0:0:0:
359,275,32224,1,2,0:0:0:0:
500,91,32442,5,6,3:2:0:0:
434,227,32659,1,10,0:0:0:0:
434,227,32768,1,8,0:0:0:0:
434,227,32877,1,14,0:1:0:0:
306,118,33094,2,0,P|283:111|246:101,1,38.5000011749268,2|2,0:0|0:0,0:0:0:0:
187,163,33311,2,0,P|146:173|82:186,1,77.0000023498536,10|0,3:2|0:0,0:0:0:0:
8,137,33637,1,10,0:3:0:0:
274,2,33964,6,0,P|315:61|292:146,1,125.999996154785,6|0,3:2|0:0,0:0:0:0:
291,143,34398,1,0,3:0:0:0:
165,116,34616,1,8,0:0:0:0:
397,18,34833,1,8,0:3:0:0:
397,18,35268,5,8,0:3:0:0:
381,134,35485,1,4,0:3:0:0:
365,250,35703,1,6,0:3:0:0:
238,77,35920,6,0,L|250:151,1,62.9999980773926,6|2,3:2|0:0,0:0:0:0:
164,152,36355,2,0,L|153:89,1,62.9999980773926,2|2,3:2|0:0,0:0:0:0:
68,101,36790,2,0,L|79:164,1,62.9999980773926,2|2,3:2|0:0,0:0:0:0:
85,192,37116,1,2,0:0:0:0:
85,192,37224,1,2,3:2:0:0:
35,264,37442,1,10,0:3:0:0:
35,264,37551,1,8,0:3:0:0:
35,264,37659,5,6,3:2:0:0:
88,338,37877,1,2,0:0:0:0:
171,314,38094,1,2,3:2:0:0:
183,169,38311,2,0,P|177:201|172:231,1,62.9999980773926,2|0,0:0|3:0,0:0:0:0:
259,245,38746,2,0,P|264:213|269:182,1,62.9999980773926,10|0,0:3|3:0,0:0:0:0:
246,71,39181,1,10,0:3:0:0:
450,140,39398,6,0,P|407:152|374:164,1,62.9999980773926,6|2,3:2|0:0,0:0:0:0:
368,167,39724,1,2,0:0:0:0:
368,167,39833,1,2,3:2:0:0:
345,249,40051,1,10,0:3:0:0:
345,249,40159,1,2,0:0:0:0:
345,249,40268,1,2,3:2:0:0:
405,324,40485,1,10,0:3:0:0:
490,309,40703,2,0,L|498:269,2,31.4999990386963,6|4|6,3:3|0:3|0:3,0:0:0:0:
343,384,41137,6,0,P|316:372|270:357,1,62.9999980773926,6|2,3:2|0:0,0:0:0:0:
106,254,41572,1,10,3:2:0:0:
330,158,41790,1,10,0:0:0:0:
129,42,42007,1,8,3:2:0:0:
276,223,42224,1,0,3:0:0:0:
276,223,42333,1,0,3:0:0:0:
276,223,42442,1,12,0:0:0:0:
410,143,42659,1,2,0:0:0:0:
410,143,42768,1,2,0:0:0:0:
410,143,42877,5,14,3:2:0:0:
308,25,43094,1,10,0:0:0:0:
274,6,43202,1,2,0:0:0:0:
236,4,43311,1,10,3:2:0:0:
201,20,43420,1,2,0:0:0:0:
177,49,43528,1,10,0:0:0:0:
168,86,43637,1,2,0:0:0:0:
176,123,43746,2,0,P|183:170|187:206,1,77.0000023498536,10|8,3:2|0:0,0:0:0:0:
305,219,44072,2,0,P|300:263|298:301,1,77.0000023498536,2|0,0:0|0:0,0:0:0:0:
233,370,44398,1,10,0:0:0:0:
6,256,44616,5,10,3:2:0:0:
122,384,44833,1,10,0:0:0:0:
122,384,44942,1,2,0:0:0:0:
122,384,45051,2,0,P|126:357|137:282,1,83.9999974365235,10|10,3:2|0:0,0:0:0:0:
62,190,45377,1,2,0:0:0:0:
62,190,45485,2,0,P|57:163|47:94,1,83.9999974365235,10|8,3:2|0:0,0:0:0:0:
151,18,45811,2,0,P|196:21|234:55,1,83.9999974365235,2|0,0:0|0:0,0:0:0:0:
252,153,46137,1,10,0:0:0:0:
476,96,46355,5,8,3:2:0:0:
465,194,46572,1,8,0:0:0:0:
387,62,46790,5,8,3:2:0:0:
374,210,47007,1,8,0:0:0:0:
298,31,47224,5,8,3:2:0:0:
288,228,47442,1,8,0:0:0:0:
213,2,47659,5,8,3:2:0:0:
213,2,47768,1,8,0:3:0:0:
213,2,47877,1,4,0:3:0:0:
196,251,48094,1,0,3:0:0:0:
80,120,48311,5,10,0:0:0:0:
366,211,48637,5,10,0:0:0:0:
152,384,48964,5,10,0:0:0:0:
54,322,49181,1,0,0:0:0:0:
196,255,49398,6,0,L|200:235,9,11.6666666666667,2|0|0|0|0|0|0|0|0|0,0:0|0:0|0:0|0:0|0:0|0:0|0:0|0:0|0:0|0:0,0:0:0:0:
213,233,49833,6,0,P|200:183|143:155,1,97.9999970092774,6|0,3:2|3:0,0:0:0:0:
0,289,50268,2,0,P|16:350|30:417,1,97.9999970092774,10|2,0:0|0:0,0:0:0:0:
100,349,50594,2,0,P|132:331|206:309,1,97.9999970092774,2|8,3:2|0:0,0:0:0:0:
252,365,50920,2,0,L|310:384,1,48.9999985046387,2|0,3:2|0:0,0:0:0:0:
387,384,51137,1,8,0:0:0:0:
505,206,51355,1,2,0:0:0:0:
505,206,51464,1,10,0:0:0:0:
505,206,51572,5,2,3:2:0:0:
301,97,51790,1,0,3:0:0:0:
414,256,52007,2,0,P|418:220|429:132,1,97.9999970092774,10|2,0:0|0:0,0:0:0:0:
512,86,52333,2,0,P|515:51|476:-4,1,97.9999970092774,2|8,3:2|0:0,0:0:0:0:
406,30,52659,2,0,P|380:36|351:43,1,48.9999985046387,2|0,3:2|0:0,0:0:0:0:
218,63,52877,1,8,0:0:0:0:
414,256,53094,2,0,L|427:191,1,48.9999985046387,2|10,0:0|0:0,0:0:0:0:
279,133,53311,6,0,P|290:206|302:286,1,146.999995513916,2|0,3:2|0:0,0:0:0:0:
223,367,53746,2,0,P|179:375|123:332,1,97.9999970092774,10|0,0:0|0:0,0:0:0:0:
34,367,54072,2,0,P|36:342|43:303,1,48.9999985046387,2|0,3:2|0:0,0:0:0:0:
110,274,54290,1,10,0:0:0:0:
110,274,54398,2,0,P|107:249|101:210,1,48.9999985046387,2|0,3:2|0:0,0:0:0:0:
3,119,54616,1,8,0:0:0:0:
110,274,54833,1,2,0:0:0:0:
273,68,55051,5,2,3:2:0:0:
63,188,55268,1,2,3:2:0:0:
299,255,55485,1,10,0:0:0:0:
176,29,55703,1,2,0:0:0:0:
168,57,55811,2,0,P|159:126|156:180,1,97.9999970092774,2|10,3:2|0:0,0:0:0:0:
209,214,56137,2,0,P|214:245|218:271,1,48.9999985046387,2|0,3:2|0:0,0:0:0:0:
216,372,56355,1,8,0:0:0:0:
427,165,56572,1,2,0:0:0:0:
427,165,56681,1,10,0:0:0:0:
427,165,56790,6,0,P|372:149|316:134,1,97.9999970092774,6|0,3:2|3:0,0:0:0:0:
356,384,57224,2,0,P|398:370|474:349,1,97.9999970092774,10|0,0:0|0:0,0:0:0:0:
512,302,57551,2,0,P|521:276|497:194,1,97.9999970092774,2|8,3:2|0:0,0:0:0:0:
427,165,57877,2,0,P|423:142|417:98,1,48.9999985046387,2|0,3:2|0:0,0:0:0:0:
483,8,58094,1,8,0:0:0:0:
354,212,58311,2,0,P|324:203|288:192,1,48.9999985046387,2|10,0:0|0:0,0:0:0:0:
98,116,58529,6,0,P|49:158|78:253,1,146.999995513916,2|0,3:2|0:0,0:0:0:0:
150,316,58964,2,0,P|180:304|230:290,1,48.9999985046387,14|0,0:0|0:0,0:0:0:0:
267,231,59181,1,2,0:0:0:0:
242,224,59290,2,0,P|200:209|140:185,1,97.9999970092774,2|2,3:2|0:0,0:0:0:0:
48,152,59616,1,10,0:0:0:0:
269,13,59833,1,8,0:0:0:0:
320,28,59942,1,8,0:0:0:0:
349,73,60051,1,10,0:3:0:0:
352,126,60159,1,6,0:3:0:0:
327,173,60268,5,6,3:2:0:0:
138,108,60485,1,2,0:0:0:0:
138,108,60594,1,2,0:0:0:0:
138,108,60703,1,8,0:0:0:0:
269,13,60920,6,0,P|264:43|260:69,1,48.9999985046387,2|2,3:2|0:0,0:0:0:0:
58,251,61137,2,0,P|52:223|31:133,1,97.9999970092774,10|2,0:0|3:0,0:0:0:0:
23,101,61464,1,2,0:0:0:0:
23,101,61572,1,8,0:0:0:0:
225,259,61790,2,0,P|250:252|299:236,1,48.9999985046387,2|2,3:2|0:0,0:0:0:0:
437,204,62007,5,10,0:0:0:0:
234,92,62224,1,2,0:0:0:0:
234,92,62333,1,2,0:0:0:0:
234,92,62442,1,8,0:0:0:0:
352,299,62659,6,0,P|355:278|363:235,1,48.9999985046387,2|0,3:2|0:0,0:0:0:0:
464,69,62877,2,0,P|470:104|475:133,1,48.9999985046387,10|0,0:0|0:0,0:0:0:0:
512,329,63094,1,2,3:2:0:0:
512,329,63203,1,2,0:0:0:0:
512,329,63311,1,8,0:0:0:0:
285,207,63529,1,2,3:2:0:0:
477,71,63746,5,10,0:0:0:0:
352,299,63964,1,2,0:0:0:0:
182,136,64181,5,10,0:0:0:0:
419,239,64398,1,2,3:2:0:0:
419,239,64507,2,0,P|426:208|436:133,1,97.9999970092774,2|0,0:0|0:0,0:0:0:0:
379,84,64833,1,2,3:2:0:0:
128,252,65051,5,8,0:0:0:0:
344,184,65268,1,2,3:2:0:0:
78,77,65485,5,2,3:2:0:0:
203,306,65703,1,2,3:2:0:0:
263,130,65920,1,10,0:0:0:0:
25,261,66137,2,0,P|9:336|41:377,1,97.9999970092774,6|0,3:2|0:0,0:0:0:0:
244,204,66572,1,10,0:0:0:0:
211,192,66680,1,4,0:3:0:0:
178,182,66789,1,10,0:0:0:0:
145,173,66898,1,4,0:3:0:0:
112,164,67006,1,6,0:3:0:0:
349,39,67224,5,12,0:0:0:0:
300,277,67442,1,2,3:2:0:0:
335,52,67659,1,2,3:2:0:0:
512,225,67877,5,14,0:0:0:0:
264,178,68094,1,2,3:2:0:0:
500,210,68311,1,0,3:0:0:0:
312,384,68529,2,0,P|258:368|205:354,1,105.000004005432,12|2,0:0|3:2,0:0:0:0:
0,245,68964,5,2,3:2:0:0:
39,257,69072,1,8,0:3:0:0:
85,249,69181,1,10,0:0:0:0:
123,213,69290,1,4,0:3:0:0:
159,168,69398,1,10,0:0:0:0:
220,154,69507,1,4,0:3:0:0:
275,180,69616,1,10,3:2:0:0:
83,92,69833,5,10,3:2:0:0:
231,357,70159,5,10,3:2:0:0:
231,357,70485,5,2,0:0:0:0:
231,357,70594,1,2,0:0:0:0:
231,357,70703,5,6,3:2:0:0:
343,266,70920,1,0,3:0:0:0:
210,137,71137,2,0,P|220:197|229:248,1,97.9999970092774,10|0,0:0|0:0,0:0:0:0:
146,282,71464,2,0,P|141:257|133:209,1,48.9999985046387,2|0,3:2|0:0,0:0:0:0:
128,180,71681,1,10,0:0:0:0:
128,180,71790,1,2,3:2:0:0:
293,62,72007,2,0,P|348:60|394:107,1,97.9999970092774,10|2,0:0|0:0,0:0:0:0:
396,134,72333,1,10,0:0:0:0:
396,134,72442,5,2,3:2:0:0:
299,210,72659,1,0,3:0:0:0:
198,56,72877,2,0,P|207:119|214:170,1,97.9999970092774,10|0,0:0|0:0,0:0:0:0:
299,210,73203,2,0,P|293:243|288:282,1,48.9999985046387,2|0,3:2|0:0,0:0:0:0:
279,316,73420,1,10,0:0:0:0:
279,316,73529,1,2,3:2:0:0:
127,248,73746,1,10,0:0:0:0:
276,334,73964,1,2,0:0:0:0:
86,384,74181,6,0,P|60:356|71:275,1,97.9999970092774,2|0,3:2|3:0,0:0:0:0:
222,161,74616,2,0,P|275:176|323:192,1,97.9999970092774,10|0,0:0|0:0,0:0:0:0:
397,247,74942,2,0,P|419:243|450:234,1,48.9999985046387,2|0,3:2|0:0,0:0:0:0:
495,217,75159,1,10,0:0:0:0:
495,217,75268,1,2,3:2:0:0:
369,119,75485,1,10,0:0:0:0:
290,262,75703,1,2,0:0:0:0:
140,182,75920,6,0,P|150:244|158:294,1,97.9999970092774,2|0,3:2|3:0,0:0:0:0:
87,342,76246,1,0,0:0:0:0:
71,337,76355,2,0,P|63:288|55:240,1,97.9999970092774,10|0,0:0|0:0,0:0:0:0:
0,176,76681,2,0,P|-5:129|61:99,1,97.9999970092774,2|8,3:2|0:0,0:0:0:0:
73,120,77007,1,2,3:2:0:0:
92,116,77116,1,2,0:0:0:0:
111,112,77224,1,10,0:0:0:0:
130,109,77333,1,2,0:0:0:0:
149,106,77442,1,2,0:0:0:0:
169,102,77550,1,2,0:0:0:0:
188,99,77659,5,6,3:2:0:0:
289,189,77877,1,2,3:2:0:0:
289,189,77985,1,0,3:0:0:0:
289,189,78094,1,10,0:0:0:0:
387,136,78311,1,2,0:0:0:0:
387,136,78420,2,0,P|378:191|373:247,1,97.9999970092774,2|10,3:2|0:0,0:0:0:0:
366,327,78746,1,2,3:2:0:0:
289,189,78964,1,10,0:0:0:0:
454,339,79181,1,2,0:0:0:0:
454,339,79290,1,8,0:0:0:0:
454,339,79398,5,2,3:2:0:0:
490,239,79616,1,2,3:2:0:0:
304,384,79833,2,0,P|285:357|295:280,1,97.9999970092774,10|2,0:0|0:0,0:0:0:0:
351,247,80159,1,2,3:2:0:0:
154,135,80377,2,0,P|160:168|165:194,1,48.9999985046387,8|0,0:3|0:0,0:0:0:0:
209,204,80594,1,8,0:0:0:0:
254,166,80703,1,8,0:0:0:0:
261,108,80811,1,8,0:0:0:0:
234,55,80920,2,0,P|210:46|174:38,1,48.9999985046387,4|0,0:3|0:0,0:0:0:0:
101,36,81137,5,2,3:2:0:0:
137,61,81246,1,8,0:0:0:0:
180,71,81355,1,8,0:0:0:0:
223,62,81464,1,8,0:0:0:0:
256,33,81572,1,0,3:0:0:0:
295,12,81681,1,8,0:0:0:0:
338,6,81790,1,8,0:0:0:0:
380,17,81898,1,8,0:0:0:0:
414,45,82007,2,0,P|409:78|405:109,1,48.9999985046387,6|0,3:2|0:0,0:0:0:0:
345,163,82224,6,0,P|351:183|356:212,2,32.6666656697591,8|8|8,0:0|0:0|0:0,0:0:0:0:
377,207,82442,6,0,P|371:227|366:256,2,32.6666656697591,8|8|4,0:3|0:3|0:3,0:0:0:0:
345,256,82659,6,0,P|351:276|356:305,2,32.6666656697591,4|4|4,0:3|0:3|0:3,0:0:0:0:
373,302,82877,5,6,3:2:0:0:
261,384,83094,1,8,0:0:0:0:
234,375,83202,1,8,0:0:0:0:
207,366,83311,1,2,3:2:0:0:
180,359,83420,1,8,0:0:0:0:
154,352,83528,1,4,0:3:0:0:
127,346,83637,1,6,3:2:0:0:
30,210,83855,5,8,0:0:0:0:
67,178,83963,1,8,0:0:0:0:
114,171,84072,1,8,0:0:0:0:
159,190,84181,1,8,0:0:0:0:
187,230,84289,1,8,0:0:0:0:
190,278,84398,1,8,0:0:0:0:
168,321,84507,1,8,0:0:0:0:
126,345,84615,1,6,0:0:0:0:
256,192,84724,12,0,88529,0:0:0:0:
