osu file format v14

[General]
AudioFilename: audio.mp3
AudioLeadIn: 0
PreviewTime: 49072
Countdown: 0
SampleSet: Soft
StackLeniency: 0.7
Mode: 0
LetterboxInBreaks: 0
WidescreenStoryboard: 0

[Editor]
DistanceSpacing: 2
BeatDivisor: 4
GridSize: 8
TimelineZoom: 1.4

[Metadata]
Title:FIRST DROP (TV Size)
TitleUnicode:FIRST DROP (TV Size)
Artist:halca
ArtistUnicode:halca
Creator:Dustinati
Version:Insane
Source:彼女、お借りします
Tags:Kanojo Okarishimasu Rent-a-Girlfriend Kanokari Anime Japanese TMS Entertainment ED ending 2 two J-pop Pop Jpop 前山田健一 kenichi maeyamada 板垣祐介 yuusuke itagaki Kokuhaku Bungee Jump 告白バンジージャンプ 一ノ瀬ちづる Ichinose Chizuru 水原千鶴 Mizuhara 七海麻美 Nanami Mami 更科瑠夏 Sarashina Ruka 桜沢墨 Sakurasawa Sumi
BeatmapID:2582087
BeatmapSetID:1241990

[Difficulty]
HPDrainRate:5
CircleSize:4
OverallDifficulty:8
ApproachRate:8.8
SliderMultiplier:2
SliderTickRate:1

[Events]
//Background and Video events
0,0,"bg.jpeg",0,0
Video,-607,"video.mp4"
//Break Periods
//Storyboard Layer 0 (Background)
//Storyboard Layer 1 (Fail)
//Storyboard Layer 2 (Pass)
//Storyboard Layer 3 (Foreground)
//Storyboard Layer 4 (Overlay)
//Storyboard Sound Samples

[TimingPoints]
-176,434.782608695652,4,2,1,50,1,0
-176,-125,4,2,1,50,0,0
1019,-125,4,2,1,5,0,0
1138,434.782608695652,4,2,1,70,1,0
1138,-125,4,2,1,70,0,0
8094,-142.857142857143,4,2,1,50,0,0
20051,-333.333333333334,4,2,1,50,0,0
21137,-142.857142857143,4,2,1,50,0,0
22007,-125,4,2,1,60,0,0
42877,-125,4,2,1,70,0,0
49398,-166.666666666667,4,2,1,50,0,0
49724,-166.666666666667,4,2,1,5,0,0
49833,-100,4,2,1,80,0,1
70703,-125,4,2,1,70,0,0
84616,-125,4,2,1,40,0,0
88529,-125,4,2,1,5,0,0

[Colours]
Combo1 : 255,218,149
Combo2 : 168,104,104
Combo3 : 255,140,149
Combo4 : 79,101,255

[HitObjects]
87,159,41,6,0,L|95:232,2,40,0|0|0,1:0|1:0|1:0,0:0:0:0:
39,28,584,2,0,P|112:10|175:70,1,160,2|0,1:2|0:0,0:0:0:0:
186,86,1138,5,4,0:2:0:0:
304,201,1355,1,0,1:2:0:0:
393,61,1572,1,8,0:2:0:0:
212,154,1790,1,8,0:2:0:0:
207,181,1898,1,0,1:2:0:0:
473,122,2116,1,8,0:2:0:0:
468,95,2224,1,0,1:2:0:0:
368,227,2442,2,0,B|289:212,1,80,8|0,0:2|1:2,0:0:0:0:
212,154,2768,1,0,1:2:0:0:
212,154,2877,6,0,B|291:139,1,80,0|0,1:2|1:2,0:0:0:0:
171,279,3311,1,8,0:2:0:0:
34,192,3529,1,8,0:2:0:0:
11,207,3637,1,0,1:2:0:0:
187,61,3855,1,8,0:2:0:0:
210,76,3964,1,0,1:2:0:0:
297,212,4181,2,0,L|282:303,1,80,8|0,0:0|1:2,0:0:0:0:
220,343,4507,1,0,1:2:0:0:
220,343,4616,6,0,L|206:264,1,80,0|0,1:2|1:2,0:0:0:0:
370,384,5051,1,8,0:0:0:0:
446,221,5268,1,8,0:0:0:0:
439,193,5377,1,0,1:2:0:0:
275,71,5594,1,8,0:0:0:0:
268,99,5703,1,0,1:2:0:0:
410,71,5920,1,8,0:0:0:0:
215,184,6137,1,0,1:2:0:0:
215,184,6246,1,0,1:2:0:0:
215,184,6355,6,0,P|150:171|123:167,1,80,0|2,1:2|0:0,0:0:0:0:
258,267,6681,1,2,0:0:0:0:
258,267,6790,2,0,P|323:254|350:250,1,80,8|0,0:0|0:0,0:0:0:0:
177,333,7116,2,0,P|139:346|93:335,1,80,4|0,0:0|0:0,0:0:0:0:
33,295,7442,1,8,1:2:0:0:
9,279,7551,1,0,1:2:0:0:
0,252,7659,2,0,L|-4:194,1,40,8|0,1:2|1:2,0:0:0:0:
0,101,7877,1,0,1:2:0:0:
0,101,8094,6,0,P|47:87|107:155,1,139.999995727539,6|0,0:0|1:2,0:0:0:0:
110,244,8746,1,2,0:0:0:0:
209,223,8964,2,0,P|220:145|230:83,1,139.999995727539,2|0,1:2|1:2,0:0:0:0:
270,10,9616,1,2,0:0:0:0:
350,83,9833,6,0,P|410:73|501:61,1,139.999995727539,2|0,1:2|1:2,0:0:0:0:
440,195,10485,1,2,0:0:0:0:
304,155,10703,2,0,P|307:189|311:224,1,69.9999978637696,2|0,1:2|0:0,0:0:0:0:
441,291,11137,2,0,P|444:256|448:221,1,69.9999978637696,0|2,1:2|0:0,0:0:0:0:
289,305,11572,5,2,1:2:0:0:
212,205,11790,1,2,0:0:0:0:
135,316,12007,2,0,P|83:304|67:289,1,69.9999978637696,2|0,1:2|0:0,0:0:0:0:
228,187,12442,1,2,1:2:0:0:
86,167,12659,1,2,0:0:0:0:
225,62,12877,1,2,1:2:0:0:
61,16,13094,6,0,P|70:69|77:108,1,69.9999978637696,2|0,0:0|1:2,0:0:0:0:
228,147,13529,2,0,P|234:112|239:78,1,69.9999978637696,2|0,0:0|1:2,0:0:0:0:
349,12,13964,2,0,P|387:-4|426:5,1,69.9999978637696,2|0,0:0|1:2,0:0:0:0:
512,120,14398,2,0,P|474:136|435:127,1,69.9999978637696,2|0,0:0|1:2,0:0:0:0:
307,95,14833,1,2,0:0:0:0:
300,221,15051,6,0,P|366:213|449:204,1,139.999995727539,2|0,1:2|1:2,0:0:0:0:
332,316,15703,1,2,0:0:0:0:
216,188,15920,2,0,P|225:253|236:338,1,139.999995727539,2|0,1:2|1:2,0:0:0:0:
145,379,16572,1,2,0:0:0:0:
108,262,16790,6,0,P|59:249|1:328,1,139.999995727539,2|0,1:2|1:2,0:0:0:0:
84,143,17442,1,2,0:0:0:0:
178,226,17659,2,0,P|231:211|274:203,1,69.9999978637696,2|0,1:2|0:0,0:0:0:0:
350,120,18094,2,0,P|297:105|254:97,1,69.9999978637696,0|2,1:2|0:0,0:0:0:0:
393,228,18529,5,2,1:2:0:0:
425,75,18746,1,2,0:0:0:0:
258,194,18964,1,2,1:2:0:0:
451,167,19181,1,0,0:0:0:0:
304,33,19398,2,0,P|253:32|213:65,1,104.999996795654,2|2,1:2|0:0,0:0:0:0:
205,88,19833,1,0,1:2:0:0:
258,194,20051,6,0,P|286:183|383:168,1,119.999996337891,6|0,0:0|0:0,0:0:0:0:
304,33,21137,5,8,1:2:0:0:
308,57,21246,1,8,1:2:0:0:
314,80,21355,2,0,L|322:135,2,34.9999989318848,0|0|8,1:2|1:2|1:2,0:0:0:0:
205,38,21790,1,0,0:0:0:0:
101,158,22007,6,0,P|170:142|212:136,1,80,6|0,1:2|0:0,0:0:0:0:
308,200,22442,1,8,0:0:0:0:
218,56,22659,1,2,0:0:0:0:
181,224,22877,1,2,1:2:0:0:
181,224,22985,1,0,1:2:0:0:
181,224,23094,2,0,P|189:273|198:324,1,80,0|8,1:2|0:0,0:0:0:0:
315,380,23529,1,2,0:0:0:0:
426,231,23746,6,0,P|389:205|295:269,1,160,2|8,1:2|0:0,0:0:0:0:
415,328,24398,1,2,0:0:0:0:
504,247,24616,1,2,1:2:0:0:
504,247,24724,1,8,1:2:0:0:
504,247,24833,2,0,P|500:199|495:156,1,80,0|8,1:2|0:0,0:0:0:0:
405,73,25268,1,2,0:0:0:0:
277,127,25485,5,2,1:2:0:0:
419,90,25703,1,2,0:0:0:0:
239,37,25920,1,10,0:0:0:0:
381,0,26137,1,2,0:0:0:0:
266,144,26355,1,2,1:2:0:0:
266,144,26464,1,0,1:2:0:0:
266,144,26572,2,0,P|215:133|160:133,1,80,2|10,1:2|0:0,0:0:0:0:
97,13,27007,6,0,P|93:52|89:97,1,80,2|0,0:0|1:2,0:0:0:0:
149,264,27442,2,0,P|190:260|229:234,1,80,2|8,0:0|0:0,0:0:0:0:
90,169,27877,2,0,P|50:172|16:192,1,80,2|0,0:0|1:2,0:0:0:0:
2,217,28203,1,0,1:2:0:0:
2,217,28311,1,2,1:2:0:0:
68,334,28529,1,8,0:0:0:0:
163,182,28746,1,2,0:0:0:0:
223,336,28964,6,0,P|298:329|406:316,1,160,6|8,1:2|0:0,0:0:0:0:
488,384,29616,1,2,0:0:0:0:
499,225,29833,1,2,1:2:0:0:
499,225,29942,1,0,1:2:0:0:
499,225,30051,2,0,P|494:166|491:142,1,80,0|8,1:2|0:0,0:0:0:0:
388,40,30485,1,2,0:0:0:0:
291,176,30703,6,0,B|193:174|251:238|136:239,1,160,2|8,1:2|0:0,0:0:0:0:
45,165,31355,1,2,0:0:0:0:
142,42,31572,1,2,1:2:0:0:
142,42,31681,1,0,1:2:0:0:
142,42,31790,2,0,P|148:99|153:140,1,80,0|8,1:2|0:0,0:0:0:0:
95,285,32224,1,2,0:0:0:0:
232,137,32442,5,6,1:2:0:0:
285,255,32659,2,0,L|338:245,1,40,2|2,1:2|1:2,0:0:0:0:
378,187,32877,2,0,L|456:201,1,80,6|2,1:2|0:0,0:0:0:0:
314,343,33311,2,0,P|261:345|205:295,2,120,10|2|6,1:2|1:2|1:2,0:0:0:0:
314,343,34398,5,0,1:0:0:0:
305,178,34616,1,8,0:0:0:0:
176,234,34833,2,0,P|187:296|192:331,1,80,8|0,3:0|0:0,0:0:0:0:
218,167,35268,5,8,3:0:0:0:
364,267,35485,1,8,0:0:0:0:
245,364,35703,1,2,1:2:0:0:
291,148,35920,6,0,P|297:189|302:245,1,80,6|0,0:0|0:0,0:0:0:0:
171,335,36355,2,0,P|174:295|180:255,1,80,2|2,1:2|0:0,0:0:0:0:
212,94,36790,1,2,1:2:0:0:
123,199,37007,1,2,0:0:0:0:
123,199,37116,1,2,0:0:0:0:
123,199,37224,2,0,P|81:192|29:185,1,80,2|2,1:2|1:2,0:0:0:0:
21,183,37551,1,2,1:2:0:0:
21,183,37659,5,6,1:2:0:0:
64,315,37877,1,2,0:0:0:0:
180,255,38094,1,2,1:2:0:0:
259,364,38311,2,0,P|310:355|360:349,1,80,2|0,0:0|1:2,0:0:0:0:
435,249,38746,2,0,P|384:240|334:234,1,80,2|0,1:2|1:2,0:0:0:0:
259,138,39181,1,2,1:2:0:0:
376,34,39398,5,6,1:2:0:0:
447,161,39616,1,2,0:0:0:0:
447,161,39724,1,2,0:0:0:0:
447,161,39833,2,0,P|456:83|459:67,1,80,2|2,1:2|1:2,0:0:0:0:
462,54,40159,1,2,0:0:0:0:
462,54,40268,1,2,1:2:0:0:
350,121,40485,1,2,1:2:0:0:
255,16,40703,2,0,L|186:21,2,40,2|0|2,1:2|1:2|1:2,0:0:0:0:
149,157,41137,6,0,P|104:145|43:139,1,80,6|2,1:2|0:0,0:0:0:0:
46,251,41572,1,10,1:2:0:0:
40,70,41790,1,10,1:2:0:0:
211,209,42007,1,8,1:2:0:0:
184,20,42224,1,0,1:2:0:0:
184,20,42333,1,0,1:2:0:0:
184,20,42442,1,12,1:2:0:0:
302,151,42659,1,2,0:0:0:0:
302,151,42768,1,2,0:0:0:0:
302,151,42877,6,0,P|373:135|413:128,1,80,6|2,1:2|1:2,0:0:0:0:
488,224,43203,1,2,0:0:0:0:
488,224,43311,2,0,P|469:222|449:218,1,40,2|2,1:2|0:0,0:0:0:0:
375,253,43529,2,0,P|355:257|335:259,1,40,2|2,1:2|0:0,0:0:0:0:
244,229,43746,1,2,1:2:0:0:
380,133,43964,1,0,1:2:0:0:
437,307,44181,1,0,1:2:0:0:
302,151,44398,1,2,1:2:0:0:
240,312,44616,6,0,P|171:320|128:326,1,80,2|2,1:2|1:2,0:0:0:0:
103,265,44942,1,2,0:0:0:0:
103,265,45051,2,0,P|108:225|112:185,1,80,2|2,1:2|1:2,0:0:0:0:
228,81,45485,2,0,P|231:120|236:160,1,80,2|0,1:2|1:2,0:0:0:0:
239,188,45811,1,2,1:2:0:0:
239,188,45920,1,0,1:2:0:0:
369,122,46137,1,2,1:2:0:0:
277,308,46355,5,8,1:2:0:0:
172,74,46572,1,8,1:2:0:0:
120,331,46790,1,8,1:2:0:0:
267,118,47007,1,8,1:2:0:0:
311,362,47224,1,8,1:2:0:0:
142,166,47442,1,8,1:2:0:0:
44,382,47659,1,8,1:2:0:0:
44,382,47768,1,0,1:2:0:0:
44,382,47877,1,0,1:2:0:0:
221,294,48094,5,2,1:2:0:0:
35,227,48311,5,8,1:2:0:0:
244,130,48637,1,8,1:2:0:0:
36,28,48964,1,8,1:2:0:0:
36,28,49398,6,0,P|75:63|133:55,1,89.9999972534181,2|0,0:0|0:0,0:0:0:0:
215,11,49833,6,0,L|199:171,1,150,6|0,0:2|0:0,0:0:0:0:
236,253,50268,2,0,P|300:261|346:221,1,100,10|8,0:2|0:2,0:0:0:0:
379,157,50594,2,0,P|331:145|286:165,1,100,2|8,1:2|0:2,0:0:0:0:
409,250,50920,1,2,1:2:0:0:
492,116,51137,1,8,0:2:0:0:
512,250,51355,1,2,1:2:0:0:
503,284,51464,1,0,1:2:0:0:
496,318,51572,6,0,B|397:300|456:375|312:349,1,150,2|0,1:2|0:0,0:0:0:0:
294,281,52007,2,0,P|231:287|159:299,1,100,10|8,0:2|0:0,0:0:0:0:
121,361,52333,2,0,P|184:367|256:379,1,100,2|8,1:2|0:2,0:0:0:0:
113,264,52659,1,2,1:2:0:0:
0,363,52877,1,8,0:0:0:0:
42,196,53094,1,2,1:2:0:0:
58,165,53203,1,0,1:2:0:0:
74,134,53311,6,0,P|148:138|180:236,1,150,2|0,1:2|0:0,0:0:0:0:
256,268,53746,2,0,P|264:203|270:152,1,100,10|8,0:0|0:0,0:0:0:0:
391,82,54072,1,2,1:2:0:0:
469,245,54290,1,10,0:0:0:0:
454,276,54398,1,2,1:2:0:0:
328,364,54616,2,0,P|260:353|181:351,1,100,8|2,0:0|1:2,0:0:0:0:
193,350,54942,1,0,1:2:0:0:
193,350,55051,5,2,1:2:0:0:
174,154,55268,1,2,1:2:0:0:
59,361,55485,1,10,0:0:0:0:
25,184,55703,1,10,0:0:0:0:
44,214,55811,2,0,P|106:223|146:229,1,100,2|8,1:2|0:0,0:0:0:0:
195,142,56137,1,2,1:2:0:0:
306,252,56355,2,0,P|311:182|315:140,1,100,8|2,0:0|1:2,0:0:0:0:
420,45,56681,1,0,1:0:0:0:
440,74,56790,6,0,P|444:123|453:240,1,150,6|0,1:2|0:0,0:0:0:0:
410,315,57224,2,0,P|346:340|298:322,1,100,10|8,0:0|0:0,0:0:0:0:
252,257,57551,2,0,P|302:235|350:244,1,100,2|8,1:2|0:0,0:0:0:0:
486,289,57877,1,2,1:2:0:0:
313,152,58094,1,8,0:0:0:0:
512,171,58311,1,2,1:2:0:0:
483,199,58420,1,2,1:2:0:0:
451,223,58529,6,0,P|463:144|480:54,1,150,2|0,1:2|0:0,0:0:0:0:
392,18,58964,2,0,P|361:-4|285:12,1,100,10|0,0:0|0:0,0:0:0:0:
221,61,59290,2,0,P|263:86|312:84,1,100,10|0,0:2|0:0,0:0:0:0:
468,3,59616,1,10,1:2:0:0:
446,223,59833,1,8,1:2:0:0:
441,248,59942,1,0,1:0:0:0:
437,273,60051,1,2,1:2:0:0:
433,297,60159,1,2,1:2:0:0:
426,321,60268,6,0,P|369:338|308:315,1,100,6|2,1:2|0:0,0:0:0:0:
245,241,60594,1,2,0:0:0:0:
224,269,60703,2,0,L|215:343,1,50,8|0,0:2|0:0,0:0:0:0:
328,216,60920,1,2,1:2:0:0:
306,188,61029,1,2,0:2:0:0:
277,167,61137,6,0,P|222:163|179:199,1,100,10|2,0:2|1:2,0:0:0:0:
85,178,61464,2,0,P|89:111|94:35,1,100,2|0,0:2|0:0,0:0:0:0:
232,24,61790,1,2,1:2:0:0:
265,14,61898,1,2,0:2:0:0:
298,4,62007,6,0,P|316:53|295:111,1,100,10|2,0:2|0:0,0:0:0:0:
283,195,62333,1,2,0:0:0:0:
311,174,62442,2,0,P|342:164|386:173,1,50,10|0,0:0|0:0,0:0:0:0:
429,236,62659,2,0,P|453:235|477:226,1,50,2|0,1:2|0:0,0:0:0:0:
495,101,62877,5,10,0:2:0:0:
503,292,63094,1,2,1:2:0:0:
482,320,63203,2,0,P|414:309|363:300,1,100,2|0,0:2|0:0,0:0:0:0:
323,183,63529,1,2,1:2:0:0:
208,374,63746,5,10,0:2:0:0:
122,164,63964,1,2,0:0:0:0:
325,258,64181,1,10,0:0:0:0:
85,370,64398,1,2,1:2:0:0:
67,339,64507,2,0,P|52:272|90:211,1,100,2|0,0:2|0:0,0:0:0:0:
122,164,64833,2,0,P|132:115|116:68,1,100,2|8,1:2|0:0,0:0:0:0:
0,173,65268,1,2,1:2:0:0:
170,297,65485,5,10,0:2:0:0:
283,112,65703,1,10,1:2:0:0:
95,44,65920,1,10,1:2:0:0:
239,215,66137,2,0,B|338:202|279:277|423:251,1,150,14|0,1:2|0:0,0:0:0:0:
464,247,66572,2,0,L|472:184,1,50,10|0,1:2|1:2,0:0:0:0:
408,152,66790,2,0,L|401:102,1,50,10|0,1:2|1:2,0:0:0:0:
443,39,67007,1,2,1:2:0:0:
443,39,67224,5,8,0:0:0:0:
348,207,67442,1,2,1:2:0:0:
261,3,67659,1,2,1:2:0:0:
505,201,67877,6,0,L|444:189,1,50,14|2,0:2|0:2,0:0:0:0:
213,161,68094,1,2,1:2:0:0:
443,39,68311,1,0,1:0:0:0:
346,230,68529,5,12,0:0:0:0:
259,81,68746,2,0,L|204:88,1,50,2|2,1:2|0:2,0:0:0:0:
135,42,68964,1,10,1:2:0:0:
99,44,69072,1,0,1:2:0:0:
67,45,69181,1,2,1:2:0:0:
33,48,69290,1,0,1:2:0:0:
2,49,69398,2,0,L|7:123,1,50,10|0,1:2|1:2,0:0:0:0:
96,190,69616,1,2,1:2:0:0:
227,8,69833,5,2,1:2:0:0:
283,209,70159,1,2,1:2:0:0:
169,123,70485,1,0,1:2:0:0:
186,119,70594,1,0,1:2:0:0:
200,117,70703,5,4,0:2:0:0:
378,210,70920,1,0,1:2:0:0:
207,288,71137,1,8,0:2:0:0:
270,151,71355,1,8,0:2:0:0:
276,178,71464,1,0,1:2:0:0:
73,227,71681,1,8,0:2:0:0:
79,200,71790,1,0,1:2:0:0:
235,323,72007,2,0,P|303:308|349:302,1,80,8|0,0:2|1:2,0:0:0:0:
375,245,72333,1,0,1:2:0:0:
375,245,72442,6,0,P|307:230|261:224,1,80,0|0,1:2|1:2,0:0:0:0:
429,341,72877,1,8,0:2:0:0:
472,160,73094,1,8,0:0:0:0:
460,185,73203,1,0,1:2:0:0:
292,68,73420,1,8,0:2:0:0:
304,93,73529,1,0,1:2:0:0:
219,196,73746,2,0,P|171:200|128:169,1,80,8|0,0:0|1:2,0:0:0:0:
82,143,74072,1,0,1:2:0:0:
82,143,74181,6,0,P|34:139|-9:170,1,80,0|0,1:2|1:2,0:0:0:0:
127,292,74616,1,8,0:0:0:0:
208,100,74833,1,8,0:0:0:0:
234,110,74942,1,0,1:2:0:0:
376,234,75159,1,8,0:0:0:0:
402,224,75268,1,0,1:2:0:0:
321,37,75485,2,0,P|306:123|304:141,1,80,8|0,0:0|1:2,0:0:0:0:
301,143,75811,1,0,1:2:0:0:
301,143,75920,5,0,1:2:0:0:
182,18,76137,1,0,1:2:0:0:
102,156,76355,2,0,P|54:143|-4:135,1,80,8|8,0:0|0:0,0:0:0:0:
263,46,76790,1,2,0:0:0:0:
284,64,76898,1,10,0:0:0:0:
295,90,77007,1,2,1:2:0:0:
303,116,77116,1,2,0:0:0:0:
301,143,77224,2,0,P|287:198|283:219,1,40,10|2,0:0|0:0,0:0:0:0:
245,257,77442,2,2,P|259:312|263:333,1,40,2|2,1:2|1:2,1:2:0:0:
334,374,77659,5,4,0:2:0:0:
372,234,77877,1,0,1:2:0:0:
372,234,77985,1,0,1:0:0:0:
372,234,78094,2,0,P|417:226|465:241,1,80,8|8,0:2|0:2,0:0:0:0:
484,305,78420,2,0,P|439:313|391:298,1,80,0|8,1:2|0:2,0:0:0:0:
298,267,78746,1,0,1:2:0:0:
261,362,78964,2,0,P|186:354|144:354,1,80,8|0,0:2|1:2,0:0:0:0:
153,349,79290,1,0,1:2:0:0:
153,349,79398,5,0,1:2:0:0:
80,199,79616,1,0,1:2:0:0:
0,356,79833,1,8,0:2:0:0:
200,209,80051,1,8,0:0:0:0:
226,218,80159,1,0,1:2:0:0:
35,129,80377,1,8,0:2:0:0:
9,138,80485,2,0,L|5:198,1,40,0|0,1:2|1:2,0:0:0:0:
123,116,80703,2,0,L|120:76,1,40,8|0,1:2|1:2,0:0:0:0:
66,218,80920,1,0,1:2:0:0:
201,154,81137,5,8,1:2:0:0:
226,138,81246,1,0,1:0:0:0:
256,137,81355,1,0,1:0:0:0:
282,149,81464,1,0,1:0:0:0:
300,173,81572,2,0,L|295:231,3,40,8|0|0|0,1:2|1:0|1:0|1:0,0:0:0:0:
403,297,82007,5,12,1:2:0:0:
403,297,82224,2,8,L|397:256,2,26.6666666666667,8|8|8,1:2|1:2|1:2,0:0:0:0:
298,349,82442,2,0,L|300:313,5,26.6666666666667,0|0|0|0|0|0,1:0|1:0|1:0|1:0|1:0|1:0,0:0:0:0:
313,228,82877,5,4,1:2:0:0:
174,304,83094,1,8,1:2:0:0:
174,304,83203,1,8,1:2:0:0:
174,304,83311,2,0,L|112:311,2,40,8|0|0,1:2|1:0|1:0,0:0:0:0:
238,241,83637,2,0,P|243:190|216:153,1,80,4|8,1:2|1:2,0:0:0:0:
113,86,83964,6,0,L|120:139,1,40,8|8,1:2|1:2,0:0:0:0:
274,106,84181,2,0,L|280:67,1,40,8|8,1:2|1:2,0:0:0:0:
126,10,84398,1,0,1:2:0:0:
86,15,84507,1,0,1:2:0:0:
47,20,84616,5,4,1:2:0:0:
256,192,84724,12,0,88529,0:0:0:0:
