osu file format v14

[General]
AudioFilename: audio.mp3
AudioLeadIn: 0
PreviewTime: 48477
Countdown: 0
SampleSet: Soft
StackLeniency: 0.7
Mode: 3
LetterboxInBreaks: 0
SpecialStyle: 0
WidescreenStoryboard: 1

[Editor]
Bookmarks: 8477,22390,36303
DistanceSpacing: 0.7
BeatDivisor: 4
GridSize: 4
TimelineZoom: 2.300001

[Metadata]
Title:FIRST DROP (TV Size)
TitleUnicode:FIRST DROP (TV Size)
Artist:halca
ArtistUnicode:halca
Creator:[Ping]
Version:Sya's Hard
Source:彼女、お借りします
Tags:kanojo okarishimasu kanokari rent-a-girlfriend japanese jpop j-pop anime アニメ ending ruka sarashina 更科瑠夏 kokuhaku bungee jump 告白バンジージャンプ VVCL-1711 VVCL-1713 VVCL-1714 thenewbungping dudehacker drum-hitnormal syadow-
BeatmapID:2589618
BeatmapSetID:1242594

[Difficulty]
HPDrainRate:8
CircleSize:4
OverallDifficulty:8
ApproachRate:5
SliderMultiplier:1.4
SliderTickRate:1

[Events]
//Background and Video events
Video,-191,"Kanokari-ED2.mp4"
0,0,"ruka-cute.jpg",0,0
//Break Periods
//Storyboard Layer 0 (Background)
//Storyboard Layer 1 (Fail)
//Storyboard Layer 2 (Pass)
//Storyboard Layer 3 (Foreground)
//Storyboard Layer 4 (Overlay)
//Storyboard Sound Samples
Sample,80542,0,"Tom2.wav",70

[TimingPoints]
1521,434.782608695652,4,2,1,30,1,0
50216,-100,4,2,1,30,0,1
67607,-100,4,2,1,30,0,0

[HitObjects]
320,192,434,5,0,0:0:0:0:
192,192,542,1,0,0:0:0:0:
64,192,651,1,8,0:0:0:0:
448,192,651,1,0,0:0:0:0:
64,192,977,1,8,0:0:0:0:
448,192,977,1,0,0:0:0:0:
192,192,1086,128,0,1521:0:0:0:0:
320,192,1521,1,4,0:0:0:0:
448,192,1521,1,2,0:0:0:0:
64,192,1738,1,2,0:0:0:0:
192,192,1738,1,0,0:0:0:0:
64,192,1955,1,8,0:0:0:0:
448,192,1955,1,0,0:0:0:0:
192,192,2173,1,0,0:0:0:0:
320,192,2281,1,2,0:0:0:0:
192,192,2499,1,8,0:0:0:0:
320,192,2607,1,2,0:0:0:0:
64,192,2825,1,8,0:0:0:0:
448,192,2825,1,0,0:0:0:0:
320,192,3042,1,0,0:0:0:0:
192,192,3151,1,8,0:0:0:0:
320,192,3260,1,2,0:0:0:0:
448,192,3260,1,0,0:0:0:0:
64,192,3477,1,2,0:0:0:0:
192,192,3477,1,0,0:0:0:0:
64,192,3694,1,8,0:0:0:0:
448,192,3694,1,0,0:0:0:0:
192,192,3912,1,0,0:0:0:0:
320,192,4020,1,2,0:0:0:0:
320,192,4238,1,8,0:0:0:0:
192,192,4347,1,2,0:0:0:0:
64,192,4564,1,8,0:0:0:0:
448,192,4564,1,0,0:0:0:0:
192,192,4781,1,0,0:0:0:0:
320,192,4890,1,8,0:0:0:0:
64,192,4999,1,2,0:0:0:0:
192,192,4999,1,0,0:0:0:0:
320,192,5216,1,2,0:0:0:0:
448,192,5216,1,0,0:0:0:0:
64,192,5434,1,8,0:0:0:0:
448,192,5434,1,0,0:0:0:0:
320,192,5651,1,0,0:0:0:0:
192,192,5760,1,2,0:0:0:0:
320,192,5977,1,8,0:0:0:0:
192,192,6086,1,2,0:0:0:0:
64,192,6303,1,8,0:0:0:0:
448,192,6303,1,0,0:0:0:0:
320,192,6520,1,0,0:0:0:0:
192,192,6629,1,8,0:0:0:0:
64,192,6738,128,2,6955:0:0:0:0:
448,192,6738,128,0,6955:0:0:0:0:
320,192,6955,1,0,0:0:0:0:
192,192,7064,1,0,0:0:0:0:
64,192,7173,128,2,7390:0:0:0:0:
448,192,7173,128,8,7390:0:0:0:0:
192,192,7499,1,2,0:0:0:0:
448,192,7499,1,4,0:0:0:0:
64,192,7825,1,8,0:0:0:0:
320,192,7825,1,0,0:0:0:0:
192,192,8042,1,8,0:0:0:0:
448,192,8042,1,0,0:0:0:0:
320,192,8151,1,0,0:0:0:70:Tom1.wav
192,192,8260,1,0,0:0:0:70:Tom2.wav
64,192,8477,128,2,8912:0:0:0:0:
320,192,8477,1,4,0:0:0:0:
448,192,8477,1,0,0:0:0:0:
192,192,8694,1,0,0:0:0:0:
320,192,8912,1,2,0:0:0:0:
448,192,8912,1,0,0:0:0:0:
192,192,9129,1,0,0:0:0:0:
64,192,9347,1,2,0:0:0:0:
320,192,9347,128,0,9781:0:0:0:0:
448,192,9564,1,0,0:0:0:0:
64,192,9781,1,2,0:0:0:0:
192,192,9781,1,0,0:0:0:0:
448,192,9999,1,0,0:0:0:0:
192,192,10216,128,2,10651:0:0:0:0:
320,192,10216,1,0,0:0:0:0:
64,192,10434,1,0,0:0:0:0:
320,192,10651,1,2,0:0:0:0:
448,192,10651,1,0,0:0:0:0:
192,192,10868,1,0,0:0:0:0:
64,192,11086,1,2,0:0:0:0:
448,192,11086,128,0,11520:0:0:0:0:
320,192,11303,1,0,0:0:0:0:
64,192,11520,1,2,0:0:0:0:
192,192,11520,1,0,0:0:0:0:
320,192,11738,1,0,0:0:0:0:
64,192,11955,128,2,12390:0:0:0:0:
448,192,11955,1,0,0:0:0:0:
192,192,12173,128,0,12390:0:0:0:0:
320,192,12390,128,2,12607:0:0:0:0:
448,192,12390,1,0,0:0:0:0:
192,192,12607,128,0,12825:0:0:0:0:
64,192,12825,1,2,0:0:0:0:
448,192,12825,128,0,13260:0:0:0:0:
64,192,13042,128,0,13260:0:0:0:0:
192,192,13260,1,2,0:0:0:0:
320,192,13260,128,0,13477:0:0:0:0:
192,192,13477,128,0,13694:0:0:0:0:
64,192,13694,1,2,0:0:0:0:
448,192,13694,1,0,0:0:0:0:
448,192,13912,128,0,14129:0:0:0:0:
64,192,14129,1,2,0:0:0:0:
320,192,14129,1,0,0:0:0:0:
320,192,14347,128,0,14564:0:0:0:0:
64,192,14564,1,2,0:0:0:0:
192,192,14564,1,0,0:0:0:0:
64,192,14781,128,0,14999:0:0:0:0:
320,192,14999,1,2,0:0:0:0:
448,192,14999,1,0,0:0:0:0:
192,192,15216,1,0,0:0:0:0:
64,192,15434,1,2,0:0:0:0:
448,192,15434,128,0,15868:0:0:0:0:
320,192,15651,1,0,0:0:0:0:
64,192,15868,1,2,0:0:0:0:
192,192,15868,1,0,0:0:0:0:
320,192,16086,1,0,0:0:0:0:
192,192,16303,128,2,16738:0:0:0:0:
448,192,16303,1,0,0:0:0:0:
64,192,16520,1,0,0:0:0:0:
320,192,16738,1,2,0:0:0:0:
448,192,16738,1,0,0:0:0:0:
192,192,16955,1,0,0:0:0:0:
64,192,17173,1,2,0:0:0:0:
320,192,17173,128,0,17607:0:0:0:0:
448,192,17390,1,0,0:0:0:0:
64,192,17607,1,2,0:0:0:0:
192,192,17607,1,0,0:0:0:0:
320,192,17825,1,0,0:0:0:0:
64,192,18042,128,2,18477:0:0:0:0:
448,192,18042,1,0,0:0:0:0:
192,192,18260,1,0,0:0:0:0:
320,192,18477,1,2,0:0:0:0:
448,192,18477,1,0,0:0:0:0:
192,192,18694,1,0,0:0:0:0:
64,192,18912,1,2,0:0:0:0:
448,192,18912,128,0,19347:0:0:0:0:
192,192,19129,128,0,19347:0:0:0:0:
64,192,19347,1,2,0:0:0:0:
320,192,19347,128,0,19564:0:0:0:0:
64,192,19564,128,0,19781:0:0:0:0:
192,192,19781,1,2,0:0:0:0:
448,192,19781,1,0,0:0:0:0:
320,192,19999,1,0,0:0:0:0:
192,192,20107,1,0,0:0:0:0:
320,192,20216,1,2,0:0:0:0:
448,192,20216,1,0,0:0:0:0:
64,192,20434,128,2,21520:0:0:0:0:
192,192,20434,128,4,21520:0:0:0:0:
448,192,20434,1,0,0:0:0:0:
320,192,21520,1,8,0:0:0:0:
448,192,21520,1,0,0:0:0:0:
192,192,21629,1,8,0:0:0:0:
448,192,21738,1,2,0:0:0:0:
320,192,21847,1,2,0:0:0:0:
64,192,21955,1,8,0:0:0:0:
192,192,21955,1,0,0:0:0:0:
320,192,22173,1,0,0:0:0:0:
64,192,22390,1,2,0:0:0:0:
320,192,22390,128,4,22825:0:0:0:0:
448,192,22390,1,0,0:0:0:0:
192,192,22607,1,0,0:0:0:0:
64,192,22825,1,8,0:0:0:0:
192,192,22825,1,0,0:0:0:0:
448,192,23042,1,0,0:0:0:0:
192,192,23260,128,0,23694:0:0:0:0:
320,192,23477,1,2,0:0:0:0:
448,192,23477,1,0,0:0:0:0:
64,192,23694,1,8,0:0:0:0:
448,192,23694,1,0,0:0:0:0:
320,192,23912,1,0,0:0:0:0:
64,192,24129,128,2,24564:0:0:0:0:
192,192,24129,1,0,0:0:0:0:
320,192,24347,1,0,0:0:0:0:
320,192,24564,1,8,0:0:0:0:
448,192,24564,1,0,0:0:0:0:
192,192,24781,1,0,0:0:0:0:
448,192,24999,128,0,25434:0:0:0:0:
64,192,25216,1,2,0:0:0:0:
320,192,25216,1,0,0:0:0:0:
64,192,25434,1,8,0:0:0:0:
192,192,25434,1,0,0:0:0:0:
320,192,25651,1,0,0:0:0:0:
64,192,25868,128,2,26303:0:0:0:0:
448,192,25868,1,0,0:0:0:0:
192,192,26086,128,0,26303:0:0:0:0:
320,192,26303,128,8,26520:0:0:0:0:
448,192,26303,1,0,0:0:0:0:
192,192,26520,128,0,26738:0:0:0:0:
448,192,26738,128,0,27173:0:0:0:0:
64,192,26955,128,2,27173:0:0:0:0:
320,192,26955,1,0,0:0:0:0:
192,192,27173,1,8,0:0:0:0:
320,192,27173,128,0,27390:0:0:0:0:
192,192,27390,128,0,27607:0:0:0:0:
64,192,27607,1,2,0:0:0:0:
448,192,27607,1,0,0:0:0:0:
448,192,27825,128,0,28042:0:0:0:0:
64,192,28042,1,8,0:0:0:0:
320,192,28042,1,0,0:0:0:0:
64,192,28260,128,0,28477:0:0:0:0:
320,192,28477,1,0,0:0:0:0:
320,192,28694,128,2,28912:0:0:0:0:
448,192,28694,1,0,0:0:0:0:
64,192,28912,1,8,0:0:0:0:
192,192,28912,1,0,0:0:0:0:
448,192,29129,1,0,0:0:0:0:
192,192,29347,128,2,29781:0:0:0:0:
320,192,29347,1,0,0:0:0:0:
448,192,29347,1,0,0:0:0:0:
64,192,29564,1,0,0:0:0:0:
64,192,29781,1,8,0:0:0:0:
320,192,29781,1,0,0:0:0:0:
448,192,29999,1,0,0:0:0:0:
64,192,30216,128,0,30651:0:0:0:0:
192,192,30434,1,2,0:0:0:0:
320,192,30434,1,0,0:0:0:0:
320,192,30651,1,8,0:0:0:0:
448,192,30651,1,0,0:0:0:0:
192,192,30868,1,0,0:0:0:0:
64,192,31086,1,2,0:0:0:0:
320,192,31086,128,0,31520:0:0:0:0:
448,192,31303,1,0,0:0:0:0:
192,192,31520,1,8,0:0:0:0:
448,192,31520,1,0,0:0:0:0:
64,192,31738,1,0,0:0:0:0:
448,192,31955,128,0,32390:0:0:0:0:
192,192,32173,1,2,0:0:0:0:
320,192,32173,1,0,0:0:0:0:
64,192,32390,1,8,0:0:0:0:
192,192,32390,1,0,0:0:0:0:
320,192,32607,1,0,0:0:0:0:
64,192,32825,1,2,0:0:0:0:
192,192,32825,1,4,0:0:0:0:
448,192,32825,1,0,0:0:0:0:
192,192,33042,1,8,0:0:0:0:
320,192,33042,1,0,0:0:0:0:
64,192,33260,1,4,0:0:0:0:
320,192,33260,1,8,0:0:0:0:
448,192,33260,1,0,0:0:0:0:
192,192,33477,1,0,0:0:0:0:
320,192,33694,1,2,0:0:0:0:
448,192,33694,1,8,0:0:0:0:
192,192,34020,1,0,0:0:0:70:Tom1.wav
320,192,34020,1,0,0:0:0:0:
64,192,34347,1,4,0:0:0:0:
320,192,34347,1,0,0:0:0:70:Tom2.wav
448,192,34347,1,0,0:0:0:0:
320,192,34781,1,2,0:0:0:0:
448,192,34781,1,0,0:0:0:0:
192,192,34999,1,8,0:0:0:0:
448,192,34999,1,0,0:0:0:70:Tom1.wav
64,192,35216,1,0,0:0:0:70:Tom2.wav
192,192,35216,1,0,0:0:0:0:
320,192,35651,1,0,0:0:0:70:Tom2.wav
448,192,35651,1,0,0:0:0:0:
64,192,35868,1,0,0:0:0:70:Tom3.wav
192,192,35868,1,0,0:0:0:0:
320,192,36086,1,0,0:0:0:70:Tom3.wav
448,192,36086,1,0,0:0:0:0:
64,192,36303,1,2,0:0:0:0:
192,192,36303,1,4,0:0:0:0:
448,192,36303,1,0,0:0:0:0:
320,192,36738,1,2,0:0:0:0:
448,192,36738,1,0,0:0:0:0:
320,192,37173,1,2,0:0:0:0:
448,192,37173,1,0,0:0:0:0:
320,192,37607,1,2,0:0:0:0:
448,192,37607,1,0,0:0:0:0:
64,192,37825,1,0,0:0:0:70:Tom2.wav
192,192,37934,1,0,0:0:0:70:Tom3.wav
64,192,38042,1,2,0:0:0:0:
320,192,38042,1,4,0:0:0:0:
448,192,38042,1,0,0:0:0:0:
64,192,38477,1,2,0:0:0:0:
192,192,38477,1,0,0:0:0:0:
64,192,38912,1,2,0:0:0:0:
192,192,38912,1,0,0:0:0:0:
192,192,39129,1,0,0:0:0:70:Tom2.wav
448,192,39129,1,0,0:0:0:0:
320,192,39347,1,2,0:0:0:0:
448,192,39347,1,0,0:0:0:0:
64,192,39564,1,0,0:0:0:70:Tom2.wav
192,192,39564,1,0,0:0:0:0:
64,192,39781,1,2,0:0:0:0:
320,192,39781,1,4,0:0:0:0:
448,192,39781,1,0,0:0:0:0:
192,192,40216,1,2,0:0:0:0:
320,192,40216,1,0,0:0:0:0:
64,192,40434,1,0,0:0:0:70:Tom1.wav
192,192,40434,1,0,0:0:0:0:
320,192,40651,1,2,0:0:0:0:
448,192,40651,1,0,0:0:0:0:
64,192,40868,1,0,0:0:0:70:Tom2.wav
320,192,40868,1,0,0:0:0:0:
64,192,41086,1,2,0:0:0:0:
448,192,41086,1,0,0:0:0:0:
192,192,41194,1,0,0:0:0:70:Tom3.wav
320,192,41303,1,0,0:0:0:70:Tom3.wav
64,192,41520,128,4,41955:0:0:0:0:
192,192,41520,1,2,0:0:0:0:
448,192,41520,1,0,0:0:0:0:
320,192,41955,1,8,0:0:0:0:
448,192,41955,1,0,0:0:0:0:
192,192,42173,1,8,0:0:0:0:
448,192,42173,1,0,0:0:0:0:
64,192,42390,1,8,0:0:0:0:
192,192,42390,1,0,0:0:0:0:
320,192,42607,1,2,0:0:0:0:
192,192,42716,1,2,0:0:0:0:
64,192,42825,1,8,0:0:0:0:
320,192,42825,1,4,0:0:0:0:
448,192,42825,1,0,0:0:0:0:
64,192,43042,1,0,0:0:0:0:
320,192,43260,1,8,0:0:0:0:
448,192,43260,1,2,0:0:0:0:
320,192,43477,1,8,0:0:0:0:
448,192,43477,1,0,0:0:0:0:
64,192,43694,1,8,0:0:0:0:
192,192,43694,1,2,0:0:0:0:
64,192,43912,1,8,0:0:0:0:
192,192,43912,1,0,0:0:0:0:
320,192,44129,1,8,0:0:0:0:
448,192,44129,1,2,0:0:0:0:
320,192,44347,1,8,0:0:0:0:
448,192,44347,1,0,0:0:0:0:
64,192,44564,1,8,0:0:0:0:
192,192,44564,1,2,0:0:0:0:
64,192,44781,1,8,0:0:0:0:
192,192,44781,1,0,0:0:0:0:
320,192,44999,1,8,0:0:0:0:
448,192,44999,1,2,0:0:0:0:
192,192,45216,1,8,0:0:0:0:
448,192,45216,1,0,0:0:0:0:
64,192,45434,1,8,0:0:0:0:
192,192,45434,1,2,0:0:0:0:
64,192,45651,1,8,0:0:0:0:
320,192,45651,1,0,0:0:0:0:
192,192,45868,1,8,0:0:0:0:
448,192,45868,1,2,0:0:0:0:
320,192,46086,1,8,0:0:0:0:
448,192,46086,1,0,0:0:0:0:
64,192,46303,1,8,0:0:0:0:
320,192,46303,1,2,0:0:0:0:
64,192,46520,1,8,0:0:0:0:
192,192,46520,1,0,0:0:0:0:
320,192,46738,1,8,0:0:0:0:
448,192,46738,1,2,0:0:0:0:
320,192,46955,1,8,0:0:0:0:
448,192,46955,1,2,0:0:0:0:
64,192,47173,1,8,0:0:0:0:
192,192,47173,1,2,0:0:0:0:
64,192,47390,1,8,0:0:0:0:
192,192,47390,1,2,0:0:0:0:
320,192,47607,1,8,0:0:0:0:
448,192,47607,1,2,0:0:0:0:
192,192,47825,1,8,0:0:0:0:
320,192,47825,1,2,0:0:0:0:
64,192,48042,1,8,0:0:0:0:
192,192,48042,1,2,0:0:0:0:
320,192,48151,1,0,0:0:0:70:Tom1.wav
64,192,48260,1,0,0:0:0:70:Tom2.wav
320,192,48477,1,2,0:0:0:0:
448,192,48477,1,0,0:0:0:0:
64,192,48694,1,8,0:0:0:0:
192,192,48694,1,0,0:0:0:0:
64,192,49020,1,8,0:0:0:0:
192,192,49020,1,0,0:0:0:0:
64,192,49347,1,8,0:0:0:0:
192,192,49347,1,0,0:0:0:0:
448,192,49781,1,0,0:0:0:0:
320,192,49890,1,0,0:0:0:0:
64,192,50216,1,2,0:0:0:0:
320,192,50216,1,4,0:0:0:0:
448,192,50216,128,0,50651:0:0:0:0:
192,192,50434,1,2,0:0:0:0:
320,192,50434,1,0,0:0:0:0:
64,192,50651,1,8,0:0:0:0:
192,192,50651,1,0,0:0:0:0:
64,192,50977,1,2,0:0:0:0:
320,192,50977,1,0,0:0:0:0:
448,192,51194,1,8,0:0:0:0:
64,192,51303,1,2,0:0:0:0:
192,192,51303,1,0,0:0:0:0:
64,192,51520,1,8,0:0:0:0:
448,192,51520,1,0,0:0:0:0:
192,192,51738,128,0,51955:0:0:0:0:
320,192,51955,128,2,52390:0:0:0:0:
448,192,51955,1,0,0:0:0:0:
64,192,52173,1,2,0:0:0:0:
192,192,52173,1,0,0:0:0:0:
64,192,52390,1,8,0:0:0:0:
448,192,52390,1,0,0:0:0:0:
320,192,52716,1,2,0:0:0:0:
448,192,52716,1,0,0:0:0:0:
64,192,52934,1,8,0:0:0:0:
192,192,53042,1,2,0:0:0:0:
448,192,53042,1,0,0:0:0:0:
64,192,53260,1,8,0:0:0:0:
448,192,53260,1,0,0:0:0:0:
320,192,53477,128,0,53694:0:0:0:0:
64,192,53694,1,2,0:0:0:0:
192,192,53694,128,0,54129:0:0:0:0:
320,192,53912,1,2,0:0:0:0:
448,192,53912,1,0,0:0:0:0:
64,192,54129,1,8,0:0:0:0:
448,192,54129,1,0,0:0:0:0:
192,192,54455,1,2,0:0:0:0:
320,192,54455,1,0,0:0:0:0:
64,192,54673,1,8,0:0:0:0:
192,192,54781,1,2,0:0:0:0:
448,192,54781,1,0,0:0:0:0:
64,192,54999,1,8,0:0:0:0:
448,192,54999,1,0,0:0:0:0:
320,192,55216,128,0,55434:0:0:0:0:
64,192,55434,128,2,55651:0:0:0:0:
192,192,55434,1,0,0:0:0:0:
320,192,55651,1,2,0:0:0:0:
448,192,55651,128,0,55868:0:0:0:0:
64,192,55868,1,8,0:0:0:0:
192,192,55868,1,0,0:0:0:0:
192,192,56194,1,2,0:0:0:0:
448,192,56194,1,0,0:0:0:0:
320,192,56412,1,8,0:0:0:0:
64,192,56520,1,2,0:0:0:0:
192,192,56520,1,0,0:0:0:0:
64,192,56738,1,8,0:0:0:0:
448,192,56738,1,0,0:0:0:0:
320,192,56955,1,0,0:0:0:0:
192,192,57064,1,8,0:0:0:0:
64,192,57173,128,2,57607:0:0:0:0:
320,192,57173,1,4,0:0:0:0:
448,192,57173,1,0,0:0:0:0:
192,192,57390,1,2,0:0:0:0:
448,192,57390,1,0,0:0:0:0:
192,192,57607,1,8,0:0:0:0:
320,192,57607,1,0,0:0:0:0:
320,192,57934,1,2,0:0:0:0:
448,192,57934,1,0,0:0:0:0:
64,192,58151,1,8,0:0:0:0:
192,192,58260,1,2,0:0:0:0:
448,192,58260,1,0,0:0:0:0:
64,192,58477,1,8,0:0:0:0:
448,192,58477,1,0,0:0:0:0:
320,192,58694,128,0,58912:0:0:0:0:
64,192,58912,1,2,0:0:0:0:
192,192,58912,128,0,59347:0:0:0:0:
448,192,59129,1,0,0:0:0:0:
320,192,59347,1,8,0:0:0:0:
448,192,59347,1,0,0:0:0:0:
192,192,59673,1,2,0:0:0:0:
320,192,59673,1,0,0:0:0:0:
64,192,59999,1,8,0:0:0:0:
320,192,59999,1,0,0:0:0:0:
64,192,60216,1,8,0:0:0:0:
448,192,60216,1,0,0:0:0:0:
320,192,60325,1,8,0:0:0:0:
192,192,60434,1,8,0:0:0:0:
320,192,60542,1,2,0:0:0:0:
64,192,60651,1,4,0:0:0:0:
448,192,60651,1,2,0:0:0:0:
448,192,60868,1,0,0:0:0:0:
64,192,61086,1,8,0:0:0:0:
192,192,61086,1,0,0:0:0:0:
320,192,61303,1,2,0:0:0:0:
448,192,61303,1,0,0:0:0:0:
64,192,61520,1,8,0:0:0:0:
192,192,61520,1,0,0:0:0:0:
320,192,61738,1,2,0:0:0:0:
448,192,61738,1,0,0:0:0:0:
64,192,61955,1,8,0:0:0:0:
192,192,61955,1,0,0:0:0:0:
320,192,62173,1,2,0:0:0:0:
448,192,62173,1,0,0:0:0:0:
64,192,62390,1,8,0:0:0:0:
192,192,62390,1,0,0:0:0:0:
64,192,62607,1,0,0:0:0:0:
192,192,62825,1,8,0:0:0:0:
320,192,62825,1,0,0:0:0:0:
192,192,63042,1,2,0:0:0:0:
448,192,63042,1,0,0:0:0:0:
320,192,63260,1,8,0:0:0:0:
448,192,63260,1,0,0:0:0:0:
192,192,63477,1,2,0:0:0:0:
320,192,63477,1,0,0:0:0:0:
64,192,63694,1,8,0:0:0:0:
192,192,63694,1,0,0:0:0:0:
320,192,63912,1,2,0:0:0:0:
448,192,63912,1,0,0:0:0:0:
64,192,64129,1,8,0:0:0:0:
448,192,64129,1,0,0:0:0:0:
64,192,64347,1,0,0:0:0:0:
320,192,64564,1,8,0:0:0:0:
448,192,64564,1,0,0:0:0:0:
64,192,64781,1,2,0:0:0:0:
192,192,64781,1,0,0:0:0:0:
320,192,64999,1,8,0:0:0:0:
448,192,64999,1,0,0:0:0:0:
64,192,65216,1,2,0:0:0:0:
192,192,65216,1,0,0:0:0:0:
320,192,65434,1,8,0:0:0:0:
448,192,65434,1,0,0:0:0:0:
64,192,65651,1,2,0:0:0:0:
192,192,65651,1,0,0:0:0:0:
320,192,65868,1,2,0:0:0:0:
448,192,65868,1,0,0:0:0:70:Tom1.wav
192,192,66086,1,0,0:0:0:70:Tom2.wav
448,192,66086,1,0,0:0:0:0:
64,192,66303,1,8,0:0:0:0:
192,192,66303,1,0,0:0:0:70:Tom3.wav
64,192,66520,128,4,66955:0:0:0:0:
448,192,66520,1,2,0:0:0:0:
320,192,66955,1,8,0:0:0:0:
448,192,66955,1,0,0:0:0:0:
64,192,67173,1,8,0:0:0:0:
448,192,67173,1,0,0:0:0:0:
320,192,67281,1,0,0:0:0:70:Tom2.wav
192,192,67390,1,0,0:0:0:70:Tom3.wav
64,192,67607,1,4,0:0:0:0:
320,192,67607,1,8,0:0:0:0:
448,192,67607,1,0,0:0:0:0:
320,192,67825,1,2,0:0:0:0:
448,192,67825,1,0,0:0:0:0:
320,192,68042,1,2,0:0:0:0:
448,192,68042,1,0,0:0:0:0:
64,192,68260,1,4,0:0:0:0:
192,192,68260,1,8,0:0:0:0:
448,192,68260,1,0,0:0:0:0:
64,192,68477,1,2,0:0:0:0:
192,192,68477,1,0,0:0:0:0:
64,192,68694,1,2,0:0:0:0:
192,192,68694,1,0,0:0:0:0:
64,192,68912,1,4,0:0:0:0:
320,192,68912,1,8,0:0:0:0:
448,192,68912,1,0,0:0:0:0:
192,192,69129,1,2,0:0:0:0:
320,192,69129,1,0,0:0:0:0:
64,192,69347,1,2,0:0:0:0:
448,192,69347,1,0,0:0:0:0:
192,192,69455,1,8,0:0:0:0:
320,192,69564,1,8,0:0:0:0:
64,192,69673,1,8,0:0:0:0:
192,192,69781,1,8,0:0:0:0:
448,192,69781,1,0,0:0:0:0:
320,192,69890,1,8,0:0:0:0:
192,192,69999,1,0,0:0:0:0:
64,192,70216,1,8,0:0:0:0:
448,192,70216,1,0,0:0:0:70:Tom3.wav
64,192,70542,1,8,0:0:0:0:
448,192,70542,1,0,0:0:0:70:Tom3.wav
320,192,70868,1,0,0:0:0:0:
64,192,71086,1,4,0:0:0:0:
192,192,71086,1,2,0:0:0:0:
448,192,71086,1,0,0:0:0:0:
192,192,71303,1,2,0:0:0:0:
320,192,71303,1,0,0:0:0:0:
64,192,71520,1,8,0:0:0:0:
448,192,71520,1,0,0:0:0:0:
320,192,71738,1,0,0:0:0:0:
192,192,71847,1,2,0:0:0:0:
320,192,72064,1,8,0:0:0:0:
192,192,72173,1,2,0:0:0:0:
64,192,72390,1,8,0:0:0:0:
448,192,72390,1,0,0:0:0:0:
192,192,72607,1,0,0:0:0:0:
320,192,72716,1,8,0:0:0:0:
64,192,72825,1,2,0:0:0:0:
192,192,72825,1,0,0:0:0:0:
320,192,73042,1,2,0:0:0:0:
448,192,73042,1,0,0:0:0:0:
64,192,73260,1,8,0:0:0:0:
448,192,73260,1,0,0:0:0:0:
320,192,73477,1,0,0:0:0:0:
192,192,73586,1,2,0:0:0:0:
192,192,73803,1,8,0:0:0:0:
320,192,73912,1,2,0:0:0:0:
64,192,74129,1,8,0:0:0:0:
448,192,74129,1,0,0:0:0:0:
320,192,74347,1,0,0:0:0:0:
192,192,74455,1,8,0:0:0:0:
320,192,74564,1,2,0:0:0:0:
448,192,74564,1,0,0:0:0:0:
64,192,74781,1,2,0:0:0:0:
192,192,74781,1,0,0:0:0:0:
64,192,74999,1,8,0:0:0:0:
448,192,74999,1,0,0:0:0:0:
320,192,75216,1,0,0:0:0:0:
192,192,75325,1,2,0:0:0:0:
320,192,75542,1,8,0:0:0:0:
192,192,75651,1,2,0:0:0:0:
64,192,75868,1,8,0:0:0:0:
448,192,75868,1,0,0:0:0:0:
192,192,76086,1,0,0:0:0:0:
320,192,76194,1,8,0:0:0:0:
64,192,76303,128,2,76520:0:0:0:0:
448,192,76303,128,0,76520:0:0:0:0:
192,192,76520,1,2,0:0:0:0:
320,192,76629,1,0,0:0:0:0:
64,192,76738,128,8,76955:0:0:0:0:
448,192,76738,128,0,76955:0:0:0:0:
64,192,77064,1,2,0:0:0:0:
320,192,77064,1,0,0:0:0:0:
192,192,77390,1,2,0:0:0:0:
448,192,77390,1,0,0:0:0:0:
64,192,77607,1,8,0:0:0:0:
448,192,77607,1,0,0:0:0:0:
320,192,77716,1,0,0:0:0:0:
64,192,77825,1,0,0:0:0:0:
192,192,77934,1,8,0:0:0:0:
320,192,78042,1,2,0:0:0:0:
448,192,78042,1,4,0:0:0:0:
192,192,78260,1,2,0:0:0:0:
320,192,78368,1,2,0:0:0:0:
64,192,78477,1,8,0:0:0:0:
448,192,78477,1,4,0:0:0:0:
192,192,78694,1,0,0:0:0:0:
448,192,78803,1,2,0:0:0:0:
192,192,79020,1,8,0:0:0:0:
448,192,79129,1,2,0:0:0:0:
64,192,79347,1,8,0:0:0:0:
320,192,79347,1,0,0:0:0:0:
192,192,79564,1,0,0:0:0:0:
320,192,79673,1,8,0:0:0:0:
64,192,79781,1,2,0:0:0:0:
192,192,79781,1,0,0:0:0:0:
320,192,79999,1,2,0:0:0:0:
192,192,80107,1,0,0:0:0:0:
64,192,80216,1,8,0:0:0:0:
448,192,80216,1,0,0:0:0:0:
192,192,80434,1,0,0:0:0:0:
448,192,80542,1,2,0:0:0:0:
64,192,80760,1,0,0:0:0:70:Tom1.wav
192,192,80977,1,8,0:0:0:0:
320,192,81086,1,8,0:0:0:0:
448,192,81086,1,0,0:0:0:0:
192,192,81194,1,8,0:0:0:0:
320,192,81303,1,0,0:0:0:70:Tom2.wav
64,192,81520,1,2,0:0:0:0:
448,192,81520,1,0,0:0:0:0:
320,192,81629,1,8,0:0:0:0:
192,192,81738,1,8,0:0:0:0:
448,192,81847,1,8,0:0:0:0:
64,192,81955,1,2,0:0:0:0:
192,192,82064,1,8,0:0:0:0:
320,192,82173,1,8,0:0:0:0:
64,192,82281,1,8,0:0:0:0:
192,192,82390,1,2,0:0:0:0:
448,192,82390,1,4,0:0:0:0:
320,192,82607,128,8,82825:0:0:0:0:
448,192,82607,1,0,0:0:0:0:
64,192,82825,1,0,0:0:0:70:Tom1.wav
192,192,82825,128,0,83042:0:0:0:0:
320,192,83042,1,0,0:0:0:70:Tom2.wav
448,192,83042,128,0,83260:0:0:0:0:
64,192,83260,1,2,0:0:0:0:
192,192,83260,1,4,0:0:0:0:
320,192,83477,1,8,0:0:0:0:
192,192,83586,1,8,0:0:0:0:
448,192,83694,1,2,0:0:0:0:
64,192,83803,1,8,0:0:0:0:
192,192,83912,1,2,0:0:0:0:
320,192,84020,1,2,0:0:0:0:
448,192,84020,1,4,0:0:0:0:
192,192,84238,1,8,0:0:0:0:
320,192,84347,1,8,0:0:0:0:
192,192,84455,1,8,0:0:0:0:
64,192,84564,1,8,0:0:0:0:
448,192,84564,1,0,0:0:0:0:
320,192,84673,1,8,0:0:0:0:
192,192,84781,1,8,0:0:0:0:
320,192,84890,1,8,0:0:0:0:
64,192,84999,128,4,90542:0:0:0:0:
192,192,84999,1,0,0:0:0:0:
