osu file format v14

[General]
AudioFilename: audio.mp3
AudioLeadIn: 0
PreviewTime: 48477
Countdown: 0
SampleSet: Soft
StackLeniency: 0.7
Mode: 3
LetterboxInBreaks: 0
SpecialStyle: 0
WidescreenStoryboard: 1

[Editor]
Bookmarks: 8477,22390,36303,50216,60651,71086
DistanceSpacing: 0.7
BeatDivisor: 4
GridSize: 4
TimelineZoom: 1.500001

[Metadata]
Title:FIRST DROP (TV Size)
TitleUnicode:FIRST DROP (TV Size)
Artist:halca
ArtistUnicode:halca
Creator:[Ping]
Version:DH's Easy
Source:彼女、お借りします
Tags:kanojo okarishimasu kanokari rent-a-girlfriend japanese jpop j-pop anime アニメ ending ruka sarashina 更科瑠夏 kokuhaku bungee jump 告白バンジージャンプ VVCL-1711 VVCL-1713 VVCL-1714 thenewbungping dudehacker drum-hitnormal syadow-
BeatmapID:2587000
BeatmapSetID:1242594

[Difficulty]
HPDrainRate:7
CircleSize:4
OverallDifficulty:7
ApproachRate:5
SliderMultiplier:1.4
SliderTickRate:1

[Events]
//Background and Video events
Video,-191,"Kanokari-ED2.mp4"
0,0,"ruka-cute.jpg",0,0
//Break Periods
//Storyboard Layer 0 (Background)
//Storyboard Layer 1 (Fail)
//Storyboard Layer 2 (Pass)
//Storyboard Layer 3 (Foreground)
//Storyboard Layer 4 (Overlay)
//Storyboard Sound Samples
Sample,34999,0,"Tom1.wav",70
Sample,65868,0,"Tom1.wav",70
Sample,66303,0,"Tom3.wav",70
Sample,70216,0,"Tom3.wav",70
Sample,70542,0,"Tom3.wav",70
Sample,80542,0,"Tom2.wav",70

[TimingPoints]
1521,434.782608695652,4,2,1,30,1,0
50216,-100,4,2,1,30,0,1
67607,-100,4,2,1,30,0,0

[HitObjects]
448,192,651,5,8,0:0:0:0:
448,192,977,1,8,0:0:0:0:
64,192,1521,1,4,0:0:0:0:
192,192,1521,1,2,0:0:0:0:
320,192,1738,1,2,0:0:0:0:
192,192,1955,1,8,0:0:0:0:
448,192,2281,1,2,0:0:0:0:
64,192,2607,1,2,0:0:0:0:
320,192,2825,1,8,0:0:0:0:
192,192,3260,1,2,0:0:0:0:
448,192,3477,1,2,0:0:0:0:
64,192,3694,1,8,0:0:0:0:
320,192,4020,1,2,0:0:0:0:
192,192,4347,1,2,0:0:0:0:
448,192,4564,1,8,0:0:0:0:
320,192,4999,1,2,0:0:0:0:
64,192,5216,1,2,0:0:0:0:
192,192,5434,1,8,0:0:0:0:
448,192,5760,1,2,0:0:0:0:
64,192,6086,1,2,0:0:0:0:
320,192,6303,1,8,0:0:0:0:
192,192,6738,1,2,0:0:0:0:
320,192,7173,1,10,0:0:0:0:
448,192,7499,1,6,0:0:0:0:
64,192,7825,1,8,0:0:0:0:
320,192,8042,1,8,0:0:0:0:
192,192,8260,1,0,0:0:0:70:Tom2.wav
64,192,8477,128,2,8912:0:0:0:0:
448,192,8477,1,4,0:0:0:0:
192,192,8912,1,2,0:0:0:0:
448,192,9347,128,2,9781:0:0:0:0:
320,192,9781,1,2,0:0:0:0:
192,192,10216,128,2,10651:0:0:0:0:
64,192,10651,1,2,0:0:0:0:
320,192,11086,128,2,11520:0:0:0:0:
448,192,11520,1,2,0:0:0:0:
192,192,11955,1,2,0:0:0:0:
192,192,12390,1,2,0:0:0:0:
448,192,12825,1,2,0:0:0:0:
448,192,13260,1,2,0:0:0:0:
64,192,13694,1,2,0:0:0:0:
64,192,14129,1,2,0:0:0:0:
320,192,14564,1,2,0:0:0:0:
320,192,14999,1,2,0:0:0:0:
192,192,15434,128,2,15868:0:0:0:0:
448,192,15868,1,2,0:0:0:0:
320,192,16303,128,2,16738:0:0:0:0:
64,192,16738,1,2,0:0:0:0:
448,192,17173,128,2,17607:0:0:0:0:
192,192,17607,1,2,0:0:0:0:
64,192,18042,128,2,18477:0:0:0:0:
320,192,18477,1,2,0:0:0:0:
192,192,18912,1,2,0:0:0:0:
192,192,19347,1,2,0:0:0:0:
448,192,19781,1,2,0:0:0:0:
448,192,20216,1,2,0:0:0:0:
64,192,20434,128,6,21520:0:0:0:0:
448,192,21520,128,8,22390:0:0:0:0:
192,192,21955,1,8,0:0:0:0:
64,192,22390,1,2,0:0:0:0:
320,192,22390,128,4,22825:0:0:0:0:
448,192,22825,1,8,0:0:0:0:
192,192,23260,128,0,23694:0:0:0:0:
64,192,23694,1,8,0:0:0:0:
448,192,24129,128,2,24564:0:0:0:0:
320,192,24564,1,8,0:0:0:0:
64,192,24999,128,0,25434:0:0:0:0:
192,192,25434,1,8,0:0:0:0:
448,192,25868,1,2,0:0:0:0:
320,192,26303,1,8,0:0:0:0:
64,192,26738,1,0,0:0:0:0:
448,192,26955,1,2,0:0:0:0:
192,192,27173,1,8,0:0:0:0:
320,192,27607,1,2,0:0:0:0:
192,192,28042,1,8,0:0:0:0:
448,192,28477,1,0,0:0:0:0:
64,192,28694,1,2,0:0:0:0:
320,192,28912,1,8,0:0:0:0:
64,192,29347,1,2,0:0:0:0:
192,192,29347,128,0,29781:0:0:0:0:
448,192,29781,1,8,0:0:0:0:
320,192,30216,128,0,30651:0:0:0:0:
64,192,30651,1,8,0:0:0:0:
448,192,31086,128,2,31520:0:0:0:0:
192,192,31520,1,8,0:0:0:0:
64,192,31955,128,0,32390:0:0:0:0:
320,192,32390,1,8,0:0:0:0:
64,192,32825,1,2,0:0:0:0:
192,192,32825,1,4,0:0:0:0:
448,192,33042,1,8,0:0:0:0:
320,192,33260,1,12,0:0:0:0:
64,192,33477,1,0,0:0:0:0:
448,192,33694,1,10,0:0:0:0:
192,192,34020,1,0,0:0:0:70:Tom1.wav
64,192,34347,1,4,0:0:0:0:
320,192,34347,1,0,0:0:0:70:Tom2.wav
448,192,34781,1,2,0:0:0:0:
192,192,34999,1,8,0:0:0:0:
64,192,35216,1,0,0:0:0:70:Tom2.wav
192,192,35651,1,0,0:0:0:70:Tom2.wav
320,192,35868,1,0,0:0:0:70:Tom3.wav
448,192,36086,1,0,0:0:0:70:Tom3.wav
64,192,36303,1,2,0:0:0:0:
192,192,36303,1,4,0:0:0:0:
448,192,36738,1,2,0:0:0:0:
192,192,37173,1,2,0:0:0:0:
448,192,37607,1,2,0:0:0:0:
320,192,37825,1,0,0:0:0:70:Tom2.wav
64,192,38042,1,2,0:0:0:0:
192,192,38042,1,4,0:0:0:0:
320,192,38477,1,2,0:0:0:0:
64,192,38912,1,2,0:0:0:0:
448,192,39129,1,0,0:0:0:70:Tom2.wav
320,192,39347,1,2,0:0:0:0:
192,192,39564,1,0,0:0:0:70:Tom2.wav
64,192,39781,1,2,0:0:0:0:
448,192,39781,1,4,0:0:0:0:
320,192,40216,1,2,0:0:0:0:
192,192,40651,1,2,0:0:0:0:
320,192,40868,1,0,0:0:0:70:Tom2.wav
448,192,41086,1,2,0:0:0:0:
64,192,41303,1,0,0:0:0:70:Tom3.wav
320,192,41520,1,4,0:0:0:0:
448,192,41520,1,2,0:0:0:0:
192,192,41955,1,8,0:0:0:0:
320,192,42173,1,8,0:0:0:0:
192,192,42390,1,8,0:0:0:0:
320,192,42607,1,2,0:0:0:0:
64,192,42825,1,8,0:0:0:0:
448,192,42825,1,4,0:0:0:0:
192,192,43260,128,8,44999:0:0:0:0:
320,192,43260,1,2,0:0:0:0:
448,192,43694,1,10,0:0:0:0:
320,192,44129,1,10,0:0:0:0:
448,192,44564,1,10,0:0:0:0:
320,192,44999,128,10,46738:0:0:0:0:
64,192,45434,1,10,0:0:0:0:
192,192,45868,1,10,0:0:0:0:
64,192,46303,1,10,0:0:0:0:
64,192,46738,128,10,48477:0:0:0:0:
448,192,47173,1,10,0:0:0:0:
320,192,47607,1,10,0:0:0:0:
448,192,48042,1,10,0:0:0:0:
192,192,48477,1,2,0:0:0:0:
320,192,48694,1,8,0:0:0:0:
64,192,49020,1,8,0:0:0:0:
448,192,49347,1,8,0:0:0:0:
64,192,49781,128,0,50216:0:0:0:0:
320,192,50216,1,2,0:0:0:0:
448,192,50216,1,4,0:0:0:0:
192,192,50434,1,2,0:0:0:0:
64,192,50651,1,8,0:0:0:0:
448,192,50977,1,2,0:0:0:0:
192,192,51303,1,2,0:0:0:0:
448,192,51520,1,8,0:0:0:0:
64,192,51955,1,2,0:0:0:0:
320,192,52173,1,2,0:0:0:0:
192,192,52390,1,8,0:0:0:0:
448,192,52716,1,2,0:0:0:0:
64,192,53042,1,2,0:0:0:0:
320,192,53260,1,8,0:0:0:0:
192,192,53694,1,2,0:0:0:0:
320,192,53912,1,2,0:0:0:0:
448,192,54129,1,8,0:0:0:0:
192,192,54455,1,2,0:0:0:0:
320,192,54781,1,2,0:0:0:0:
64,192,54999,1,8,0:0:0:0:
320,192,55434,1,2,0:0:0:0:
192,192,55651,1,2,0:0:0:0:
448,192,55868,1,8,0:0:0:0:
64,192,56194,1,2,0:0:0:0:
320,192,56520,1,2,0:0:0:0:
192,192,56738,1,8,0:0:0:0:
320,192,57173,1,2,0:0:0:0:
448,192,57173,1,4,0:0:0:0:
64,192,57390,1,2,0:0:0:0:
192,192,57607,1,8,0:0:0:0:
320,192,57934,1,2,0:0:0:0:
64,192,58260,1,2,0:0:0:0:
448,192,58477,1,8,0:0:0:0:
192,192,58912,1,2,0:0:0:0:
320,192,59347,1,8,0:0:0:0:
64,192,59673,1,2,0:0:0:0:
448,192,59999,1,8,0:0:0:0:
192,192,60216,1,8,0:0:0:0:
64,192,60434,1,8,0:0:0:0:
320,192,60651,1,4,0:0:0:0:
448,192,60651,128,2,61086:0:0:0:0:
192,192,61086,1,8,0:0:0:0:
320,192,61303,1,2,0:0:0:0:
192,192,61520,128,8,61955:0:0:0:0:
320,192,61955,1,8,0:0:0:0:
64,192,62173,1,2,0:0:0:0:
320,192,62390,128,8,62825:0:0:0:0:
64,192,62825,1,8,0:0:0:0:
448,192,63042,1,2,0:0:0:0:
64,192,63260,128,8,63694:0:0:0:0:
448,192,63694,1,8,0:0:0:0:
192,192,63912,1,2,0:0:0:0:
448,192,64129,128,8,64564:0:0:0:0:
192,192,64564,1,8,0:0:0:0:
320,192,64781,1,2,0:0:0:0:
192,192,64999,128,8,65434:0:0:0:0:
448,192,65434,1,8,0:0:0:0:
64,192,65868,1,2,0:0:0:0:
192,192,66086,1,0,0:0:0:70:Tom2.wav
448,192,66303,1,8,0:0:0:0:
192,192,66520,1,4,0:0:0:0:
320,192,66520,128,2,66955:0:0:0:0:
64,192,66955,1,8,0:0:0:0:
192,192,67173,1,8,0:0:0:0:
448,192,67390,1,0,0:0:0:70:Tom3.wav
64,192,67607,128,4,68260:0:0:0:0:
320,192,67607,1,8,0:0:0:0:
192,192,68260,1,4,0:0:0:0:
448,192,68260,128,8,68912:0:0:0:0:
64,192,68912,1,4,0:0:0:0:
192,192,68912,128,8,69347:0:0:0:0:
320,192,69347,128,2,69999:0:0:0:0:
64,192,70216,1,8,0:0:0:0:
448,192,70542,1,8,0:0:0:0:
64,192,71086,1,4,0:0:0:0:
192,192,71086,1,2,0:0:0:0:
320,192,71303,1,2,0:0:0:0:
192,192,71520,1,8,0:0:0:0:
448,192,71847,1,2,0:0:0:0:
64,192,72173,1,2,0:0:0:0:
320,192,72390,1,8,0:0:0:0:
192,192,72825,1,2,0:0:0:0:
448,192,73042,1,2,0:0:0:0:
64,192,73260,1,8,0:0:0:0:
320,192,73586,1,2,0:0:0:0:
192,192,73912,1,2,0:0:0:0:
448,192,74129,1,8,0:0:0:0:
320,192,74564,1,2,0:0:0:0:
64,192,74781,1,2,0:0:0:0:
192,192,74999,1,8,0:0:0:0:
448,192,75325,1,2,0:0:0:0:
64,192,75651,1,2,0:0:0:0:
320,192,75868,1,8,0:0:0:0:
192,192,76303,1,2,0:0:0:0:
448,192,76520,1,2,0:0:0:0:
64,192,76738,1,8,0:0:0:0:
320,192,77064,1,2,0:0:0:0:
192,192,77390,1,2,0:0:0:0:
448,192,77607,128,8,78042:0:0:0:0:
64,192,78042,1,2,0:0:0:0:
192,192,78042,1,4,0:0:0:0:
320,192,78260,1,2,0:0:0:0:
448,192,78477,1,12,0:0:0:0:
192,192,78803,1,2,0:0:0:0:
448,192,79129,1,2,0:0:0:0:
64,192,79347,1,8,0:0:0:0:
192,192,79781,1,2,0:0:0:0:
448,192,79999,1,2,0:0:0:0:
320,192,80216,1,8,0:0:0:0:
64,192,80542,1,2,0:0:0:0:
448,192,80760,1,0,0:0:0:70:Tom1.wav
192,192,80977,1,8,0:0:0:0:
320,192,81303,1,0,0:0:0:70:Tom2.wav
64,192,81520,128,2,81955:0:0:0:0:
448,192,81955,128,2,82390:0:0:0:0:
64,192,82390,1,2,0:0:0:0:
192,192,82390,128,4,82825:0:0:0:0:
320,192,82825,128,0,83260:0:0:0:70:Tom1.wav
64,192,83260,1,2,0:0:0:0:
448,192,83260,1,4,0:0:0:0:
192,192,83694,1,2,0:0:0:0:
320,192,84020,1,6,0:0:0:0:
448,192,84347,128,8,84999:0:0:0:0:
64,192,84999,128,4,90542:0:0:0:0:
