osu file format v14

[General]
AudioFilename: audio.mp3
AudioLeadIn: 0
PreviewTime: 112511
Countdown: 0
SampleSet: Soft
StackLeniency: 0.7
Mode: 0
LetterboxInBreaks: 0
WidescreenStoryboard: 0

[Editor]
DistanceSpacing: 0.9
BeatDivisor: 4
GridSize: 32
TimelineZoom: 1

[Metadata]
Title:circle
TitleUnicode:circle
Artist:haisuinonasa
ArtistUnicode:ハイスイノナサ
Creator:Gibune
Version:Expert
Source:
Tags:pandahero rock japanese Ai Kamano 鎌野愛 Machi Ni Tsuite
BeatmapID:2828404
BeatmapSetID:1367642

[Difficulty]
HPDrainRate:6
CircleSize:4
OverallDifficulty:8
ApproachRate:9
SliderMultiplier:1.6
SliderTickRate:1

[Events]
//Background and Video events
0,0,"Circle.png",0,0
//Break Periods
2,64345,68120
//Storyboard Layer 0 (Background)
//Storyboard Layer 1 (Fail)
//Storyboard Layer 2 (Pass)
//Storyboard Layer 3 (Foreground)
//Storyboard Layer 4 (Overlay)
//Storyboard Sound Samples

[TimingPoints]
464,331.67495854063,4,2,1,35,1,0
21691,-333.333333333333,4,2,1,35,0,0
23847,-333.333333333333,4,2,1,5,0,0
24178,-333.333333333333,4,2,1,35,0,0
29153,-333.333333333333,4,2,1,5,0,0
29319,-333.333333333333,4,2,1,35,0,0
34294,-333.333333333333,4,2,1,5,0,0
34460,-333.333333333333,4,2,1,35,0,0
34792,-333.333333333333,4,2,1,5,0,0
34958,-333.333333333333,4,2,1,35,0,0
36782,-333.333333333333,4,2,1,5,0,0
36948,-333.333333333333,4,2,1,35,0,0
37445,-333.333333333333,4,2,1,5,0,0
37611,-333.333333333333,4,2,1,35,0,0
40430,-105.263157894737,4,2,1,35,0,0
42918,-105.263157894737,4,2,2,61,0,0
64145,389.61038961039,4,2,2,61,1,0
64924,384.615384615385,4,2,2,61,1,0
66462,382.165605095541,4,2,2,61,1,0
67990,365.296803652968,4,2,2,61,1,0
68720,331.67495854063,4,2,2,61,1,0
112511,379.746835443037,4,2,2,20,1,0
112511,-400,4,2,2,20,0,0
114029,389.610389610389,4,2,2,20,1,0
114029,-400,4,2,2,20,0,0
115587,384.615384615384,4,2,2,20,1,0
115587,-400,4,2,2,20,0,0
117125,389.610389610389,4,2,2,20,1,0
117125,-400,4,2,2,20,0,0
118683,392.156862745097,4,2,2,20,1,0
118683,-400,4,2,2,20,0,0
128094,387.096774193548,4,2,2,20,1,0
128094,-400,4,2,2,20,0,0
131190,340.909090909091,3,2,2,70,1,0
131190,-76.9230769230769,3,1,2,70,0,0
165280,340.909090909091,4,1,2,70,1,0
165280,-86.9565217391304,4,1,2,70,0,0
185734,348.837209302326,4,1,2,61,1,0
185734,-86.9565217391304,3,1,2,70,0,0
187129,341.880341880342,3,1,2,70,1,0

[Colours]
Combo1 : 17,254,176
Combo2 : 173,255,95
Combo3 : 255,88,100
Combo4 : 255,94,55

[HitObjects]
419,263,21691,6,0,P|379:267|287:63,1,311.999990478516,0|0,3:0|0:0,0:0:0:0:
285,65,24178,2,0,P|245:86|115:37,1,191.999994140625
116,39,26334,1,0,0:0:0:0:
3,200,26997,6,0,L|315:171,1,311.999990478516,2|0,0:3|0:0,0:0:0:0:
313,171,29319,2,0,P|377:188|387:341,1,239.999992675781
389,338,31641,1,0,0:0:0:0:
207,198,32304,6,0,L|226:371,1,167.999994873047,2|0,0:3|0:0,0:0:0:0:
225,364,33963,2,0,B|197:364|168:360,1,47.9999985351563
154,349,34460,2,0,B|126:349|97:353,1,47.9999985351563
82,343,34958,2,0,P|64:320|61:228,1,119.999996337891
59,232,36284,2,0,P|66:206|90:167,1,71.9999978027344
118,163,36948,2,0,P|111:137|87:98,1,71.9999978027344
95,70,37611,6,0,B|221:39|207:104|338:73,1,239.999992675781,2|0,0:3|0:0,0:0:0:0:
331,74,39435,2,0,P|356:82|375:93,1,47.9999985351563
402,83,39933,2,0,P|414:94|423:125,1,47.9999985351563
393,193,40430,5,0,0:0:0:0:
322,208,40596,1,0,0:0:0:0:
256,172,40762,1,0,0:0:0:0:
179,169,40928,5,0,0:0:0:0:
212,237,41094,1,0,0:0:0:0:
177,305,41260,1,0,0:0:0:0:
102,318,41425,1,0,0:0:0:0:
38,276,41591,1,0,0:0:0:0:
45,200,41757,5,0,0:0:0:0:
112,234,41923,1,0,0:0:0:0:
177,194,42089,1,0,0:0:0:0:
191,119,42255,1,0,0:0:0:0:
161,49,42420,5,0,0:0:0:0:
236,56,42586,1,0,0:0:0:0:
304,22,42752,1,0,0:0:0:0:
376,44,42918,6,0,B|402:78|402:78|401:124,1,75.9999979705811,4|0,1:2|1:0,0:0:0:0:
392,128,43167,1,0,1:0:0:0:
379,142,43250,2,0,L|293:160,1,75.9999979705811,8|0,0:0|0:0,0:0:0:0:
437,310,43581,1,0,0:0:0:0:
511,248,43747,1,0,1:0:0:0:
338,227,43913,2,0,L|325:307,1,75.9999979705811,8|0,0:0|0:0,0:0:0:0:
357,377,44245,5,0,1:0:0:0:
216,307,44410,1,0,1:0:0:0:
189,301,44493,1,0,1:0:0:0:
162,296,44576,1,8,0:0:0:0:
77,269,44742,5,0,0:0:0:0:
98,369,44908,1,0,0:0:0:0:
142,214,45074,5,0,1:0:0:0:
16,324,45240,2,0,P|2:283|0:239,1,75.9999979705811,8|0,0:0|0:0,0:0:0:0:
99,136,45571,5,0,1:0:0:0:
24,162,45737,1,0,1:0:0:0:
24,162,45820,1,0,1:0:0:0:
24,162,45903,1,8,0:0:0:0:
170,92,46069,5,0,0:0:0:0:
249,116,46235,1,0,0:0:0:0:
229,41,46400,1,0,1:0:0:0:
187,164,46566,2,0,L|198:252,1,75.9999979705811,8|0,0:0|0:0,0:0:0:0:
198,358,46898,6,0,P|246:339|285:344,1,75.9999979705811,0|0,1:0|1:0,0:0:0:0:
269,339,47147,1,0,1:0:0:0:
269,339,47230,1,8,0:0:0:0:
436,296,47396,2,0,P|393:289|351:234,1,113.999996955872
351,235,47727,1,0,1:0:0:0:
454,103,47893,2,0,B|481:132|481:132|477:176,1,75.9999979705811,8|0,0:0|0:0,0:0:0:0:
310,127,48225,6,0,L|320:39,1,75.9999979705811,0|0,1:0|1:0,0:0:0:0:
322,32,48473,1,0,1:0:0:0:
327,13,48556,1,8,0:0:0:0:
189,119,48722,2,0,L|103:132,1,75.9999979705811
56,219,49054,1,0,1:0:0:0:
133,288,49220,2,0,L|208:276,1,75.9999979705811,8|0,0:0|0:0,0:0:0:0:
279,320,49551,5,0,1:0:0:0:
363,344,49717,1,0,1:0:0:0:
363,344,49800,1,0,1:0:0:0:
363,344,49883,1,8,0:0:0:0:
436,294,50049,1,0,0:0:0:0:
415,209,50215,1,0,0:0:0:0:
365,137,50381,1,0,1:0:0:0:
391,52,50546,1,8,0:0:0:0:
398,39,50712,1,0,0:0:0:0:
476,221,50878,6,0,L|359:236,1,113.999996955872,0|0,1:0|1:0,0:0:0:0:
362,235,51210,1,8,0:0:0:0:
240,158,51376,2,0,P|158:151|56:135,1,151.999995941162,0|0,0:0|1:0,0:0:0:0:
8,56,51873,2,0,P|45:61|83:64,1,75.9999979705811,8|0,0:0|0:0,0:0:0:0:
160,23,52205,5,0,1:0:0:0:
110,171,52371,1,0,1:0:0:0:
110,171,52454,1,0,1:0:0:0:
110,171,52536,2,0,L|119:255,1,75.9999979705811,8|0,0:0|0:0,0:0:0:0:
65,362,52868,1,0,0:0:0:0:
32,272,53034,1,0,1:0:0:0:
224,234,53200,1,8,0:0:0:0:
224,234,53283,2,0,L|216:196,1,37.9999989852906,4|0,1:0|0:0,0:0:0:0:
17,99,53531,6,0,P|78:89|133:79,1,113.999996955872,4|0,1:2|1:0,0:0:0:0:
129,79,53863,1,8,0:0:0:0:
271,118,54029,2,0,P|296:90|301:47,1,75.9999979705811
220,4,54361,1,0,1:0:0:0:
378,145,54527,2,0,P|420:154|456:153,1,75.9999979705811,8|0,0:0|0:0,0:0:0:0:
379,19,54858,5,0,1:0:0:0:
283,152,55024,2,0,L|238:159,2,37.9999989852906,0|0|8,1:0|1:0|0:0,0:0:0:0:
454,57,55356,1,0,0:0:0:0:
430,134,55522,1,0,0:0:0:0:
379,19,55687,1,0,1:0:0:0:
355,96,55853,2,0,L|223:106,1,113.999996955872,8|0,0:0|0:0,0:0:0:0:
241,104,56185,1,0,1:0:0:0:
335,235,56351,5,0,1:0:0:0:
335,235,56434,1,0,1:0:0:0:
335,235,56517,2,0,L|410:245,1,75.9999979705811,8|0,0:0|0:0,0:0:0:0:
193,300,56848,2,0,L|118:310,1,75.9999979705811,0|0,0:0|1:0,0:0:0:0:
263,384,57180,2,0,P|280:343|280:304,1,75.9999979705811,8|0,0:0|0:0,0:0:0:0:
225,158,57512,5,0,1:0:0:0:
110,222,57677,1,0,1:0:0:0:
110,222,57760,1,0,1:0:0:0:
110,222,57843,2,0,P|67:216|24:211,1,75.9999979705811,8|0,0:0|0:0,0:0:0:0:
67,45,58175,2,0,P|77:68|87:134,1,75.9999979705811,0|0,0:0|1:0,0:0:0:0:
182,76,58507,2,0,L|234:82,1,37.9999989852906,8|0,0:0|0:0,0:0:0:0:
317,19,58672,2,0,L|280:24,1,37.9999989852906,8|0,0:0|0:0,0:0:0:0:
376,97,58838,6,0,B|380:137|380:137|351:176,1,75.9999979705811,0|0,1:0|1:0,0:0:0:0:
341,174,59087,1,0,1:0:0:0:
324,184,59170,2,0,L|241:179,1,75.9999979705811,8|0,0:0|0:0,0:0:0:0:
185,127,59502,1,0,0:0:0:0:
252,266,59667,1,0,1:0:0:0:
252,266,59833,2,0,P|294:274|336:340,1,113.999996955872,8|0,0:0|0:0,0:0:0:0:
334,328,60165,6,0,P|380:338|416:335,1,75.9999979705811,0|0,1:0|1:0,0:0:0:0:
430,325,60414,1,0,1:0:0:0:
430,325,60497,1,8,0:0:0:0:
484,217,60663,5,0,0:0:0:0:
401,248,60828,1,0,0:0:0:0:
294,157,60994,5,0,1:0:0:0:
378,173,61160,1,8,0:0:0:0:
490,80,61326,5,0,0:0:0:0:
421,3,61492,2,0,P|412:42|403:114,1,75.9999979705811,0|0,1:0|1:0,0:0:0:0:
418,102,61740,1,0,1:0:0:0:
418,102,61823,1,8,0:0:0:0:
295,44,61989,2,0,P|259:32|216:16,1,75.9999979705811
80,80,62321,1,0,1:0:0:0:
152,119,62487,2,0,L|167:195,1,75.9999979705811,8|0,0:0|0:0,0:0:0:0:
74,353,62818,5,4,1:2:0:0:
165,280,62984,2,0,L|221:292,1,37.9999989852906,2|0,3:0|0:0,0:0:0:0:
287,350,63150,5,8,0:0:0:0:
305,346,63233,1,8,0:0:0:0:
323,342,63316,1,8,0:0:0:0:
341,338,63399,1,8,0:0:0:0:
364,308,63482,5,8,0:0:0:0:
346,304,63565,1,8,0:0:0:0:
328,300,63648,1,8,0:3:0:0:
310,296,63731,1,8,0:3:0:0:
285,267,63813,5,4,0:3:0:0:
309,238,63896,1,4,0:3:0:0:
305,200,63979,1,4,0:3:0:0:
341,188,64062,1,4,0:3:0:0:
360,158,64145,1,2,3:0:0:0:
210,32,68720,5,4,1:2:0:0:
296,16,68885,1,8,0:3:0:0:
312,102,69051,1,8,0:3:0:0:
312,102,69134,1,8,0:3:0:0:
226,118,69300,1,8,0:3:0:0:
226,118,69383,1,4,0:3:0:0:
201,289,69549,1,4,0:3:0:0:
201,289,69632,1,4,0:3:0:0:
201,289,69715,1,4,0:3:0:0:
290,305,69880,1,12,0:0:0:0:
248,379,70046,6,0,L|240:206,1,160,4|0,1:0|1:0,0:0:0:0:
394,157,70544,1,0,0:0:0:0:
444,230,70710,2,0,P|402:246|354:241,1,80,0|0,1:0|0:0,0:0:0:0:
292,160,71041,1,0,1:0:0:0:
432,351,71207,1,8,0:0:0:0:
432,351,71373,6,0,B|355:340|365:384|265:367,2,160,0|0|0,1:0|1:0|1:0,0:0:0:0:
428,170,72202,1,0,0:0:0:0:
455,250,72368,1,0,1:0:0:0:
375,275,72534,1,8,0:3:0:0:
290,152,72700,6,0,P|238:142|141:132,1,120,0|0,1:0|0:0,0:0:0:0:
171,133,73031,2,0,P|176:181|160:224,1,80,0|0,1:0|0:0,0:0:0:0:
66,301,73363,5,0,1:0:0:0:
85,380,73529,1,0,0:0:0:0:
152,287,73695,5,0,1:0:0:0:
81,166,73860,1,8,0:0:0:0:
144,104,74026,6,0,P|197:86|300:52,1,160,0|0,1:0|1:0,0:0:0:0:
414,164,74524,1,0,0:0:0:0:
414,164,74690,2,0,P|387:155|338:134,1,80,0|0,1:0|0:0,0:0:0:0:
490,107,75021,1,0,1:0:0:0:
374,261,75187,5,8,0:0:0:0:
374,261,75270,1,8,0:0:0:0:
374,261,75353,2,0,P|333:264|271:378,1,160,12|0,0:0|1:0,0:0:0:0:
446,312,75851,1,0,0:0:0:0:
289,196,76016,2,0,P|240:181|187:88,1,160,0|0,1:0|1:0,0:0:0:0:
237,27,76514,1,8,0:0:0:0:
77,114,76680,6,0,L|-3:133,1,80,0|0,1:0|0:0,0:0:0:0:
20,234,77011,2,0,L|97:215,1,80,0|0,1:0|0:0,0:0:0:0:
161,161,77343,1,0,1:0:0:0:
246,190,77509,1,0,0:0:0:0:
328,155,77675,1,0,1:0:0:0:
423,186,77841,5,8,0:3:0:0:
423,186,77923,1,8,0:3:0:0:
423,186,78006,2,0,P|444:230|451:279,1,80,0|0,1:0|0:0,0:0:0:0:
283,381,78338,2,0,P|291:342|310:306,1,80,0|0,1:0|0:0,0:0:0:0:
181,163,78670,2,0,P|218:189|236:231,1,80,0|0,1:0|0:0,0:0:0:0:
336,215,79001,1,0,1:0:0:0:
214,60,79167,1,8,0:0:0:0:
85,136,79333,5,4,1:2:0:0:
91,159,79416,1,8,0:0:0:0:
98,181,79499,1,8,0:0:0:0:
104,204,79582,1,8,0:0:0:0:
79,250,79665,5,4,1:3:0:0:
73,273,79748,1,8,0:0:0:0:
66,295,79831,1,8,0:0:0:0:
60,318,79914,1,8,0:0:0:0:
32,298,79996,5,4,1:3:0:0:
62,308,80079,1,8,0:0:0:0:
92,317,80162,1,8,0:0:0:0:
122,325,80245,1,8,0:0:0:0:
155,367,80328,5,8,1:3:0:0:
193,356,80411,1,4,0:3:0:0:
231,344,80494,1,4,0:3:0:0:
269,332,80577,1,4,0:3:0:0:
307,320,80660,6,0,P|306:281|293:147,1,160,4|0,1:2|1:0,0:0:0:0:
453,286,81157,1,0,0:0:0:0:
471,201,81323,2,0,L|483:105,1,80,0|0,1:0|0:0,0:0:0:0:
442,49,81655,1,0,1:0:0:0:
254,91,81821,1,8,0:0:0:0:
332,26,81986,6,0,L|350:161,1,120,0|0,1:0|0:0,0:0:0:0:
347,144,82318,2,0,P|316:170|263:182,1,80,0|0,1:0|0:0,0:0:0:0:
189,297,82650,1,0,1:0:0:0:
103,315,82816,1,0,0:0:0:0:
85,229,82982,1,0,1:0:0:0:
171,211,83147,5,8,0:3:0:0:
171,211,83230,1,8,0:3:0:0:
171,211,83313,2,0,P|178:151|186:25,2,160,0|0|0,1:0|1:0|1:0,0:0:0:0:
171,211,84142,1,0,0:0:0:0:
86,253,84308,1,0,1:0:0:0:
278,214,84474,1,8,0:0:0:0:
358,159,84640,6,0,P|359:110|376:-6,1,160,0|0,1:0|1:0,0:0:0:0:
504,67,85137,1,0,0:0:0:0:
504,67,85303,2,0,P|507:109|507:153,1,80,0|0,1:0|0:0,0:0:0:0:
498,250,85635,1,0,1:0:0:0:
363,195,85801,5,8,0:0:0:0:
335,188,85884,1,8,0:0:0:0:
307,181,85967,2,0,L|216:198,1,80,0|0,1:0|0:0,0:0:0:0:
73,269,86298,2,0,P|121:277|158:379,1,160,0|0,1:0|1:0,0:0:0:0:
160,370,86962,1,0,1:0:0:0:
281,218,87127,1,8,0:0:0:0:
204,171,87293,6,0,P|203:208|198:265,1,80,0|0,1:0|0:0,0:0:0:0:
368,242,87625,2,0,P|359:201|351:162,1,80,0|0,1:0|0:0,0:0:0:0:
243,72,87957,2,0,L|150:58,1,80,0|0,1:0|0:0,0:0:0:0:
101,7,88288,1,0,1:0:0:0:
39,120,88454,5,8,0:3:0:0:
46,147,88537,1,8,0:3:0:0:
53,173,88620,2,0,L|33:348,2,160,0|0|0,1:0|1:0|1:0,0:0:0:0:
145,122,89449,2,0,L|135:222,1,80,0|0,0:0|1:0,0:0:0:0:
232,299,89781,1,8,0:0:0:0:
319,195,89947,5,4,1:2:0:0:
316,183,90030,1,8,0:0:0:0:
313,171,90113,1,8,0:0:0:0:
310,159,90195,1,8,0:0:0:0:
286,140,90278,5,4,1:3:0:0:
288,128,90361,1,8,0:0:0:0:
290,116,90444,1,8,0:0:0:0:
292,104,90527,1,8,0:0:0:0:
329,78,90610,5,4,1:3:0:0:
293,71,90693,1,8,0:0:0:0:
257,64,90776,1,8,0:0:0:0:
221,59,90859,1,8,0:0:0:0:
178,22,90942,5,4,1:3:0:0:
142,27,91025,1,4,0:3:0:0:
106,34,91108,1,4,0:3:0:0:
71,40,91190,1,4,0:3:0:0:
16,27,91273,6,0,P|39:76|40:197,1,160,4|0,1:2|1:0,0:0:0:0:
6,262,91771,1,0,0:0:0:0:
90,359,91937,2,0,P|101:316|105:276,1,80,0|0,1:0|0:0,0:0:0:0:
11,350,92268,1,0,1:0:0:0:
179,232,92434,1,8,0:0:0:0:
261,277,92600,6,0,L|347:289,1,80,0|0,1:0|0:0,0:0:0:0:
461,196,92932,2,0,L|375:208,1,80,0|0,1:0|0:0,0:0:0:0:
248,62,93263,1,0,1:0:0:0:
243,145,93429,1,0,0:0:0:0:
326,150,93595,1,0,1:0:0:0:
339,75,93761,5,4,0:3:0:0:
339,75,93844,1,4,0:3:0:0:
339,75,93927,2,0,L|429:68,1,80,0|0,1:0|0:0,0:0:0:0:
492,156,94258,1,0,1:0:0:0:
492,156,94424,1,0,0:0:0:0:
422,313,94590,2,0,P|411:268|407:226,1,80,0|0,1:0|0:0,0:0:0:0:
413,156,94922,1,0,1:0:0:0:
289,259,95088,1,8,0:0:0:0:
199,225,95253,6,0,P|162:212|112:100,1,160,0|0,1:0|1:0,0:0:0:0:
48,234,95751,1,0,0:0:0:0:
48,234,95917,2,0,P|38:281|22:327,1,80,0|0,1:0|0:0,0:0:0:0:
132,370,96249,2,0,B|163:347|163:347|221:347,1,80,0|8,1:0|0:0,0:0:0:0:
221,357,96497,1,8,0:0:0:0:
238,366,96580,6,0,L|368:352,1,120,8|0,0:0|0:0,0:0:0:0:
371,343,96912,1,0,1:0:0:0:
270,175,97078,1,0,0:0:0:0:
455,205,97244,2,0,P|417:195|360:179,1,80,0|0,1:0|0:0,0:0:0:0:
274,93,97575,1,0,1:0:0:0:
191,139,97741,1,8,0:0:0:0:
326,5,97907,6,0,P|378:12|428:22,1,80,0|0,1:0|0:0,0:0:0:0:
196,55,98239,2,0,P|144:62|94:72,1,80,0|0,1:0|0:0,0:0:0:0:
37,29,98570,1,0,1:0:0:0:
7,111,98736,1,0,0:0:0:0:
72,175,98902,1,0,1:0:0:0:
44,259,99068,5,4,0:3:0:0:
44,259,99151,1,4,0:3:0:0:
44,259,99234,2,0,L|31:342,1,80,0|0,1:0|0:0,0:0:0:0:
199,221,99565,2,0,L|186:141,1,80,0|0,1:0|0:0,0:0:0:0:
292,32,99897,1,0,1:0:0:0:
216,69,100063,1,0,0:0:0:0:
362,121,100229,2,0,L|455:131,1,80,0|8,1:0|0:0,0:0:0:0:
320,354,100560,6,0,L|297:185,1,160,0|0,1:0|1:0,0:0:0:0:
389,209,101058,1,0,0:0:0:0:
223,278,101224,1,0,1:0:0:0:
133,245,101389,1,0,0:0:0:0:
43,212,101555,1,4,1:0:0:0:
63,295,101721,1,8,0:0:0:0:
150,64,101887,6,0,L|164:237,1,160,4|0,1:2|1:0,0:0:0:0:
376,301,102385,2,0,P|331:326|240:269,1,160,2|0,3:0|0:0,0:0:0:0:
209,368,102882,1,0,1:0:0:0:
291,192,103048,1,8,0:0:0:0:
246,108,103214,6,0,P|254:61|256:13,1,80,0|0,1:0|0:0,0:0:0:0:
447,90,103545,2,0,P|449:129|457:169,1,80,0|0,1:0|0:0,0:0:0:0:
319,171,103877,1,0,1:0:0:0:
394,90,104043,1,0,0:0:0:0:
474,183,104209,1,0,1:0:0:0:
400,265,104375,5,8,0:3:0:0:
400,265,104457,1,8,0:3:0:0:
400,265,104540,2,0,P|354:284|291:285,1,80,0|0,1:0|0:0,0:0:0:0:
142,364,104872,2,0,P|186:374|224:377,1,80,0|0,1:0|0:0,0:0:0:0:
32,326,105204,2,0,P|21:281|25:230,1,80,0|0,1:0|0:0,0:0:0:0:
73,183,105535,1,0,1:0:0:0:
239,227,105701,1,8,0:0:0:0:
166,161,105867,6,0,P|157:115|133:-1,1,160,0|0,1:0|1:0,0:0:0:0:
304,86,106365,1,0,0:0:0:0:
304,86,106530,2,0,P|292:137|285:180,1,80,0|0,1:0|0:0,0:0:0:0:
319,242,106862,1,4,1:0:0:0:
170,338,107028,1,8,0:0:0:0:
248,365,107194,6,0,P|252:318|160:226,1,160,0|0,1:0|1:0,0:0:0:0:
5,256,107691,2,0,P|49:238|104:226,1,80,0|0,0:0|1:0,0:0:0:0:
22,158,108023,1,0,0:0:0:0:
134,19,108189,2,0,P|146:61|158:107,1,80,0|8,1:0|0:0,0:0:0:0:
245,112,108520,6,0,P|318:99|411:90,2,160,0|0|0,1:0|1:0|1:0,0:0:0:0:
150,202,109350,2,0,P|110:197|57:193,2,80,0|0|4,0:0|1:0|0:3,0:0:0:0:
215,259,109764,5,4,0:3:0:0:
215,259,109847,2,0,P|266:248|305:243,1,80,0|0,1:0|0:0,0:0:0:0:
424,326,110179,2,0,P|368:311|316:306,1,80,0|0,1:0|0:0,0:0:0:0:
235,345,110511,1,0,1:0:0:0:
252,173,110676,1,0,0:0:0:0:
346,307,110842,1,0,1:0:0:0:
137,277,111008,1,8,0:0:0:0:
178,61,111174,5,4,1:2:0:0:
182,84,111257,1,8,0:0:0:0:
187,107,111340,1,8,0:0:0:0:
192,130,111423,1,8,0:0:0:0:
169,174,111506,5,0,1:0:0:0:
203,155,111588,1,8,0:0:0:0:
241,145,111671,1,8,0:1:0:0:
281,146,111754,1,8,0:1:0:0:
316,163,111837,5,0,1:0:0:0:
354,173,111920,1,8,1:0:0:0:
394,171,112003,1,8,0:0:0:0:
433,162,112086,1,8,0:0:0:0:
437,112,112169,5,0,1:3:0:0:
388,113,112252,1,4,0:3:0:0:
351,143,112335,1,4,0:3:0:0:
343,190,112418,1,4,0:3:0:0:
349,230,112511,6,0,L|343:313,1,80,2|0,0:0|0:0,0:0:0:0:
264,304,114029,2,0,L|269:224,1,80
203,162,115587,6,0,L|119:181,1,80,2|0,0:0|0:0,0:0:0:0:
103,103,117125,2,0,L|181:85,1,80
266,25,118683,6,0,L|346:40,1,80,2|0,0:0|0:0,0:0:0:0:
328,117,120251,2,0,L|249:102,1,80
202,166,121820,6,0,L|216:252,1,80,2|0,0:0|0:0,0:0:0:0:
132,258,123388,2,0,L|119:179,1,80
56,109,124957,6,0,L|68:24,1,80,2|0,0:0|0:0,0:0:0:0:
153,37,126526,2,0,L|141:116,1,80
225,132,128095,6,0,L|307:115,1,80,2|0,0:0|0:0,0:0:0:0:
325,196,129642,2,0,L|246:212,1,80
391,61,131190,6,0,L|272:47,1,103.999995239258,4|0,0:2|0:0,0:0:0:0:
287,48,131445,1,8,0:0:0:0:
287,48,131530,1,0,0:0:0:0:
124,74,131701,2,0,L|151:136,1,51.999997619629,8|0,0:0|0:0,0:0:0:0:
203,185,131871,2,0,P|270:181|374:174,1,155.999992858887,8|0,0:0|0:0,0:0:0:0:
434,252,132212,6,0,P|387:274|371:340,1,103.999995239258,8|0,0:0|0:0,0:0:0:0:
368,320,132468,2,0,P|308:301|251:306,1,103.999995239258,8|0,0:0|0:0,0:0:0:0:
155,352,132724,2,0,L|235:364,1,51.999997619629,8|0,0:0|0:0,0:0:0:0:
107,282,132894,2,0,L|50:290,1,51.999997619629,8|0,0:0|0:0,0:0:0:0:
207,216,133065,2,0,L|186:275,1,51.999997619629
73,147,133235,5,8,0:0:0:0:
66,132,133320,1,0,0:0:0:0:
119,42,133491,1,8,0:0:0:0:
127,52,133576,1,0,0:0:0:0:
296,163,133746,1,8,0:0:0:0:
205,140,133917,2,0,P|228:31|228:31,1,103.999995239258,8|0,0:0|0:0,0:0:0:0:
442,83,134258,6,0,L|321:95,1,103.999995239258,8|0,0:0|0:0,0:0:0:0:
338,93,134513,1,8,0:2:0:0:
226,196,134684,1,0,0:2:0:0:
214,171,134769,1,8,0:2:0:0:
361,205,134940,1,8,0:0:0:0:
371,250,135025,1,8,0:0:0:0:
383,294,135110,1,8,0:3:0:0:
395,338,135195,1,8,0:3:0:0:
408,382,135280,6,0,L|238:365,1,155.999992858887,4|0,0:2|0:0,0:0:0:0:
325,218,135707,1,0,0:0:0:0:
314,246,135792,1,8,0:0:0:0:
497,263,135962,1,0,0:0:0:0:
464,229,136047,1,0,0:0:0:0:
444,185,136133,1,0,0:0:0:0:
441,138,136218,1,0,0:0:0:0:
461,96,136303,6,0,L|276:119,2,155.999992858887,8|8|8,0:0|0:0|0:0,0:0:0:0:
405,21,136985,1,8,0:0:0:0:
337,194,137155,1,0,0:0:0:0:
245,36,137326,6,0,L|141:64,1,103.999995239258,8|0,0:0|0:0,0:0:0:0:
47,15,137582,2,0,B|74:141,1,103.999995239258,8|0,0:0|0:0,0:0:0:0:
148,178,137837,2,0,L|135:244,1,51.999997619629,8|0,0:0|0:0,0:0:0:0:
20,312,138008,2,0,P|80:305|141:351,1,103.999995239258,8|0,0:0|0:0,0:0:0:0:
140,351,138263,1,0,0:0:0:0:
171,369,138349,6,0,P|223:368|264:328,1,103.999995239258,8|0,0:0|0:0,0:0:0:0:
260,335,138604,1,8,0:0:0:0:
320,189,138775,1,8,0:0:0:0:
328,218,138860,1,0,0:0:0:0:
339,247,138945,1,0,0:0:0:0:
349,276,139030,1,8,0:0:0:0:
427,365,139201,1,8,0:2:0:0:
436,335,139286,1,8,0:2:0:0:
447,306,139371,6,0,L|422:133,1,155.999992858887,4|8,0:2|0:0,0:0:0:0:
424,151,139712,1,0,0:0:0:0:
288,22,139883,2,0,L|353:28,1,51.999997619629,8|0,0:0|0:0,0:0:0:0:
243,93,140053,2,0,L|133:109,1,103.999995239258,8|0,0:0|0:0,0:0:0:0:
0,12,140394,6,0,P|65:15|87:54,1,103.999995239258,8|0,0:0|0:0,0:0:0:0:
84,43,140650,1,8,0:0:0:0:
84,322,140905,2,0,L|68:259,1,51.999997619629,8|0,0:0|0:0,0:0:0:0:
115,182,141076,5,8,0:0:0:0:
6,367,141246,1,8,0:3:0:0:
226,278,141417,6,0,L|334:303,1,103.999995239258,4|0,0:2|0:0,0:0:0:0:
327,301,141672,1,8,0:0:0:0:
327,301,141758,1,0,0:0:0:0:
468,375,141928,1,8,0:0:0:0:
311,111,142099,2,0,L|295:227,1,103.999995239258,8|0,0:0|0:0,0:0:0:0:
389,237,142440,5,8,0:0:0:0:
220,93,142610,1,0,0:0:0:0:
199,87,142695,1,8,0:0:0:0:
378,30,142866,1,0,0:0:0:0:
406,26,142951,1,8,0:2:0:0:
253,7,143121,1,8,0:2:0:0:
247,53,143207,1,8,0:2:0:0:
242,99,143292,1,8,0:2:0:0:
239,145,143377,1,8,0:2:0:0:
237,191,143462,6,0,P|182:182|69:175,2,155.999992858887,4|8|8,0:2|0:0|0:0,0:0:0:0:
352,235,144144,1,8,0:0:0:0:
389,262,144229,1,0,0:0:0:0:
426,290,144315,1,0,0:0:0:0:
406,332,144400,1,0,0:0:0:0:
376,368,144485,6,0,B|332:382|332:382|242:318,1,155.999992858887,8|8,0:0|0:0,0:0:0:0:
163,160,144911,1,0,0:0:0:0:
163,160,144996,1,8,0:0:0:0:
67,294,145167,2,0,L|81:358,1,51.999997619629,8|0,0:0|0:0,0:0:0:0:
161,329,145337,2,0,L|149:278,1,51.999997619629
238,195,145508,6,0,P|297:174|358:229,1,103.999995239258,8|0,0:0|0:0,0:0:0:0:
350,217,145763,1,8,0:0:0:0:
452,309,145934,1,0,0:0:0:0:
452,309,146019,2,0,L|439:253,1,51.999997619629,8|8,0:0|0:0,0:0:0:0:
439,80,146190,2,0,L|416:209,1,103.999995239258,8|0,0:0|0:0,0:0:0:0:
281,95,146530,5,8,0:0:0:0:
240,85,146616,1,0,0:0:0:0:
199,78,146701,1,0,0:0:0:0:
158,68,146786,1,8,0:0:0:0:
214,26,146871,5,0,0:0:0:0:
222,77,146957,1,0,0:0:0:0:
227,128,147042,1,8,0:0:0:0:
234,179,147127,1,0,0:0:0:0:
285,233,147212,5,8,0:0:0:0:
292,176,147297,1,8,0:3:0:0:
298,120,147383,1,8,0:3:0:0:
307,64,147468,1,8,0:3:0:0:
317,7,147553,6,0,P|389:20|489:33,2,155.999992858887,4|8|8,0:2|0:0|0:0,0:0:0:0:
158,68,148235,1,8,0:0:0:0:
292,176,148405,5,0,0:0:0:0:
292,176,148491,1,0,0:0:0:0:
292,176,148576,2,0,P|364:189|464:202,2,155.999992858887,4|8|8,0:2|0:0|0:0,0:0:0:0:
121,144,149258,1,8,0:0:0:0:
99,179,149343,1,8,0:2:0:0:
94,220,149428,1,8,0:3:0:0:
106,259,149513,1,8,0:3:0:0:
139,285,149599,6,0,P|192:290|252:274,1,103.999995239258,4|0,0:2|0:0,0:0:0:0:
241,278,149854,1,8,0:2:0:0:
372,365,150025,1,0,0:2:0:0:
372,365,150110,2,8,L|432:354,1,51.999997619629,8|8,0:2|0:2,0:2:0:0:
265,268,150280,2,0,L|230:404,1,103.999995239258,8|0,0:0|0:0,0:0:0:0:
29,317,150621,5,8,0:0:0:0:
76,236,150792,1,0,0:0:0:0:
76,236,150877,1,8,0:0:0:0:
164,281,151047,1,0,0:0:0:0:
164,281,151133,1,8,0:0:0:0:
23,104,151303,1,8,0:2:0:0:
43,126,151388,1,8,0:3:0:0:
89,116,151474,1,8,0:3:0:0:
134,104,151559,1,8,0:3:0:0:
163,114,151644,6,0,L|170:56,1,51.999997619629,4|0,0:2|0:0,0:0:0:0:
267,1,151815,1,0,0:0:0:0:
267,1,151900,2,0,L|277:69,1,51.999997619629,8|0,0:0|0:0,0:0:0:0:
247,158,152155,1,8,0:0:0:0:
496,35,152326,2,0,L|381:22,1,103.999995239258,8|8,0:0|0:3,0:0:0:0:
374,45,152582,1,0,0:0:0:0:
380,85,152667,1,0,0:0:0:0:
389,125,152752,1,8,0:3:0:0:
401,164,152837,1,8,0:3:0:0:
422,182,152922,6,0,P|355:200|271:180,1,155.999992858887,8|0,0:0|0:0,0:0:0:0:
164,111,153349,2,0,B|135:114|114:130,1,51.999997619629,8|0,0:0|0:0,0:0:0:0:
110,259,153519,2,0,B|109:234|98:193,1,51.999997619629
36,76,153690,6,0,P|32:126|23:190,1,103.999995239258,4|0,0:2|0:0,0:0:0:0:
24,179,153945,1,8,0:0:0:0:
186,24,154116,1,0,0:0:0:0:
179,5,154201,1,8,0:0:0:0:
285,79,154371,2,0,L|275:132,1,51.999997619629
393,47,154542,2,0,L|386:-8,1,51.999997619629
472,115,154712,5,8,0:0:0:0:
466,161,154797,1,0,0:0:0:0:
458,207,154883,1,0,0:0:0:0:
449,252,154968,1,0,0:0:0:0:
471,303,155053,5,8,0:0:0:0:
428,285,155138,1,8,0:3:0:0:
381,279,155224,1,8,0:3:0:0:
335,288,155309,1,8,0:3:0:0:
298,316,155394,5,8,0:0:0:0:
253,328,155479,1,4,0:3:0:0:
205,325,155565,1,4,0:3:0:0:
162,306,155650,1,4,0:3:0:0:
147,250,155735,6,0,P|125:306|28:316,2,155.999992858887,4|8|8,0:2|0:0|0:0,0:0:0:0:
72,211,156417,1,8,0:0:0:0:
249,73,156587,5,0,0:0:0:0:
249,73,156672,1,0,0:0:0:0:
249,73,156758,2,0,L|137:62,1,103.999995239258,8|0,0:0|0:0,0:0:0:0:
145,62,157013,2,0,P|134:111|137:172,1,103.999995239258,8|0,0:0|0:0,0:0:0:0:
209,196,157269,1,8,0:0:0:0:
122,316,157440,1,8,0:0:0:0:
132,327,157525,1,8,0:0:0:0:
144,336,157610,1,8,0:0:0:0:
154,347,157695,1,8,0:0:0:0:
193,330,157780,6,0,P|265:343|357:353,2,155.999992858887,4|8|8,0:2|0:0|0:0,0:0:0:0:
289,198,158462,1,8,0:0:0:0:
331,179,158547,1,0,0:0:0:0:
378,180,158633,1,0,0:0:0:0:
418,204,158718,1,0,0:0:0:0:
447,259,158803,5,8,0:0:0:0:
456,208,158888,1,0,0:0:0:0:
464,156,158974,1,8,0:0:0:0:
473,105,159059,1,8,0:0:0:0:
442,66,159144,5,8,0:0:0:0:
433,111,159229,1,8,0:3:0:0:
426,158,159315,1,8,0:3:0:0:
418,204,159400,1,8,0:3:0:0:
369,223,159485,5,8,0:0:0:0:
339,186,159570,1,4,0:3:0:0:
338,139,159655,1,4,0:3:0:0:
362,98,159741,1,4,0:3:0:0:
331,58,159826,6,0,P|276:62|166:73,1,155.999992858887,4|8,0:2|0:0,0:0:0:0:
175,71,160167,1,0,0:0:0:0:
6,142,160337,1,8,0:0:0:0:
148,209,160508,2,0,L|155:155,1,51.999997619629,8|0,0:0|0:0,0:0:0:0:
77,61,160678,2,0,L|86:122,1,51.999997619629,8|0,0:3|0:0,0:0:0:0:
107,289,160849,6,0,P|156:317|212:323,1,103.999995239258,4|0,0:2|0:0,0:0:0:0:
202,323,161104,1,8,0:0:0:0:
52,359,161275,1,0,0:0:0:0:
52,359,161360,1,8,0:0:0:0:
245,203,161530,2,0,L|320:217,1,51.999997619629,8|0,0:3|0:0,0:0:0:0:
413,274,161701,5,4,0:3:0:0:
413,274,161786,1,4,0:3:0:0:
413,274,161871,2,0,P|353:299|337:386,2,155.999992858887,4|8|8,0:2|0:0|0:0,0:0:0:0:
469,366,162553,1,0,0:0:0:0:
283,234,162724,1,0,0:0:0:0:
429,109,162894,5,8,0:0:0:0:
434,83,162979,1,0,0:0:0:0:
440,57,163065,1,0,0:0:0:0:
446,31,163150,1,0,0:0:0:0:
366,38,163235,5,8,0:0:0:0:
315,51,163320,1,8,0:2:0:0:
264,63,163405,1,8,0:2:0:0:
213,76,163491,1,8,0:2:0:0:
151,25,163576,5,8,0:0:0:0:
202,38,163661,1,8,0:0:0:0:
253,50,163746,1,8,0:0:0:0:
304,63,163832,1,8,0:0:0:0:
355,76,163917,1,8,0:0:0:0:
247,66,165280,6,0,P|307:51|404:37,2,138.000002632141,4|0|8,0:2|0:0|0:0,0:0:0:0:
148,170,165961,1,8,0:2:0:0:
158,205,166047,1,8,0:2:0:0:
168,240,166132,1,8,0:2:0:0:
178,275,166217,1,8,0:2:0:0:
190,309,166302,1,8,0:0:0:0:
73,205,166473,1,0,0:0:0:0:
270,245,166643,5,8,0:2:0:0:
270,245,166728,1,8,0:2:0:0:
270,245,166814,1,8,0:2:0:0:
270,245,166899,1,8,0:2:0:0:
270,245,166984,2,0,P|323:270|401:265,1,138.000002632141,8|0,0:0|0:0,0:0:0:0:
432,292,167325,5,8,0:0:0:0:
450,254,167410,1,0,0:0:0:0:
447,212,167495,1,0,0:0:0:0:
427,175,167581,1,0,0:0:0:0:
493,144,167666,5,8,0:0:0:0:
504,104,167751,1,8,0:0:0:0:
498,63,167836,1,4,0:3:0:0:
478,27,167922,1,4,0:3:0:0:
406,10,168007,6,0,L|245:37,1,138.000002632141,4|0,0:2|0:0,0:0:0:0:
269,32,168348,1,8,0:0:0:0:
272,192,168518,1,8,0:0:0:0:
199,119,168689,2,0,P|175:119|146:117,1,46.0000008773804
264,168,168859,2,0,P|290:176|336:189,1,46.0000008773804
192,206,169030,2,0,P|166:208|140:211,1,46.0000008773804,8|0,0:0|0:0,0:0:0:0:
242,271,169200,2,0,P|273:279|312:293,1,46.0000008773804
83,332,169370,1,0,0:0:0:0:
83,332,169456,1,8,0:3:0:0:
83,332,169541,1,8,0:3:0:0:
83,332,169626,1,8,0:3:0:0:
83,332,169711,6,0,P|75:298|43:252,1,92.0000017547608,4|0,0:2|0:0,0:0:0:0:
16,253,169967,1,8,0:0:0:0:
23,212,170052,1,4,0:0:0:0:
28,171,170137,1,8,0:0:0:0:
23,129,170223,1,8,0:0:0:0:
109,7,170393,5,0,0:0:0:0:
102,47,170478,1,8,0:3:0:0:
109,88,170564,1,4,0:3:0:0:
186,202,170734,6,0,P|231:181|326:185,1,138.000002632141,4|0,0:2|0:0,0:0:0:0:
336,205,171075,1,12,0:0:0:0:
462,108,171245,1,8,0:0:0:0:
416,97,171331,1,8,0:0:0:0:
370,90,171416,1,8,0:2:0:0:
325,80,171501,1,8,0:2:0:0:
418,188,171672,1,0,0:0:0:0:
422,210,171757,1,8,0:0:0:0:
304,317,171927,5,8,0:0:0:0:
300,294,172012,1,8,0:0:0:0:
297,270,172098,2,0,L|243:285,1,46.0000008773804,8|0,0:0|0:0,0:0:0:0:
182,364,172268,2,0,L|226:376,1,46.0000008773804
255,187,172439,2,0,L|233:89,1,92.0000017547608,8|0,0:0|0:0,0:0:0:0:
145,26,172780,1,0,0:0:0:0:
124,20,172865,1,8,0:2:0:0:
6,74,173035,1,8,0:2:0:0:
42,71,173120,1,8,0:0:0:0:
76,85,173206,1,8,0:0:0:0:
100,112,173291,1,8,0:3:0:0:
110,147,173376,1,8,0:3:0:0:
93,189,173461,6,0,L|118:282,2,92.0000017547608,4|0|8,0:2|0:0|0:0,0:0:0:0:
241,226,173973,2,0,L|298:233,1,46.0000008773804,8|0,0:0|0:0,0:0:0:0:
394,242,174143,1,0,0:0:0:0:
239,345,174314,1,0,0:0:0:0:
224,135,174484,1,8,0:0:0:0:
286,231,174655,1,0,0:0:0:0:
116,181,174825,5,8,0:2:0:0:
109,140,174910,1,8,0:2:0:0:
101,99,174995,1,8,0:2:0:0:
92,58,175081,1,8,0:2:0:0:
85,17,175166,1,8,0:0:0:0:
25,154,175336,2,0,L|-8:216,1,46.0000008773804
192,119,175507,5,8,0:0:0:0:
228,138,175592,1,8,0:2:0:0:
269,141,175677,1,8,0:2:0:0:
308,129,175762,1,8,0:2:0:0:
340,91,175848,5,8,0:0:0:0:
345,136,175933,1,8,0:3:0:0:
352,181,176018,1,8,0:3:0:0:
359,226,176103,1,8,0:3:0:0:
366,271,176189,6,0,P|437:279|489:384,1,184.000003509522,4|0,0:2|0:0,0:0:0:0:
481,210,176700,1,8,0:0:0:0:
270,164,176870,2,0,L|106:198,1,138.000002632141
116,222,177211,2,0,P|118:160|99:114,1,92.0000017547608,8|0,0:0|0:0,0:0:0:0:
41,26,177552,5,8,0:0:0:0:
73,42,177637,1,8,0:2:0:0:
109,46,177723,1,8,0:2:0:0:
144,38,177808,1,8,0:2:0:0:
176,20,177893,1,8,0:0:0:0:
375,183,178064,1,0,0:0:0:0:
292,223,178234,5,8,0:0:0:0:
283,187,178319,1,0,0:0:0:0:
273,151,178405,1,0,0:0:0:0:
264,115,178490,1,0,0:0:0:0:
306,127,178575,5,8,0:0:0:0:
270,136,178660,1,4,0:3:0:0:
234,145,178745,1,4,0:3:0:0:
197,152,178831,1,4,0:3:0:0:
161,161,178916,6,0,L|16:148,1,138.000002632141,4|0,0:2|0:0,0:0:0:0:
6,126,179257,1,8,0:0:0:0:
115,253,179427,1,8,0:0:0:0:
1,343,179598,1,8,0:2:0:0:
35,354,179683,1,8,0:2:0:0:
70,363,179768,1,8,0:2:0:0:
105,370,179853,1,8,0:2:0:0:
141,377,179939,1,8,0:0:0:0:
274,235,180109,2,0,L|208:252,1,46.0000008773804
320,336,180280,5,8,0:0:0:0:
360,343,180365,1,0,0:0:0:0:
400,352,180450,1,0,0:0:0:0:
440,361,180535,1,0,0:0:0:0:
512,304,180620,5,8,0:0:0:0:
472,295,180705,1,0,0:0:0:0:
432,286,180790,1,0,0:0:0:0:
392,279,180875,1,0,0:0:0:0:
349,218,180961,5,8,0:0:0:0:
335,173,181047,1,8,0:3:0:0:
342,127,181132,1,8,0:3:0:0:
380,101,181217,1,8,0:3:0:0:
444,65,181302,5,8,0:0:0:0:
413,30,181387,1,4,0:3:0:0:
368,16,181473,1,4,0:3:0:0:
322,19,181558,1,4,0:3:0:0:
276,76,181643,6,0,P|240:76|189:51,1,92.0000017547608,4|0,0:2|0:0,0:0:0:0:
245,172,181984,1,8,0:0:0:0:
0,193,182155,2,0,P|67:173|175:137,1,184.000003509522,12|0,0:0|0:0,0:0:0:0:
180,215,182666,2,0,P|190:264|196:305,1,92.0000017547608,8|0,0:0|0:0,0:0:0:0:
352,376,183007,5,0,0:0:0:0:
359,358,183092,1,0,0:0:0:0:
279,232,183262,1,0,0:0:0:0:
283,246,183348,1,8,0:0:0:0:
387,268,183518,2,0,L|443:275,1,46.0000008773804
371,152,183689,2,0,L|336:196,1,46.0000008773804
479,196,183859,2,0,L|457:144,1,46.0000008773804
349,12,184030,5,0,0:0:0:0:
304,22,184115,1,8,0:0:0:0:
260,37,184200,1,4,0:3:0:0:
217,53,184285,1,4,0:3:0:0:
174,69,184370,6,0,P|198:118|211:167,1,92.0000017547608,4|0,0:2|0:0,0:0:0:0:
165,241,184626,1,0,0:0:0:0:
165,241,184711,1,8,0:0:0:0:
6,167,184882,2,0,P|37:156|68:146,1,46.0000008773804
96,44,185052,2,0,P|125:50|156:55,1,46.0000008773804,8|0,0:0|0:0,0:0:0:0:
239,134,185223,2,0,P|266:126|301:119,1,46.0000008773804,8|0,0:0|0:0,0:0:0:0:
349,21,185393,5,8,0:0:0:0:
372,26,185478,1,8,0:0:0:0:
471,135,185649,1,0,0:0:0:0:
445,142,185734,1,8,0:2:0:0:
370,109,185908,6,0,P|356:184|351:221,1,92.0000017547608,4|0,0:3|0:0,0:0:0:0:
483,374,186257,2,0,P|475:328|466:283,1,92.0000017547608,4|0,0:3|0:0,0:0:0:0:
390,273,186518,1,4,0:3:0:0:
390,273,186606,2,0,L|326:288,1,46.0000008773804,4|4,0:3|0:3,0:0:0:0:
276,341,186780,1,8,0:0:0:0:
276,341,187129,5,2,0:0:0:0:
86,234,187299,1,2,0:0:0:0:
232,139,187470,1,2,0:0:0:0:
172,363,187641,1,2,0:0:0:0:
93,148,187812,1,10,0:0:0:0:
93,148,188154,5,2,0:0:0:0:
263,58,188325,1,2,0:0:0:0:
354,227,188496,1,2,0:0:0:0:
187,311,188667,1,2,0:0:0:0:
225,185,188838,1,10,0:0:0:0:
225,185,189180,5,2,0:0:0:0:
332,322,189351,1,2,0:0:0:0:
468,212,189522,1,2,0:0:0:0:
373,68,189693,1,2,0:0:0:0:
346,192,189864,1,10,0:0:0:0:
346,192,190205,5,2,0:0:0:0:
401,373,190376,1,2,0:0:0:0:
461,306,190547,1,2,0:0:0:0:
270,225,190718,1,2,0:0:0:0:
452,116,190889,1,10,0:0:0:0:
452,116,191231,5,2,0:0:0:0:
335,84,191402,1,2,0:0:0:0:
214,61,191573,1,2,0:0:0:0:
367,82,191744,1,2,0:0:0:0:
156,148,191915,1,10,0:0:0:0:
156,148,192257,5,2,0:0:0:0:
1,42,192428,1,2,0:0:0:0:
190,12,192599,1,2,0:0:0:0:
314,152,192770,1,2,0:0:0:0:
138,224,192940,1,10,0:0:0:0:
138,224,193282,5,2,0:0:0:0:
250,373,193453,1,2,0:0:0:0:
130,338,193624,1,2,0:0:0:0:
293,243,193795,1,2,0:0:0:0:
65,196,193966,1,10,0:0:0:0:
65,196,194308,5,2,0:0:0:0:
33,372,194479,1,2,0:0:0:0:
72,170,194650,1,2,0:0:0:0:
36,345,194821,1,2,0:0:0:0:
190,191,194992,1,10,0:0:0:0:
190,191,195334,5,2,0:0:0:0:
377,103,195505,1,2,0:0:0:0:
208,12,195676,1,2,0:0:0:0:
264,215,195846,1,2,0:0:0:0:
286,11,196017,1,10,0:0:0:0:
286,11,196359,5,2,0:0:0:0:
347,250,196530,1,2,0:0:0:0:
363,78,196701,1,2,0:0:0:0:
139,100,196872,1,2,0:0:0:0:
337,160,197043,1,10,0:0:0:0:
337,160,197385,5,2,0:0:0:0:
489,282,197556,1,2,0:0:0:0:
304,376,197727,1,2,0:0:0:0:
425,150,197898,1,2,0:0:0:0:
196,46,198069,1,10,0:0:0:0:
196,46,198411,5,2,0:0:0:0:
406,20,198581,1,2,0:0:0:0:
268,206,198752,1,2,0:0:0:0:
323,32,198923,1,2,0:0:0:0:
488,180,199094,1,10,0:0:0:0:
488,180,199436,5,2,0:0:0:0:
306,132,199607,1,2,0:0:0:0:
122,94,199778,1,2,0:0:0:0:
217,248,199949,1,2,0:0:0:0:
359,57,200120,1,10,0:0:0:0:
359,57,200462,5,2,0:0:0:0:
103,26,200633,1,2,0:0:0:0:
256,241,200804,1,2,0:0:0:0:
16,176,200975,1,2,0:0:0:0:
226,25,201146,1,10,0:0:0:0:
226,25,201487,5,2,0:0:0:0:
163,290,201658,1,2,0:0:0:0:
388,119,201829,1,2,0:0:0:0:
109,54,202000,1,2,0:0:0:0:
321,244,202171,1,10,0:0:0:0:
321,244,202513,5,2,0:0:0:0:
357,15,202684,1,2,0:0:0:0:
392,306,202855,1,2,0:0:0:0:
261,32,203026,1,2,0:0:0:0:
124,325,203197,1,10,0:0:0:0:
