osu file format v14

[General]
AudioFilename: audio.mp3
AudioLeadIn: 0
PreviewTime: 112511
Countdown: 0
SampleSet: Soft
StackLeniency: 0.7
Mode: 0
LetterboxInBreaks: 0
WidescreenStoryboard: 1

[Editor]
Bookmarks: 70378,91273,131190,147553,163917,176189,187129,195334
DistanceSpacing: 0.6
BeatDivisor: 4
GridSize: 32
TimelineZoom: 1

[Metadata]
Title:circle
TitleUnicode:circle
Artist:haisuinonasa
ArtistUnicode:ハイスイノナサ
Creator:Gibune
Version:Collab Hard
Source:
Tags:pandahero rock japanese Ai Kamano 鎌野愛 Machi Ni Tsuite
BeatmapID:3242778
BeatmapSetID:1367642

[Difficulty]
HPDrainRate:5
CircleSize:3.8
OverallDifficulty:6
ApproachRate:8
SliderMultiplier:1.4
SliderTickRate:1

[Events]
//Background and Video events
0,0,"Circle.png",0,0
//Break Periods
2,64344,67970
2,112711,130440
//Storyboard Layer 0 (Background)
//Storyboard Layer 1 (Fail)
//Storyboard Layer 2 (Pass)
//Storyboard Layer 3 (Foreground)
//Storyboard Layer 4 (Overlay)
//Storyboard Sound Samples

[TimingPoints]
464,331.67495854063,4,2,1,35,1,0
42918,-111.111111111111,4,2,2,61,0,0
64145,389.61038961039,4,2,2,61,1,0
64924,384.615384615385,4,2,2,61,1,0
66462,382.165605095541,4,2,2,61,1,0
67990,365.296803652968,4,2,2,61,1,0
68720,331.67495854063,4,2,2,61,1,0
68720,-111.111111111111,4,2,2,61,0,0
112511,379.746835443037,4,2,2,20,1,0
114029,389.610389610389,4,2,2,20,1,0
115587,384.615384615384,4,2,2,20,1,0
117125,389.610389610389,4,2,2,20,1,0
118683,392.156862745097,4,2,2,20,1,0
128094,387.096774193548,4,2,2,20,1,0
131190,340.909090909091,3,1,2,70,1,0
131190,-90.9090909090909,3,1,2,70,0,0
165280,340.909090909091,4,1,2,70,1,0
165280,-90.9090909090909,4,1,2,70,0,0
185734,348.837209302326,4,1,2,70,1,0
187129,341.880341880342,3,1,2,70,1,0
187129,-90.9090909090909,3,1,2,70,0,0

[Colours]
Combo1 : 17,254,176
Combo2 : 173,255,95
Combo3 : 255,88,100
Combo4 : 255,94,55

[HitObjects]
386,103,42918,6,0,P|336:93|301:89,1,62.9999980773926,4|0,1:2|1:0,0:0:0:0:
314,92,43167,1,0,1:0:0:0:
304,92,43250,1,8,0:0:0:0:
209,193,43581,2,0,P|201:237|198:272,1,62.9999980773926,0|0,0:0|1:0,0:0:0:0:
224,328,43913,1,8,0:0:0:0:
90,369,44245,5,0,1:0:0:0:
30,319,44410,1,0,1:0:0:0:
30,319,44493,1,0,1:0:0:0:
30,319,44576,2,0,P|20:282|21:245,1,62.9999980773926,8|0,0:0|0:0,0:0:0:0:
71,194,44908,2,0,P|69:157|55:118,1,62.9999980773926,0|0,0:0|1:0,0:0:0:0:
11,76,45240,1,8,0:0:0:0:
135,12,45571,6,0,P|133:52|134:81,1,62.9999980773926,0|0,1:0|1:0,0:0:0:0:
136,84,45820,1,0,1:0:0:0:
140,92,45903,1,8,0:0:0:0:
210,128,46069,2,0,L|280:123,2,62.9999980773926,0|0|0,0:0|0:0|1:0,0:0:0:0:
171,194,46566,2,0,P|179:237|183:275,1,62.9999980773926,8|0,0:0|0:0,0:0:0:0:
247,293,46898,5,0,1:0:0:0:
328,285,47064,1,0,1:0:0:0:
328,285,47147,1,0,1:0:0:0:
328,285,47230,1,8,0:0:0:0:
389,328,47396,1,0,0:0:0:0:
483,227,47727,1,0,1:0:0:0:
483,227,47893,2,0,L|476:152,1,62.9999980773926,8|0,0:0|0:0,0:0:0:0:
418,108,48225,6,0,L|347:93,1,62.9999980773926,0|0,1:0|1:0,0:0:0:0:
347,92,48473,1,0,1:0:0:0:
337,89,48556,1,8,0:0:0:0:
219,21,48888,2,0,L|152:12,2,62.9999980773926,0|0|8,0:0|1:0|0:0,0:0:0:0:
158,145,49551,5,0,1:0:0:0:
182,229,49717,1,0,1:0:0:0:
182,229,49800,1,0,1:0:0:0:
182,229,49883,1,8,0:0:0:0:
138,291,50049,2,0,B|73:297|-9:319,1,125.999996154785,0|0,0:0|1:0,0:0:0:0:
6,235,50546,1,8,0:0:0:0:
81,117,50878,6,0,P|85:70|91:34,1,62.9999980773926,0|0,1:0|0:0,0:0:0:0:
89,45,51127,1,0,1:0:0:0:
90,35,51210,1,8,0:0:0:0:
169,31,51376,2,0,P|203:36|301:50,1,125.999996154785,0|0,0:0|1:0,0:0:0:0:
349,105,51873,2,0,L|433:90,1,62.9999980773926,8|0,0:0|0:0,0:0:0:0:
465,152,52205,6,0,P|458:195|455:233,1,62.9999980773926,0|0,1:0|1:0,0:0:0:0:
454,223,52454,1,0,1:0:0:0:
452,232,52536,1,8,0:0:0:0:
390,277,52702,1,0,0:0:0:0:
276,358,53034,5,0,1:0:0:0:
219,298,53200,1,8,0:0:0:0:
219,298,53283,2,0,L|226:216,1,62.9999980773926,4|0,1:0|0:0,0:0:0:0:
216,218,53531,6,0,P|172:202|121:194,1,94.499997116089,4|0,1:2|1:0,0:0:0:0:
125,194,53863,1,8,0:0:0:0:
54,226,54029,2,0,P|60:272|70:367,1,125.999996154785,0|0,0:0|1:0,0:0:0:0:
148,353,54527,1,8,0:0:0:0:
291,360,54858,6,0,P|337:350|371:345,1,62.9999980773926,0|0,1:0|1:0,0:0:0:0:
361,344,55107,1,0,1:0:0:0:
369,340,55190,1,8,0:0:0:0:
412,274,55356,2,0,L|423:201,2,62.9999980773926,0|0|0,0:0|0:0|1:0,0:0:0:0:
344,235,55853,1,8,0:0:0:0:
298,99,56185,6,0,P|291:62|291:25,1,62.9999980773926,0|0,1:0|1:0,0:0:0:0:
293,27,56434,1,0,1:0:0:0:
295,17,56517,1,8,0:0:0:0:
372,33,56682,2,0,P|424:26|506:33,1,125.999996154785,0|0,0:0|1:0,0:0:0:0:
488,108,57180,1,8,0:0:0:0:
412,224,57512,5,0,1:0:0:0:
340,213,57677,1,0,1:0:0:0:
340,213,57760,1,0,1:0:0:0:
340,213,57843,1,8,0:0:0:0:
279,259,58009,2,0,P|275:312|274:345,2,62.9999980773926,0|0|0,0:0|0:0|1:0,0:0:0:0:
230,199,58507,1,8,0:0:0:0:
247,50,58838,6,0,P|213:38|177:27,1,62.9999980773926,0|0,1:0|1:0,0:0:0:0:
179,25,59087,1,0,1:0:0:0:
170,20,59170,1,8,0:0:0:0:
101,58,59336,1,0,0:0:0:0:
104,136,59502,2,0,P|111:180|112:228,1,62.9999980773926,0|0,0:0|1:0,0:0:0:0:
69,265,59833,2,0,P|70:303|73:343,1,62.9999980773926,8|0,0:0|0:0,0:0:0:0:
139,371,60165,5,0,1:0:0:0:
202,323,60331,1,0,1:0:0:0:
202,323,60414,1,0,1:0:0:0:
202,323,60497,1,8,0:0:0:0:
265,366,60663,1,0,0:0:0:0:
384,284,60994,1,0,1:0:0:0:
409,214,61160,2,0,P|413:177|416:126,1,62.9999980773926,8|0,0:0|0:0,0:0:0:0:
350,101,61492,6,0,P|314:106|281:109,1,62.9999980773926,0|0,1:0|1:0,0:0:0:0:
278,109,61740,1,0,1:0:0:0:
268,109,61823,1,8,0:0:0:0:
201,67,61989,2,0,P|196:32|187:0,2,62.9999980773926,0|0|0,0:0|0:0|1:0,0:0:0:0:
146,127,62487,1,8,0:0:0:0:
205,245,62818,5,4,1:2:0:0:
205,245,62901,1,0,3:0:0:0:
205,245,62984,1,2,3:0:0:0:
205,245,63067,1,0,3:0:0:0:
205,245,63150,2,0,L|201:288,3,31.4999990386963,8|8|8|8,0:0|0:0|0:0|0:0,0:0:0:0:
190,286,63482,2,0,L|194:329,3,31.4999990386963,8|8|8|8,0:0|0:0|0:3|0:3,0:0:0:0:
184,330,63813,2,0,L|180:373,4,31.4999990386963,4|4|4|4|2,0:3|0:3|0:3|0:3|3:0,0:0:0:0:
311,218,68720,6,0,P|356:213|376:211,1,62.9999980773926,4|8,1:2|0:3,0:0:0:0:
431,156,69051,1,8,0:3:0:0:
428,140,69134,1,8,0:3:0:0:
425,124,69217,1,8,0:3:0:0:
422,108,69300,1,8,0:3:0:0:
419,92,69383,2,0,L|415:55,4,31.4999990386963,4|0|4|4|4,0:3|0:0|0:3|0:3|0:3,0:0:0:0:
343,85,69880,1,12,0:0:0:0:
267,80,70046,6,0,P|231:83|191:88,1,62.9999980773926,4|0,1:0|0:0,0:0:0:0:
142,36,70378,2,0,P|78:54|36:58,1,94.499997116089,0|0,1:0|0:0,0:0:0:0:
41,70,70710,2,0,L|56:144,1,62.9999980773926,0|0,1:0|0:0,0:0:0:0:
121,210,71041,2,0,L|133:148,1,62.9999980773926,0|8,1:0|0:0,0:0:0:0:
211,118,71373,6,0,P|282:134|357:152,1,125.999996154785,0|0,1:0|1:0,0:0:0:0:
407,176,71870,1,0,0:0:0:0:
393,254,72036,2,0,P|357:258|322:251,1,62.9999980773926,0|0,1:0|0:0,0:0:0:0:
274,343,72368,2,0,P|310:339|345:346,1,62.9999980773926,0|8,1:0|0:3,0:0:0:0:
352,345,72617,1,0,3:0:0:0:
367,346,72700,1,0,1:0:0:0:
450,351,72865,5,0,0:0:0:0:
477,277,73031,2,0,P|455:234|443:169,1,94.499997116089,0|0,1:0|0:0,0:0:0:0:
429,184,73363,2,0,L|452:111,1,62.9999980773926,0|0,1:0|0:0,0:0:0:0:
381,56,73695,2,0,L|358:129,1,62.9999980773926,0|8,1:0|0:0,0:0:0:0:
301,178,74026,6,0,P|241:197|198:157,1,125.999996154785,0|0,1:0|1:0,0:0:0:0:
127,191,74524,2,0,P|67:172|24:212,1,125.999996154785,0|0,3:0|0:0,0:0:0:0:
19,288,75021,1,0,1:0:0:0:
82,352,75187,5,8,0:0:0:0:
82,352,75270,1,8,0:0:0:0:
82,352,75353,1,12,0:0:0:0:
143,302,75519,1,0,0:0:0:0:
221,295,75685,2,0,P|270:311|360:330,1,125.999996154785,0|0,1:0|1:0,0:0:0:0:
399,266,76182,1,0,0:0:0:0:
399,266,76348,2,0,P|359:255|313:241,1,62.9999980773926,0|8,1:0|0:0,0:0:0:0:
278,192,76680,6,0,P|285:126|290:60,2,125.999996154785,0|0|0,1:0|1:0|1:0,0:0:0:0:
357,204,77509,1,0,0:0:0:0:
419,157,77675,1,0,1:0:0:0:
386,88,77841,1,8,0:3:0:0:
386,88,77923,1,8,0:3:0:0:
386,88,78006,1,0,1:0:0:0:
460,262,78338,6,0,P|444:307|435:348,1,62.9999980773926,0|0,1:0|0:0,0:0:0:0:
366,358,78670,2,0,P|350:300|329:242,1,94.499997116089,0|0,1:0|0:0,0:0:0:0:
338,251,79001,2,0,P|300:270|277:278,1,62.9999980773926,0|8,1:0|0:0,0:0:0:0:
203,255,79333,1,4,1:2:0:0:
205,239,79416,1,8,0:0:0:0:
207,223,79499,1,8,0:0:0:0:
209,207,79582,1,8,0:0:0:0:
211,191,79665,2,0,L|248:182,3,31.4999990386963,4|8|8|8,1:3|0:0|0:0|0:0,0:0:0:0:
260,139,79996,2,0,L|297:130,3,31.4999990386963,4|8|8|8,1:3|0:0|0:0|0:0,0:0:0:0:
226,96,80328,2,0,L|195:103,3,31.4999990386963,8|4|4|4,1:3|0:3|0:3|0:3,0:0:0:0:
154,120,80660,6,0,P|102:128|34:88,1,125.999996154785,4|0,1:2|1:0,0:0:0:0:
54,20,81157,1,0,0:0:0:0:
75,94,81323,2,0,P|51:173|36:234,1,125.999996154785,0|0,1:0|1:0,0:0:0:0:
22,291,81821,1,8,0:0:0:0:
77,345,81986,1,0,1:0:0:0:
272,266,82318,5,0,1:0:0:0:
196,246,82484,1,0,0:0:0:0:
198,169,82650,2,0,L|226:102,2,62.9999980773926,0|0|0,1:0|0:0|1:0,0:0:0:0:
134,84,83147,5,8,0:3:0:0:
134,84,83230,1,8,0:3:0:0:
134,84,83313,2,0,P|192:77|271:56,1,125.999996154785,0|0,1:0|1:0,0:0:0:0:
332,35,83811,1,0,0:0:0:0:
385,96,83977,2,0,P|359:108|301:133,2,62.9999980773926,0|0|0,1:0|0:0|1:0,0:0:0:0:
462,76,84474,1,8,0:0:0:0:
439,160,84640,6,0,P|415:218|391:300,2,125.999996154785,0|0|0,1:0|1:0|1:0,0:0:0:0:
365,137,85469,1,0,0:0:0:0:
294,170,85635,1,0,1:0:0:0:
309,255,85801,1,8,0:0:0:0:
309,255,85884,1,8,0:0:0:0:
309,255,85967,1,0,1:0:0:0:
186,128,86298,6,0,L|203:58,1,62.9999980773926,0|0,1:0|0:0,0:0:0:0:
134,24,86630,2,0,L|117:94,1,62.9999980773926,0|0,1:0|0:0,0:0:0:0:
65,145,86962,1,0,1:0:0:0:
22,77,87127,1,8,0:0:0:0:
40,164,87293,6,0,P|124:169|174:178,1,125.999996154785,0|0,1:0|1:0,0:0:0:0:
235,215,87791,1,0,0:0:0:0:
213,294,87957,2,0,P|129:289|101:286,1,94.499997116089,0|0,1:0|0:0,0:0:0:0:
105,280,88288,2,0,L|74:355,1,62.9999980773926,0|8,1:0|0:3,0:0:0:0:
67,347,88537,1,8,0:3:0:0:
52,353,88620,1,0,1:0:0:0:
165,176,88952,6,0,L|253:186,1,62.9999980773926,0|0,1:0|0:0,0:0:0:0:
279,124,89283,2,0,L|367:134,2,62.9999980773926,0|0|0,1:0|0:0|1:0,0:0:0:0:
275,45,89781,1,8,0:0:0:0:
363,48,89947,6,0,P|413:72|434:146,1,125.999996154785,4|4,1:2|1:3,0:0:0:0:
408,210,90444,1,8,0:0:0:0:
408,210,90527,1,8,0:0:0:0:
408,210,90610,2,0,L|486:231,1,62.9999980773926,4|8,1:3|0:0,0:0:0:0:
511,292,90942,1,4,1:3:0:0:
469,356,91108,1,4,0:3:0:0:
394,344,91273,6,0,L|261:315,1,125.999996154785,4|0,1:2|1:0,0:0:0:0:
196,358,91771,1,0,0:0:0:0:
196,358,91937,2,0,P|190:315|187:290,1,62.9999980773926,0|0,1:0|0:0,0:0:0:0:
226,228,92268,2,0,P|233:193|239:162,1,62.9999980773926,0|8,1:0|0:0,0:0:0:0:
260,74,92600,6,0,L|123:114,2,125.999996154785,0|0|0,1:0|1:0|1:0,0:0:0:0:
405,146,93595,1,0,1:0:0:0:
473,96,93761,1,4,0:3:0:0:
473,96,93844,1,4,0:3:0:0:
473,96,93927,1,0,1:0:0:0:
358,237,94258,6,0,L|346:316,1,62.9999980773926,0|0,1:0|0:0,0:0:0:0:
282,352,94590,2,0,P|241:343|205:343,1,62.9999980773926,0|0,1:0|0:0,0:0:0:0:
151,297,94922,1,0,1:0:0:0:
93,346,95088,1,8,0:0:0:0:
34,294,95253,6,0,P|28:255|26:155,1,125.999996154785,0|0,1:0|1:0,0:0:0:0:
90,108,95751,2,0,P|98:170|98:233,1,125.999996154785,0|0,3:0|0:0,0:0:0:0:
176,198,96249,1,0,1:0:0:0:
252,244,96414,1,8,0:0:0:0:
252,244,96497,1,8,0:0:0:0:
252,244,96580,6,0,P|301:244|355:184,1,125.999996154785,8|0,0:0|1:0,0:0:0:0:
396,125,97078,2,0,P|445:125|499:185,1,125.999996154785,0|0,3:0|0:0,0:0:0:0:
446,240,97575,1,0,1:0:0:0:
499,297,97741,1,8,0:0:0:0:
423,253,97907,6,0,L|358:276,1,62.9999980773926,0|0,1:0|0:0,0:0:0:0:
274,303,98239,2,0,L|287:229,1,62.9999980773926,0|0,1:0|0:0,0:0:0:0:
236,182,98570,1,0,1:0:0:0:
358,36,98902,1,0,1:0:0:0:
283,6,99068,1,4,0:3:0:0:
283,6,99151,1,4,0:3:0:0:
283,6,99234,6,0,P|247:17|140:46,1,125.999996154785,0|0,1:0|1:0,0:0:0:0:
84,15,99731,1,0,0:0:0:0:
84,97,99897,2,0,L|61:240,1,125.999996154785,0|0,1:0|1:0,0:0:0:0:
15,286,100394,1,8,0:0:0:0:
83,352,100560,6,0,P|113:333|148:323,1,62.9999980773926,0|0,1:0|0:0,0:0:0:0:
216,275,100892,2,0,P|249:291|282:300,1,62.9999980773926,0|0,1:0|0:0,0:0:0:0:
362,338,101224,2,0,P|373:294|382:265,1,62.9999980773926,0|0,1:0|0:0,0:0:0:0:
434,225,101555,1,4,1:0:0:0:
381,167,101721,1,8,0:0:0:0:
437,107,101887,6,0,P|439:59|356:20,1,125.999996154785,4|0,1:2|1:0,0:0:0:0:
307,54,102385,1,2,3:0:0:0:
307,54,102550,2,0,P|268:60|227:67,1,62.9999980773926,0|0,1:0|0:0,0:0:0:0:
172,39,102882,1,0,1:0:0:0:
127,102,103048,1,8,0:0:0:0:
185,152,103214,6,0,P|186:195|192:304,2,125.999996154785,0|0|0,1:0|1:0|1:0,0:0:0:0:
265,178,104043,2,0,P|296:187|334:199,1,62.9999980773926,0|0,0:0|1:0,0:0:0:0:
391,255,104375,1,8,0:3:0:0:
391,255,104457,1,8,0:3:0:0:
391,255,104540,1,0,1:0:0:0:
263,381,104872,6,0,P|251:348|230:315,1,62.9999980773926,0|0,1:0|0:0,0:0:0:0:
287,270,105204,2,0,P|241:282|138:303,1,125.999996154785,0|0,1:0|1:0,0:0:0:0:
95,260,105701,1,8,0:0:0:0:
70,188,105867,6,0,P|63:149|118:79,1,125.999996154785,0|0,1:0|1:0,0:0:0:0:
158,10,106365,2,0,P|195:36|276:19,1,125.999996154785,0|0,3:0|0:0,0:0:0:0:
343,60,106862,2,0,P|380:68|417:75,1,62.9999980773926,4|8,1:0|0:0,0:0:0:0:
482,39,107194,6,0,P|487:75|494:118,1,62.9999980773926,0|0,1:0|0:0,0:0:0:0:
449,169,107525,1,0,1:0:0:0:
317,278,107857,2,0,P|282:263|253:261,1,62.9999980773926,0|0,1:0|0:0,0:0:0:0:
192,215,108189,1,0,1:0:0:0:
153,283,108355,1,8,0:0:0:0:
190,355,108520,6,0,L|330:368,1,125.999996154785,0|0,1:0|1:0,0:0:0:0:
393,338,109018,1,0,0:0:0:0:
409,256,109184,2,0,L|398:102,1,125.999996154785,0|0,1:0|1:0,0:0:0:0:
336,85,109681,1,4,0:3:0:0:
336,85,109764,1,4,0:3:0:0:
336,85,109847,6,0,P|286:73|252:66,1,62.9999980773926,0|0,1:0|0:0,0:0:0:0:
216,17,110179,1,0,1:0:0:0:
164,74,110345,1,0,0:0:0:0:
94,31,110511,2,0,P|58:51|16:127,1,125.999996154785,0|0,1:0|1:0,0:0:0:0:
82,167,111008,1,8,0:0:0:0:
36,234,111174,5,4,1:2:0:0:
38,249,111257,1,8,0:0:0:0:
39,264,111340,1,8,0:0:0:0:
40,279,111423,1,8,0:0:0:0:
41,294,111506,2,0,L|34:344,3,31.4999990386963,0|8|8|8,1:0|0:0|0:1|0:1,0:0:0:0:
56,343,111837,2,0,L|96:358,3,31.4999990386963,0|8|8|8,1:0|1:0|0:0|0:0,0:0:0:0:
123,343,112169,2,0,L|166:333,3,31.4999990386963,0|4|4|4,1:3|0:3|0:3|0:3,0:0:0:0:
181,353,112511,5,2,0:0:0:0:
265,100,131190,6,0,L|287:241,2,115.50000352478,4|8|8,0:2|0:0|0:0,0:0:0:0:
323,35,131871,2,0,B|352:59|352:59|447:59,1,115.50000352478,8|0,0:0|0:0,0:0:0:0:
449,46,132212,2,0,L|427:136,1,77.0000023498536,8|0,0:0|0:0,0:0:0:0:
416,139,132468,1,8,0:0:0:0:
416,139,132553,2,0,L|424:227,1,77.0000023498536,0|8,0:0|0:0,0:0:0:0:
434,304,132894,1,8,0:0:0:0:
350,277,133065,1,0,0:0:0:0:
350,277,133150,1,0,0:0:0:0:
350,277,133235,6,0,L|220:316,2,115.50000352478,8|8|8,0:0|0:0|0:0,0:0:0:0:
300,201,133917,2,0,B|249:219|249:219|166:194,1,115.50000352478,8|0,0:0|0:0,0:0:0:0:
169,190,134258,2,0,L|57:215,1,115.50000352478,8|8,0:0|0:2,0:0:0:0:
35,226,134599,2,0,L|55:306,1,77.0000023498536,0|8,0:0|0:2,0:0:0:0:
118,360,134940,1,8,0:0:0:0:
158,283,135110,1,8,0:3:0:0:
158,283,135195,1,8,0:3:0:0:
158,283,135280,6,0,L|291:282,2,115.50000352478,4|0|8,0:2|0:0|0:0,0:0:0:0:
93,208,135962,2,0,B|127:174|127:174|133:90,1,115.50000352478
133,83,136303,2,0,L|254:109,2,115.50000352478,8|8|8,0:0|0:0|0:0,0:0:0:0:
43,68,136985,2,0,L|67:189,1,115.50000352478,8|0,0:0|0:0,0:0:0:0:
64,204,137326,5,8,0:0:0:0:
90,292,137496,1,0,0:0:0:0:
90,292,137582,2,0,B|127:259|127:259|204:259,1,115.50000352478,8|8,0:0|0:0,0:0:0:0:
295,279,138008,1,8,0:0:0:0:
239,348,138178,1,0,0:0:0:0:
239,348,138263,1,0,0:0:0:0:
239,348,138349,2,0,P|216:287|216:227,1,115.50000352478,8|8,0:0|0:0,0:0:0:0:
214,213,138690,2,0,P|272:203|328:214,1,115.50000352478
340,231,139030,2,0,P|361:177|364:120,1,115.50000352478,8|8,0:0|0:2,0:0:0:0:
342,110,139371,6,0,L|375:-9,2,115.50000352478,4|8|8,0:2|0:0|0:0,0:0:0:0:
426,128,140053,2,0,B|403:171|403:171|444:249,1,115.50000352478,8|0,0:0|0:0,0:0:0:0:
441,252,140394,2,0,L|344:246,1,77.0000023498536,8|0,0:0|0:0,0:0:0:0:
352,268,140650,1,8,0:0:0:0:
352,268,140735,2,0,L|268:285,1,77.0000023498536,0|8,0:0|0:0,0:0:0:0:
188,296,141076,1,8,0:0:0:0:
217,216,141246,1,8,0:3:0:0:
129,218,141417,6,0,L|144:334,2,115.50000352478,4|8|8,0:2|0:0|0:0,0:0:0:0:
192,160,142099,2,0,L|172:40,1,115.50000352478,8|0,0:0|0:0,0:0:0:0:
154,31,142440,1,8,0:0:0:0:
67,45,142610,1,0,0:0:0:0:
67,45,142695,1,8,0:0:0:0:
67,45,142780,1,0,0:0:0:0:
24,117,142951,1,8,0:2:0:0:
73,188,143121,2,0,L|159:174,1,77.0000023498536,8|8,0:2|0:2,0:0:0:0:
170,183,143377,1,8,0:2:0:0:
186,198,143462,6,0,L|163:334,2,115.50000352478,4|8|8,0:2|0:0|0:0,0:0:0:0:
263,146,144144,2,0,L|269:254,1,77.0000023498536,8|0,0:0|0:0,0:0:0:0:
269,246,144400,1,0,0:0:0:0:
270,268,144485,2,0,L|394:280,2,115.50000352478,8|8|8,0:0|0:0|0:0,0:0:0:0:
319,358,145167,2,0,L|446:368,1,115.50000352478,8|0,0:0|0:0,0:0:0:0:
454,355,145508,5,8,0:0:0:0:
434,268,145678,1,0,0:0:0:0:
434,268,145763,2,0,P|385:245|314:228,1,115.50000352478,8|8,0:0|0:0,0:0:0:0:
250,248,146190,1,8,0:0:0:0:
236,170,146360,1,0,0:0:0:0:
236,170,146530,2,0,L|245:90,1,77.0000023498536,8|0,0:0|0:0,0:0:0:0:
250,73,146786,1,8,0:0:0:0:
251,50,146871,2,0,L|165:63,1,77.0000023498536,0|8,0:0|0:0,0:0:0:0:
100,52,147212,1,8,0:0:0:0:
133,131,147383,1,8,0:3:0:0:
133,131,147468,1,8,0:3:0:0:
133,131,147553,6,0,L|114:257,2,115.50000352478,4|8|8,0:2|0:0|0:0,0:0:0:0:
207,188,148235,2,0,L|290:206,1,77.0000023498536,8|0,0:0|0:0,0:0:0:0:
345,265,148576,2,0,L|339:347,1,77.0000023498536,4|0,0:2|0:0,0:0:0:0:
322,357,148832,2,0,L|399:345,1,77.0000023498536,8|0,0:0|0:0,0:0:0:0:
420,352,149087,1,8,0:0:0:0:
488,295,149258,1,8,0:0:0:0:
486,283,149343,1,8,0:2:0:0:
484,271,149428,1,8,0:3:0:0:
482,259,149513,1,8,0:3:0:0:
480,247,149599,6,0,B|465:212|465:212|489:120,2,115.50000352478,4|8|8,0:2|0:2|0:2,0:0:0:0:
386,262,150280,1,8,0:0:0:0:
263,125,150621,6,0,P|223:114|167:108,1,77.0000023498536,8|0,0:0|0:0,0:0:0:0:
169,94,150877,2,0,P|169:139|169:174,1,77.0000023498536,8|0,0:0|0:0,0:0:0:0:
179,191,151133,1,8,0:0:0:0:
112,246,151303,1,8,0:2:0:0:
174,324,151474,1,8,0:3:0:0:
174,324,151559,1,8,0:3:0:0:
174,324,151644,6,0,B|209:344|209:344|284:323,2,115.50000352478,4|8|8,0:2|0:0|0:0,0:0:0:0:
91,356,152326,2,0,P|47:346|12:337,1,77.0000023498536,8|8,0:0|0:3,0:0:0:0:
38,256,152667,2,0,P|37:208|31:151,1,77.0000023498536,0|8,0:0|0:3,0:0:0:0:
24,158,152922,1,8,0:0:0:0:
103,58,153178,2,0,P|143:65|200:75,1,77.0000023498536,0|8,0:0|0:0,0:0:0:0:
242,130,153519,1,0,0:0:0:0:
321,75,153690,6,0,P|363:60|395:-4,2,115.50000352478,4|8|8,0:2|0:0|0:0,0:0:0:0:
355,152,154371,2,0,P|362:202|367:240,1,77.0000023498536
378,253,154627,1,0,0:0:0:0:
378,253,154712,1,8,0:0:0:0:
231,366,155053,2,0,P|225:322|219:277,1,77.0000023498536,8|8,0:0|0:3,0:0:0:0:
143,224,155394,2,0,P|136:273|128:304,1,77.0000023498536,8|4,0:0|0:3,0:0:0:0:
231,206,155735,6,0,L|246:99,1,77.0000023498536,4|0,0:2|0:0,0:0:0:0:
258,113,155991,2,0,L|133:130,1,115.50000352478,8|8,0:0|0:0,0:0:0:0:
78,89,156417,1,8,0:0:0:0:
109,16,156587,1,0,0:0:0:0:
109,16,156672,1,0,0:0:0:0:
109,16,156758,6,0,B|64:4|64:4|-11:31,2,115.50000352478,8|8|8,0:0|0:0|0:0,0:0:0:0:
176,73,157440,2,0,P|214:64|255:58,1,77.0000023498536,8|8,0:0|0:0,0:0:0:0:
272,67,157695,1,8,0:0:0:0:
292,76,157780,6,0,L|283:162,1,77.0000023498536,4|0,0:2|0:0,0:0:0:0:
268,170,158036,2,0,L|344:157,1,77.0000023498536,8|0,0:0|0:0,0:0:0:0:
361,141,158292,1,8,0:0:0:0:
421,207,158462,1,8,0:0:0:0:
418,218,158547,1,0,0:0:0:0:
415,229,158633,1,0,0:0:0:0:
411,239,158718,1,0,0:0:0:0:
407,249,158803,6,0,L|415:291,3,38.5000011749268,8|0|8|8,0:0|0:0|0:0|0:0,0:0:0:0:
337,288,159144,2,0,L|345:330,3,38.5000011749268,8|8|8|8,0:0|0:3|0:3|0:3,0:0:0:0:
267,322,159485,2,0,L|275:364,3,38.5000011749268,8|4|4|4,0:0|0:3|0:3|0:3,0:0:0:0:
186,316,159826,6,0,L|69:305,2,115.50000352478,4|8|8,0:2|0:0|0:0,0:0:0:0:
213,242,160508,1,8,0:0:0:0:
165,177,160678,1,8,0:3:0:0:
165,177,160763,1,0,0:0:0:0:
165,177,160849,6,0,L|152:81,1,77.0000023498536,4|0,0:2|0:0,0:0:0:0:
138,84,161104,2,0,L|224:97,1,77.0000023498536,8|0,0:0|0:0,0:0:0:0:
235,105,161360,2,0,L|250:13,1,77.0000023498536,8|8,0:0|0:3,0:0:0:0:
367,150,161871,6,0,L|483:173,2,115.50000352478,4|8|8,0:2|0:0|0:0,0:0:0:0:
311,209,162553,2,0,L|328:288,1,77.0000023498536
388,347,162894,6,0,P|323:317|232:326,1,154.000004699707,8|8,0:0|0:0,0:0:0:0:
186,378,163405,1,8,0:2:0:0:
148,287,163576,2,0,P|158:248|163:209,1,77.0000023498536,8|8,0:0|0:0,0:0:0:0:
162,211,163832,1,8,0:0:0:0:
162,211,163917,5,8,0:0:0:0:
107,108,164258,1,0,0:0:0:0:
0,172,164599,1,0,0:0:0:0:
12,307,164940,1,0,0:0:0:0:
85,209,165280,6,0,P|72:157|50:81,1,115.50000352478,4|0,0:2|0:0,0:0:0:0:
45,76,165620,2,0,P|89:50|123:42,1,77.0000023498536,0|8,0:0|0:0,0:0:0:0:
169,99,165961,2,0,P|207:94|242:80,1,77.0000023498536,8|8,0:2|0:2,0:0:0:0:
264,76,166217,1,8,0:2:0:0:
284,66,166302,1,8,0:0:0:0:
352,25,166473,1,0,0:0:0:0:
422,67,166643,6,0,L|395:151,2,77.0000023498536,8|8|8,0:2|0:2|0:0,0:0:0:0:
491,150,167155,1,0,0:0:0:0:
491,150,167240,1,0,0:0:0:0:
491,150,167325,2,0,P|468:206|451:265,1,115.50000352478,8|0,0:0|0:0,0:0:0:0:
445,281,167666,1,8,0:0:0:0:
454,355,167836,1,4,0:3:0:0:
366,313,168007,5,4,0:2:0:0:
366,313,168348,2,0,L|283:289,1,77.0000023498536,8|8,0:0|0:0,0:0:0:0:
255,229,168689,2,0,P|207:246|131:256,1,115.50000352478
120,258,169030,1,8,0:0:0:0:
81,189,169200,1,0,0:0:0:0:
13,227,169370,6,0,L|29:306,2,77.0000023498536,0|8|4,0:0|0:3|0:2,0:0:0:0:
41,152,169882,1,0,0:0:0:0:
41,152,169967,1,8,0:0:0:0:
41,152,170052,2,0,L|136:164,1,77.0000023498536,4|8,0:0|0:0,0:0:0:0:
165,101,170393,2,0,L|260:113,1,77.0000023498536,0|4,0:0|0:3,0:0:0:0:
320,158,170734,6,0,P|352:109|438:120,1,154.000004699707,4|12,0:2|0:0,0:0:0:0:
488,179,171245,1,8,0:0:0:0:
436,243,171416,2,0,L|423:340,2,77.0000023498536,8|0|8,0:2|0:0|0:0,0:0:0:0:
385,182,171927,5,8,0:0:0:0:
385,182,172012,1,8,0:0:0:0:
385,182,172098,1,8,0:0:0:0:
350,105,172268,1,0,0:0:0:0:
411,59,172439,2,0,L|513:72,1,77.0000023498536,8|0,0:0|0:0,0:0:0:0:
506,151,172780,2,0,L|399:139,1,77.0000023498536
429,143,173035,1,8,0:2:0:0:
429,143,173120,1,8,0:0:0:0:
363,182,173291,1,8,0:3:0:0:
319,108,173461,6,0,P|264:100|192:90,1,115.50000352478,4|0,0:2|0:0,0:0:0:0:
185,79,173802,2,0,L|100:88,1,77.0000023498536,8|8,0:0|0:0,0:0:0:0:
72,158,174143,2,0,L|210:178,1,115.50000352478
206,185,174484,1,8,0:0:0:0:
250,250,174655,1,0,0:0:0:0:
187,304,174825,5,8,0:2:0:0:
122,259,174995,1,8,0:2:0:0:
122,259,175081,1,8,0:2:0:0:
122,259,175166,2,0,L|24:280,1,77.0000023498536,8|0,0:0|0:0,0:0:0:0:
89,179,175507,2,0,L|15:200,1,77.0000023498536,8|8,0:0|0:2,0:0:0:0:
13,120,175848,1,8,0:0:0:0:
34,112,175933,1,8,0:3:0:0:
56,105,176018,1,8,0:3:0:0:
78,99,176103,1,8,0:3:0:0:
100,93,176189,5,4,0:2:0:0:
265,5,176530,1,0,0:0:0:0:
316,67,176700,1,8,0:0:0:0:
285,139,176870,2,0,L|298:296,1,154.000004699707,0|8,0:0|0:0,0:0:0:0:
367,342,177382,1,0,0:0:0:0:
417,281,177552,1,8,0:0:0:0:
417,281,177637,1,8,0:2:0:0:
417,281,177723,2,0,L|475:276,1,38.5000011749268,8|8,0:2|0:2,0:0:0:0:
472,254,177893,6,0,L|451:178,1,77.0000023498536,8|0,0:0|0:0,0:0:0:0:
378,116,178234,2,0,L|356:206,1,77.0000023498536,8|0,0:0|0:0,0:0:0:0:
282,224,178575,1,8,0:0:0:0:
267,218,178660,1,4,0:3:0:0:
252,212,178745,1,4,0:3:0:0:
237,205,178831,1,4,0:3:0:0:
222,199,178916,6,0,B|174:186|174:186|71:226,1,154.000004699707,4|8,0:2|0:0,0:0:0:0:
4,200,179427,1,8,0:0:0:0:
41,132,179598,2,0,L|52:41,1,77.0000023498536,8|8,0:2|0:2,0:0:0:0:
113,8,179939,1,8,0:0:0:0:
180,53,180109,1,0,0:0:0:0:
250,11,180280,6,0,L|291:27,3,38.5000011749268,8|0|0|0,0:0|0:0|0:0|0:0,0:0:0:0:
296,48,180620,2,0,L|281:134,1,77.0000023498536,8|0,0:0|0:0,0:0:0:0:
346,184,180961,2,0,L|384:196,2,38.5000011749268,8|8|8,0:0|0:3|0:3,0:0:0:0:
281,242,181302,2,0,P|277:286|274:323,1,77.0000023498536,8|4,0:0|0:3,0:0:0:0:
278,333,181558,1,4,0:3:0:0:
281,347,181643,5,4,0:2:0:0:
451,316,181984,1,8,0:0:0:0:
468,241,182155,2,0,P|471:197|418:98,1,154.000004699707,12|0,0:0|0:0,0:0:0:0:
414,26,182666,2,0,L|315:47,1,77.0000023498536,8|0,0:0|0:0,0:0:0:0:
279,103,183007,5,0,0:0:0:0:
264,98,183092,1,0,0:0:0:0:
249,93,183177,1,0,0:0:0:0:
234,88,183262,1,0,0:0:0:0:
219,82,183348,2,0,L|234:170,1,77.0000023498536,8|0,0:0|0:0,0:0:0:0:
291,216,183689,1,0,1:0:0:0:
162,330,184030,1,0,0:0:0:0:
95,301,184200,1,4,0:3:0:0:
101,225,184370,6,0,L|57:212,3,38.5000011749268,4|0|0|0,0:2|0:0|0:0|0:0,0:0:0:0:
91,138,184711,2,0,L|127:148,3,38.5000011749268,8|0|0|0,0:0|0:0|0:0|0:0,0:0:0:0:
197,113,185052,2,0,L|204:69,3,38.5000011749268,8|0|8|0,0:0|0:0|0:0|0:0,0:0:0:0:
275,128,185393,2,0,L|282:84,3,38.5000011749268,8|8|0|0,0:0|0:0|0:0|0:0,0:0:0:0:
349,157,185734,5,8,0:2:0:0:
303,218,185908,1,4,0:3:0:0:
359,273,186082,2,0,L|346:350,1,70,0|4,0:0|0:3,0:0:0:0:
430,356,186431,1,0,0:0:0:0:
509,315,186606,1,4,0:3:0:0:
499,232,186780,1,8,0:0:0:0:
499,232,187129,6,0,L|417:182,1,77.0000023498536,2|2,0:0|0:0,0:0:0:0:
381,131,187470,2,0,L|301:160,1,77.0000023498536,2|2,0:0|0:0,0:0:0:0:
241,196,187812,1,10,0:0:0:0:
20,119,188154,6,0,L|102:69,1,77.0000023498536,2|2,0:0|0:0,0:0:0:0:
138,18,188496,2,0,L|215:46,1,77.0000023498536,2|2,0:0|0:0,0:0:0:0:
278,83,188837,1,10,0:0:0:0:
186,272,189180,6,0,L|199:366,2,77.0000023498536,2|2|2,0:0|0:0|0:0,0:0:0:0:
213,201,189693,1,2,0:0:0:0:
135,209,189864,2,0,L|46:201,1,77.0000023498536,10|0,0:0|0:0,0:0:0:0:
89,123,190205,6,0,L|181:133,2,77.0000023498536,2|2|2,0:0|0:0|0:0,0:0:0:0:
24,77,190718,1,2,0:0:0:0:
81,21,190889,2,0,L|222:42,1,115.50000352478,10|0,0:0|0:0,0:0:0:0:
213,51,191231,6,0,L|296:47,1,77.0000023498536,2|2,0:0|0:0,0:0:0:0:
344,103,191573,2,0,L|327:185,1,77.0000023498536,2|2,0:0|0:0,0:0:0:0:
308,252,191915,1,10,0:0:0:0:
54,348,192257,6,0,L|137:352,1,77.0000023498536,2|2,0:0|0:0,0:0:0:0:
185,296,192599,2,0,L|168:214,1,77.0000023498536,2|2,0:0|0:0,0:0:0:0:
149,147,192941,1,10,0:0:0:0:
347,29,193282,6,0,L|436:42,2,77.0000023498536,2|2|2,0:0|0:0|0:0,0:0:0:0:
277,67,193795,1,2,0:0:0:0:
335,124,193966,2,0,L|426:122,1,77.0000023498536,10|0,0:0|0:0,0:0:0:0:
474,213,194308,6,0,L|393:214,1,77.0000023498536,2|2,0:0|0:0,0:0:0:0:
303,295,194650,2,0,L|384:296,1,77.0000023498536,2|2,0:0|0:0,0:0:0:0:
477,356,194992,1,10,0:0:0:0:
477,356,195077,1,0,0:0:0:0:
477,356,195163,1,0,0:0:0:0:
477,356,195248,1,0,0:0:0:0:
477,356,195334,6,0,L|468:272,1,77.0000023498536,2|2,0:0|0:0,0:0:0:0:
397,187,195676,2,0,L|388:263,1,77.0000023498536,2|2,0:0|0:0,0:0:0:0:
300,230,196017,1,10,0:0:0:0:
208,84,196359,6,0,L|221:2,2,77.0000023498536,2|2|2,0:0|0:0|0:0,0:0:0:0:
148,137,196872,1,2,0:0:0:0:
148,137,197043,1,10,0:0:0:0:
185,314,197385,6,0,L|106:323,1,77.0000023498536,2|2,0:0|0:0,0:0:0:0:
237,384,197727,2,0,L|313:375,1,77.0000023498536,2|2,0:0|0:0,0:0:0:0:
353,308,198069,2,0,L|365:183,1,115.50000352478,10|0,0:0|0:0,0:0:0:0:
353,172,198411,6,0,L|436:182,1,77.0000023498536,2|2,0:0|0:0,0:0:0:0:
512,114,198752,2,0,L|435:104,1,77.0000023498536,2|2,0:0|0:0,0:0:0:0:
381,47,199094,1,10,0:0:0:0:
209,12,199436,6,0,L|197:88,3,77.0000023498536,2|2|2|2,0:0|0:0|0:0|0:0,0:0:0:0:
234,157,200120,1,10,0:0:0:0:
124,303,200462,6,0,L|40:321,3,77.0000023498536,2|2|2|2,0:0|0:0|0:0|0:0,0:0:0:0:
77,232,201146,1,10,0:0:0:0:
238,348,201487,6,0,L|314:334,1,77.0000023498536,2|2,0:0|0:0,0:0:0:0:
349,258,201829,2,0,L|427:287,1,77.0000023498536,2|2,0:0|0:0,0:0:0:0:
470,355,202171,1,10,0:0:0:0:
493,192,202513,5,2,0:0:0:0:
436,134,202684,1,2,0:0:0:0:
486,72,202855,1,2,0:0:0:0:
416,28,203026,2,0,L|333:20,1,77.0000023498536,2|10,0:0|0:0,0:0:0:0:
