osu file format v14

[General]
AudioFilename: audio.mp3
AudioLeadIn: 0
PreviewTime: 74727
Countdown: 0
SampleSet: Soft
StackLeniency: 0.7
Mode: 0
LetterboxInBreaks: 0
WidescreenStoryboard: 1

[Editor]
DistanceSpacing: 0.8
BeatDivisor: 4
GridSize: 4
TimelineZoom: 1

[Metadata]
Title:Tomorrow
TitleUnicode:Tomorrow
Artist:hachioji P
ArtistUnicode:八王子 P
Creator:LUCYO
Version:yesterday
Source:
Tags:hatsune miku vocaloid
BeatmapID:1088443
BeatmapSetID:511901

[Difficulty]
HPDrainRate:5
CircleSize:4
OverallDifficulty:6.3
ApproachRate:9
SliderMultiplier:2.2
SliderTickRate:1

[Events]
//Background and Video events
0,0,"42130813.jpg",0,0
//Break Periods
2,176971,183218
//Storyboard Layer 0 (Background)
//Storyboard Layer 1 (Fail)
//Storyboard Layer 2 (Pass)
//Storyboard Layer 3 (Foreground)
//Storyboard Sound Samples

[TimingPoints]
-1182,454.545454545455,4,2,1,100,1,0
636,-76.9230769230769,4,2,1,100,0,0
22454,-62.5,4,2,1,100,0,0
22908,-76.9230769230769,4,2,1,100,0,0
74727,-100,4,2,1,100,0,0
75408,-62.5,4,2,1,100,0,0
99045,-100,4,2,1,100,0,0
111772,-76.9230769230769,4,2,1,100,0,0
132908,-100,4,2,1,100,0,0
133590,-66.6666666666667,4,2,1,100,0,0
189727,-100,4,2,1,100,0,0
233363,-71.4285714285714,4,2,1,100,0,0

[Colours]
Combo1 : 0,91,183
Combo2 : 111,200,234
Combo3 : 183,182,192
Combo4 : 170,170,170

[HitObjects]
336,28,636,6,0,L|448:160,1,142.99999345398
396,256,1090,1,0,0:0:0:0:
148,80,1318,1,0,0:0:0:0:
176,304,1545,1,0,0:0:0:0:
328,168,1772,2,0,B|416:176|360:80|476:88,1,142.99999345398
120,152,2227,5,0,0:0:0:0:
156,192,2340,1,0,0:0:0:0:
196,232,2454,2,0,P|276:184|296:108,1,142.99999345398
252,348,2908,1,0,0:0:0:0:
408,240,3136,2,0,L|484:176,1,71.4999967269899
400,88,3363,2,0,P|456:52|460:28,1,71.4999967269899
296,136,3590,5,0,0:0:0:0:
276,184,3704,1,0,0:0:0:0:
260,228,3818,6,0,P|288:292|332:312,1,71.4999967269899
360,348,4045,1,0,0:0:0:0:
88,240,4272,5,0,0:0:0:0:
224,32,4499,1,0,0:0:0:0:
404,128,4727,1,0,0:0:0:0:
240,296,4954,2,0,P|228:372|240:384,1,71.4999967269899
452,316,5181,1,0,0:0:0:0:
428,104,5408,1,0,0:0:0:0:
276,96,5636,6,0,L|292:16,1,71.4999967269899
364,252,5863,2,0,L|448:248,1,71.4999967269899
136,112,6090,5,0,0:0:0:0:
252,224,6318,2,0,B|256:308|256:308|332:340,1,142.99999345398
268,56,6772,1,0,0:0:0:0:
92,172,6999,6,0,P|188:160|196:140,1,71.4999967269899
424,192,7340,2,0,L|340:184,1,71.4999967269899
264,52,7681,1,0,0:0:0:0:
260,328,7908,1,0,0:0:0:0:
256,192,8136,12,0,13363,0:0:0:0:
196,196,14727,6,0,L|240:176,1,35.749998363495
232,176,14840,2,0,L|272:164,1,35.749998363495
274,165,14954,2,0,L|316:148,1,35.749998363495
307,151,15068,2,0,L|348:132,1,35.749998363495
339,136,15181,1,0,0:0:0:0:
112,236,15408,6,0,B|104:244|80:256|80:256|36:240|56:220,1,71.4999967269899
212,80,15636,1,0,0:0:0:0:
300,296,15863,1,0,0:0:0:0:
436,76,16090,1,0,0:0:0:0:
400,56,16204,1,0,0:0:0:0:
356,56,16318,1,0,0:0:0:0:
324,92,16431,1,0,0:0:0:0:
352,132,16545,6,0,L|408:200,1,71.4999967269899
376,232,16772,1,0,0:0:0:0:
356,284,16886,1,0,0:0:0:0:
336,328,16999,5,0,0:0:0:0:
72,88,17227,2,0,B|76:72|88:56|88:56|140:64|160:80,1,71.4999967269899
236,80,17454,1,0,0:0:0:0:
116,336,17681,1,0,0:0:0:0:
200,208,17795,1,0,0:0:0:0:
76,112,17908,5,0,0:0:0:0:
116,96,18022,1,0,0:0:0:0:
160,92,18136,1,0,0:0:0:0:
204,104,18249,1,0,0:0:0:0:
248,108,18363,2,0,L|312:60,1,71.4999967269899
344,80,18590,5,0,0:0:0:0:
392,72,18704,1,0,0:0:0:0:
436,92,18818,1,0,0:0:0:0:
64,136,19045,2,0,B|48:156|48:176|48:176|72:200|104:204,1,71.4999967269899
56,280,19272,1,0,0:0:0:0:
268,356,19499,5,0,0:0:0:0:
218,230,19613,1,0,0:0:0:0:
172,96,19727,5,0,0:0:0:0:
216,80,19840,1,0,0:0:0:0:
264,68,19954,1,0,0:0:0:0:
304,56,20068,1,0,0:0:0:0:
308,184,20181,1,0,0:0:0:0:
268,200,20295,1,0,0:0:0:0:
228,216,20408,1,0,0:0:0:0:
420,220,20636,5,0,0:0:0:0:
84,196,20977,1,0,0:0:0:0:
420,220,21318,1,0,0:0:0:0:
84,196,21658,1,0,0:0:0:0:
420,220,21999,1,0,0:0:0:0:
84,196,22227,1,0,0:0:0:0:
84,196,22454,2,0,P|168:168|76:176,1,264
75,171,22908,5,0,0:0:0:0:
216,272,23136,2,0,L|284:224,1,71.4999967269899
316,200,23363,1,0,0:0:0:0:
352,232,23477,1,0,0:0:0:0:
384,264,23590,1,0,0:0:0:0:
416,296,23704,1,0,0:0:0:0:
456,136,23818,6,0,B|416:56|368:72|392:56|436:68,1,71.4999967269899
200,48,24045,2,0,P|168:128|168:140,1,71.4999967269899
176,220,24272,1,0,0:0:0:0:
56,76,24499,5,0,0:0:0:0:
64,344,24727,6,0,B|148:328|168:304|168:304|200:328|240:336,1,142.99999345398
280,212,25068,1,0,0:0:0:0:
216,168,25181,1,0,0:0:0:0:
256,104,25295,2,0,B|344:104|344:104|420:64,1,142.99999345398
344,8,25636,5,0,0:0:0:0:
344,48,25749,1,0,0:0:0:0:
344,216,25863,2,0,B|328:308|328:308|308:324|308:324|300:372,1,142.99999345398
264,352,26204,1,0,0:0:0:0:
212,192,26318,1,0,0:0:0:0:
80,80,26545,2,0,L|152:32,1,71.4999967269899
236,36,26772,1,0,0:0:0:0:
408,136,26999,6,0,L|456:220,1,71.4999967269899
304,288,27227,1,0,0:0:0:0:
272,328,27340,1,0,0:0:0:0:
228,348,27454,1,0,0:0:0:0:
180,348,27568,1,0,0:0:0:0:
136,344,27681,1,0,0:0:0:0:
96,328,27795,1,0,0:0:0:0:
264,56,28136,5,0,0:0:0:0:
364,288,28477,1,0,0:0:0:0:
364,288,28818,1,0,0:0:0:0:
248,280,29727,1,0,0:0:0:0:
272,36,29954,5,0,0:0:0:0:
216,32,30068,1,0,0:0:0:0:
168,56,30181,1,0,0:0:0:0:
140,108,30295,1,0,0:0:0:0:
136,264,30408,2,0,L|236:304,2,71.4999967269899
68,200,30749,2,0,L|140:152,1,71.4999967269899
332,256,30977,6,0,L|416:288,1,71.4999967269899
280,320,31204,1,0,0:0:0:0:
120,56,31318,1,0,0:0:0:0:
120,56,31431,1,0,0:0:0:0:
328,56,31545,2,0,B|392:96|424:52|424:52|448:120,1,142.99999345398
184,128,31886,1,0,0:0:0:0:
332,288,31999,2,0,P|340:208|364:144,1,142.99999345398
132,216,32340,1,0,0:0:0:0:
424,80,32454,6,0,L|344:32,1,71.4999967269899
148,68,32681,2,0,L|92:152,1,71.4999967269899
388,240,32908,2,0,L|312:208,1,71.4999967269899
172,276,33136,2,0,L|124:344,1,71.4999967269899
364,352,33363,1,0,0:0:0:0:
284,316,33590,5,0,0:0:0:0:
328,276,33704,1,0,0:0:0:0:
360,228,33818,1,0,0:0:0:0:
376,180,33931,1,0,0:0:0:0:
336,32,34045,2,0,B|272:96|272:96|260:176,1,142.99999345398
440,144,34386,2,0,P|496:92|492:72,1,71.4999967269899
364,308,34613,2,0,B|320:320|320:320|288:380,1,71.4999967269899
484,104,34954,5,0,0:0:0:0:
472,192,35068,1,0,0:0:0:0:
376,228,35181,2,0,L|388:144,1,71.4999967269899
336,96,35408,1,0,0:0:0:0:
168,88,35522,1,0,0:0:0:0:
132,16,35636,2,0,L|212:0,1,71.4999967269899
112,96,35863,5,0,0:0:0:0:
64,208,35977,2,0,P|80:292|104:300,1,71.4999967269899
144,296,36204,1,0,0:0:0:0:
252,196,36318,1,0,0:0:0:0:
208,132,36431,2,0,P|184:52|172:48,1,71.4999967269899
202,65,36772,1,0,0:0:0:0:
16,48,36999,1,0,0:0:0:0:
192,156,37227,5,0,0:0:0:0:
168,204,37340,1,0,0:0:0:0:
156,256,37454,1,0,0:0:0:0:
160,312,37568,1,0,0:0:0:0:
272,272,37681,2,0,B|352:232|380:292|316:144|428:172,1,142.99999345398
328,64,38022,2,0,L|404:0,1,71.4999967269899
152,60,38249,2,0,B|116:84|116:84|100:116|120:144,1,71.4999967269899
268,120,38477,5,0,0:0:0:0:
72,196,38590,1,0,0:0:0:0:
44,276,38704,1,0,0:0:0:0:
104,328,38818,2,0,B|184:340|192:268|192:268|176:252|176:252|164:248,1,142.99999345398
196,108,39158,1,0,0:0:0:0:
192,56,39272,5,0,0:0:0:0:
236,44,39386,1,0,0:0:0:0:
284,44,39499,1,0,0:0:0:0:
332,48,39613,1,0,0:0:0:0:
376,60,39727,1,0,0:0:0:0:
384,108,39840,2,0,P|452:156|452:164,1,71.4999967269899
376,272,40068,2,0,L|296:260,1,71.4999967269899
216,184,40295,1,0,0:0:0:0:
184,284,40408,5,0,0:0:0:0:
216,320,40522,1,0,0:0:0:0:
244,352,40636,1,0,0:0:0:0:
284,368,40749,1,0,0:0:0:0:
144,208,40863,2,0,B|276:208|76:104|280:84|264:120,1,142.99999345398
440,136,41204,5,0,0:0:0:0:
412,92,41318,1,0,0:0:0:0:
380,52,41431,1,0,0:0:0:0:
232,72,41545,2,0,P|128:144|104:208,1,142.99999345398
144,268,41886,2,0,P|256:308|320:280,1,142.99999345398
372,240,42227,2,0,P|364:144|292:80,1,142.99999345398
200,24,42681,5,0,0:0:0:0:
248,84,42795,1,0,0:0:0:0:
32,140,42908,1,0,0:0:0:0:
48,212,43022,1,0,0:0:0:0:
296,228,43136,1,0,0:0:0:0:
336,168,43249,1,0,0:0:0:0:
152,320,43363,1,0,0:0:0:0:
224,304,43477,1,0,0:0:0:0:
468,280,43590,1,0,0:0:0:0:
432,216,43704,1,0,0:0:0:0:
408,368,43818,5,0,0:0:0:0:
368,352,43931,1,0,0:0:0:0:
332,312,44045,1,0,0:0:0:0:
320,264,44158,1,0,0:0:0:0:
332,216,44272,1,0,0:0:0:0:
384,32,44499,5,0,0:0:0:0:
424,72,44613,1,0,0:0:0:0:
404,116,44727,1,0,0:0:0:0:
356,124,44840,1,0,0:0:0:0:
312,240,44954,2,0,B|360:240|368:284|368:284|432:288|436:352,1,142.99999345398
400,128,45295,1,0,0:0:0:0:
276,52,45408,6,0,L|252:132,1,71.4999967269899
96,192,45636,1,0,0:0:0:0:
140,344,45749,1,0,0:0:0:0:
264,276,45863,2,0,P|300:192|296:184,1,71.4999967269899
428,88,46090,2,0,B|392:52|392:52|344:64,1,71.4999967269899
188,48,46318,2,0,B|152:120|152:120|148:120,2,71.4999967269899
252,272,46658,5,0,0:0:0:0:
72,236,46772,2,0,B|60:284|60:284|76:316,1,71.4999967269899
112,36,46999,1,0,0:0:0:0:
100,120,47113,6,0,P|168:168|168:184,1,71.4999967269899
208,184,47340,1,0,0:0:0:0:
256,208,47454,1,0,0:0:0:0:
280,256,47568,1,0,0:0:0:0:
328,244,47681,1,0,0:0:0:0:
352,296,47795,1,0,0:0:0:0:
404,284,47908,1,0,0:0:0:0:
328,52,48136,5,0,0:0:0:0:
460,104,48249,1,0,0:0:0:0:
404,200,48363,2,0,P|424:280|420:296,1,71.4999967269899
380,340,48590,1,0,0:0:0:0:
200,316,48704,2,0,L|192:232,1,71.4999967269899
320,272,48931,1,0,0:0:0:0:
120,152,49045,6,0,L|184:96,1,71.4999967269899
312,172,49272,1,0,0:0:0:0:
276,24,49386,2,0,B|308:24|308:24|316:16|316:16|316:32|316:32|324:24|324:24|384:24,1,71.4999967269899
436,164,49613,5,0,0:0:0:0:
232,144,49727,1,0,0:0:0:0:
296,248,49840,2,0,B|240:300|240:300|216:324|216:324|204:384,1,142.99999345398
160,100,50181,5,0,0:0:0:0:
364,212,50295,1,0,0:0:0:0:
168,312,50408,1,0,0:0:0:0:
168,312,50522,1,0,0:0:0:0:
168,312,50636,2,0,L|228:256,1,71.4999967269899
360,60,50863,6,0,L|300:120,1,71.4999967269899
216,236,51090,2,0,P|288:248|324:232,1,71.4999967269899
252,352,51318,1,0,0:0:0:0:
388,352,51431,1,0,0:0:0:0:
160,160,51545,1,0,0:0:0:0:
320,48,51772,6,0,P|264:108|268:128,1,71.4999967269899
356,224,51999,2,0,L|432:168,1,71.4999967269899
244,28,52227,1,0,0:0:0:0:
124,104,52340,2,0,L|196:148,1,71.4999967269899
185,141,52568,6,0,L|124:224,1,71.4999967269899
348,212,52795,1,0,0:0:0:0:
280,320,52908,2,0,B|352:348|352:348|400:276|432:364,1,142.99999345398
260,184,53249,1,0,0:0:0:0:
388,84,53363,1,0,0:0:0:0:
196,36,53477,5,0,0:0:0:0:
88,200,53590,2,0,L|156:280,1,71.4999967269899
404,288,53818,1,0,0:0:0:0:
436,112,53931,2,0,P|368:56|336:56,1,71.4999967269899
136,96,54158,1,0,0:0:0:0:
392,224,54272,6,0,B|400:276|400:276|432:284|456:272|468:288|488:288,1,71.4999967269899
220,320,54499,5,0,0:0:0:0:
264,296,54613,1,0,0:0:0:0:
276,248,54727,1,0,0:0:0:0:
240,208,54840,1,0,0:0:0:0:
188,200,54954,1,0,0:0:0:0:
172,148,55068,1,0,0:0:0:0:
200,104,55181,1,0,0:0:0:0:
36,264,55408,5,0,0:0:0:0:
300,104,55522,2,0,L|364:164,1,71.4999967269899
416,120,55749,2,0,L|340:52,1,71.4999967269899
252,144,55977,2,0,L|316:208,1,71.4999967269899
464,76,56204,2,0,L|400:20,1,71.4999967269899
208,192,56431,2,0,L|280:264,1,71.4999967269899
312,356,56658,5,0,0:0:0:0:
256,152,56772,1,0,0:0:0:0:
464,84,56886,1,0,0:0:0:0:
508,304,56999,1,0,0:0:0:0:
184,220,57227,6,0,B|184:192|176:176|140:184|124:208,1,71.4999967269899
288,52,57454,1,0,0:0:0:0:
344,272,57681,2,0,B|328:304|336:320|360:332|384:312,1,71.4999967269899
72,312,57908,1,0,0:0:0:0:
160,176,58136,2,0,L|236:120,1,71.4999967269899
328,192,58363,5,0,0:0:0:0:
396,156,58477,1,0,0:0:0:0:
444,216,58590,1,0,0:0:0:0:
412,280,58704,1,0,0:0:0:0:
340,264,58818,1,0,0:0:0:0:
280,112,59272,6,0,B|212:40|212:40|156:16|192:96,1,142.99999345398
178,49,59613,1,0,0:0:0:0:
92,212,59727,2,0,B|172:276|172:276|196:308|152:300,1,142.99999345398
420,232,60068,5,0,0:0:0:0:
420,232,60181,2,0,B|412:140|412:140|380:80|360:152,1,142.99999345398
256,296,60636,2,0,B|216:364|280:368|300:336|300:336|376:352,1,142.99999345398
368,328,60977,1,0,0:0:0:0:
396,308,61090,1,0,0:0:0:0:
488,160,61318,5,0,0:0:0:0:
308,36,61545,1,0,0:0:0:0:
152,64,61772,1,0,0:0:0:0:
124,112,61886,1,0,0:0:0:0:
96,160,61999,2,0,L|20:336,1,142.99999345398
72,340,62340,1,0,0:0:0:0:
120,348,62454,6,0,L|208:336,1,71.4999967269899
248,320,62681,2,0,L|252:208,1,71.4999967269899
288,200,62908,2,0,P|380:268|444:220,1,142.99999345398
288,212,63249,1,0,0:0:0:0:
232,68,63363,6,0,L|328:64,1,71.4999967269899
160,164,63590,2,0,L|160:244,1,71.4999967269899
360,312,63818,2,0,L|252:312,1,71.4999967269899
412,200,64045,2,0,L|412:116,1,71.4999967269899
304,8,64272,6,0,P|208:64|184:124,1,142.99999345398
194,88,64613,1,0,0:0:0:0:
308,224,64727,2,0,B|304:332|304:332|356:376,1,142.99999345398
460,216,65068,1,0,0:0:0:0:
456,176,65181,6,0,B|384:120|384:120|440:108|440:108|400:72|400:72|392:72,1,142.99999345398
384,28,65522,2,0,L|300:44,1,71.4999967269899
256,112,65749,1,0,0:0:0:0:
320,168,65863,1,0,0:0:0:0:
264,240,65977,1,0,0:0:0:0:
104,80,66090,6,0,L|104:168,1,71.4999967269899
64,248,66318,6,0,L|80:344,1,71.4999967269899
32,160,66545,1,0,0:0:0:0:
256,48,66772,2,0,B|304:112|308:160|368:108,1,142.99999345398
432,84,67113,1,0,0:0:0:0:
440,168,67227,2,0,L|480:248,1,71.4999967269899
388,252,67454,2,0,L|348:348,1,71.4999967269899
424,368,67681,1,0,0:0:0:0:
352,88,67908,6,0,L|332:176,1,71.4999967269899
424,216,68136,2,0,L|432:308,1,71.4999967269899
436,128,68363,1,0,0:0:0:0:
264,16,68590,2,0,B|240:104|200:160|168:68,1,142.99999345398
96,116,68931,1,0,0:0:0:0:
88,200,69045,2,0,L|52:280,1,71.4999967269899
112,332,69272,2,0,L|188:284,1,71.4999967269899
200,200,69499,1,0,0:0:0:0:
312,272,69613,1,0,0:0:0:0:
320,192,69727,6,0,B|408:188|408:188|360:120|360:120|316:192,1,214.49999018097
140,64,70181,5,0,0:0:0:0:
128,96,70295,1,0,0:0:0:0:
328,116,70408,1,0,0:0:0:0:
348,96,70522,1,0,0:0:0:0:
216,200,70636,1,0,0:0:0:0:
208,244,70749,1,0,0:0:0:0:
416,248,70863,1,0,0:0:0:0:
436,216,70977,1,0,0:0:0:0:
304,48,71090,1,0,0:0:0:0:
256,56,71204,1,0,0:0:0:0:
172,132,71318,2,0,P|140:264|232:336,6,214.49999018097
256,164,73590,5,0,0:0:0:0:
256,164,73818,5,0,0:0:0:0:
256,164,74045,1,0,0:0:0:0:
248,160,74158,1,0,0:0:0:0:
256,164,74272,1,0,0:0:0:0:
256,164,74499,1,0,0:0:0:0:
424,56,74727,6,0,L|400:164,2,110
196,224,75408,1,0,0:0:0:0:
264,72,75636,1,0,0:0:0:0:
224,188,75863,2,0,L|204:292,1,88
348,240,76090,5,0,0:0:0:0:
376,360,76204,2,0,P|456:316|456:312,1,88
348,240,76431,1,0,0:0:0:0:
224,300,76545,2,0,B|220:172|220:172|184:140,1,176
316,80,76886,1,0,0:0:0:0:
240,48,76999,6,0,B|176:112|176:112|168:156|168:152|168:152|120:192,1,176
220,240,77340,2,0,B|296:288|296:288|320:288|320:288|376:324,1,176
312,128,77681,2,0,B|400:124|400:124|424:104|424:104|504:100,1,176
336,60,78022,1,0,0:0:0:0:
120,72,78136,1,0,0:0:0:0:
200,224,78249,1,0,0:0:0:0:
284,156,78363,1,0,0:0:0:0:
56,312,78590,6,0,B|92:240|128:248|128:248|144:272|144:272|192:288,1,176
348,288,79045,2,0,L|408:360,1,88
460,256,79272,2,0,L|504:176,1,88
324,120,79499,2,0,L|384:196,1,88
432,120,79727,1,0,0:0:0:0:
473,41,79840,1,0,0:0:0:0:
304,88,79954,1,0,0:0:0:0:
336,236,80068,6,0,P|392:308|396:308,1,88
255,295,80295,2,0,P|211:259|203:207,1,88
203,231,80522,1,0,0:0:0:0:
203,231,80636,6,0,P|112:180|40:188,1,176
260,164,80977,2,0,P|296:68|364:12,1,176
296,244,81318,2,0,P|396:268|460:332,1,176
144,336,81658,2,0,B|192:304|192:304|208:264,1,88
200,192,81886,2,0,B|220:144|220:144|264:120,1,88
252,84,82113,1,0,0:0:0:0:
296,112,82227,1,0,0:0:0:0:
320,152,82340,1,0,0:0:0:0:
328,200,82454,1,0,0:0:0:0:
56,156,82568,1,0,0:0:0:0:
200,212,82681,5,0,0:0:0:0:
256,140,82795,1,0,0:0:0:0:
276,20,82908,1,0,0:0:0:0:
396,44,83022,1,0,0:0:0:0:
428,76,83136,2,0,L|428:176,1,88
336,76,83363,1,0,0:0:0:0:
272,196,83477,6,0,L|300:112,1,88
184,160,83704,1,0,0:0:0:0:
96,76,83818,2,0,L|144:160,1,88
64,276,84045,2,0,L|56:188,1,88
176,316,84272,6,0,B|224:312|224:312|244:372|280:276|320:344|352:280,1,176
448,216,84613,1,0,0:0:0:0:
332,232,84727,1,0,0:0:0:0:
192,212,84840,2,0,L|280:188,1,88
80,152,85068,2,0,P|116:200|172:192,1,88
276,92,85295,5,0,0:0:0:0:
304,24,85408,1,0,0:0:0:0:
228,32,85522,1,0,0:0:0:0:
144,40,85636,5,0,0:0:0:0:
148,276,85863,1,0,0:0:0:0:
468,236,86090,1,0,0:0:0:0:
368,56,86318,1,0,0:0:0:0:
240,120,86545,2,0,B|240:184|240:184|84:192|84:192|92:256,1,264
96,268,86999,5,0,0:0:0:0:
244,80,87227,1,0,0:0:0:0:
104,352,87454,1,0,0:0:0:0:
352,116,87681,1,0,0:0:0:0:
476,344,87908,1,0,0:0:0:0:
476,344,88136,6,0,B|352:344|352:344|352:104,1,352
248,108,88818,2,0,B|248:344|248:344|124:344,1,352
72,288,89499,2,0,P|20:272|72:296,1,176
132,104,89954,6,0,B|152:128|176:124|176:124|196:96|192:60,1,88
316,28,90181,1,0,0:0:0:0:
172,256,90408,1,0,0:0:0:0:
328,212,90636,5,0,0:0:0:0:
352,168,90749,1,0,0:0:0:0:
360,124,90863,1,0,0:0:0:0:
348,76,90977,1,0,0:0:0:0:
312,40,91090,2,0,P|224:20|216:24,1,88
188,40,91318,5,0,0:0:0:0:
160,80,91431,1,0,0:0:0:0:
132,120,91545,1,0,0:0:0:0:
312,284,91772,6,0,B|332:308|356:300|356:300|368:276|352:248,1,88
108,240,91999,1,0,0:0:0:0:
316,76,92227,1,0,0:0:0:0:
280,44,92340,1,0,0:0:0:0:
232,28,92454,1,0,0:0:0:0:
180,32,92568,1,0,0:0:0:0:
132,56,92681,1,0,0:0:0:0:
104,96,92795,1,0,0:0:0:0:
128,144,92908,6,0,L|224:196,1,88
204,232,93136,2,0,L|128:288,2,88
400,236,93590,5,0,0:0:0:0:
436,204,93704,1,0,0:0:0:0:
456,160,93818,1,0,0:0:0:0:
144,188,94045,2,0,P|192:272|196:272,1,88
268,136,94272,5,0,0:0:0:0:
280,80,94386,1,0,0:0:0:0:
256,188,94499,1,0,0:0:0:0:
244,240,94613,1,0,0:0:0:0:
232,284,94727,2,0,L|160:340,1,88
120,328,94954,1,0,0:0:0:0:
76,320,95068,1,0,0:0:0:0:
56,276,95181,6,0,B|132:260|132:260|172:212|172:212|228:200,1,176
416,212,95522,2,0,B|380:156|388:124|388:124|352:112|336:48,1,176
136,48,95863,1,0,0:0:0:0:
256,48,95977,1,0,0:0:0:0:
188,200,96090,1,0,0:0:0:0:
188,316,96204,1,0,0:0:0:0:
116,208,96318,1,0,0:0:0:0:
268,204,96431,1,0,0:0:0:0:
336,344,96545,1,0,0:0:0:0:
260,344,96658,1,0,0:0:0:0:
256,192,96772,12,0,98818,0:0:0:0:
360,92,99045,5,0,0:0:0:0:
292,208,99272,2,0,P|352:232|396:216,1,110
412,184,99613,1,0,0:0:0:0:
428,140,99727,1,0,0:0:0:0:
408,96,99840,2,0,L|356:56,1,55
184,200,100068,5,0,0:0:0:0:
208,172,100181,2,0,B|244:128|244:128|228:64,1,110
72,144,100636,6,0,P|44:216|56:260,1,110
196,352,100977,2,0,P|268:360|316:344,1,110
280,168,101318,2,0,P|304:100|288:64,1,110
244,80,101658,1,0,0:0:0:0:
400,172,101886,1,0,0:0:0:0:
376,208,101999,2,0,P|364:272|388:312,1,110
416,336,102340,1,0,0:0:0:0:
432,296,102454,6,0,L|468:248,1,55
296,220,102681,2,0,L|344:180,1,55
460,72,102908,2,0,L|416:28,1,55
244,80,103136,2,0,L|304:96,1,55
208,224,103363,2,0,L|136:232,1,55
68,336,103590,2,0,L|128:368,1,55
304,356,103818,1,0,0:0:0:0:
360,292,103931,1,0,0:0:0:0:
392,368,104045,1,0,0:0:0:0:
448,136,104499,5,0,0:0:0:0:
344,136,104613,1,0,0:0:0:0:
388,52,104727,2,0,P|344:16|336:16,1,55
256,56,104954,1,0,0:0:0:0:
256,160,105068,2,0,L|252:232,1,55
176,268,105295,2,0,L|196:340,1,55
296,340,105522,5,0,0:0:0:0:
48,192,105863,5,0,0:0:0:0:
160,168,105977,1,0,0:0:0:0:
120,80,106090,2,0,L|176:52,1,55
276,72,106318,1,0,0:0:0:0:
332,156,106431,1,0,0:0:0:0:
376,72,106545,2,0,L|444:36,1,55
432,136,106772,2,0,L|508:152,1,55
452,240,106999,5,0,0:0:0:0:
256,192,107113,12,0,107908,0:0:0:0:
352,360,108136,5,0,0:0:0:0:
296,276,108249,1,0,0:0:0:0:
408,256,108363,2,0,L|388:200,1,55
304,160,108590,1,0,0:0:0:0:
320,52,108704,2,0,L|372:24,1,55
440,88,108931,1,0,0:0:0:0:
488,168,109045,2,0,L|488:232,1,55
448,300,109272,5,0,0:0:0:0:
364,248,109386,1,0,0:0:0:0:
368,348,109499,1,0,0:0:0:0:
256,192,109727,12,0,111318,0:0:0:0:
256,188,111545,5,0,0:0:0:0:
120,112,111772,2,0,B|168:80|168:80|176:36|176:36|240:72|240:72|240:80,1,142.99999345398
344,212,112227,2,0,B|296:264|296:264|300:300|300:300|248:308,1,142.99999345398
384,348,112681,2,0,B|420:344|420:344|412:312|412:312|468:264,1,142.99999345398
290,116,113136,6,0,L|206:164,1,71.4999967269899
104,164,113363,1,0,0:0:0:0:
252,272,113477,1,0,0:0:0:0:
132,296,113590,1,0,0:0:0:0:
228,152,113704,1,0,0:0:0:0:
276,52,113818,2,0,L|344:24,1,71.4999967269899
148,32,114045,2,0,L|88:76,1,71.4999967269899
90,74,114272,6,0,P|72:164|132:248,1,142.99999345398
228,160,114613,1,0,0:0:0:0:
248,192,114727,5,0,0:0:0:0:
400,312,114840,2,0,L|424:224,1,71.4999967269899
424,128,115068,1,0,0:0:0:0:
400,88,115181,1,0,0:0:0:0:
209,35,115295,1,0,0:0:0:0:
160,96,115408,2,0,P|208:168|200:240,1,142.99999345398
424,244,115749,6,0,P|452:176|448:164,1,71.4999967269899
416,116,115977,1,0,0:0:0:0:
184,48,116090,2,0,P|120:116|40:132,1,142.99999345398
176,308,116431,2,0,P|228:364|232:364,1,71.4999967269899
288,336,116658,1,0,0:0:0:0:
328,320,116772,1,0,0:0:0:0:
368,300,116886,1,0,0:0:0:0:
408,276,116999,1,0,0:0:0:0:
388,80,117227,6,0,L|432:24,1,71.4999967269899
228,128,117454,1,0,0:0:0:0:
284,328,117681,2,0,L|228:384,1,71.4999967269899
84,348,117908,1,0,0:0:0:0:
56,136,118136,2,0,L|80:52,1,71.4999967269899
244,192,118363,6,0,B|308:224|308:224|380:208|380:208|348:272|348:272|416:252,1,285.99998690796
340,64,119272,1,0,0:0:0:0:
296,308,119499,1,0,0:0:0:0:
344,300,119613,1,0,0:0:0:0:
388,288,119727,1,0,0:0:0:0:
176,168,119954,5,0,0:0:0:0:
432,196,120181,1,0,0:0:0:0:
440,156,120295,1,0,0:0:0:0:
432,112,120408,5,0,0:0:0:0:
408,72,120522,1,0,0:0:0:0:
204,112,120636,2,0,B|148:64|100:72|100:72|84:40,1,142.99999345398
256,184,121090,1,0,0:0:0:0:
40,192,121318,1,0,0:0:0:0:
64,160,121431,1,0,0:0:0:0:
104,140,121545,1,0,0:0:0:0:
264,184,121772,6,0,L|268:104,1,71.4999967269899
424,28,121999,2,0,L|460:124,1,71.4999967269899
456,292,122227,2,0,L|416:376,1,71.4999967269899
244,144,122454,2,0,P|204:220|192:300,1,142.99999345398
224,316,122795,1,0,0:0:0:0:
444,144,122908,5,0,0:0:0:0:
424,188,123022,5,0,0:0:0:0:
376,208,123136,1,0,0:0:0:0:
325,210,123249,1,0,0:0:0:0:
183,71,123363,2,0,P|251:31|315:47,1,142.99999345398
402,87,123704,1,0,0:0:0:0:
320,276,123818,2,0,P|400:292|472:280,1,142.99999345398
392,232,124158,6,0,P|368:156|380:128,1,71.4999967269899
408,112,124386,1,0,0:0:0:0:
360,92,124499,1,0,0:0:0:0:
308,80,124613,1,0,0:0:0:0:
92,144,124727,2,0,L|124:292,1,142.99999345398
376,152,125181,1,0,0:0:0:0:
260,308,125408,5,0,0:0:0:0:
216,320,125522,1,0,0:0:0:0:
176,192,125636,6,0,L|240:120,1,71.4999967269899
344,48,125863,2,0,L|400:100,1,71.4999967269899
160,212,126090,5,0,0:0:0:0:
240,212,126204,1,0,0:0:0:0:
200,80,126318,1,0,0:0:0:0:
344,156,126431,1,0,0:0:0:0:
412,48,126545,1,0,0:0:0:0:
336,56,126658,1,0,0:0:0:0:
448,164,126772,6,0,B|476:96|476:96|492:184,1,142.99999345398
364,276,127113,2,0,B|288:304|288:304|276:332|276:332|208:352,1,142.99999345398
76,68,127454,1,0,0:0:0:0:
92,248,127568,1,0,0:0:0:0:
240,340,127681,1,0,0:0:0:0:
220,108,127908,5,0,0:0:0:0:
352,220,128022,1,0,0:0:0:0:
256,88,128136,1,0,0:0:0:0:
372,196,128249,1,0,0:0:0:0:
284,64,128363,1,0,0:0:0:0:
256,88,128477,1,0,0:0:0:0:
84,88,128590,6,0,P|112:164|120:168,1,71.4999967269899
292,216,128818,2,0,P|352:256|360:256,2,71.4999967269899
388,240,129158,1,0,0:0:0:0:
416,40,129272,1,0,0:0:0:0:
320,144,129386,1,0,0:0:0:0:
168,172,129499,1,0,0:0:0:0:
456,232,129727,1,0,0:0:0:0:
452,284,129840,6,0,L|372:304,1,71.4999967269899
208,288,130068,2,0,L|208:212,1,71.4999967269899
300,116,130295,1,0,0:0:0:0:
424,180,130408,2,0,B|476:124|500:104|500:104|512:60,1,142.99999345398
376,32,130749,5,0,0:0:0:0:
340,192,130863,1,0,0:0:0:0:
284,84,130977,1,0,0:0:0:0:
424,152,131090,1,0,0:0:0:0:
304,224,131204,1,0,0:0:0:0:
248,120,131318,1,0,0:0:0:0:
104,136,131431,6,0,L|56:200,1,71.4999967269899
336,328,131772,5,0,0:0:0:0:
84,232,131999,1,0,0:0:0:0:
308,52,132227,1,0,0:0:0:0:
308,52,132340,1,0,0:0:0:0:
308,52,132454,1,0,0:0:0:0:
460,316,132681,1,0,0:0:0:0:
128,328,132908,6,0,L|208:252,2,110
104,128,133590,1,0,0:0:0:0:
316,52,133818,1,0,0:0:0:0:
412,112,134045,2,0,L|352:200,1,82.5000031471254
464,260,134272,5,0,0:0:0:0:
324,368,134386,1,0,0:0:0:0:
424,364,134499,2,0,L|368:280,1,82.5000031471254
200,260,134727,2,0,B|244:332|244:332|232:376|232:376|168:380,1,165.000006294251
320,252,135068,1,0,0:0:0:0:
196,192,135181,6,0,B|184:168|164:160|164:160|136:176|132:208,1,82.5000031471254
56,84,135408,2,0,B|68:60|84:52|84:52|100:60|120:92,1,82.5000031471254
220,84,135636,2,0,B|228:64|248:52|248:52|268:64|288:96,1,82.5000031471254
324,172,135863,2,0,B|332:152|356:136|356:136|376:152|392:184,1,82.5000031471254
448,276,136090,2,0,B|432:256|412:248|412:248|392:260|384:292,1,82.5000031471254
272,284,136318,1,0,0:0:0:0:
208,192,136431,1,0,0:0:0:0:
208,192,136545,1,0,0:0:0:0:
424,364,136772,5,0,0:0:0:0:
444,72,136999,1,0,0:0:0:0:
328,80,137113,2,0,P|272:144|272:156,1,82.5000031471254
316,304,137340,1,0,0:0:0:0:
136,192,137454,2,0,L|100:272,1,82.5000031471254
304,124,137681,6,0,L|232:72,1,82.5000031471254
360,276,137908,1,0,0:0:0:0:
232,160,138022,2,0,B|316:124|284:72|284:72|348:16,1,165.000006294251
116,56,138363,1,0,0:0:0:0:
112,280,138477,2,0,B|124:244|184:288|148:176|188:208,1,82.5000031471254
236,92,138704,2,0,B|260:112|284:52|320:96|328:88,1,82.5000031471254
380,128,138931,1,0,0:0:0:0:
336,272,139045,5,0,0:0:0:0:
380,128,139158,1,0,0:0:0:0:
448,272,139272,1,0,0:0:0:0:
380,128,139386,1,0,0:0:0:0:
236,32,139499,1,0,0:0:0:0:
380,128,139613,1,0,0:0:0:0:
240,192,139727,5,0,0:0:0:0:
184,192,139840,1,0,0:0:0:0:
136,192,139954,1,0,0:0:0:0:
84,192,140068,1,0,0:0:0:0:
240,192,140181,6,0,B|328:208|380:188|304:144|304:144|284:152,1,165.000006294251
192,84,140522,2,0,L|252:24,1,82.5000031471254
384,60,140749,2,0,L|448:116,2,82.5000031471254
408,220,141090,2,0,L|348:296,1,82.5000031471254
200,288,141318,2,0,L|140:208,1,82.5000031471254
232,92,141545,6,0,L|312:24,1,82.5000031471254
436,112,141772,2,0,L|484:192,1,82.5000031471254
400,232,141999,1,0,0:0:0:0:
392,320,142113,1,0,0:0:0:0:
472,352,142227,1,0,0:0:0:0:
348,288,142340,1,0,0:0:0:0:
340,160,142454,6,0,B|352:92|352:92|320:44|384:28|384:80,1,165.000006294251
472,260,142795,2,0,B|448:192|448:192|392:188|432:120|456:168,1,165.000006294251
272,228,143136,2,0,B|244:160|244:160|196:144|232:80|268:136,1,165.000006294251
160,224,143477,1,0,0:0:0:0:
160,224,143704,1,0,0:0:0:0:
252,132,143818,2,0,L|248:220,1,82.5000031471254
300,364,144045,2,0,L|264:280,1,82.5000031471254
344,192,144272,5,0,0:0:0:0:
480,192,144386,1,0,0:0:0:0:
412,108,144499,2,0,B|376:40|376:40|336:32|336:32|300:0,1,165.000006294251
204,80,144840,2,0,B|172:116|224:132|192:176,2,82.5000031471254
316,264,145181,5,0,0:0:0:0:
228,272,145295,1,0,0:0:0:0:
136,188,145408,2,0,B|184:180|188:124|188:124|248:124|260:60,1,165.000006294251
396,44,145749,1,0,0:0:0:0:
288,124,145863,2,0,B|284:172|284:172|324:216,1,82.5000031471254
432,256,146090,5,0,0:0:0:0:
256,308,146204,1,0,0:0:0:0:
412,336,146318,1,0,0:0:0:0:
308,184,146431,1,0,0:0:0:0:
396,172,146545,5,0,0:0:0:0:
396,172,146658,1,0,0:0:0:0:
328,40,146772,2,0,P|264:96|264:108,1,82.5000031471254
156,32,146999,2,0,P|112:104|116:112,1,82.5000031471254
48,200,147227,2,0,P|32:280|44:292,1,82.5000031471254
212,280,147454,2,0,B|328:256|328:256|384:284,1,165.000006294251
288,72,147908,5,0,0:0:0:0:
440,124,148022,2,0,L|360:96,2,82.5000031471254
248,184,148363,2,0,P|264:268|336:324,1,165.000006294251
160,184,148704,1,0,0:0:0:0:
292,64,148818,6,0,L|384:64,1,82.5000031471254
340,208,149045,2,0,L|236:208,1,82.5000031471254
124,328,149272,2,0,L|216:328,1,82.5000031471254
108,64,149499,2,0,B|136:152|136:152|112:180|112:180|160:184,2,165.000006294251
360,68,150068,5,0,0:0:0:0:
216,260,150181,1,0,0:0:0:0:
336,152,150295,1,0,0:0:0:0:
328,256,150408,2,0,L|324:348,1,82.5000031471254
44,264,150636,1,0,0:0:0:0:
96,96,150749,2,0,L|196:48,1,82.5000031471254
336,220,150977,2,0,B|360:176|360:176|464:120,2,165.000006294251
461,121,151545,5,0,0:0:0:0:
260,44,151658,5,0,0:0:0:0:
264,248,151772,1,0,0:0:0:0:
124,132,151886,1,0,0:0:0:0:
144,324,151999,2,0,L|224:272,1,82.5000031471254
388,184,152227,2,0,B|416:264|416:264|380:276|380:276|360:232,1,165.000006294251
396,44,152568,6,0,P|456:112|456:120,2,82.5000031471254
240,124,152908,1,0,0:0:0:0:
240,124,153022,1,0,0:0:0:0:
416,288,153135,1,0,0:0:0:0:
416,288,153249,1,0,0:0:0:0:
88,188,153363,6,0,P|136:276|208:308,1,165.000006294251
344,284,153704,2,0,P|416:208|412:144,1,165.000006294251
316,48,154045,2,0,P|220:24|148:72,1,165.000006294251
228,128,154386,1,0,0:0:0:0:
296,196,154499,1,0,0:0:0:0:
368,260,154613,1,0,0:0:0:0:
280,344,154727,1,0,0:0:0:0:
176,344,154840,1,0,0:0:0:0:
160,244,154954,1,0,0:0:0:0:
68,192,155068,1,0,0:0:0:0:
256,128,155181,6,0,L|320:56,1,82.5000031471254
384,252,155408,2,0,P|456:192|480:120,1,165.000006294251
144,200,155749,2,0,P|184:280|224:288,3,82.5000031471254
292,172,156204,2,0,L|320:84,1,82.5000031471254
344,328,156431,5,0,0:0:0:0:
448,276,156545,1,0,0:0:0:0:
492,148,156658,1,0,0:0:0:0:
272,60,156772,2,0,P|208:112|208:120,1,82.5000031471254
400,108,156999,6,0,L|440:136,3,41.2500015735627
324,188,157227,2,0,L|292:216,3,41.2500015735627
180,196,157454,2,0,L|176:148,3,41.2500015735627
188,56,157681,2,0,L|240:48,3,41.2500015735627
240,152,157908,6,0,L|304:216,1,82.5000031471254
240,152,158136,2,0,P|336:136|376:80,1,165.000006294251
374,85,158477,1,0,0:0:0:0:
374,85,158590,1,0,0:0:0:0:
374,85,158704,1,0,0:0:0:0:
112,80,158818,1,0,0:0:0:0:
264,288,159272,1,0,0:0:0:0:
380,80,159727,5,0,0:0:0:0:
464,176,159954,1,0,0:0:0:0:
100,192,160181,5,0,0:0:0:0:
264,56,160408,1,0,0:0:0:0:
452,228,160636,1,0,0:0:0:0:
256,192,160749,12,0,162454,0:0:0:0:
112,184,162909,5,0,0:0:0:0:
288,100,163136,2,0,P|380:72|416:88,2,82.5000031471254
280,136,163477,1,0,0:0:0:0:
184,308,163704,1,0,0:0:0:0:
364,272,163818,1,0,0:0:0:0:
296,356,163931,1,0,0:0:0:0:
276,312,164045,6,0,B|316:256|316:256|396:320,1,165.000006294251
424,148,164499,6,0,L|352:64,1,82.5000031471254
292,212,164727,1,0,0:0:0:0:
208,136,164840,2,0,L|168:216,2,82.5000031471254
232,100,165181,1,0,0:0:0:0:
132,288,165295,1,0,0:0:0:0:
316,348,165408,1,0,0:0:0:0:
208,368,165522,1,0,0:0:0:0:
232,324,165636,6,0,B|232:288|260:244|260:244|300:288|344:264,1,165.000006294251
384,144,166090,1,0,0:0:0:0:
152,136,166318,6,0,L|228:100,1,82.5000031471254
136,268,166545,2,0,L|228:244,1,82.5000031471254
260,116,166772,2,0,L|308:36,2,82.5000031471254
360,264,167113,1,0,0:0:0:0:
484,168,167227,1,0,0:0:0:0:
468,268,167340,1,0,0:0:0:0:
432,232,167454,6,0,B|384:188|384:188|420:144|444:108|400:100,1,165.000006294251
336,64,167908,1,0,0:0:0:0:
336,64,168022,1,0,0:0:0:0:
76,164,168136,1,0,0:0:0:0:
76,164,168249,1,0,0:0:0:0:
336,216,168363,1,0,0:0:0:0:
336,216,168477,1,0,0:0:0:0:
200,276,168590,1,0,0:0:0:0:
200,276,168704,1,0,0:0:0:0:
352,336,168818,1,0,0:0:0:0:
352,336,168931,1,0,0:0:0:0:
352,336,169045,6,0,P|432:300|432:292,1,82.5000031471254
144,188,169272,1,0,0:0:0:0:
452,64,169499,1,0,0:0:0:0:
224,160,169727,6,0,L|288:84,1,82.5000031471254
332,224,169954,1,0,0:0:0:0:
452,184,170068,2,0,L|432:96,2,82.5000031471254
464,228,170408,1,0,0:0:0:0:
336,316,170522,2,0,L|304:224,1,82.5000031471254
312,48,170749,1,0,0:0:0:0:
128,116,170863,1,0,0:0:0:0:
216,44,170976,1,0,0:0:0:0:
232,80,171090,6,0,B|252:140|200:160|200:160|240:188|276:180,1,165.000006294251
108,256,171545,6,0,B|84:244|84:244|100:212|100:212|56:188,1,82.5000031471254
160,84,171772,1,0,0:0:0:0:
256,192,171886,2,0,B|232:216|232:216|256:240|256:240|228:256,1,82.5000031471254
340,340,172113,1,0,0:0:0:0:
400,244,172227,2,0,B|380:224|380:224|412:200|412:200|380:156,1,82.5000031471254
480,84,172454,1,0,0:0:0:0:
216,24,172568,1,0,0:0:0:0:
92,176,172681,1,0,0:0:0:0:
120,72,172795,1,0,0:0:0:0:
160,104,172908,6,0,B|216:156|216:156|272:168|244:80,1,165.000006294251
208,328,173363,5,0,0:0:0:0:
256,164,173590,2,0,B|264:144|280:128|280:128|312:144|328:176,1,82.5000031471254
412,156,173818,1,0,0:0:0:0:
136,160,174045,1,0,0:0:0:0:
160,124,174158,1,0,0:0:0:0:
196,96,174272,1,0,0:0:0:0:
240,80,174386,1,0,0:0:0:0:
268,112,174499,2,0,L|348:152,1,82.5000031471254
124,200,174727,6,0,L|216:212,1,82.5000031471254
252,220,174954,1,0,0:0:0:0:
300,228,175181,5,0,0:0:0:0:
344,228,175295,1,0,0:0:0:0:
384,216,175408,2,0,P|448:164|448:160,1,82.5000031471254
436,136,175636,1,0,0:0:0:0:
424,88,175749,5,0,0:0:0:0:
384,56,175863,1,0,0:0:0:0:
332,60,175977,2,0,P|260:4|248:8,2,82.5000031471254
280,76,176318,1,0,0:0:0:0:
240,96,176431,2,0,P|180:152|180:156,3,82.5000031471254
384,168,183818,5,0,0:0:0:0:
252,344,184045,1,0,0:0:0:0:
196,204,184272,2,0,P|200:108|224:32,1,165.000006294251
184,20,184613,1,0,0:0:0:0:
92,184,184727,1,0,0:0:0:0:
260,352,184954,1,0,0:0:0:0:
276,208,185068,5,0,0:0:0:0:
292,168,185181,2,0,P|304:72|292:4,1,165.000006294251
80,180,185636,1,0,0:0:0:0:
156,312,185863,6,0,L|228:364,1,82.5000031471254
324,356,186090,1,0,0:0:0:0:
444,180,186318,1,0,0:0:0:0:
224,352,186545,1,0,0:0:0:0:
388,324,186772,6,0,L|312:364,1,82.5000031471254
168,336,186999,6,0,P|144:256|164:176,1,165.000006294251
296,256,187340,6,0,P|340:176|344:100,1,165.000006294251
240,160,187681,6,0,P|204:76|224:4,1,165.000006294251
296,28,188136,1,0,0:0:0:0:
328,108,188363,1,0,0:0:0:0:
260,160,188590,1,0,0:0:0:0:
184,112,188818,1,0,0:0:0:0:
124,184,189045,1,0,0:0:0:0:
180,252,189272,1,0,0:0:0:0:
256,204,189499,1,0,0:0:0:0:
372,68,189727,6,0,L|420:100,3,55
328,340,190181,2,0,L|268:344,3,55
72,240,190636,2,0,L|52:172,3,55
184,32,191090,2,0,L|240:16,3,55
260,192,191545,5,0,0:0:0:0:
332,192,191772,1,0,0:0:0:0:
404,192,191999,1,0,0:0:0:0:
140,192,192227,2,0,L|212:192,1,55
332,192,192454,1,0,0:0:0:0:
260,192,192681,1,0,0:0:0:0:
292,332,192908,6,0,P|196:336|192:308,1,110
76,216,193363,1,0,0:0:0:0:
416,176,193818,2,0,B|444:104|428:40|364:8|268:44,1,220
260,148,194727,1,0,0:0:0:0:
416,64,194954,5,0,0:0:0:0:
448,84,195068,1,0,0:0:0:0:
464,120,195181,2,0,P|440:236|420:252,1,110
208,248,195522,2,0,L|276:324,1,55
292,96,195749,2,0,L|268:152,1,55
144,144,195977,1,0,0:0:0:0:
320,24,196090,1,0,0:0:0:0:
304,200,196204,5,0,0:0:0:0:
424,92,196318,2,0,L|460:144,2,55
304,32,196658,1,0,0:0:0:0:
204,228,196772,1,0,0:0:0:0:
172,216,196886,1,0,0:0:0:0:
136,200,196999,6,0,P|128:144|156:92,1,110
176,248,197340,1,0,0:0:0:0:
48,348,197454,2,0,L|88:276,1,55
252,176,197681,2,0,L|216:120,1,55
224,304,197908,2,0,P|304:324|368:308,1,110
216,180,198249,1,0,0:0:0:0:
408,80,198363,5,0,0:0:0:0:
320,92,198477,2,0,L|352:152,1,55
488,80,198704,1,0,0:0:0:0:
384,224,198818,5,0,0:0:0:0:
384,224,198931,1,0,0:0:0:0:
376,220,199045,1,0,0:0:0:0:
124,136,199158,2,0,P|164:76|232:52,1,110
192,232,199499,2,0,B|252:244|252:244|300:224,1,110
120,284,199840,1,0,0:0:0:0:
68,112,199954,2,0,L|76:192,1,55
304,152,200181,2,0,B|356:136|344:76|344:76|376:40,1,110
392,48,200522,1,0,0:0:0:0:
252,216,200636,5,0,0:0:0:0:
368,212,200749,1,0,0:0:0:0:
308,104,200863,1,0,0:0:0:0:
252,216,200977,5,0,0:0:0:0:
252,216,201090,2,0,P|288:280|272:320,1,110
124,184,201431,1,0,0:0:0:0:
224,76,201545,2,0,P|288:36|336:52,1,110
320,240,201886,1,0,0:0:0:0:
168,168,201999,2,0,P|168:112|196:56,1,110
356,120,202340,1,0,0:0:0:0:
304,264,202454,6,0,L|356:316,1,55
264,120,202681,2,0,L|200:120,1,55
96,24,202908,2,0,L|100:92,1,55
112,264,203136,2,0,L|36:268,1,55
304,224,203363,5,0,0:0:0:0:
160,264,203477,1,0,0:0:0:0:
304,264,203590,1,0,0:0:0:0:
168,300,203704,1,0,0:0:0:0:
304,304,203818,2,0,P|368:256|372:192,1,110
172,156,204272,5,0,0:0:0:0:
388,84,204386,2,0,P|352:32|348:28,2,55
360,160,204727,1,0,0:0:0:0:
344,248,204840,2,0,L|292:216,2,55
432,228,205181,1,0,0:0:0:0:
416,136,205295,6,0,L|464:96,1,55
328,128,205522,2,0,L|272:128,1,55
352,216,205749,1,0,0:0:0:0:
288,272,205863,2,0,L|328:312,2,55
80,84,206318,1,0,0:0:0:0:
256,28,206431,6,0,P|316:40|372:16,1,110
252,212,206772,1,0,0:0:0:0:
440,56,206999,2,0,L|480:104,1,55
336,284,207227,2,0,L|272:316,1,55
168,192,207454,1,0,0:0:0:0:
252,272,207568,1,0,0:0:0:0:
96,280,207681,6,0,P|80:340|132:380,1,110
248,120,208136,2,0,P|276:64|236:16,1,110
144,192,208590,2,0,P|88:224|48:196,1,110
352,192,209045,2,0,L|408:168,1,55
472,200,209272,1,0,0:0:0:0:
376,292,209386,5,0,0:0:0:0:
216,272,209499,1,0,0:0:0:0:
136,136,209613,1,0,0:0:0:0:
316,108,209727,6,0,L|368:44,1,55
180,56,209954,1,0,0:0:0:0:
128,216,210068,2,0,L|184:248,2,55
296,168,210408,2,0,P|320:112|344:56,1,110
152,88,210749,1,0,0:0:0:0:
296,168,210863,2,0,L|368:148,1,55
152,88,211090,5,0,0:0:0:0:
232,172,211204,1,0,0:0:0:0:
344,152,211318,2,0,L|400:132,1,55
336,300,211545,6,0,P|312:360|244:384,1,110
208,152,211886,1,0,0:0:0:0:
344,120,211999,2,0,P|284:88|216:96,1,110
288,248,212340,1,0,0:0:0:0:
144,180,212454,2,0,P|120:256|144:304,1,110
276,212,212795,1,0,0:0:0:0:
272,360,212908,2,0,P|348:360|404:328,1,110
232,240,213249,5,0,0:0:0:0:
352,92,213363,2,0,L|300:56,1,55
120,124,213590,2,0,L|104:180,1,55
368,252,213818,2,0,L|296:216,1,55
196,324,214045,2,0,L|192:380,1,55
368,320,214272,5,0,0:0:0:0:
432,240,214386,1,0,0:0:0:0:
192,248,214499,1,0,0:0:0:0:
344,128,214727,1,0,0:0:0:0:
396,48,214954,5,0,0:0:0:0:
364,24,215068,1,0,0:0:0:0:
320,16,215181,2,0,P|264:32|228:76,1,110
304,176,215522,1,0,0:0:0:0:
108,184,215636,2,0,L|136:128,1,55
208,188,215863,2,0,L|236:136,1,55
264,344,216090,6,0,L|388:336,1,110
124,228,216431,1,0,0:0:0:0:
304,224,216545,2,0,L|264:168,1,55
212,232,216772,2,0,L|192:172,1,55
368,120,216999,6,0,P|312:60|252:56,1,110
316,268,217340,1,0,0:0:0:0:
440,344,217454,2,0,L|500:344,1,55
304,356,217681,2,0,L|372:352,1,55
216,352,217908,5,0,0:0:0:0:
160,296,218022,1,0,0:0:0:0:
116,168,218136,2,0,L|132:232,1,55
384,160,218363,5,0,0:0:0:0:
360,120,218477,1,0,0:0:0:0:
332,92,218590,1,0,0:0:0:0:
256,192,218818,12,0,220636,0:0:0:0:
300,192,220863,5,0,0:0:0:0:
300,192,221090,1,0,0:0:0:0:
300,192,221318,1,0,0:0:0:0:
300,192,221545,1,0,0:0:0:0:
300,192,221772,1,0,0:0:0:0:
300,192,221999,1,0,0:0:0:0:
300,192,222227,1,0,0:0:0:0:
168,112,222454,6,0,P|224:64|280:56,1,110
412,220,222908,1,0,0:0:0:0:
172,256,223022,1,0,0:0:0:0:
128,256,223136,1,0,0:0:0:0:
368,220,223249,1,0,0:0:0:0:
280,104,223363,6,0,L|228:56,1,55
276,284,223590,1,0,0:0:0:0:
96,168,223704,1,0,0:0:0:0:
128,136,223818,2,0,P|192:120|236:136,1,110
392,308,224272,6,0,L|292:368,1,110
252,344,224613,1,0,0:0:0:0:
136,232,224727,1,0,0:0:0:0:
396,104,224840,1,0,0:0:0:0:
424,80,224954,1,0,0:0:0:0:
172,212,225068,1,0,0:0:0:0:
328,280,225181,6,0,L|388:276,1,55
308,136,225408,1,0,0:0:0:0:
96,288,225522,1,0,0:0:0:0:
128,308,225636,2,0,P|192:312|248:284,1,110
236,112,226090,6,0,B|216:56|216:56|188:104,1,110
268,112,226431,1,0,0:0:0:0:
268,328,226545,1,0,0:0:0:0:
400,196,226658,1,0,0:0:0:0:
256,72,226772,1,0,0:0:0:0:
120,216,226886,1,0,0:0:0:0:
168,284,226999,6,0,L|236:256,1,55
240,228,227227,1,0,0:0:0:0:
480,128,227340,1,0,0:0:0:0:
284,224,227454,2,0,L|400:164,1,110
248,80,227908,1,0,0:0:0:0:
172,268,228136,6,0,B|260:60|260:60|352:296,1,440
338,259,229272,1,0,0:0:0:0:
308,176,229499,2,0,L|192:176,1,110
198,176,229954,1,0,0:0:0:0:
260,296,230181,5,0,0:0:0:0:
160,296,230295,2,0,L|192:368,1,55
344,296,230522,1,0,0:0:0:0:
80,296,230636,2,0,P|48:244|64:184,1,110
92,176,230977,1,0,0:0:0:0:
380,216,231090,5,0,0:0:0:0:
292,216,231204,2,0,L|320:160,1,55
464,216,231431,1,0,0:0:0:0:
204,220,231545,2,0,P|192:160|212:112,1,110
248,108,231886,1,0,0:0:0:0:
224,72,231999,5,0,0:0:0:0:
132,72,232113,2,0,L|96:28,1,55
316,68,232340,1,0,0:0:0:0:
36,88,232454,2,0,L|64:204,1,110
100,216,232795,1,0,0:0:0:0:
404,184,232908,6,0,L|428:68,1,110
188,308,233363,6,0,L|160:72,1,230.99999295044
208,80,234045,2,0,L|364:308,1,230.99999295044
388,276,234727,2,0,L|376:40,1,230.99999295044
256,192,236999,12,0,239272,0:0:0:0:
