osu file format v14

[General]
AudioFilename: Promise.mp3
AudioLeadIn: 0
PreviewTime: 109884
Countdown: 0
SampleSet: Soft
StackLeniency: 0.7
Mode: 0
LetterboxInBreaks: 0
WidescreenStoryboard: 1

[Editor]
Bookmarks: 22119,44062,66005,87948,109891,131834,153777,175719,197662,208634,230577,252519,274462,296405
DistanceSpacing: 1.1
BeatDivisor: 4
GridSize: 4
TimelineZoom: 1.3

[Metadata]
Title:promise
TitleUnicode:promise
Artist:gya9
ArtistUnicode:gya9
Creator:Esti
Version:Affiance
Source:
Tags:RLC xlni jcore j-core hardcore electronic J-NERATION
BeatmapID:1049883
BeatmapSetID:492861

[Difficulty]
HPDrainRate:6.5
CircleSize:4
OverallDifficulty:8
ApproachRate:9.2
SliderMultiplier:1.9
SliderTickRate:1

[Events]
//Background and Video events
0,0,"-.jpg",0,0
//Break Periods
//Storyboard Layer 0 (Background)
//Storyboard Layer 1 (Fail)
//Storyboard Layer 2 (Pass)
//Storyboard Layer 3 (Foreground)
//Storyboard Sound Samples

[TimingPoints]
187,342.857142857143,4,2,0,50,1,0
187,-117.647058823529,4,2,0,40,0,0
11158,-117.647058823529,4,2,0,50,0,0
21615,-100,4,2,0,75,0,0
44072,-100,4,2,0,80,0,0
64644,-133.333333333333,4,2,0,60,0,0
66015,-133.333333333333,4,2,2,50,0,0
86244,-142.857142857143,4,2,0,40,0,0
86587,-166.666666666667,4,2,0,30,0,0
86929,-200,4,2,0,20,0,0
87272,-200,4,2,0,10,0,0
87615,-200,4,2,0,5,0,0
87958,-133.333333333333,4,2,1,30,0,0
97815,-133.333333333333,4,2,1,30,0,0
98072,-133.333333333333,4,2,1,40,0,0
98329,-133.333333333333,4,2,1,50,0,0
98587,-100,4,2,0,60,0,0
101672,-83.3333333333333,4,2,0,60,0,0
103044,-71.4285714285714,4,2,0,60,0,0
104415,-66.6666666666667,4,1,0,60,0,0
108529,-100,4,2,0,50,0,0
109215,-100,4,2,0,70,0,0
109901,-100,4,2,0,80,0,1
130472,-100,4,2,0,80,0,0
131844,-133.333333333333,4,2,0,80,0,0
132187,-100,4,2,0,80,0,1
152415,-100,4,2,0,60,0,0
175729,-133.333333333333,4,2,2,50,0,0
195787,-100,4,2,0,50,0,0
203158,-90.9090909090909,4,2,0,60,0,0
205901,-76.9230769230769,4,1,0,80,0,0
208644,-100,4,2,0,80,0,1
218758,-66.6666666666667,4,2,0,80,0,1
219272,-100,4,2,0,80,0,1
229215,-100,4,2,0,80,0,0
230929,-83.3333333333333,4,2,0,80,0,1
240701,-66.6666666666667,4,2,0,80,0,1
241215,-83.3333333333333,4,2,0,80,0,1
251158,-100,4,2,0,70,0,0
273101,-133.333333333333,4,2,0,60,0,0

[Colours]
Combo1 : 255,128,0
Combo2 : 128,255,255
Combo3 : 128,128,192
Combo4 : 221,70,116

[HitObjects]
39,229,187,6,0,L|188:220,1,121.125002310276,4|2,0:0|0:2,0:0:0:0:
188,230,529,1,2,3:0:0:0:
274,168,701,2,0,P|293:208|286:260,1,80.750001540184,2|2,0:2|3:3,0:0:0:0:
199,90,1044,1,2,0:2:0:0:
308,75,1215,2,0,P|353:103|370:140,1,80.750001540184,2|2,3:3|0:2,0:0:0:0:
336,214,1558,5,2,3:3:0:0:
494,31,1901,1,2,3:3:0:0:
336,214,2244,2,0,L|328:297,1,80.750001540184,2|2,3:3|0:2,0:0:0:0:
427,260,2587,2,0,L|419:343,1,80.750001540184,2|2,3:3|0:2,0:0:0:0:
245,261,2929,5,2,3:3:0:0:
107,294,3101,2,0,L|161:282,2,40.375000770092,2|2|2,0:0|0:0|3:3,0:0:0:0:
321,299,3444,1,2,0:0:0:0:
332,268,3529,1,2,0:0:0:0:
333,235,3615,1,2,3:3:0:0:
316,207,3701,1,2,0:0:0:0:
289,188,3787,1,2,0:0:0:0:
334,103,3958,1,2,3:3:0:0:
334,103,4044,1,2,0:0:0:0:
334,103,4129,1,2,0:0:0:0:
188,232,4301,5,2,3:3:0:0:
238,103,4472,2,0,L|225:167,2,40.375000770092,2|0|2,0:0|0:0|3:3,0:0:0:0:
186,322,4815,1,2,0:0:0:0:
158,338,4901,1,2,0:0:0:0:
126,343,4987,1,2,3:3:0:0:
95,334,5072,1,2,0:0:0:0:
70,313,5158,1,2,0:0:0:0:
100,131,5329,1,2,3:0:0:0:
100,131,5415,1,2,0:0:0:0:
100,131,5501,1,2,0:0:0:0:
44,214,5672,6,0,P|98:230|173:210,1,121.125002310276,2|2,3:0|0:0,0:0:0:0:
192,202,6015,1,2,3:0:0:0:
366,173,6187,2,0,P|317:173|280:187,1,80.750001540184,2|2,0:0|3:0,0:0:0:0:
266,276,6529,1,2,0:0:0:0:
216,115,6701,2,0,P|207:75|212:35,1,80.750001540184,2|2,3:0|0:0,0:0:0:0:
447,145,7044,5,2,3:0:0:0:
108,95,7387,1,2,3:0:0:0:
447,145,7729,2,0,L|455:60,1,80.750001540184,2|2,3:0|0:0,0:0:0:0:
359,95,8072,2,0,L|367:10,1,80.750001540184,2|2,3:0|0:0,0:0:0:0:
448,236,8415,5,2,3:0:0:0:
268,145,8587,2,0,L|205:134,2,40.375000770092,2|0|2,0:0|0:0|3:0,0:0:0:0:
350,208,8929,1,2,0:0:0:0:
345,240,9015,1,2,0:0:0:0:
341,272,9101,1,2,3:0:0:0:
337,304,9187,1,2,0:0:0:0:
333,335,9272,1,2,0:0:0:0:
447,311,9444,1,2,3:0:0:0:
240,275,9615,1,2,0:0:0:0:
358,182,9787,6,0,L|371:91,1,80.750001540184,2|2,3:0|0:0,0:0:0:0:
373,78,10044,1,2,0:0:0:0:
257,158,10215,1,2,0:0:0:0:
257,158,10301,1,2,0:0:0:0:
138,73,10472,1,2,3:0:0:0:
138,73,10558,1,2,0:0:0:0:
138,73,10644,2,0,P|183:64|228:76,1,80.750001540184,2|2,0:0|3:0,0:0:0:0:
244,80,10901,2,0,L|240:31,1,40.375000770092,2|2,0:0|0:0,0:0:0:0:
30,233,11158,6,0,L|164:217,1,121.125002310276,2|2,3:3|0:0,0:0:0:0:
251,215,11501,2,0,L|136:229,1,80.750001540184,2|2,3:3|0:0,0:0:0:0:
109,290,11844,6,0,B|83:248|83:248|101:144,1,121.125002310276,2|2,3:3|0:0,0:0:0:0:
213,62,12187,2,0,L|207:162,1,80.750001540184,2|2,3:3|0:0,0:0:0:0:
319,345,12529,6,0,P|326:295|310:251,1,80.750001540184,2|2,3:3|0:0,0:0:0:0:
325,85,12872,2,0,P|316:124|324:163,1,80.750001540184,2|2,3:3|0:0,0:0:0:0:
476,332,13215,5,2,3:3:0:0:
248,299,13387,1,2,0:0:0:0:
248,299,13472,1,2,0:0:0:0:
399,129,13644,1,2,0:0:0:0:
399,129,13729,2,0,L|408:184,1,40.375000770092,2|2,0:0|0:0,0:0:0:0:
431,283,13901,5,2,3:3:0:0:
337,230,14072,1,2,0:0:0:0:
317,234,14158,2,0,L|272:240,1,40.375000770092,2|2,0:0|3:3,0:0:0:0:
209,336,14329,1,2,0:0:0:0:
189,332,14415,2,0,L|144:326,1,40.375000770092,2|2,0:0|0:0,0:0:0:0:
70,227,14587,2,0,L|25:233,2,40.375000770092,2|0|2,3:3|0:0|0:0,0:0:0:0:
249,127,14929,1,2,3:3:0:0:
249,127,15015,1,2,0:0:0:0:
249,127,15101,1,2,0:0:0:0:
42,338,15272,5,2,3:0:0:0:
170,241,15444,1,2,0:0:0:0:
172,221,15529,2,0,P|176:192|184:170,1,40.375000770092,2|2,0:0|0:3,0:0:0:0:
102,145,15701,1,2,0:0:0:0:
100,125,15786,2,0,P|96:96|88:74,1,40.375000770092,2|2,0:0|0:0,0:0:0:0:
262,226,15958,2,0,L|322:232,2,40.375000770092,2|0|2,3:3|0:0|0:0,0:0:0:0:
221,83,16301,1,2,3:3:0:0:
253,58,16387,1,2,0:0:0:0:
292,52,16472,1,2,0:0:0:0:
331,60,16558,1,2,0:0:0:0:
363,84,16644,5,2,3:0:0:0:
417,294,16815,1,2,0:0:0:0:
294,149,16987,1,2,3:0:0:0:
460,20,17158,1,2,0:0:0:0:
385,175,17329,5,2,3:0:0:0:
232,83,17501,1,2,0:0:0:0:
364,265,17672,2,0,P|408:266|448:245,1,80.750001540184,2|2,3:0|0:0,0:0:0:0:
168,166,18015,5,2,3:0:0:0:
209,321,18187,1,2,0:0:0:0:
232,83,18358,1,2,3:0:0:0:
42,139,18529,1,2,0:0:0:0:
265,181,18701,5,2,3:0:0:0:
87,285,18872,1,2,0:0:0:0:
87,285,18958,1,2,0:0:0:0:
94,62,19129,1,2,0:0:0:0:
94,62,19215,1,2,0:0:0:0:
160,185,19387,5,0,3:0:0:0:
198,196,19472,1,2,0:0:0:0:
237,189,19558,1,2,0:0:0:0:
269,165,19644,1,2,0:0:0:0:
288,130,19729,1,0,3:0:0:0:
311,96,19815,1,2,0:0:0:0:
348,80,19901,1,2,0:0:0:0:
388,84,19987,1,2,0:0:0:0:
421,105,20072,6,0,L|480:115,1,40.375000770092,0|2,3:0|0:0,0:0:0:0:
201,110,20244,2,0,L|148:100,2,40.375000770092,2|0|0,0:0|0:0|3:0,0:0:0:0:
363,178,20587,1,2,0:0:0:0:
363,178,20672,1,2,0:0:0:0:
363,178,20758,1,0,3:0:0:0:
261,331,20929,5,2,0:0:0:0:
261,331,21015,2,0,P|260:278|270:237,1,80.750001540184,2|2,0:0|0:0,0:0:0:0:
441,261,21272,2,0,P|442:314|432:355,1,80.750001540184,2|0,0:0|3:0,0:0:0:0:
349,304,21529,1,2,0:0:0:0:
349,304,21615,2,0,L|354:262,10,23.75,2|0|0|0|0|0|0|0|0|0|2,0:0|0:0|0:0|0:0|0:0|0:0|0:0|0:0|0:0|0:0|0:0,0:0:0:0:
348,308,22129,6,0,L|212:328,1,95,6|2,3:3|0:0,0:0:0:0:
168,120,22472,2,0,L|184:236,1,95,0|2,3:3|0:0,0:0:0:0:
132,360,22815,1,2,3:3:0:0:
348,308,22987,1,2,0:0:0:0:
348,308,23072,2,0,B|328:252|328:252|348:160,1,142.5,2|2,0:0|0:0,0:0:0:0:
184,144,23501,5,2,3:3:0:0:
264,320,23672,1,2,0:0:0:0:
424,128,23844,1,2,3:3:0:0:
296,240,24015,1,2,0:0:0:0:
248,60,24187,5,2,3:3:0:0:
424,128,24358,1,2,0:0:0:0:
424,128,24444,1,2,0:0:0:0:
248,208,24615,1,2,0:0:0:0:
248,208,24701,1,2,0:0:0:0:
412,304,24872,5,2,3:3:0:0:
413,174,25044,2,0,L|429:106,2,47.5,2|0|0,0:0|0:0|3:3,0:0:0:0:
312,280,25387,1,2,0:0:0:0:
276,304,25472,1,2,0:0:0:0:
236,308,25558,1,2,3:3:0:0:
196,296,25644,1,2,0:0:0:0:
168,264,25729,1,2,0:0:0:0:
72,136,25901,6,0,L|80:248,1,95,0|2,3:3|0:0,0:0:0:0:
252,204,26244,1,2,3:3:0:0:
220,48,26415,1,2,0:0:0:0:
220,48,26501,2,0,L|168:64,1,47.5,2|2,0:0|3:3,0:0:0:0:
348,128,26672,2,0,L|288:120,2,47.5,2|0|2,0:0|0:0|0:0,0:0:0:0:
460,56,26929,5,2,3:3:0:0:
460,56,27015,1,2,0:0:0:0:
460,56,27101,1,2,0:0:0:0:
348,128,27272,2,0,L|340:264,1,95,0|2,3:3|0:0,0:0:0:0:
440,328,27615,1,2,3:3:0:0:
200,308,27787,1,2,0:0:0:0:
200,308,27872,2,0,P|164:280|152:180,1,142.5,2|2,0:0|0:0,0:0:0:0:
352,128,28301,5,2,3:3:0:0:
248,220,28472,2,2,P|296:224|311:227,1,47.5
476,352,28729,2,2,P|448:352|412:348,1,47.5
208,320,28987,6,0,L|96:336,1,95,2|2,3:3|0:0,0:0:0:0:
352,128,29329,2,0,L|464:144,1,95,2|2,3:3|0:0,0:0:0:0:
404,284,29672,1,2,3:3:0:0:
252,220,29844,1,2,0:0:0:0:
252,220,29929,2,2,B|236:272|236:272|252:368,1,142.5
123,187,30358,5,2,3:3:0:0:
248,220,30529,2,0,L|324:200,2,47.5,2|0|0,0:0|0:0|3:3,0:0:0:0:
164,324,30872,1,2,0:0:0:0:
130,300,30958,1,2,0:0:0:0:
113,265,31043,1,2,3:3:0:0:
109,225,31129,1,2,0:0:0:0:
123,187,31215,1,2,0:0:0:0:
352,128,31387,5,0,3:3:0:0:
164,324,31558,1,2,0:0:0:0:
123,187,31729,2,0,B|108:136|108:136|112:92,1,95,2|2,3:3|0:0,0:0:0:0:
128,24,31987,1,2,0:0:0:0:
128,24,32072,1,2,3:3:0:0:
248,260,32244,6,0,L|304:256,1,47.5,2|2,0:0|0:0,0:0:0:0:
432,280,32415,1,2,3:3:0:0:
436,296,32501,2,2,L|448:360,1,47.5
316,192,32758,5,0,3:3:0:0:
312,204,32844,2,2,L|296:264,1,47.5
432,88,33101,1,2,3:3:0:0:
312,320,33272,1,2,0:0:0:0:
224,128,33444,1,2,3:3:0:0:
452,196,33615,1,2,0:0:0:0:
224,332,33787,5,2,3:3:0:0:
124,184,33958,2,0,L|140:116,2,47.5,2|0|0,0:0|0:0|3:3,0:0:0:0:
328,172,34301,1,2,0:0:0:0:
144,264,34472,5,2,3:3:0:0:
328,348,34644,1,2,0:0:0:0:
232,184,34815,2,0,P|240:124|276:84,1,95,2|2,3:3|0:0,0:0:0:0:
448,196,35158,5,2,3:3:0:0:
224,336,35329,1,2,0:0:0:0:
224,336,35415,1,2,0:0:0:0:
124,184,35587,1,2,0:0:0:0:
124,184,35672,1,2,0:0:0:0:
328,168,35844,5,2,3:3:0:0:
360,292,36015,2,0,L|376:360,2,47.5,2|0|0,0:0|0:0|3:3,0:0:0:0:
200,232,36358,1,2,0:0:0:0:
164,224,36444,1,2,0:0:0:0:
136,216,36529,1,2,3:3:0:0:
104,208,36615,1,2,0:0:0:0:
76,200,36701,1,2,0:0:0:0:
328,160,36872,2,0,B|324:104|324:104|340:64,1,95,0|2,3:3|0:0,0:0:0:0:
200,232,37215,5,2,3:3:0:0:
392,280,37387,1,2,0:0:0:0:
412,288,37472,2,0,L|464:304,1,47.5,0|0,0:0|3:3,0:0:0:0:
168,320,37729,1,2,0:0:0:0:
130,302,37815,1,2,0:0:0:0:
108,269,37900,1,2,3:3:0:0:
98,231,37986,1,2,0:0:0:0:
106,192,38072,1,2,0:0:0:0:
336,156,38244,2,0,L|320:264,1,95,0|2,3:3|0:0,0:0:0:0:
224,104,38587,6,0,L|240:4,1,95,2|2,3:3|0:0,0:0:0:0:
200,232,38929,1,2,3:3:0:0:
436,216,39101,1,2,0:0:0:0:
332,40,39272,1,2,3:3:0:0:
324,196,39444,6,0,L|320:260,2,47.5,2|0|2,0:0|0:0|3:3,0:0:0:0:
152,128,39787,1,2,0:0:0:0:
68,320,39958,1,2,3:3:0:0:
200,228,40129,1,2,0:0:0:0:
104,44,40301,2,0,P|152:36|204:48,1,95,2|2,3:3|0:0,0:0:0:0:
352,208,40644,5,2,3:3:0:0:
288,344,40815,1,2,0:0:0:0:
284,320,40901,2,0,L|276:260,1,47.5,0|2,0:0|3:3,0:0:0:0:
152,128,41158,1,2,0:0:0:0:
348,208,41329,5,2,3:3:0:0:
316,192,41415,1,0,3:0:0:0:
276,184,41501,1,0,3:0:0:0:
240,196,41587,1,0,3:0:0:0:
212,220,41672,1,2,3:3:0:0:
176,240,41758,1,0,3:0:0:0:
136,244,41844,1,0,3:0:0:0:
100,228,41929,1,0,3:0:0:0:
76,196,42015,6,0,L|68:128,1,47.5,2|2,3:3|0:0,0:0:0:0:
288,276,42187,2,0,L|300:348,1,47.5,2|2,3:3|0:0,0:0:0:0:
400,164,42358,2,0,L|340:176,1,47.5,2|2,3:3|0:0,0:0:0:0:
156,152,42529,2,0,L|232:140,1,47.5,2|2,3:0|0:0,0:0:0:0:
408,88,42701,5,0,3:3:0:0:
295,322,42958,1,2,0:3:0:0:
295,322,43044,1,4,0:3:0:0:
135,267,43215,1,2,0:0:0:0:
208,112,43387,2,0,L|232:212,1,95,4|2,0:1|0:0,0:0:0:0:
295,322,43729,2,2,L|280:260,3,47.5
207,117,44072,5,4,0:0:0:0:
135,267,44244,2,0,L|140:205,1,47.5,2|0,0:0|0:0,0:0:0:0:
281,61,44415,2,0,B|300:106|300:106|285:168,1,95,0|2,1:0|0:0,0:0:0:0:
249,223,44672,1,2,0:0:0:0:
249,223,44758,1,4,0:3:0:0:
409,192,44929,2,2,L|353:190,1,47.5
112,124,45101,2,0,L|213:116,1,95,0|2,1:3|0:0,0:0:0:0:
283,107,45358,1,0,0:0:0:0:
419,49,45444,6,0,P|368:36|314:54,1,95,4|2,0:3|0:0,0:0:0:0:
295,240,45787,2,0,B|225:265|225:265|143:246,1,142.5,0|2,1:0|0:0,0:0:0:0:
101,203,46129,1,4,0:3:0:0:
397,118,46301,2,2,L|330:120,1,47.5
243,74,46472,2,0,L|236:177,1,95,0|2,1:0|0:0,0:0:0:0:
235,187,46729,1,2,0:0:0:0:
234,206,46815,5,4,0:3:0:0:
20,282,46987,2,0,L|84:276,1,47.5,2|0,0:0|0:0,0:0:0:0:
156,343,47158,2,0,L|152:228,1,95,0|2,1:0|0:0,0:0:0:0:
148,172,47415,1,2,0:0:0:0:
148,172,47501,1,4,0:3:0:0:
329,119,47672,2,0,L|321:187,1,47.5
266,266,47844,2,0,P|316:276|371:260,1,95,0|2,1:0|0:0,0:0:0:0:
430,240,48101,1,2,0:0:0:0:
465,353,48187,6,0,P|403:359|367:343,1,95,4|2,0:3|0:0,0:0:0:0:
324,54,48529,2,0,B|290:120|290:120|306:187,1,142.5,0|2,1:0|0:0,0:0:0:0:
314,210,48872,2,0,L|384:196,1,47.5,4|2,0:3|0:0,0:0:0:0:
452,111,49044,2,0,L|382:125,1,47.5,2|2,0:0|0:0,0:0:0:0:
326,303,49215,2,0,L|223:287,1,95,0|2,1:0|0:0,0:0:0:0:
213,284,49472,1,2,0:0:0:0:
194,279,49558,5,4,0:3:0:0:
43,301,49729,2,2,L|38:360,1,47.5
118,204,49901,2,0,B|131:159|131:159|118:112,1,95,0|2,1:0|0:0,0:0:0:0:
87,44,50158,1,2,0:0:0:0:
87,44,50244,1,4,0:3:0:0:
256,163,50415,2,0,L|194:173,1,47.5,2|2,0:0|0:0,0:0:0:0:
63,233,50587,2,0,P|123:228|174:250,1,95,0|2,1:0|0:0,0:0:0:0:
225,273,50844,1,0,0:0:0:0:
348,157,50929,6,0,P|288:152|237:174,1,95,4|2,0:3|0:0,0:0:0:0:
103,307,51272,2,0,L|116:157,1,142.5,0|2,1:0|0:0,0:0:0:0:
80,94,51615,1,4,0:3:0:0:
191,226,51787,1,2,0:0:0:0:
22,289,51958,1,0,1:0:0:0:
334,328,52129,1,2,0:0:0:0:
334,328,52215,1,2,0:0:0:0:
334,328,52301,6,0,L|406:329,1,47.5,4|2,0:3|0:0,0:0:0:0:
458,332,52472,1,2,0:0:0:0:
484,168,52644,2,0,B|413:151|413:151|341:184,1,142.5,0|2,1:0|0:0,0:0:0:0:
321,198,52987,2,0,L|329:137,1,47.5,4|2,0:3|0:0,0:0:0:0:
332,64,53158,1,2,0:0:0:0:
197,75,53329,2,0,B|268:92|268:92|340:59,1,142.5,0|2,1:0|0:0,0:0:0:0:
407,31,53672,5,4,0:3:0:0:
241,269,53844,2,0,P|225:222|237:170,1,95,2|0,0:0|1:0,0:0:0:0:
325,216,54187,1,2,0:0:0:0:
325,216,54272,1,2,0:0:0:0:
325,216,54358,1,4,0:3:0:0:
152,135,54529,1,2,0:0:0:0:
165,350,54701,1,0,1:0:0:0:
209,368,54787,1,2,0:0:0:0:
256,368,54872,1,2,0:0:0:0:
298,346,54958,1,2,0:0:0:0:
329,310,55044,5,4,0:3:0:0:
364,175,55215,2,0,P|334:167|310:166,1,47.5,2|2,0:0|0:0,0:0:0:0:
200,246,55387,2,0,P|157:253|85:231,1,95,0|2,1:0|0:0,0:0:0:0:
46,189,55644,1,2,0:0:0:0:
46,189,55729,1,4,0:3:0:0:
308,241,55901,2,2,L|300:171,1,47.5
219,74,56072,2,0,L|211:169,1,95,0|2,1:0|0:0,0:0:0:0:
200,246,56329,1,2,0:0:0:0:
46,189,56415,6,0,P|98:179|153:203,1,95,4|2,0:3|0:0,0:0:0:0:
345,103,56758,2,0,P|276:113|219:73,1,142.5,0|2,1:0|0:0,0:0:0:0:
159,26,57101,1,4,0:3:0:0:
345,103,57272,1,2,0:0:0:0:
235,291,57444,2,0,L|246:187,1,95,0|2,1:0|0:0,0:0:0:0:
248,177,57701,1,2,0:0:0:0:
251,158,57787,5,4,0:3:0:0:
437,64,57958,2,2,L|441:127,1,47.5
482,194,58129,2,0,P|424:204|375:184,1,95,0|2,1:0|0:0,0:0:0:0:
348,128,58387,1,2,0:0:0:0:
348,128,58472,1,4,0:3:0:0:
322,333,58644,2,2,L|326:280,1,47.5
348,128,58815,2,0,P|302:116|256:127,1,95,0|2,1:0|0:0,0:0:0:0:
186,167,59072,1,2,0:0:0:0:
125,49,59158,6,0,P|170:34|236:45,1,95,4|2,0:3|0:0,0:0:0:0:
186,167,59501,2,0,P|130:189|33:162,1,142.5,0|2,1:0|0:0,0:0:0:0:
29,156,59844,2,0,L|28:205,1,47.5,4|2,0:3|0:0,0:0:0:0:
200,307,60015,2,0,L|199:258,1,47.5,2|2,0:0|0:0,0:0:0:0:
108,267,60187,2,0,L|105:380,1,95,0|2,1:0|0:0,0:0:0:0:
105,361,60444,1,2,0:0:0:0:
105,361,60529,5,4,0:3:0:0:
354,76,60701,2,2,P|323:69|288:82,1,47.5
151,175,60872,2,0,P|218:183|272:162,1,95,0|2,1:0|0:0,0:0:0:0:
318,151,61129,1,2,0:0:0:0:
318,151,61215,1,4,0:3:0:0:
215,47,61387,2,2,L|210:111,1,47.5
128,222,61558,2,0,L|121:126,1,95,0|2,1:0|0:0,0:0:0:0:
112,53,61815,1,2,0:0:0:0:
243,176,61901,6,0,P|197:184|151:175,1,95,4|2,0:3|0:0,0:0:0:0:
17,194,62244,2,0,B|83:161|83:161|156:176,1,142.5,0|2,1:0|0:0,0:0:0:0:
177,258,62587,1,4,0:3:0:0:
338,87,62758,1,2,0:0:0:0:
196,97,62929,1,0,1:0:0:0:
343,294,63101,1,2,0:0:0:0:
343,294,63187,1,2,0:0:0:0:
343,294,63272,6,0,L|353:226,1,47.5,4|2,0:3|0:0,0:0:0:0:
363,168,63444,1,2,0:0:0:0:
276,61,63615,2,0,B|281:114|281:114|267:150|267:150|274:208,1,142.5,0|2,1:0|0:0,0:0:0:0:
278,226,63958,2,0,L|216:226,1,47.5,4|2,0:3|0:0,0:0:0:0:
51,283,64129,1,2,0:0:0:0:
146,328,64301,2,0,B|151:274|151:274|137:238|137:238|144:180,1,142.5,0|2,1:0|0:0,0:0:0:0:
158,110,64644,5,4,1:3:0:0:
256,161,64815,1,2,0:0:0:0:
256,161,64987,2,0,P|269:117|250:51,1,106.875004076958,0|2,1:0|0:0,0:0:0:0:
53,63,65501,1,2,0:0:0:0:
53,63,65673,2,0,P|40:107|59:173,1,106.875004076958,0|2,1:0|0:0,0:0:0:0:
152,228,66015,6,0,P|184:248|208:280,1,71.2500027179719,4|0,0:3|0:0,0:0:0:0:
324,344,66358,2,0,P|340:284|336:252,1,71.2500027179719,2|0,0:0|0:0,0:0:0:0:
280,188,66701,1,2,0:0:0:0:
324,96,66872,1,0,0:0:0:0:
476,152,67044,6,0,L|404:160,1,71.2500027179719,2|0,0:0|0:0,0:0:0:0:
168,320,67387,2,0,L|240:312,1,71.2500027179719,2|0,0:0|0:0,0:0:0:0:
300,221,67729,1,2,0:0:0:0:
240,141,67901,1,0,0:0:0:0:
132,153,68072,1,2,0:0:0:0:
52,89,68244,1,0,0:0:0:0:
188,237,68415,2,0,P|180:281|156:317,1,71.2500027179719,2|2,0:0|0:0,0:0:0:0:
132,153,68758,6,0,P|204:141|272:181,1,142.500005435944,2|2,0:0|0:0,0:0:0:0:
304,268,69272,1,0,0:0:0:0:
396,196,69444,2,0,L|388:100,1,71.2500027179719,2|0,0:0|0:0,0:0:0:0:
188,236,69787,2,0,L|200:152,1,71.2500027179719,2|2,0:0|0:0,0:0:0:0:
304,268,70129,6,0,L|312:348,2,71.2500027179719,0|2|2,0:0|0:0|0:0,0:0:0:0:
268,140,70644,1,0,0:0:0:0:
188,236,70815,1,2,0:0:0:0:
92,100,70987,1,0,0:0:0:0:
268,140,71158,2,0,P|304:128|356:136,1,71.2500027179719,2|2,0:0|0:0,0:0:0:0:
208,316,71501,6,0,P|172:328|120:320,1,71.2500027179719,2|0,0:0|0:0,0:0:0:0:
320,260,71844,2,0,L|332:340,1,71.2500027179719,2|0,0:0|0:0,0:0:0:0:
160,216,72187,1,2,0:0:0:0:
268,140,72358,1,0,0:0:0:0:
320,260,72529,2,0,P|368:264|408:252,1,71.2500027179719,2|0,0:0|0:0,0:0:0:0:
396,116,72872,2,0,P|440:100|460:80,1,71.2500027179719,2|0,0:0|0:0,0:0:0:0:
276,71,73215,6,0,P|264:123|276:159,1,71.2500027179719,2|0,0:0|0:0,0:0:0:0:
412,280,73558,1,2,0:0:0:0:
285,210,73729,1,0,0:0:0:0:
244,336,73901,2,0,L|160:328,1,71.2500027179719,2|2,0:0|0:0,0:0:0:0:
412,280,74244,6,0,L|496:272,1,71.2500027179719,2|0,0:0|0:0,0:0:0:0:
285,210,74587,2,0,L|369:202,1,71.2500027179719,2|0,0:0|0:0,0:0:0:0:
244,332,74929,1,2,0:0:0:0:
320,288,75101,1,0,0:0:0:0:
220,148,75272,2,0,L|196:248,1,71.2500027179719,2|0,0:0|0:0,0:0:0:0:
372,48,75615,2,0,L|392:140,1,71.2500027179719,2|0,0:0|0:0,0:0:0:0:
384,308,75958,5,2,0:0:0:0:
436,216,76129,1,0,0:0:0:0:
248,244,76301,1,2,0:0:0:0:
220,148,76472,1,0,0:0:0:0:
296,80,76644,2,0,P|348:84|392:80,1,71.2500027179719,2|2,0:0|0:0,0:0:0:0:
248,244,76987,6,0,P|196:240|152:244,2,71.2500027179719,0|2|0,0:0|0:0|0:0,0:0:0:0:
364,308,77501,1,0,0:0:0:0:
420,208,77672,2,0,L|424:124,1,71.2500027179719,2|0,0:0|0:0,0:0:0:0:
248,244,78015,2,0,L|256:336,1,71.2500027179719,2|0,0:0|0:0,0:0:0:0:
420,208,78358,1,2,0:0:0:0:
288,56,78529,1,0,0:0:0:0:
248,244,78701,5,2,0:0:0:0:
448,296,78872,1,0,0:0:0:0:
332,140,79044,1,2,0:0:0:0:
254,314,79215,1,0,0:0:0:0:
152,216,79387,2,0,P|172:176|196:156,1,71.2500027179719,2|2,0:0|0:0,0:0:0:0:
312,256,79729,2,0,P|259:239|224:228,1,71.2500027179719,2|0,0:0|0:0,0:0:0:0:
96,340,80072,2,0,L|184:320,1,71.2500027179719,2|0,0:0|0:0,0:0:0:0:
248,312,80415,5,2,0:0:0:0:
336,136,80587,1,0,0:0:0:0:
192,28,80758,1,2,0:0:0:0:
240,176,80929,1,2,0:0:0:0:
432,76,81101,1,0,0:0:0:0:
376,276,81272,1,2,0:0:0:0:
148,232,81444,6,0,P|140:276|144:304,1,71.2500027179719,2|0,0:0|0:0,0:0:0:0:
336,164,81787,1,2,0:0:0:0:
112,96,81958,1,0,0:0:0:0:
232,272,82129,1,2,0:0:0:0:
376,80,82301,1,2,0:0:0:0:
265,151,82472,6,0,L|357:167,1,71.2500027179719,2|0,0:0|0:0,0:0:0:0:
488,220,82815,2,0,L|388:236,1,71.2500027179719,2|0,0:0|0:0,0:0:0:0:
232,272,83158,1,2,0:0:0:0:
388,352,83329,1,0,0:0:0:0:
336,160,83501,2,0,P|348:96|360:80,1,71.2500027179719,2|0,0:0|0:0,0:0:0:0:
402,283,83844,2,0,P|390:347|378:363,1,71.2500027179719,2|0,0:0|0:0,0:0:0:0:
220,200,84187,5,2,0:0:0:0:
424,144,84358,1,0,0:0:0:0:
316,300,84529,1,2,0:0:0:0:
212,116,84701,1,0,0:0:0:0:
120,248,84872,2,0,P|156:292|184:304,1,71.2500027179719,2|2,0:0|0:0,0:0:0:0:
228,196,85215,5,2,0:0:0:0:
316,300,85387,1,0,0:0:0:0:
360,144,85558,1,2,0:0:0:0:
164,288,85729,1,0,0:0:0:0:
408,344,85901,2,0,L|396:248,1,71.2500027179719,2|0,0:0|0:0,0:0:0:0:
264,56,86244,6,0,L|276:140,1,66.4999979705811,2|0,0:0|0:0,0:0:0:0:
196,144,86587,2,0,L|232:208,1,56.9999982604981,2|0,0:0|0:0,0:0:0:0:
164,248,86929,2,0,L|212:272,1,47.5,2|0,0:0|0:0,0:0:0:0:
168,296,87272,2,0,L|216:320,1,47.5,2|0,0:0|0:0,0:0:0:0:
176,324,87615,2,0,L|224:348,1,47.5,2|0,0:0|0:0,0:0:0:0:
328,268,87958,6,0,L|284:284,1,35.625001358986,8|2,1:0|0:0,0:0:0:0:
336,172,88215,2,0,L|292:188,1,35.625001358986,8|2,1:0|0:0,0:0:0:0:
340,72,88472,2,0,L|296:88,1,35.625001358986,8|2,0:2|0:0,0:0:0:0:
228,128,88644,1,8,0:0:0:0:
228,128,88729,1,8,0:0:0:0:
228,128,88815,2,0,L|128:116,1,71.2500027179719,12|2,1:2|0:0,0:0:0:0:
80,108,89072,2,0,L|124:100,1,35.625001358986,8|2,0:0|0:0,0:0:0:0:
224,284,89329,6,0,L|220:332,1,35.625001358986,8|2,1:0|0:0,0:0:0:0:
44,204,89587,2,0,L|48:252,1,35.625001358986,8|2,1:0|0:0,0:0:0:0:
228,128,89844,2,0,L|224:176,1,35.625001358986,8|10,0:0|0:0,0:0:0:0:
144,248,90015,1,8,0:0:0:0:
144,248,90101,1,8,0:0:0:0:
144,248,90187,2,0,L|149:153,1,71.2500027179719,12|2,1:0|0:0,0:0:0:0:
287,227,90444,1,2,0:0:0:0:
287,227,90529,6,0,B|339:235|339:235|403:213,1,106.875004076958,12|2,1:0|0:0,0:0:0:0:
476,242,90958,2,0,L|479:168,1,71.2500027179719,8|2,0:0|0:0,0:0:0:0:
399,73,91215,1,8,0:0:0:0:
399,73,91301,1,8,0:0:0:0:
399,73,91387,2,8,L|401:123,1,35.625001358986,8|2,1:0|0:0,0:0:0:0:
480,152,91558,1,12,0:0:0:0:
316,120,91729,2,0,L|276:116,2,35.625001358986,8|2|8,0:0|0:0|0:0,0:0:0:0:
117,350,92072,5,8,1:0:0:0:
121,340,92158,1,10,0:0:0:0:
124,330,92244,1,10,0:0:0:0:
128,320,92329,1,10,0:0:0:0:
187,268,92415,5,8,1:0:0:0:
183,258,92501,1,10,0:0:0:0:
180,248,92587,1,10,0:0:0:0:
176,238,92672,1,10,0:0:0:0:
111,188,92758,5,8,1:0:0:0:
115,178,92844,1,10,0:0:0:0:
118,168,92930,1,10,0:0:0:0:
122,158,93015,1,10,0:0:0:0:
194,118,93101,6,0,L|174:34,1,71.2500027179719,12|8,0:0|0:0,0:0:0:0:
260,47,93358,1,2,0:0:0:0:
260,47,93444,6,0,L|315:52,1,35.625001358986,8|2,1:0|0:0,0:0:0:0:
291,190,93701,2,0,L|346:195,1,35.625001358986,8|2,1:0|0:0,0:0:0:0:
321,336,93958,2,0,L|376:341,1,35.625001358986,8|2,0:0|0:0,0:0:0:0:
499,236,94129,1,8,0:0:0:0:
499,236,94215,1,8,0:0:0:0:
499,236,94301,2,0,L|412:250,1,71.2500027179719,12|8,0:0|0:0,0:0:0:0:
405,261,94558,2,0,L|412:206,1,35.625001358986,8|2,0:0|0:0,0:0:0:0:
295,50,94815,6,0,L|260:47,1,35.625001358986,8|2,1:0|0:0,0:0:0:0:
326,193,95072,2,0,L|290:189,1,35.625001358986,8|2,1:0|0:0,0:0:0:0:
356,339,95329,2,0,L|321:336,1,35.625001358986,8|2,1:2|0:0,0:0:0:0:
190,365,95501,1,8,0:0:0:0:
190,365,95587,1,8,0:0:0:0:
190,365,95672,2,0,P|183:317|200:274,1,71.2500027179719,12|2,1:0|0:0,0:0:0:0:
201,213,95929,1,2,0:0:0:0:
201,213,96015,6,0,L|72:226,1,106.875004076958,8|2,1:0|0:0,0:0:0:0:
296,245,96444,2,0,L|306:160,1,71.2500027179719,8|2,0:0|0:0,0:0:0:0:
226,102,96701,1,8,0:0:0:0:
226,102,96787,1,8,0:0:0:0:
226,102,96872,2,0,L|233:165,1,35.625001358986,8|2,1:0|0:0,0:0:0:0:
260,11,97044,1,12,0:0:0:0:
133,133,97215,2,0,L|92:137,2,35.625001358986,8|2|8,0:0|0:0|0:0,0:0:0:0:
267,315,97558,5,8,1:0:0:0:
269,305,97644,1,2,0:0:0:0:
271,295,97729,1,2,0:0:0:0:
271,250,97815,5,12,1:0:0:0:
269,240,97901,1,2,0:0:0:0:
267,230,97986,1,2,0:0:0:0:
269,189,98072,5,12,1:0:0:0:
271,179,98158,1,2,0:0:0:0:
273,169,98243,1,2,0:0:0:0:
273,124,98329,5,12,1:0:0:0:
271,114,98415,1,2,0:0:0:0:
269,104,98500,1,2,0:0:0:0:
260,95,98587,5,8,0:0:0:0:
219,70,98672,1,8,0:0:0:0:
171,75,98758,1,8,0:0:0:0:
131,102,98844,1,8,0:0:0:0:
111,144,98929,6,4,L|103:243,1,95,8|2,0:3|0:0,0:0:0:0:
121,339,99187,1,0,0:0:0:0:
121,339,99272,2,0,L|127:230,1,95,8|2,0:3|0:0,0:0:0:0:
23,196,99529,1,0,0:0:0:0:
23,196,99615,2,0,L|19:253,1,47.5,8|2,0:3|0:0,0:0:0:0:
209,285,99787,2,2,L|213:228,1,47.5
198,84,99958,1,8,0:3:0:0:
245,52,100044,1,2,0:0:0:0:
299,67,100129,1,2,0:0:0:0:
487,258,100301,6,4,P|423:253|385:224,1,95,8|2,0:3|0:0,0:0:0:0:
269,190,100558,1,0,0:0:0:0:
269,190,100644,2,0,P|333:185|371:156,1,95,8|2,0:3|0:0,0:0:0:0:
437,120,100901,1,2,0:0:0:0:
437,120,100987,2,0,L|434:183,1,47.5,8|2,0:3|0:0,0:0:0:0:
328,316,101158,2,0,L|325:253,1,47.5,2|2,0:0|0:0,0:0:0:0:
299,104,101329,1,8,0:3:0:0:
299,104,101415,1,2,0:0:0:0:
299,104,101501,1,2,0:0:0:0:
93,237,101672,6,4,B|145:213|145:213|204:232,1,113.999996520996,8|2,0:3|0:0,0:0:0:0:
344,333,101929,1,2,0:0:0:0:
344,333,102015,2,0,L|205:320,1,113.999996520996,8|2,0:3|0:0,0:0:0:0:
52,321,102272,1,2,0:0:0:0:
52,321,102358,2,0,P|88:330|126:327,1,56.9999982604981,8|2,0:3|0:0,0:0:0:0:
237,156,102529,2,0,P|172:126|102:131,1,113.999996520996,2|8,0:0|0:3,0:0:0:0:
93,237,102787,1,2,0:0:0:0:
93,237,102872,2,2,P|138:231|166:219,1,56.9999982604981
278,88,103044,6,4,L|266:235,1,132.999995941162,8|2,0:3|0:0,0:0:0:0:
200,344,103301,1,2,0:0:0:0:
200,344,103387,2,0,B|250:338|250:338|285:351|285:351|339:345,1,132.999995941162,8|2,0:3|0:0,0:0:0:0:
414,335,103644,1,2,0:0:0:0:
362,264,103729,2,0,L|355:188,1,66.4999979705811,8|2,0:3|0:0,0:0:0:0:
512,109,103901,2,2,L|505:185,1,66.4999979705811
399,77,104072,2,0,P|331:65|265:112,1,132.999995941162,8|2,0:3|0:0,0:0:0:0:
237,164,104329,1,2,0:0:0:0:
244,245,104415,5,4,0:3:0:0:
73,96,104587,1,0,0:0:0:0:
318,196,104758,1,8,0:3:0:0:
125,354,104929,2,0,P|126:321|128:273,1,71.2500027179719
186,69,105101,2,0,P|184:101|183:150,1,71.2500027179719,8|0,0:3|0:0,0:0:0:0:
244,245,105272,1,0,0:0:0:0:
56,202,105444,1,8,0:3:0:0:
274,116,105615,1,0,0:0:0:0:
356,364,105787,5,8,0:3:0:0:
433,144,105958,1,0,0:0:0:0:
244,245,106129,1,8,0:3:0:0:
474,266,106301,2,0,P|431:261|392:260,1,71.2500027179719
274,116,106472,2,0,P|309:114|344:109,1,71.2500027179719
467,42,106644,1,0,0:0:0:0:
310,218,106815,1,0,0:0:0:0:
474,266,106987,1,0,0:0:0:0:
274,116,107158,5,0,0:0:0:0:
231,90,107244,1,0,0:0:0:0:
183,102,107329,1,0,0:0:0:0:
147,137,107415,1,0,0:0:0:0:
135,185,107501,1,0,0:0:0:0:
150,232,107587,1,0,0:0:0:0:
181,269,107672,2,0,L|104:279,1,71.2500027179719
274,116,107844,2,0,L|351:106,1,71.2500027179719
490,250,108015,1,0,0:0:0:0:
448,222,108101,1,0,0:0:0:0:
398,225,108187,1,0,0:0:0:0:
365,262,108272,1,0,0:0:0:0:
334,301,108358,1,0,0:0:0:0:
284,298,108444,1,0,0:0:0:0:
251,260,108529,6,0,L|244:326,7,47.5,2|2|2|2|2|2|2|2,0:2|0:0|0:2|0:0|0:2|0:0|0:2|0:0,0:0:0:0:
163,344,109215,1,2,1:2:0:0:
108,360,109301,1,2,1:2:0:0:
56,334,109387,1,2,1:2:0:0:
41,279,109472,1,2,1:2:0:0:
65,227,109558,1,2,1:2:0:0:
119,208,109644,1,2,1:2:0:0:
171,228,109729,1,2,1:2:0:0:
228,225,109815,1,2,1:2:0:0:
268,185,109901,6,0,B|248:124|248:124|280:40,1,142.5,4|2,3:1|0:0,0:0:0:0:
288,24,110244,1,0,3:3:0:0:
492,124,110415,2,2,L|416:116,1,47.5,0|2,3:0|0:0,0:0:0:0:
356,144,110587,1,6,0:3:0:0:
356,144,110672,1,0,3:0:0:0:
356,144,110758,1,0,3:0:0:0:
120,200,110929,2,0,L|196:208,1,47.5,0|2,3:3|0:0,0:0:0:0:
200,208,111101,1,0,3:2:0:0:
376,360,111272,6,0,L|312:352,1,47.5,6|2,0:3|0:0,0:0:0:0:
436,273,111444,2,0,L|484:268,1,47.5,0|2,3:0|0:0,0:0:0:0:
284,248,111615,2,0,B|296:208|296:208|284:144,1,95,0|2,3:0|0:0,0:0:0:0:
240,168,111872,1,0,3:0:0:0:
196,184,111958,1,6,0:3:0:0:
152,196,112044,1,0,3:0:0:0:
108,208,112129,1,0,3:0:0:0:
112,344,112301,6,0,P|124:288|112:240,1,95,0|2,3:0|0:0,0:0:0:0:
12,96,112558,2,2,L|84:112,1,47.5,0|6,3:0|0:3,0:0:0:0:
232,64,112729,1,2,0:0:0:0:
244,76,112815,2,2,L|192:92,1,47.5,0|2,3:0|0:0,0:0:0:0:
352,136,112987,2,0,B|332:192|332:192|344:232,1,95,0|2,3:0|0:0,0:0:0:0:
448,320,113244,1,2,0:0:0:0:
464,312,113329,6,0,L|448:252,1,47.5,6|2,0:3|0:0,0:0:0:0:
252,168,113501,2,0,P|200:168|152:184,1,95,0|0,3:0|3:0,0:0:0:0:
240,352,113844,1,0,3:0:0:0:
384,240,114015,2,0,L|396:136,1,95,6|0,0:3|3:0,0:0:0:0:
336,104,114272,1,2,0:0:0:0:
244,168,114358,6,0,L|308:176,1,47.5,0|2,3:0|0:0,0:0:0:0:
472,68,114529,2,2,L|408:52,1,47.5,0|2,3:0|0:0,0:0:0:0:
156,104,114701,2,0,B|140:148|140:148|144:216,1,95,6|2,0:3|0:0,0:0:0:0:
384,240,114958,1,2,0:0:0:0:
404,248,115044,2,0,B|420:204|420:204|416:136,1,95,0|2,3:0|0:0,0:0:0:0:
260,80,115301,1,2,0:0:0:0:
244,96,115387,6,0,L|336:152,1,95,6|2,0:3|0:0,0:0:0:0:
192,264,115729,2,0,L|140:272,1,47.5,2|2,0:0|0:2,3:0:0:0:
312,328,115901,1,0,3:0:0:0:
340,288,115987,1,0,3:0:0:0:
348,240,116073,1,6,0:3:0:0:
336,196,116159,1,0,3:0:0:0:
312,156,116244,2,0,L|419:166,1,95,0|0,3:0|3:0,0:0:0:0:
192,60,116587,6,0,B|184:116|184:116|196:184,1,95,0|6,3:0|0:3,0:0:0:0:
232,320,116929,1,0,3:0:0:0:
256,280,117015,1,0,3:0:0:0:
296,264,117101,1,0,3:0:0:0:
344,264,117187,1,0,3:0:0:0:
384,288,117272,2,0,L|428:312,1,47.5,0|2,3:0|0:0,0:0:0:0:
416,112,117444,5,6,0:3:0:0:
416,112,117529,1,0,3:0:0:0:
416,112,117615,1,0,3:0:0:0:
240,116,117787,2,0,B|248:164|248:164|236:240,1,95,0|2,3:0|0:0,0:0:0:0:
72,176,118044,1,2,0:0:0:0:
80,164,118129,2,0,P|108:160|144:164,1,47.5,6|2,0:3|0:0,0:0:0:0:
272,308,118301,2,0,P|244:312|208:308,1,47.5,0|0,3:0|0:0,0:0:0:0:
200,316,118472,6,0,B|208:264|208:264|192:200,1,95,0|2,3:0|0:0,0:0:0:0:
76,104,118729,1,2,0:0:0:0:
68,120,118815,2,0,L|80:200,1,47.5,6|0,0:3|0:0,0:0:0:0:
248,132,118987,2,0,P|180:124|140:132,1,95,0|0,3:0|3:0,0:0:0:0:
48,296,119329,1,0,3:0:0:0:
324,308,119501,1,6,0:3:0:0:
197,222,119672,1,0,3:0:0:0:
197,222,119758,1,4,0:2:0:0:
420,88,119929,6,2,L|412:152,1,47.5,0|4,3:0|0:2,0:0:0:0:
328,312,120187,1,6,0:3:0:0:
328,312,120272,2,2,L|316:204,1,95,0|2,3:0|0:0,0:0:0:0:
216,112,120529,1,0,3:0:0:0:
188,132,120615,1,0,3:0:0:0:
152,144,120701,1,0,3:0:0:0:
116,140,120787,1,0,3:0:0:0:
92,124,120872,6,0,B|68:200|68:200|88:264,1,142.5,6|2,0:3|0:0,0:0:0:0:
173,303,121215,1,0,3:0:0:0:
284,140,121387,1,0,3:0:0:0:
280,184,121472,1,0,3:0:0:0:
276,228,121558,1,6,0:3:0:0:
272,272,121644,1,0,3:0:0:0:
268,312,121729,6,0,L|140:300,1,95,0|0,3:0|3:0,0:0:0:0:
132,64,122072,1,0,3:0:0:0:
364,180,122244,2,0,P|336:112|344:40,1,142.5,6|2,0:3|0:0,0:0:0:0:
424,32,122587,1,0,3:0:0:0:
236,172,122758,2,0,L|164:156,1,47.5,0|2,3:0|0:0,0:0:0:0:
72,148,122929,1,6,0:3:0:0:
72,148,123015,1,0,3:0:0:0:
72,148,123101,2,0,P|84:89|118:52,1,95,0|0,3:0|3:0,0:0:0:0:
152,300,123444,5,0,3:0:0:0:
232,160,123615,2,0,L|288:172,1,47.5,6|2,0:3|0:0,0:0:0:0:
400,268,123787,1,0,3:0:0:0:
416,224,123872,1,0,3:0:0:0:
432,184,123958,1,0,3:0:0:0:
448,144,124044,1,0,3:0:0:0:
464,104,124129,6,2,L|400:116,1,47.5,0|2,3:0|0:0,0:0:0:0:
329,172,124301,2,0,L|269:184,1,47.5,6|2,0:3|0:0,0:0:0:0:
176,252,124472,2,0,B|192:208|192:208|176:136,1,95,0|0,3:0|3:0,0:0:0:0:
44,136,124729,1,0,3:0:0:0:
36,152,124815,2,2,L|100:168,1,47.5,0|2,3:0|0:0,0:0:0:0:
316,264,124987,6,0,P|380:256|404:240,1,95,6|2,0:3|0:0,0:0:0:0:
372,92,125244,1,0,3:0:0:0:
356,80,125329,2,0,L|336:196,1,95,0|2,3:0|0:0,0:0:0:0:
244,196,125587,1,0,3:0:0:0:
228,184,125672,2,0,L|212:260,1,47.5,6|2,0:3|0:0,0:0:0:0:
364,344,125844,2,2,L|360:276,1,47.5,2|2,3:0|0:0,0:0:0:0:
284,112,126015,2,0,P|228:92|180:104,1,95,0|2,3:0|0:0,0:0:0:0:
128,140,126272,1,0,3:0:0:0:
128,140,126358,1,6,0:3:0:0:
216,236,126529,6,0,L|228:176,1,47.5,0|2,3:0|0:0,0:0:0:0:
380,52,126701,2,0,L|368:124,1,47.5,0|2,3:0|0:0,0:0:0:0:
432,200,126872,1,0,3:0:0:0:
392,216,126958,1,0,3:0:0:0:
348,220,127044,1,6,0:3:0:0:
308,204,127129,1,0,3:0:0:0:
280,168,127215,6,0,B|288:136|288:136|280:72,1,95,0|0,3:0|3:0,0:0:0:0:
88,120,127558,1,0,3:0:0:0:
184,324,127729,2,0,L|244:320,1,47.5,6|2,0:3|0:0,0:0:0:0:
272,192,127901,1,0,3:0:0:0:
280,168,127987,2,0,L|336:180,1,47.5,0|0,3:0|3:0,0:0:0:0:
488,152,128243,1,0,3:0:0:0:
492,195,128329,1,0,3:0:0:0:
480,234,128416,1,6,0:3:0:0:
454,265,128501,1,0,3:0:0:0:
416,286,128586,1,0,3:0:0:0:
168,132,128758,6,0,B|204:160|204:160|283:177,1,95,0|2,3:0|0:0,0:0:0:0:
336,280,129101,2,0,L|348:164,1,95,6|2,0:3|0:0,0:0:0:0:
304,84,129358,1,0,3:0:0:0:
192,44,129444,2,0,P|124:52|84:88,1,95,0|2,3:0|0:0,0:0:0:0:
156,176,129701,1,0,3:0:0:0:
176,178,129787,2,0,L|164:110,2,47.5,6|0|0,0:3|0:0|3:0,0:0:0:0:
264,156,130129,6,0,P|320:160|372:136,1,95,0|0,3:0|0:0,0:0:0:0:
188,52,130472,1,6,0:3:0:0:
144,84,130558,1,2,0:0:0:0:
124,128,130644,1,2,0:0:0:0:
132,176,130729,1,2,0:0:0:0:
156,220,130815,6,2,L|88:212,1,47.5
264,152,130987,2,0,L|316:156,1,47.5,0|2,3:0|0:0,3:0:0:0:
280,336,131158,2,2,L|272:268,1,47.5
424,144,131329,2,2,L|420:196,1,47.5
496,352,131501,2,2,L|512:312,4,31.6666666666667
92,176,131844,6,0,L|216:168,1,106.875004076958,4|2,3:1|0:0,0:0:0:0:
272,132,132187,5,4,1:2:0:0:
426,256,132358,1,0,3:0:0:0:
426,256,132444,1,0,3:0:0:0:
426,256,132529,2,0,L|437:187,1,47.5,6|2,0:3|0:0,0:0:0:0:
342,89,132701,2,0,L|352:215,1,95,0|0,3:0|3:0,0:0:0:0:
467,140,132958,1,0,3:0:0:0:
482,127,133044,2,0,P|449:117|416:123,1,47.5,0|2,3:0|0:0,0:0:0:0:
297,260,133215,6,0,B|251:275|251:275|189:268,1,95,6|2,0:3|0:0,0:0:0:0:
138,218,133472,1,0,3:0:0:0:
127,202,133558,2,0,L|131:274,1,47.5,0|2,3:0|0:0,0:0:0:0:
288,336,133729,1,0,3:0:0:0:
292,298,133815,1,0,3:0:0:0:
297,260,133901,1,6,3:3:0:0:
302,222,133987,1,0,3:0:0:0:
306,184,134072,2,0,L|414:177,1,95,0|2,3:0|0:0,0:0:0:0:
102,144,134415,2,0,L|168:139,1,47.5,0|2,3:0|0:0,0:0:0:0:
217,87,134587,6,0,B|231:121|231:121|226:199,1,95,6|2,0:3|0:0,0:0:0:0:
156,265,134844,2,0,L|151:203,1,47.5,0|0,3:0|3:0,0:0:0:0:
305,133,135015,1,0,3:0:0:0:
314,116,135101,2,0,L|312:176,1,47.5,0|2,3:0|0:0,0:0:0:0:
248,274,135272,2,0,L|314:281,1,47.5,6|2,0:3|0:0,0:0:0:0:
463,351,135444,2,0,B|481:304|481:304|473:251,1,95,0|0,3:0|3:0,0:0:0:0:
219,126,135787,1,0,3:0:0:0:
219,126,135872,1,0,3:0:0:0:
219,126,135958,6,0,L|324:114,1,95,6|2,0:3|0:0,0:0:0:0:
387,87,136215,1,0,3:0:0:0:
477,177,136301,2,0,L|372:165,1,95,0|2,3:0|0:0,0:0:0:0:
318,215,136558,1,0,3:0:0:0:
388,292,136644,2,0,L|396:229,1,47.5,6|2,0:3|0:0,0:0:0:0:
307,68,136815,2,0,L|315:131,1,47.5,0|2,3:0|0:0,0:0:0:0:
236,231,136987,2,0,B|192:247|192:247|132:235,1,95,0|2,3:0|0:0,0:0:0:0:
72,220,137244,1,0,3:0:0:0:
72,220,137329,5,6,3:3:0:0:
181,118,137501,2,0,L|185:179,1,47.5,0|2,3:0|0:0,0:0:0:0:
195,319,137672,1,0,3:0:0:0:
343,202,137844,1,0,3:0:0:0:
343,202,137929,1,0,3:0:0:0:
343,202,138015,2,0,L|282:209,1,47.5,6|2,0:3|0:0,0:0:0:0:
86,111,138187,2,0,L|195:119,1,95,0|0,3:0|3:0,0:0:0:0:
210,230,138444,1,0,3:0:0:0:
204,248,138529,2,0,P|201:220|201:190,1,47.5,0|2,3:0|0:0,0:0:0:0:
281,39,138701,6,0,B|269:88|269:88|291:148,1,95,6|2,0:3|0:0,0:0:0:0:
407,104,138958,1,0,3:0:0:0:
425,97,139044,2,0,L|368:91,1,47.5,0|2,3:0|0:0,0:0:0:0:
283,214,139215,1,0,3:0:0:0:
321,211,139301,1,0,3:0:0:0:
359,208,139387,1,6,3:3:0:0:
396,205,139472,1,0,3:0:0:0:
434,202,139558,2,0,L|427:309,1,95,0|2,3:0|3:0,0:0:0:0:
207,98,139901,2,0,L|214:173,1,47.5,0|2,3:0|0:0,0:0:0:0:
259,210,140072,6,0,B|212:195|212:195|160:210,1,95,6|2,0:3|0:0,0:0:0:0:
148,348,140329,2,0,L|154:289,1,47.5,0|0,3:0|3:0,0:0:0:0:
94,166,140501,1,0,3:0:0:0:
79,153,140587,2,0,L|85:212,1,47.5,0|2,3:0|0:0,0:0:0:0:
0,306,140758,2,0,L|71:295,1,47.5,6|2,0:3|0:0,0:0:0:0:
168,207,140929,2,0,L|269:194,1,95,0|0,3:0|3:0,0:0:0:0:
444,312,141272,1,0,3:0:0:0:
444,312,141358,1,0,3:0:0:0:
444,312,141444,6,0,B|459:266|459:266|449:211,1,95,6|2,3:3|0:0,0:0:0:0:
438,192,141701,2,0,L|506:205,1,47.5,0|0,3:0|3:0,0:0:0:0:
184,96,141958,1,0,3:1:0:0:
140,112,142044,1,0,3:3:0:0:
112,152,142130,1,6,3:3:0:0:
108,196,142215,1,0,3:1:0:0:
128,236,142301,1,0,3:2:0:0:
371,253,142472,2,0,L|297:244,1,47.5,0|2,3:0|0:0,0:0:0:0:
250,190,142644,2,0,L|176:181,1,47.5,0|2,3:0|0:0,0:0:0:0:
140,112,142815,5,6,3:3:0:0:
341,165,142987,1,0,3:0:0:0:
365,150,143072,2,0,B|377:101|377:101|364:55,1,95,0|2,3:0|0:0,0:0:0:0:
353,32,143329,2,0,L|407:38,1,47.5,0|2,3:0|0:0,0:0:0:0:
500,156,143501,2,0,L|446:150,1,47.5,6|2,3:3|0:0,0:0:0:0:
267,101,143672,2,0,L|256:208,1,95,0|0,3:0|3:0,0:0:0:0:
157,107,143929,1,0,3:0:0:0:
149,89,144015,2,0,P|118:84|92:91,1,47.5,0|2,3:0|0:0,0:0:0:0:
18,255,144187,6,0,B|60:233|60:233|121:243,1,95,6|2,3:3|0:0,0:0:0:0:
143,262,144444,2,0,L|128:198,1,47.5,0|0,3:0|3:0,0:0:0:0:
366,134,144701,1,0,3:0:0:0:
328,139,144787,1,0,3:0:0:0:
290,144,144872,1,6,3:3:0:0:
252,148,144958,1,0,3:0:0:0:
214,152,145044,1,0,3:0:0:0:
345,227,145215,1,0,3:0:0:0:
381,52,145387,1,0,3:0:0:0:
250,235,145558,6,0,B|241:281|241:281|258:337,1,95,6|2,3:3|0:0,0:0:0:0:
337,188,145815,2,0,L|341:123,1,47.5
378,300,145987,1,0,3:0:0:0:
390,285,146072,2,0,L|325:280,1,47.5,0|2,3:0|0:0,0:0:0:0:
196,140,146244,2,0,L|261:145,1,47.5,6|2,3:3|0:0,0:0:0:0:
428,156,146415,2,0,B|437:110|437:110|420:54,1,95,0|2,3:0|0:0,0:0:0:0:
364,19,146672,1,0,0:0:0:0:
345,23,146758,1,2,0:0:0:0:
463,249,146929,6,0,L|348:237,1,95,6|2,3:3|0:0,0:0:0:0:
291,233,147187,1,0,0:0:0:0:
249,161,147272,2,0,P|298:151|341:170,1,95,0|2,3:0|0:0,0:0:0:0:
368,239,147529,1,2,0:0:0:0:
323,308,147615,2,0,P|287:319|266:316,1,47.5,6|2,3:3|0:0,0:0:0:0:
415,172,147787,2,0,P|451:161|472:164,1,47.5,0|2,3:0|0:0,0:0:0:0:
249,161,147958,2,0,L|139:148,1,95,0|2,3:0|0:0,0:0:0:0:
107,146,148215,1,0,3:0:0:0:
107,146,148301,5,6,0:3:0:0:
97,363,148472,1,2,0:0:0:0:
70,351,148558,2,0,P|62:302|76:259,1,95,0|2,3:0|0:0,0:0:0:0:
96,240,148815,2,0,P|58:241|41:236,1,47.5,0|2,3:0|0:0,0:0:0:0:
150,44,148987,2,0,P|173:41|196:45,1,47.5,6|2,3:3|0:0,0:0:0:0:
269,156,149158,2,0,L|156:149,1,95,0|2,3:0|0:0,0:0:0:0:
87,116,149415,1,2,0:0:0:0:
71,105,149501,2,0,L|78:165,1,47.5,0|2,3:0|0:0,0:0:0:0:
364,216,149672,6,0,B|379:172|379:172|365:120,1,95,6|2,3:3|0:0,3:0:0:0:
338,89,149929,2,0,L|403:85,1,47.5,0|0,3:0|3:0,0:0:0:0:
195,142,150187,1,0,3:0:0:0:
191,179,150272,1,0,3:0:0:0:
187,216,150358,1,6,3:3:0:0:
183,254,150444,1,0,3:0:0:0:
180,291,150529,1,0,3:0:0:0:
284,169,150701,1,0,3:0:0:0:
130,68,150872,1,0,3:0:0:0:
270,251,151044,6,0,B|316:262|316:262|371:240,1,95,6|2,3:3|0:0,0:0:0:0:
323,117,151301,2,0,L|314:178,1,47.5,0|0,3:0|3:0,0:0:0:0:
225,351,151472,1,2,0:0:0:0:
211,337,151558,2,0,L|270:330,1,47.5,0|2,3:0|0:0,0:0:0:0:
450,177,151729,2,0,L|391:170,1,47.5,6|2,3:3|0:0,0:0:0:0:
222,174,151901,2,0,L|213:73,1,95,0|0,3:0|3:0,0:0:0:0:
88,359,152244,2,0,L|81:286,1,47.5,0|2,3:0|0:0,0:0:0:0:
37,224,152415,5,8,1:3:0:0:
55,219,152501,1,8,3:3:0:0:
72,212,152587,1,8,3:3:0:0:
86,201,152672,1,8,3:3:0:0:
123,171,152758,5,8,1:3:0:0:
141,176,152844,1,8,3:3:0:0:
159,178,152930,1,8,3:3:0:0:
177,176,153015,1,8,3:3:0:0:
223,164,153101,5,8,1:3:0:0:
236,177,153187,1,8,3:3:0:0:
252,188,153273,1,8,3:3:0:0:
267,195,153358,1,8,3:3:0:0:
312,212,153444,5,8,1:3:0:0:
317,230,153530,1,8,3:3:0:0:
324,246,153616,1,8,3:3:0:0:
335,261,153701,1,8,3:3:0:0:
348,272,153787,6,0,B|404:225|404:225|422:183|422:183|489:123,1,190,6|2,3:3|0:3,0:3:0:0:
209,72,154301,2,0,P|247:140|228:207,1,142.5,2|2,0:0|0:0,0:0:0:0:
110,156,154644,2,0,P|148:147|179:153,1,47.5,4|2,0:3|0:0,0:0:0:0:
348,148,154815,2,0,L|356:52,1,95,2|2,0:0|0:0,0:0:0:0:
448,216,155158,1,4,3:0:0:0:
448,216,155329,2,0,B|460:268|460:268|436:340,1,95,2|2,0:0|0:0,0:0:0:0:
304,276,155672,6,0,P|332:264|360:260,1,47.5,2|4,0:0|0:3,0:0:0:0:
360,352,155844,1,4,0:3:0:0:
360,352,155929,1,2,0:0:0:0:
360,352,156015,1,4,0:3:0:0:
116,276,156187,5,2,0:0:0:0:
252,172,156358,1,2,0:0:0:0:
252,172,156529,2,0,P|220:256|256:312,1,142.5,4|2,0:3|0:0,0:0:0:0:
332,348,156872,2,0,L|444:332,1,95,2|2,0:0|0:0,0:0:0:0:
328,244,157215,1,2,0:0:0:0:
184,148,157387,2,0,P|176:80|196:40,1,95,4|2,0:3|0:0,0:0:0:0:
412,84,157729,5,2,0:0:0:0:
412,84,157901,2,0,L|252:108,1,142.5,4|2,0:3|0:0,0:0:0:0:
185,124,158244,1,4,0:3:0:0:
192,140,158329,2,0,L|220:204,1,47.5,4|2,0:3|0:0,0:0:0:0:
176,284,158501,2,0,P|260:272|304:228,1,142.5,4|4,0:3|0:3,0:0:0:0:
404,120,158929,2,0,L|392:228,1,95,2|2,0:0|0:0,0:0:0:0:
208,184,159272,6,0,L|192:60,1,95,4|2,0:3|0:0,0:0:0:0:
308,132,159615,1,2,0:0:0:0:
404,120,159787,2,0,B|412:196|412:196|396:248|396:248|408:336,1,190,2|4,0:0|0:3,0:0:0:0:
248,256,160301,2,0,P|196:244|156:260,1,95,2|2,0:0|0:0,0:0:0:0:
60,308,160644,2,0,B|48:236|48:236|76:156,1,142.5,4|2,0:3|0:0,0:0:0:0:
248,128,160987,6,0,P|196:140|156:124,1,95,2|2,0:0|0:0,0:0:0:0:
92,40,161244,1,4,0:3:0:0:
72,48,161329,2,0,L|80:136,2,47.5,2|2|4,0:0|0:0|0:3,0:3:0:0:
204,60,161672,1,2,0:0:0:0:
324,212,161844,2,0,L|332:112,1,95,2|4,0:0|0:3,0:0:0:0:
160,124,162187,1,2,0:0:0:0:
128,288,162358,6,0,B|200:312|200:312|312:292,1,190,2|2,0:0|0:0,0:0:0:0:
368,100,162872,1,4,0:3:0:0:
368,100,163044,2,0,P|336:152|336:208,1,95,2|2,0:0|0:0,0:0:0:0:
408,272,163387,2,0,L|260:300,1,142.5,4|2,0:3|0:0,0:0:0:0:
192,148,163729,5,4,0:3:0:0:
192,148,163815,2,0,P|216:168|232:192,1,47.5,4|2,0:3|0:0,0:0:0:0:
80,184,163987,2,0,P|84:96|124:48,1,142.5,4|4,0:3|0:3,0:0:0:0:
228,180,164415,1,2,0:0:0:0:
256,200,164501,1,2,0:0:0:0:
292,208,164587,1,2,0:0:0:0:
328,200,164672,1,2,0:0:0:0:
356,180,164758,6,0,B|336:120|336:120|360:36,1,142.5,6|2,0:3|0:0,0:0:0:0:
364,24,165101,2,0,L|248:16,1,95,4|2,0:3|0:0,0:0:0:0:
228,180,165444,2,0,L|244:300,1,95,4|2,0:3|0:0,0:0:0:0:
100,92,165787,2,0,L|90:214,1,95,4|2,0:3|0:0,0:0:0:0:
176,336,166129,2,0,P|272:352|316:320,1,142.5,4|2,0:3|0:0,0:0:0:0:
404,64,166472,6,0,L|412:184,1,95,4|2,0:3|0:0,0:0:0:0:
240,268,166815,2,0,L|252:164,1,95,4|2,0:3|0:0,0:0:0:0:
160,60,167158,1,4,0:3:0:0:
48,168,167329,1,2,0:0:0:0:
60,204,167415,1,2,0:0:0:0:
70,233,167501,6,0,B|118:225|118:225|154:265|154:265|202:249|254:273,1,190,4|4,0:3|0:3,0:0:0:0:
344,172,168015,1,2,0:0:0:0:
240,356,168187,1,4,0:3:0:0:
240,356,168272,1,2,0:0:0:0:
240,356,168358,1,2,0:0:0:0:
156,96,168529,6,0,P|188:80|256:72,1,95,4|2,0:3|0:0,0:0:0:0:
280,264,168872,2,0,P|236:204|232:172,1,95,4|2,0:3|0:0,0:0:0:0:
388,84,169215,2,0,B|376:140|328:164,1,95,4|2,0:3|0:0,0:0:0:0:
160,96,169558,1,4,0:3:0:0:
240,312,169729,1,2,0:0:0:0:
340,152,169901,1,4,0:3:0:0:
356,168,169987,1,8,0:3:0:0:
372,184,170072,1,8,0:3:0:0:
388,200,170158,1,8,0:3:0:0:
404,216,170244,6,0,L|392:328,1,95,4|4,0:3|0:3,0:0:0:0:
192,168,170587,1,4,0:3:0:0:
340,152,170758,1,4,0:3:0:0:
136,296,170929,2,0,P|100:240|100:184,1,95,4|4,0:3|0:3,0:0:0:0:
204,68,171272,1,4,0:3:0:0:
372,248,171444,1,4,0:3:0:0:
216,204,171615,5,4,0:3:0:0:
452,108,171787,1,4,0:3:0:0:
408,320,171958,1,4,0:3:0:0:
332,200,172129,1,4,0:3:0:0:
136,296,172301,5,4,0:3:0:0:
216,60,172472,1,4,0:3:0:0:
320,200,172644,1,4,0:3:0:0:
160,156,172815,2,4,B|159:184|159:184|167:213,1,47.5,4|4,0:3|0:3,0:3:0:0:
172,232,172987,5,4,0:3:0:0:
184,252,173072,1,4,0:3:0:0:
200,268,173158,1,4,0:3:0:0:
224,284,173244,1,4,0:3:0:0:
256,272,173329,5,4,0:3:0:0:
272,264,173415,1,4,0:3:0:0:
296,260,173501,1,4,0:3:0:0:
320,264,173587,1,4,0:3:0:0:
348,288,173672,5,4,0:3:0:0:
360,260,173758,1,4,0:3:0:0:
380,240,173844,1,4,0:3:0:0:
404,224,173929,1,4,0:3:0:0:
428,216,174015,6,4,P|456:204|484:204,1,47.5,4|4,0:3|0:3,0:3:0:0:
280,56,174187,2,4,P|276:88|280:124,1,47.5,4|4,0:3|0:3,0:3:0:0:
348,292,174358,1,4,0:3:0:0:
176,208,174529,2,0,P|160:196|148:180,13,31.6666666666667,0|0|0|0|0|0|0|0|0|0|0|0|0|0,3:0|3:0|3:0|3:0|3:0|3:0|3:0|3:0|3:0|3:0|3:0|3:0|3:0|3:0,0:0:0:0:
240,104,175387,1,2,0:0:0:0:
284,72,175472,1,2,0:0:0:0:
336,68,175558,1,2,0:0:0:0:
380,96,175644,1,2,0:0:0:0:
410,131,175729,6,0,L|401:296,1,142.500005435944,2|2,0:0|0:0,0:0:0:0:
240,359,176244,1,0,0:0:0:0:
271,202,176415,1,2,0:0:0:0:
401,298,176587,1,0,0:0:0:0:
206,280,176758,6,0,L|120:269,1,71.2500027179719,2|0,0:0|0:0,0:0:0:0:
235,106,177101,2,0,L|149:95,1,71.2500027179719,2|0,0:0|0:0,0:0:0:0:
58,169,177444,1,2,0:0:0:0:
58,169,177615,1,0,0:0:0:0:
38,87,177787,5,2,0:0:0:0:
174,234,177958,1,0,0:0:0:0:
28,260,178129,1,2,0:0:0:0:
240,165,178301,1,2,0:0:0:0:
179,375,178472,6,0,P|178:304|173:233,1,142.500005435944,2|2,0:0|0:0,0:0:0:0:
316,145,178987,1,0,0:0:0:0:
101,162,179158,1,2,0:0:0:0:
277,262,179329,1,0,0:0:0:0:
237,94,179501,6,0,P|231:136|229:169,1,71.2500027179719,2|2,0:0|0:0,0:0:0:0:
421,243,179844,2,0,P|427:201|429:168,1,71.2500027179719,0|2,0:0|0:0,0:0:0:0:
333,171,180187,1,2,0:0:0:0:
333,171,180358,1,0,0:0:0:0:
321,82,180529,5,2,0:0:0:0:
275,248,180701,1,0,0:0:0:0:
182,110,180872,1,2,0:0:0:0:
400,118,181044,1,2,0:0:0:0:
234,325,181215,6,0,P|187:273|197:205,1,142.500005435944,2|2,0:0|0:0,0:0:0:0:
261,77,181729,1,0,0:0:0:0:
370,182,181901,1,2,0:0:0:0:
144,119,182072,1,0,0:0:0:0:
278,176,182244,6,0,L|273:265,1,71.2500027179719,2|0,0:0|0:0,0:0:0:0:
417,228,182587,2,0,L|412:317,1,71.2500027179719,2|0,0:0|0:0,0:0:0:0:
471,125,182929,1,2,0:0:0:0:
471,125,183101,1,0,0:0:0:0:
293,246,183272,5,2,0:0:0:0:
474,217,183444,1,0,0:0:0:0:
324,138,183615,1,2,0:0:0:0:
343,346,183787,1,2,0:0:0:0:
293,246,183958,6,0,P|248:242|139:268,1,142.500005435944,2|2,0:0|0:0,0:0:0:0:
54,286,184472,1,0,0:0:0:0:
196,163,184644,1,2,0:0:0:0:
128,355,184815,1,0,0:0:0:0:
26,194,184987,6,0,P|72:195|113:210,1,71.2500027179719,2|0,0:0|0:0,0:0:0:0:
284,336,185329,2,0,P|238:335|197:320,1,71.2500027179719,2|0,0:0|0:0,0:0:0:0:
209,171,185672,1,2,0:0:0:0:
209,171,185844,1,0,0:0:0:0:
172,253,186015,5,2,0:0:0:0:
296,143,186187,1,0,0:0:0:0:
167,89,186358,1,2,0:0:0:0:
301,228,186529,6,0,P|342:234|392:237,1,71.2500027179719,2|2,0:0|0:0,0:0:0:0:
450,326,186872,2,0,P|455:263|469:166,1,142.500005435944,2|2,0:0|0:0,0:0:0:0:
478,80,187387,1,2,0:0:0:0:
478,80,187558,1,0,0:0:0:0:
252,127,187729,5,2,0:0:0:0:
362,35,187901,1,0,0:0:0:0:
259,173,188072,1,2,0:0:0:0:
387,166,188244,1,0,0:0:0:0:
244,78,188415,1,2,0:0:0:0:
336,230,188587,6,0,L|331:315,2,71.2500027179719,0|2|0,0:0|0:0|0:0,0:0:0:0:
346,99,189101,1,2,0:0:0:0:
81,117,189272,6,0,P|135:127|174:129,1,71.2500027179719,2|2,0:0|0:0,0:0:0:0:
354,201,189615,2,0,P|309:204|206:222,1,142.500005435944,2|2,0:0|0:0,0:0:0:0:
111,245,190129,1,2,0:0:0:0:
111,245,190301,1,0,0:0:0:0:
230,123,190472,5,2,0:0:0:0:
185,303,190644,1,2,0:0:0:0:
140,150,190815,1,0,0:0:0:0:
303,281,190987,1,2,0:0:0:0:
112,352,191158,1,2,0:0:0:0:
221,193,191329,6,0,L|231:109,2,71.2500027179719,0|2|0,0:0|0:0|0:0,0:0:0:0:
274,359,191844,1,2,0:0:0:0:
450,200,192015,6,0,L|459:278,1,71.2500027179719,2|2,0:0|0:0,0:0:0:0:
356,321,192358,2,0,P|324:279|350:182,1,142.500005435944,2|2,0:0|0:0,0:0:0:0:
405,113,192872,1,2,0:0:0:0:
405,113,193044,1,0,0:0:0:0:
231,256,193215,5,2,0:0:0:0:
416,249,193387,1,0,0:0:0:0:
273,346,193558,1,2,0:0:0:0:
413,202,193729,1,0,0:0:0:0:
265,162,193901,1,2,0:0:0:0:
421,293,194072,6,0,L|426:371,2,71.2500027179719,0|2|0,0:0|0:0|0:0,0:0:0:0:
405,111,194587,1,2,0:0:0:0:
214,230,194758,2,0,P|276:233|315:235,1,71.2500027179719,2|2,0:0|0:0,0:0:0:0:
472,90,195101,2,0,P|402:86|325:79,1,142.500005435944,2|2,0:0|0:0,0:0:0:0:
124,37,195615,1,2,0:0:0:0:
182,231,195787,2,0,P|222:197|211:66,1,190,0|2,0:0|0:0,0:0:0:0:
256,192,196301,12,0,197158,0:0:0:0:
152,279,197329,5,2,0:1:0:0:
152,279,197415,1,2,0:1:0:0:
152,279,197501,1,2,0:1:0:0:
152,279,197587,1,2,0:1:0:0:
152,279,197672,2,0,B|196:272|196:272|252:284,1,95,4|2,0:3|0:0,0:0:0:0:
492,320,197929,2,0,B|456:328|456:328|368:312,1,95,2|2,0:3|0:0,0:0:0:0:
232,92,198187,6,0,P|228:120|232:152,1,47.5,2|0,0:0|0:0,0:0:0:0:
312,332,198358,1,4,0:3:0:0:
312,332,198444,1,2,0:0:0:0:
312,332,198529,2,0,P|320:260|304:216,1,95,2|4,0:0|0:3,0:0:0:0:
332,220,198787,1,0,0:0:0:0:
352,204,198872,2,0,P|380:200|416:208,1,47.5,2|0,0:0|0:0,0:0:0:0:
92,192,199044,6,0,L|80:292,1,95,4|2,0:3|0:0,0:0:0:0:
224,280,199301,1,2,0:0:0:0:
224,280,199387,2,0,L|156:288,1,47.5,4|2,0:3|0:0,0:0:0:0:
296,120,199558,2,0,L|344:116,1,47.5,2|2,0:0|0:0,0:0:0:0:
200,176,199729,1,4,0:3:0:0:
200,176,199815,1,2,0:0:0:0:
200,176,199901,2,0,B|208:128|208:128|192:52,1,95,2|4,0:0|0:3,0:0:0:0:
203,59,200158,1,0,0:0:0:0:
216,41,200244,2,2,P|244:33|284:37,1,47.5
460,108,200415,6,0,P|412:104|360:116,1,95,4|2,0:3|0:0,0:0:0:0:
332,124,200672,1,2,0:0:0:0:
332,124,200758,2,0,L|344:192,1,47.5,4|2,0:3|0:0,0:0:0:0:
272,300,200929,5,2,0:0:0:0:
312,296,201015,1,2,0:0:0:0:
352,292,201101,1,4,0:3:0:0:
388,288,201187,1,2,0:0:0:0:
428,284,201272,2,0,B|440:244|440:244|424:168,1,95,2|4,0:0|0:3,0:0:0:0:
228,88,201529,1,2,0:0:0:0:
228,88,201615,2,2,L|292:92,1,47.5
312,296,201787,6,0,L|216:304,1,95,4|2,0:3|0:0,0:0:0:0:
136,256,202044,1,2,0:0:0:0:
136,256,202129,2,0,P|152:240|168:208,1,47.5,4|2,0:3|0:0,0:0:0:0:
32,44,202301,2,2,P|28:80|40:116,1,47.5
212,88,202472,1,4,0:3:0:0:
212,88,202558,1,2,0:0:0:0:
212,88,202644,2,0,B|248:80|248:80|344:92,1,95,2|4,0:0|0:3,0:0:0:0:
380,104,202901,1,2,0:0:0:0:
380,104,202987,1,2,0:0:0:0:
332,304,203158,6,0,L|324:200,1,104.500003189087,0|0,1:0|1:3,0:0:0:0:
88,264,203501,2,0,P|112:268|144:264,1,52.2500015945435,0|0,1:0|0:0,0:0:0:0:
352,92,203672,2,0,P|328:88|296:92,1,52.2500015945435,0|0,1:0|0:0,0:0:0:0:
332,304,203844,6,0,L|338:252,1,52.2500015945435,0|2,1:0|0:0,0:0:0:0:
428,268,204015,2,0,L|433:216,1,52.2500015945435,0|0,1:0|0:2,0:0:0:0:
96,60,204187,6,0,L|104:136,1,52.2500015945435,0|0,1:0|0:0,0:0:0:0:
192,92,204358,2,0,L|200:152,1,52.2500015945435,0|0,1:0|0:0,0:0:0:0:
148,320,204529,6,0,L|220:312,1,52.2500015945435,0|0,1:0|0:0,0:0:0:0:
390,255,204701,2,0,L|313:250,1,52.2500015945435,0|0,1:0|0:0,0:0:0:0:
49,109,204872,6,0,L|121:113,1,52.2500015945435,0|0,1:0|0:0,0:0:0:0:
440,52,205044,2,0,L|352:60,1,52.2500015945435,0|0,1:0|0:0,0:0:0:0:
243,106,205215,6,0,L|248:193,1,52.2500015945435,0|0,1:0|0:0,0:0:0:0:
92,232,205387,2,0,P|120:228|152:232,1,52.2500015945435,0|0,1:0|0:0,0:0:0:0:
376,312,205558,6,0,P|348:316|316:312,1,52.2500015945435,0|0,1:0|0:0,0:0:0:0:
251,244,205729,2,0,L|247:184,1,52.2500015945435,0|0,1:0|0:0,0:0:0:0:
192,64,205901,5,0,1:0:0:0:
427,201,206072,1,0,1:0:0:0:
216,348,206244,1,0,1:0:0:0:
248,192,206415,1,0,1:0:0:0:
168,80,206587,5,0,1:0:0:0:
212,56,206672,1,0,1:0:0:0:
260,52,206758,1,0,1:0:0:0:
304,68,206844,1,0,1:0:0:0:
340,108,206929,1,0,1:0:0:0:
356,156,207015,1,0,1:0:0:0:
388,196,207101,1,0,1:0:0:0:
436,208,207187,1,0,1:0:0:0:
480,192,207272,6,0,L|488:128,5,61.7499971733095,2|2|2|2|2|2,2:2|2:2|2:2|2:2|2:2|2:2,2:2:0:0:
408,48,207787,1,2,1:2:0:0:
352,32,207872,1,2,1:2:0:0:
304,60,207958,1,2,1:2:0:0:
280,112,208044,1,2,1:2:0:0:
288,168,208129,1,2,1:2:0:0:
312,220,208215,1,2,1:2:0:0:
328,276,208301,1,2,1:2:0:0:
308,328,208387,1,2,1:2:0:0:
256,352,208472,1,2,1:2:0:0:
204,336,208558,1,0,1:0:0:0:
161,314,208644,6,0,B|92:296|92:296|12:327,1,142.5,6|0,0:3|0:0,0:0:0:0:
6,341,208987,2,0,L|15:287,1,47.5,2|0,0:0|0:0,0:0:0:0:
181,141,209158,1,2,0:0:0:0:
181,141,209244,1,2,0:0:0:0:
181,141,209329,2,0,L|187:199,1,47.5,6|0,0:3|0:0,0:0:0:0:
87,216,209501,2,0,L|79:98,1,95,2|2,0:0|0:0,0:0:0:0:
74,42,209758,1,2,0:0:0:0:
74,42,209844,1,2,0:0:0:0:
392,94,210015,6,0,B|346:110|346:110|293:103,1,95,6|0,0:3|0:0,0:0:0:0:
266,63,210272,2,0,B|283:107|283:107|276:164,1,95,2|0,0:0|0:0,0:0:0:0:
349,248,210529,1,2,0:0:0:0:
349,248,210615,1,2,0:0:0:0:
349,248,210701,2,0,L|353:186,1,47.5,6|0,0:3|0:0,0:0:0:0:
189,91,210872,2,0,L|193:153,1,47.5,2|0,0:0|0:0,0:0:0:0:
204,230,211044,1,2,0:0:0:0:
349,28,211215,1,2,0:0:0:0:
204,230,211387,6,0,L|100:218,1,95,6|0,0:3|0:0,0:0:0:0:
85,196,211644,2,0,L|93:256,1,47.5,2|0,0:0|0:0,0:0:0:0:
317,117,211901,2,0,L|377:108,1,47.5,2|2,0:0|0:0,0:0:0:0:
455,96,212072,1,6,0:3:0:0:
455,96,212158,1,2,0:0:0:0:
455,96,212244,1,2,0:0:0:0:
295,202,212415,1,2,0:0:0:0:
339,29,212587,1,2,0:0:0:0:
455,189,212758,6,0,B|470:235|470:235|459:297,1,95,6|2,0:3|0:0,0:0:0:0:
403,341,213015,1,2,0:0:0:0:
335,295,213101,2,0,L|328:233,1,47.5,2|0,0:0|0:0,0:0:0:0:
234,153,213272,2,0,L|227:215,1,47.5,2|0,0:0|0:0,0:0:0:0:
190,301,213444,2,0,L|267:293,1,47.5,6|0,0:3|0:0,0:0:0:0:
375,173,213615,2,0,L|298:165,1,47.5,2|0,0:0|0:0,0:0:0:0:
156,78,213787,2,0,L|273:68,1,95,2|2,0:0|0:0,0:0:0:0:
52,82,214044,1,2,0:0:0:0:
52,82,214129,6,0,B|23:137|23:137|42:237,1,142.5,6|2,0:3|0:0,0:0:0:0:
27,254,214472,2,0,L|99:243,1,47.5,2|0,0:0|0:0,0:0:0:0:
244,150,214644,1,2,0:0:0:0:
244,150,214729,1,2,0:0:0:0:
244,150,214815,2,0,L|240:208,1,47.5,6|0,0:3|0:0,0:0:0:0:
160,298,214987,2,0,L|157:192,1,95,2|2,0:0|0:0,0:0:0:0:
154,121,215244,1,2,0:0:0:0:
213,61,215329,2,0,P|242:56|276:67,1,47.5,2|0,0:0|0:0,0:0:0:0:
444,186,215501,6,0,P|387:189|335:167,1,95,6|0,0:3|0:0,0:0:0:0:
336,147,215758,2,0,L|326:253,1,95,2|0,0:0|0:0,0:0:0:0:
211,323,216015,1,2,0:0:0:0:
211,323,216101,1,2,0:0:0:0:
211,323,216187,2,0,P|236:321|261:310,1,47.5,6|0,0:3|0:0,0:0:0:0:
212,181,216358,2,0,L|216:229,1,47.5,2|0,0:0|0:0,0:0:0:0:
351,327,216529,1,2,0:0:0:0:
122,251,216701,1,2,0:0:0:0:
308,229,216872,6,0,L|408:216,1,95,6|0,0:3|0:0,0:0:0:0:
484,201,217129,2,0,L|477:257,1,47.5,2|2,0:0|0:0,0:0:0:0:
318,59,217387,2,2,L|254:65,1,47.5
187,79,217558,1,6,0:3:0:0:
187,79,217644,1,2,0:0:0:0:
187,79,217729,1,2,0:0:0:0:
344,160,217901,1,2,0:0:0:0:
167,245,218072,1,2,0:0:0:0:
288,355,218244,6,0,L|278:257,1,95,6|2,0:3|0:0,0:0:0:0:
462,157,218501,1,2,0:0:0:0:
442,111,218587,2,0,P|411:103|386:110,1,47.5,2|2,0:0|0:0,0:0:0:0:
268,165,218758,2,0,P|316:196|408:193,1,142.500005435944,2|6,0:0|0:3,0:0:0:0:
237,89,219015,2,0,L|217:255,1,142.500005435944,2|2,0:0|0:0,0:0:0:0:
168,352,219272,1,2,0:0:0:0:
122,366,219358,1,2,0:0:0:0:
75,356,219444,1,2,0:0:0:0:
40,324,219529,1,2,0:0:0:0:
28,277,219615,5,6,0:3:0:0:
40,116,219787,2,0,L|100:128,1,47.5,2|0,0:0|0:0,0:0:0:0:
157,221,219958,2,0,L|268:208,1,95,2|0,0:0|0:0,0:0:0:0:
290,182,220215,1,2,0:0:0:0:
337,174,220301,1,6,0:3:0:0:
383,186,220387,1,2,0:0:0:0:
414,221,220472,2,0,L|410:277,1,47.5,2|0,0:0|0:0,0:0:0:0:
320,319,220644,2,0,L|324:263,1,47.5,2|0,0:0|0:0,0:0:0:0:
285,104,220815,1,2,0:0:0:0:
466,120,220987,6,0,B|366:110,1,95,6|2,0:3|0:0,0:0:0:0:
234,31,221244,2,0,B|280:18|280:18|332:30,1,95,2|2,0:0|0:0,0:0:0:0:
293,150,221501,1,2,0:0:0:0:
293,150,221587,1,2,0:0:0:0:
293,150,221672,2,0,L|284:74,1,47.5,6|0,0:3|0:0,0:0:0:0:
140,44,221844,2,0,L|131:152,1,95,2|2,0:0|0:0,0:0:0:0:
30,256,222101,1,2,0:0:0:0:
45,217,222187,2,0,P|74:210|110:215,1,47.5,2|0,0:0|0:0,0:0:0:0:
239,262,222358,6,0,P|298:266|344:243,1,95,6|2,0:3|0:0,0:0:0:0:
424,266,222615,2,0,L|420:213,1,47.5,2|0,0:0|0:0,0:0:0:0:
291,34,222872,2,0,L|285:99,1,47.5,2|0,0:0|0:0,0:0:0:0:
279,174,223044,1,6,0:3:0:0:
279,174,223129,1,2,0:0:0:0:
279,174,223215,1,2,0:0:0:0:
450,93,223387,1,2,0:0:0:0:
206,105,223558,1,2,0:0:0:0:
384,233,223729,6,0,L|377:117,1,95,6|2,0:3|0:0,0:0:0:0:
450,93,223987,1,0,0:0:0:0:
500,158,224072,2,0,L|491:220,1,47.5,2|0,0:0|0:0,0:0:0:0:
421,328,224244,1,2,0:0:0:0:
421,328,224329,1,2,0:0:0:0:
421,328,224415,2,0,P|384:335|357:330,1,47.5,6|0,0:3|0:0,0:0:0:0:
292,171,224587,2,0,P|255:163|228:169,1,47.5,2|0,0:0|0:0,0:0:0:0:
121,348,224758,2,0,B|94:285|94:285|119:209,1,142.5,2|2,0:0|0:0,0:0:0:0:
259,251,225101,6,0,L|254:352,1,95,6|0,0:3|0:0,0:0:0:0:
241,361,225358,2,0,L|321:362,1,47.5,2|0,0:0|0:0,0:0:0:0:
187,152,225615,1,2,0:0:0:0:
155,130,225701,1,2,0:0:0:0:
117,123,225787,1,6,0:3:0:0:
80,131,225872,1,2,0:0:0:0:
50,154,225958,2,0,L|36:45,1,95,2|0,0:0|0:0,0:0:0:0:
26,239,226215,1,2,0:0:0:0:
46,265,226301,2,0,P|74:264|105:245,1,47.5,2|0,0:0|0:0,0:0:0:0:
187,152,226472,5,6,0:3:0:0:
312,221,226644,2,0,L|260:231,1,47.5,2|0,0:0|0:0,0:0:0:0:
182,244,226815,1,2,0:0:0:0:
359,133,226987,1,2,0:0:0:0:
394,163,227072,1,2,0:0:0:0:
410,207,227158,1,6,0:3:0:0:
406,254,227244,1,2,0:0:0:0:
382,294,227329,2,0,L|495:302,1,95,2|0,0:0|0:0,0:0:0:0:
308,361,227587,1,2,0:0:0:0:
285,325,227672,2,0,P|281:298|289:259,1,47.5,2|0,0:0|0:0,0:0:0:0:
247,172,227844,6,0,P|213:180|149:167,1,95,6|2,0:3|0:0,0:0:0:0:
171,24,228101,1,0,0:0:0:0:
205,50,228187,2,0,P|210:77|203:103,1,47.5,2|0,0:0|0:0,0:0:0:0:
18,279,228358,1,2,0:0:0:0:
74,270,228444,1,2,0:0:0:0:
130,263,228529,1,6,0:3:0:0:
186,255,228615,1,2,0:0:0:0:
242,248,228701,1,2,0:0:0:0:
63,187,228872,2,0,L|53:126,2,47.5,2|0|2,0:0|0:0|0:0,0:0:0:0:
186,346,229215,5,6,0:3:0:0:
204,343,229301,1,2,0:0:0:0:
222,341,229387,1,2,0:0:0:0:
240,339,229472,1,2,0:0:0:0:
258,337,229558,1,2,0:3:0:0:
276,335,229644,1,2,0:0:0:0:
294,333,229729,1,2,0:0:0:0:
312,331,229815,1,2,0:0:0:0:
330,329,229901,6,0,L|254:310,1,47.5,2|0,0:3|0:0,0:0:0:0:
311,162,230072,2,0,L|333:227,1,47.5,2|0,0:3|0:0,0:0:0:0:
426,153,230244,2,2,L|431:108,4,31.6666666666667
392,312,230587,6,0,B|336:332|336:332|244:316,1,142.5,2|2,0:3|0:0,0:0:0:0:
208,324,230929,6,0,L|220:236,1,56.9999982604981,6|0,0:3|0:0,0:0:0:0:
384,148,231101,2,0,L|388:216,1,56.9999982604981,2|0,0:0|0:0,0:0:0:0:
300,228,231272,5,2,0:0:0:0:
300,228,231358,1,2,0:0:0:0:
300,228,231444,1,2,0:0:0:0:
92,116,231615,2,0,B|148:132|148:132|224:120,1,113.999996520996,6|2,0:3|0:0,0:0:0:0:
292,48,231872,1,2,0:0:0:0:
308,44,231958,2,0,L|300:104,1,56.9999982604981,2|0,0:0|0:0,0:0:0:0:
120,228,232129,2,0,L|132:160,1,56.9999982604981,2|0,0:0|0:0,0:0:0:0:
148,92,232301,1,6,0:3:0:0:
396,152,232472,5,2,0:0:0:0:
396,152,232558,1,2,0:0:0:0:
396,152,232644,2,0,L|328:160,1,56.9999982604981,2|0,0:0|0:0,0:0:0:0:
244,272,232815,2,0,B|224:224|224:224|232:156,1,113.999996520996,2|6,0:0|0:3,0:0:0:0:
244,128,233072,2,0,L|176:120,1,56.9999982604981,2|0,0:0|0:0,0:0:0:0:
32,312,233329,2,2,B|64:300|64:300|148:312,1,113.999996520996
236,352,233587,1,2,0:0:0:0:
248,360,233672,6,0,L|256:280,1,56.9999982604981,6|0,0:3|0:0,0:0:0:0:
80,196,233844,2,0,L|84:280,1,56.9999982604981,2|0,0:0|0:0,0:0:0:0:
220,196,234015,1,2,0:0:0:0:
248,192,234101,1,2,0:0:0:0:
280,188,234187,1,2,0:0:0:0:
472,320,234358,2,0,B|452:268|452:268|468:192,1,113.999996520996,6|2,0:3|0:0,0:0:0:0:
484,140,234615,1,2,0:0:0:0:
416,84,234701,6,0,L|280:104,1,113.999996520996,2|2,0:0|0:0,0:0:0:0:
256,28,234958,1,0,0:0:0:0:
152,160,235044,2,0,B|208:156|208:156|280:172,1,113.999996520996,6|2,0:3|0:0,0:0:0:0:
300,244,235301,1,2,0:0:0:0:
376,200,235387,2,0,L|380:128,1,56.9999982604981,2|0,0:0|0:0,0:0:0:0:
256,28,235558,2,0,L|252:124,1,56.9999982604981,2|0,0:0|0:0,0:0:0:0:
296,320,235729,6,0,B|224:326|224:326|140:302,1,113.999996520996,6|2,0:3|0:0,0:0:0:0:
108,288,235987,1,2,0:0:0:0:
108,288,236072,1,2,0:0:0:0:
172,60,236244,1,2,0:0:0:0:
180,104,236329,1,2,0:0:0:0:
192,148,236415,1,6,0:3:0:0:
204,192,236501,1,2,0:0:0:0:
216,236,236587,2,0,L|284:220,1,56.9999982604981,2|0,0:0|0:0,0:0:0:0:
440,160,236758,5,2,0:0:0:0:
400,148,236844,1,2,0:0:0:0:
360,136,236929,1,2,0:0:0:0:
100,320,237101,6,0,B|92:260|92:260|124:172,1,113.999996520996,6|2,0:3|0:0,0:0:0:0:
272,204,237358,1,2,0:0:0:0:
271,222,237444,2,0,L|194:234,1,56.9999982604981,2|0,0:0|0:0,0:0:0:0:
40,116,237615,2,0,L|108:124,1,56.9999982604981,2|0,0:0|0:0,0:0:0:0:
196,48,237787,6,0,B|200:128|200:128|184:168,1,113.999996520996,6|2,0:3|0:0,0:0:0:0:
159,191,238044,1,2,0:0:0:0:
152,240,238129,1,2,0:0:0:0:
112,264,238215,1,2,0:0:0:0:
108,304,238301,2,0,B|160:328|160:328|240:312,1,113.999996520996,2|6,0:0|0:3,0:0:0:0:
320,300,238558,1,2,0:0:0:0:
340,304,238644,2,0,L|340:220,1,56.9999982604981,2|0,0:0|0:0,0:0:0:0:
296,132,238815,6,0,B|256:156|256:156|176:160,1,113.999996520996,2|2,0:0|0:0,0:0:0:0:
196,28,239072,2,0,L|200:92,1,56.9999982604981,2|6,0:0|0:3,0:0:0:0:
116,236,239244,1,2,0:0:0:0:
100,248,239329,2,0,L|88:168,1,56.9999982604981,2|0,0:0|0:0,0:0:0:0:
352,184,239501,1,2,0:0:0:0:
388,190,239587,1,2,0:0:0:0:
424,197,239672,1,2,0:0:0:0:
192,304,239844,6,0,B|128:324|128:324|64:312,1,113.999996520996,6|2,0:3|0:0,0:0:0:0:
22,228,240101,1,2,0:0:0:0:
5,210,240187,2,0,L|16:135,1,56.9999982604981,2|0,0:0|0:0,0:0:0:0:
157,76,240358,1,2,0:0:0:0:
182,88,240444,2,0,L|191:163,1,56.9999982604981,2|6,0:0|0:3,0:0:0:0:
192,304,240615,1,2,0:0:0:0:
213,330,240701,2,0,P|274:356|366:353,1,142.500005435944,2|2,0:0|0:0,0:0:0:0:
456,235,240958,2,0,P|386:202|292:211,1,142.500005435944,2|2,0:0|0:0,0:0:0:0:
148,233,241215,6,0,L|176:157,1,56.9999982604981,6|0,0:3|0:0,0:0:0:0:
235,102,241387,2,0,L|255:46,1,56.9999982604981,2|0,0:0|0:0,0:0:0:0:
424,112,241558,2,0,B|376:120|376:120|308:108,1,113.999996520996,2|2,0:0|0:0,0:0:0:0:
352,192,241815,1,2,0:0:0:0:
364,208,241901,2,0,L|344:288,1,56.9999982604981,6|0,0:3|0:0,0:0:0:0:
244,220,242072,5,2,0:0:0:0:
200,224,242158,1,2,0:0:0:0:
160,212,242244,1,2,0:0:0:0:
132,180,242329,1,2,0:0:0:0:
124,136,242415,2,0,B|136:92|136:92|124:24,1,113.999996520996,2|6,0:0|0:3,0:0:0:0:
16,68,242672,1,2,0:0:0:0:
0,88,242758,2,0,L|80:92,1,56.9999982604981,2|0,0:0|0:0,0:0:0:0:
216,148,242929,6,0,B|200:200|200:200|212:264,1,113.999996520996,2|2,0:0|0:0,0:0:0:0:
340,224,243187,1,2,0:0:0:0:
348,200,243272,2,0,L|280:208,1,56.9999982604981,6|0,0:3|0:0,0:0:0:0:
132,316,243444,1,2,0:0:0:0:
160,348,243529,1,2,0:0:0:0:
200,360,243615,1,2,0:0:0:0:
244,356,243701,1,2,0:0:0:0:
276,332,243787,1,2,0:0:0:0:
396,56,243958,5,6,0:3:0:0:
340,224,244129,1,2,0:0:0:0:
216,72,244301,2,2,B|192:104|192:104|196:184,1,113.999996520996
132,316,244558,2,0,L|128:244,1,56.9999982604981,2|6,0:0|0:3,0:0:0:0:
324,116,244729,1,2,0:0:0:0:
328,132,244815,2,0,L|264:140,1,56.9999982604981,2|0,0:0|0:0,0:0:0:0:
260,276,244987,1,2,0:0:0:0:
272,320,245072,1,2,0:0:0:0:
284,364,245158,1,2,0:0:0:0:
132,324,245329,5,6,0:3:0:0:
424,252,245501,1,2,0:0:0:0:
208,96,245672,2,0,P|232:168|244:224,1,113.999996520996,2|2,0:0|0:0,0:0:0:0:
324,216,245929,1,2,0:0:0:0:
372,304,246015,2,0,B|300:304|300:304|252:276,1,113.999996520996,6|2,0:3|0:0,0:0:0:0:
240,208,246272,1,0,0:0:0:0:
180,264,246358,2,0,P|144:268|96:260,1,56.9999982604981,2|0,0:0|0:0,0:0:0:0:
300,144,246529,2,0,P|336:140|384:148,1,56.9999982604981,2|0,0:0|0:0,0:0:0:0:
440,208,246701,6,0,B|452:136|452:136|436:80,1,113.999996520996,6|2,0:3|0:0,0:0:0:0:
360,44,246958,1,2,0:0:0:0:
268,48,247044,2,0,P|220:84|200:152,1,113.999996520996,2|2,0:0|0:0,0:0:0:0:
124,228,247301,1,2,0:0:0:0:
108,236,247387,2,0,L|96:156,1,56.9999982604981,6|0,0:3|0:0,0:0:0:0:
304,144,247558,1,2,0:0:0:0:
344,148,247644,1,2,0:0:0:0:
384,152,247729,1,2,0:0:0:0:
424,156,247815,1,2,0:0:0:0:
464,160,247901,1,2,0:0:0:0:
312,348,248072,6,0,B|324:280|324:280|312:232,1,113.999996520996,6|2,0:3|0:0,0:0:0:0:
236,212,248329,1,2,0:0:0:0:
236,212,248415,1,2,0:0:0:0:
56,56,248587,1,2,0:0:0:0:
64,92,248672,1,2,0:0:0:0:
76,132,248758,2,0,P|156:136|208:120,1,113.999996520996,6|0,0:3|0:0,0:0:0:0:
284,76,249015,2,0,L|284:168,1,56.9999982604981,2|0,0:0|0:0,0:0:0:0:
208,260,249187,2,0,L|204:196,1,56.9999982604981,2|0,0:0|0:0,0:0:0:0:
480,288,249444,6,0,B|438:299|438:299|359:269,1,113.999996520996,6|2,0:3|0:0,0:0:0:0:
252,340,249701,2,0,L|332:332,1,56.9999982604981,2|0,0:0|0:0,0:0:0:0:
424,132,249872,1,2,0:0:0:0:
444,128,249958,2,0,L|436:216,1,56.9999982604981,2|0,0:0|0:0,0:0:0:0:
147,208,250129,2,0,L|235:200,1,56.9999982604981,6|0,0:3|0:0,0:0:0:0:
340,260,250301,5,2,0:0:0:0:
332,212,250387,1,2,0:0:0:0:
328,168,250472,1,2,0:0:0:0:
324,124,250558,1,2,0:0:0:0:
320,76,250644,2,0,L|200:60,1,113.999996520996,2|6,0:0|0:3,0:0:0:0:
104,312,250987,1,2,0:0:0:0:
432,260,251158,5,2,0:3:0:0:
416,264,251244,1,2,0:0:0:0:
400,268,251329,1,2,0:0:0:0:
384,272,251415,1,2,0:0:0:0:
336,284,251501,5,2,0:3:0:0:
304,272,251587,1,2,0:0:0:0:
272,256,251672,1,2,0:0:0:0:
240,240,251758,1,2,0:0:0:0:
200,216,251844,6,0,L|140:220,1,47.5,2|2,0:3|0:0,0:0:0:0:
184,356,252015,2,0,L|196:292,1,47.5,2|2,0:3|0:0,0:0:0:0:
360,104,252187,2,2,L|356:156,4,31.6666666666667
208,236,252529,6,0,B|190:164|190:164|220:81,1,142.5,2|2,3:0|0:0,0:0:0:0:
230,67,252872,1,0,3:0:0:0:
414,266,253044,1,2,0:0:0:0:
414,266,253129,1,2,0:0:0:0:
414,266,253215,2,0,P|365:250|310:232,1,95,2|2,3:0|0:0,0:0:0:0:
295,218,253472,2,0,L|303:272,1,47.5,2|0,0:0|3:0,0:0:0:0:
306,55,253729,2,0,L|361:39,1,47.5,2|0,0:0|0:0,0:0:0:0:
429,16,253901,5,2,3:0:0:0:
241,131,254072,1,2,0:0:0:0:
358,143,254244,5,2,3:0:0:0:
200,36,254415,1,2,0:0:0:0:
492,127,254587,5,2,3:0:0:0:
286,187,254758,1,2,0:0:0:0:
287,200,254844,2,0,L|295:273,1,47.5,2|0,0:0|3:0,0:0:0:0:
476,227,255015,1,2,0:0:0:0:
475,240,255101,2,0,L|467:313,1,47.5,2|2,0:0|0:0,0:0:0:0:
301,345,255272,5,2,3:0:0:0:
424,104,255444,1,0,0:0:0:0:
424,104,255529,1,0,0:0:0:0:
424,104,255615,2,0,L|319:114,1,95,0|0,3:0|0:0,0:0:0:0:
247,154,255872,1,2,0:0:0:0:
251,116,255958,1,2,3:0:0:0:
255,78,256044,1,2,0:0:0:0:
260,40,256129,1,2,0:0:0:0:
331,198,256301,1,0,3:0:0:0:
159,81,256472,1,2,0:0:0:0:
329,113,256644,5,2,3:0:0:0:
145,168,256815,1,2,0:0:0:0:
145,168,256901,1,2,0:0:0:0:
145,168,256987,2,0,L|152:265,1,95,2|2,3:0|0:0,0:0:0:0:
137,298,257244,1,2,0:0:0:0:
170,281,257329,1,2,3:0:0:0:
208,282,257415,1,2,0:0:0:0:
244,293,257501,1,2,0:0:0:0:
61,231,257672,1,0,3:0:0:0:
194,369,257844,1,2,0:0:0:0:
302,225,258015,6,0,B|371:198|371:198|453:218,1,142.5,2|2,3:0|0:0,0:0:0:0:
477,234,258358,1,0,3:0:0:0:
238,29,258529,1,2,0:0:0:0:
238,29,258615,1,2,0:0:0:0:
238,29,258701,2,0,L|246:147,1,95,2|2,3:0|0:0,0:0:0:0:
252,156,258958,2,0,L|178:148,1,47.5,2|0,0:0|3:0,0:0:0:0:
369,346,259215,2,0,L|375:292,1,47.5,2|2,0:0|0:0,0:0:0:0:
386,216,259387,5,2,3:0:0:0:
278,328,259558,1,2,0:0:0:0:
389,194,259729,1,2,3:0:0:0:
461,350,259901,1,2,0:0:0:0:
391,173,260072,2,0,L|401:70,1,95,2|2,3:0|0:0,0:0:0:0:
423,56,260329,1,2,0:0:0:0:
423,56,260415,1,0,3:0:0:0:
410,204,260587,1,2,0:0:0:0:
300,101,260758,6,0,P|235:97|197:90,1,95,2|2,3:0|0:0,0:0:0:0:
179,73,261015,2,0,P|181:98|181:130,1,47.5,2|0,0:0|3:0,0:0:0:0:
56,238,261272,1,2,0:0:0:0:
56,238,261358,1,2,0:0:0:0:
56,238,261444,2,0,P|89:236|112:232,1,47.5,2|2,3:0|0:0,0:0:0:0:
237,337,261615,2,0,L|243:241,1,95,2|0,0:0|3:0,0:0:0:0:
248,160,261872,1,2,0:0:0:0:
250,142,261958,1,2,0:0:0:0:
153,342,262129,5,2,3:0:0:0:
324,290,262301,2,0,L|388:283,2,47.5,2|0|2,0:0|0:0|3:0,0:0:0:0:
158,219,262644,2,0,L|94:212,2,47.5,2|0|2,0:0|0:0|3:0,0:0:0:0:
321,165,262987,1,2,0:0:0:0:
242,242,263158,2,0,L|237:337,1,95,0|2,3:0|0:0,0:0:0:0:
182,53,263501,5,2,3:0:0:0:
297,67,263672,2,0,L|354:72,2,47.5,2|0|0,0:0|0:0|3:0,0:0:0:0:
182,53,264015,1,2,0:0:0:0:
373,55,264187,5,2,3:0:0:0:
160,78,264358,2,0,L|107:87,2,47.5,2|0|0,0:0|0:0|3:0,0:0:0:0:
373,55,264701,1,2,0:0:0:0:
200,196,264872,5,2,3:0:0:0:
290,44,265044,1,2,0:0:0:0:
298,271,265215,5,2,3:0:0:0:
225,111,265387,1,2,0:0:0:0:
412,161,265558,2,0,L|304:169,1,95,2|2,3:0|0:0,0:0:0:0:
303,140,265815,2,0,L|296:201,1,47.5,2|0,0:0|3:0,0:0:0:0:
212,302,265987,1,2,0:0:0:0:
202,318,266072,2,0,L|195:257,1,47.5,2|0,0:0|0:0,0:0:0:0:
113,177,266244,5,2,3:0:0:0:
306,262,266415,1,2,0:0:0:0:
306,262,266501,1,2,0:0:0:0:
306,262,266587,2,0,B|316:310|316:310|299:360,1,95,0|2,3:0|0:0,0:0:0:0:
187,325,266844,1,2,0:0:0:0:
172,313,266929,2,0,L|235:306,1,47.5,2|2,3:0|0:0,0:0:0:0:
361,175,267101,2,0,L|258:167,1,95,2|0,0:0|3:0,0:0:0:0:
188,161,267358,1,2,0:0:0:0:
188,161,267444,1,2,0:0:0:0:
34,248,267615,6,0,B|81:258|81:258|137:230,1,95,2|2,3:0|0:0,0:0:0:0:
59,73,267872,2,2,L|67:184,1,95,0|0,0:0|0:0,0:0:0:0:
201,300,268129,1,2,0:0:0:0:
201,300,268215,1,2,0:0:0:0:
201,300,268301,2,0,L|207:231,1,47.5,2|2,3:0|0:0,0:0:0:0:
220,145,268472,1,2,0:0:0:0:
291,335,268644,1,0,3:0:0:0:
122,237,268815,1,2,0:0:0:0:
288,250,268987,5,2,3:0:0:0:
319,71,269158,1,2,0:0:0:0:
352,168,269329,1,2,3:0:0:0:
419,41,269501,5,2,0:0:0:0:
419,41,269587,1,2,0:0:0:0:
419,41,269672,1,2,3:0:0:0:
446,273,269844,1,2,0:0:0:0:
352,168,270015,1,2,3:0:0:0:
470,158,270187,5,2,0:0:0:0:
470,158,270272,1,2,0:0:0:0:
470,158,270358,1,2,3:0:0:0:
249,179,270529,1,2,0:0:0:0:
376,338,270701,2,0,L|388:238,1,95,2|2,3:0|0:0,0:0:0:0:
326,90,271044,5,2,3:0:0:0:
480,250,271215,1,2,0:3:0:0:
480,250,271301,1,2,0:0:0:0:
270,302,271472,1,2,0:3:0:0:
270,302,271558,1,2,0:0:0:0:
61,92,271729,5,0,3:0:0:0:
106,79,271815,1,0,3:0:0:0:
151,92,271901,1,0,3:0:0:0:
180,129,271987,1,0,3:0:0:0:
191,174,272072,2,0,P|181:215|172:239,1,47.5,0|0,3:0|3:0,3:0:0:0:
270,302,272244,2,0,P|278:338|287:363,1,47.5,0|0,3:0|3:0,3:0:0:0:
411,287,272415,5,0,3:0:0:0:
444,253,272501,1,0,3:0:0:0:
454,206,272587,1,0,3:0:0:0:
439,161,272672,1,0,3:0:0:0:
409,123,272758,2,0,L|336:104,1,47.5,0|0,3:0|3:0,3:0:0:0:
179,219,272929,2,0,L|241:211,1,47.5,0|0,3:0|3:0,3:0:0:0:
359,207,273101,6,0,L|349:322,1,106.875004076958,8|2,0:3|2:0,0:0:0:0:
104,96,273615,1,2,0:0:0:0:
140,76,273701,1,2,0:0:0:0:
184,72,273787,1,2,0:0:0:0:
224,84,273872,1,2,0:0:0:0:
256,108,273958,1,2,0:0:0:0:
348,312,274129,5,2,0:0:0:0:
364,276,274215,1,2,0:0:0:0:
380,240,274301,1,2,0:0:0:0:
176,192,274472,2,0,L|100:208,1,71.2500027179719,2|2,3:0|0:0,0:0:0:0:
216,324,274815,1,0,3:0:0:0:
256,108,274987,1,2,0:0:0:0:
448,208,275158,5,2,3:0:0:0:
272,248,275329,1,2,0:0:0:0:
348,56,275501,2,0,B|356:108|356:108|344:152,1,71.2500027179719,0|2,3:0|0:0,0:0:0:0:
272,248,275844,1,2,3:0:0:0:
400,304,276015,1,2,0:0:0:0:
260,248,276187,1,2,3:0:0:0:
464,184,276358,1,2,0:0:0:0:
248,248,276529,6,0,L|172:256,1,71.2500027179719,2|2,3:0|0:0,0:0:0:0:
44,364,276872,2,0,L|132:352,1,71.2500027179719,0|2,3:0|0:0,0:0:0:0:
80,160,277215,2,0,B|68:220|68:220|84:268,1,106.875004076958,2|2,3:0|0:0,0:0:0:0:
189,289,277558,2,0,L|169:233,1,35.625001358986,0|2,3:0|0:0,0:0:0:0:
168,220,277729,1,2,0:0:0:0:
204,224,277815,1,2,0:0:0:0:
240,220,277901,1,2,3:0:0:0:
272,200,277987,1,2,0:0:0:0:
296,168,278072,1,2,0:0:0:0:
432,216,278244,5,0,3:0:0:0:
432,216,278329,1,2,0:0:0:0:
432,216,278415,1,2,0:0:0:0:
196,116,278587,2,0,P|144:64|96:56,1,106.875004076958,2|2,3:0|0:0,0:0:0:0:
56,112,278929,1,2,3:0:0:0:
124,288,279101,1,2,0:0:0:0:
160,280,279187,1,2,0:0:0:0:
200,272,279272,1,2,3:0:0:0:
236,264,279358,1,2,0:0:0:0:
272,256,279444,1,2,0:0:0:0:
388,72,279615,5,0,3:0:0:0:
408,104,279701,1,2,0:0:0:0:
408,144,279787,1,2,0:0:0:0:
272,256,279958,1,2,3:0:0:0:
452,312,280129,1,2,0:0:0:0:
312,124,280301,2,0,L|320:208,1,71.2500027179719,0|2,3:0|0:0,0:0:0:0:
120,288,280644,1,2,3:0:0:0:
328,268,280815,1,2,0:0:0:0:
126,217,280987,2,0,L|118:309,1,71.2500027179719,0|2,3:0|0:0,0:0:0:0:
384,192,281329,6,0,L|460:188,1,71.2500027179719,2|2,3:0|0:0,0:0:0:0:
256,271,281672,2,0,L|332:267,1,71.2500027179719,2|2,3:0|0:0,0:0:0:0:
156,336,282015,1,2,3:0:0:0:
408,268,282187,1,2,0:0:0:0:
264,176,282358,2,0,L|252:100,1,71.2500027179719,0|2,3:0|0:0,0:0:0:0:
456,200,282701,6,0,B|408:184|408:184|340:204,1,106.875004076958,2|2,3:0|0:0,0:0:0:0:
328,224,283044,1,0,3:0:0:0:
296,248,283129,1,2,0:0:0:0:
260,256,283215,1,2,0:0:0:0:
224,244,283301,1,2,0:0:0:0:
192,220,283387,6,0,L|156:220,2,35.625001358986,2|0|2,3:0|0:0|0:0,0:0:0:0:
380,120,283729,2,0,B|388:88|388:88|380:40,1,71.2500027179719,0|2,3:0|0:0,0:0:0:0:
264,168,284072,1,2,3:0:0:0:
56,88,284244,1,2,0:0:0:0:
56,88,284329,1,2,0:0:0:0:
56,88,284415,2,0,L|64:172,1,71.2500027179719,2|2,3:0|0:0,0:0:0:0:
216,96,284758,5,2,3:0:0:0:
252,80,284844,1,2,0:0:0:0:
296,88,284929,1,2,0:0:0:0:
184,296,285101,1,2,3:2:0:0:
172,256,285187,1,2,0:0:0:0:
160,216,285272,1,2,0:0:0:0:
436,68,285444,6,0,B|424:124|424:124|424:168|424:168|412:232,1,142.500005435944,2|0,3:0|3:0,0:0:0:0:
272,256,285958,1,2,0:0:0:0:
440,336,286129,1,2,3:0:0:0:
272,108,286301,1,2,0:0:0:0:
96,252,286472,2,0,L|92:168,1,71.2500027179719,0|2,3:0|0:0,0:0:0:0:
280,216,286815,1,2,3:0:0:0:
96,272,286987,1,2,0:0:0:0:
272,304,287158,6,0,L|280:220,1,71.2500027179719,2|2,3:0|0:0,0:0:0:0:
428,136,287501,2,0,P|368:140|332:128,1,71.2500027179719,2|2,3:0|0:0,0:0:0:0:
152,160,287844,2,0,P|212:156|248:168,1,71.2500027179719,0|2,3:0|0:0,0:0:0:0:
396,52,288187,1,2,3:0:0:0:
368,224,288358,1,2,0:0:0:0:
360,260,288444,1,2,0:0:0:0:
352,296,288529,1,0,3:0:0:0:
344,332,288615,1,2,0:0:0:0:
336,368,288701,1,2,0:0:0:0:
154,195,288872,6,0,L|150:127,2,35.625001358986,2|0|2,3:0|0:0|0:0,0:0:0:0:
120,296,289215,1,0,3:0:0:0:
160,305,289301,1,2,0:0:0:0:
199,290,289387,1,2,0:0:0:0:
360,320,289558,2,0,B|348:264|348:264|356:220|356:220|344:160,1,142.500005435944,2|2,3:0|3:0,0:0:0:0:
204,48,290072,1,2,0:0:0:0:
152,196,290244,5,2,3:0:0:0:
188,184,290329,1,2,0:0:0:0:
224,172,290415,1,2,0:0:0:0:
436,196,290587,2,0,L|392:208,2,35.625001358986,0|0|2,3:0|0:0|0:0,0:0:0:0:
360,320,290929,5,2,3:0:0:0:
188,184,291101,1,2,0:0:0:0:
416,40,291272,1,2,3:0:0:0:
368,208,291444,1,2,0:0:0:0:
120,80,291615,5,2,3:0:0:0:
188,328,291787,1,2,0:0:0:0:
240,168,291958,1,2,3:0:0:0:
432,264,292129,1,2,0:0:0:0:
188,328,292301,2,0,L|184:248,1,71.2500027179719,2|2,3:0|0:0,0:0:0:0:
368,80,292644,2,0,L|372:172,1,71.2500027179719,2|2,3:0|0:0,0:0:0:0:
296,248,292987,5,2,3:0:0:0:
120,80,293158,1,2,0:0:0:0:
88,248,293329,1,2,3:0:0:0:
200,184,293501,1,2,0:0:0:0:
300,252,293672,5,2,3:0:0:0:
312,276,293758,1,0,3:0:0:0:
340,292,293844,1,0,3:0:0:0:
372,296,293929,1,0,3:0:0:0:
400,284,294015,2,0,P|416:268|432:236,3,35.625001358986,0|0|0|0,3:0|3:0|3:0|3:0,3:0:0:0:
440,220,294358,5,0,3:0:0:0:
448,180,294444,1,0,3:0:0:0:
444,132,294529,1,0,3:0:0:0:
424,92,294615,1,0,3:0:0:0:
388,64,294701,5,0,3:0:0:0:
348,84,294787,1,0,3:0:0:0:
308,92,294872,1,0,3:0:0:0:
268,84,294958,1,0,3:0:0:0:
232,64,295044,6,0,P|208:60|172:64,7,35.625001358986,0|0|0|0|0|0|0|0,3:0|3:0|3:0|3:0|3:0|3:0|3:0|3:0,0:0:0:0:
156,76,295729,1,2,0:0:0:0:
164,116,295815,1,2,0:0:0:0:
172,156,295901,1,2,0:0:0:0:
180,196,295987,1,2,0:0:0:0:
136,232,296072,5,2,0:0:0:0:
128,268,296158,1,2,0:0:0:0:
120,308,296244,1,2,0:0:0:0:
112,348,296329,1,2,0:0:0:0:
256,192,296415,12,0,300529,0:0:0:0:
