osu file format v14

[General]
AudioFilename: audio.mp3
AudioLeadIn: 0
PreviewTime: 241550
Countdown: 0
SampleSet: Normal
StackLeniency: 0.6
Mode: 0
LetterboxInBreaks: 0
WidescreenStoryboard: 1

[Editor]
Bookmarks: 65998,131826,175712,197655,214112,241540,285426
DistanceSpacing: 3
BeatDivisor: 4
GridSize: 32
TimelineZoom: 1.9

[Metadata]
Title:Vengeful Spirit
TitleUnicode:Vengeful Spirit
Artist:gya9
ArtistUnicode:gya9
Creator:Neptunee
Version:Collab (Hau pls)
Source:
Tags:lilum records gya9
BeatmapID:1273802
BeatmapSetID:587094

[Difficulty]
HPDrainRate:7
CircleSize:4
OverallDifficulty:8
ApproachRate:9.3
SliderMultiplier:1.5
SliderTickRate:1

[Events]
//Background and Video events
0,0,"bg.jpg",0,0
//Break Periods
//Storyboard Layer 0 (Background)
//Storyboard Layer 1 (Fail)
//Storyboard Layer 2 (Pass)
//Storyboard Layer 3 (Foreground)
//Storyboard Sound Samples

[TimingPoints]
171,342.857142857143,4,1,0,100,1,0
171,-133.333333333333,4,1,0,40,0,0
11142,-100,4,1,0,40,0,0
16799,-100,4,1,0,65,0,0
22285,-133.333333333333,4,1,0,50,0,0
33085,-80,4,1,0,60,0,0
36171,-76.9230769230769,4,1,0,60,0,0
42685,-66.6666666666667,4,1,0,30,0,0
44056,685.714285714286,4,1,0,100,1,0
44056,-100,4,1,0,35,0,0
65998,342.857142857143,4,1,0,100,1,0
65998,-133.333333333333,4,1,0,50,0,0
87940,-100,4,1,0,100,0,0
108512,-50,4,1,0,20,0,0
109540,-50,4,1,0,100,0,0
109712,-50,4,1,0,5,0,0
109883,-66.6666666666667,4,1,0,100,0,1
111940,-133.333333333333,4,1,0,100,0,0
112626,-100,4,1,0,100,0,0
115369,-66.6666666666667,4,1,0,100,0,1
117426,-133.333333333333,4,1,0,100,0,0
118112,-100,4,1,0,100,0,0
120855,-66.6666666666667,4,1,0,100,0,1
122912,-133.333333333333,4,1,0,100,0,0
123598,-100,4,1,0,100,0,0
126340,-66.6666666666667,4,1,0,100,0,1
128398,-133.333333333333,4,1,0,100,0,0
129083,-100,4,1,0,100,0,0
131826,-66.6666666666667,4,1,0,80,0,1
148283,-80,4,1,0,80,0,0
151026,-100,4,1,0,80,0,0
153769,-133.333333333333,4,1,0,50,0,0
167483,-111.111111111111,4,1,0,50,0,0
170226,-100,4,1,0,50,0,0
171598,-90.9090909090909,4,1,0,50,0,0
175712,-200,4,1,0,100,0,0
185312,-100,4,1,0,100,0,0
186683,-200,4,1,0,100,0,0
196283,-100,4,1,0,100,0,0
196969,-200,4,1,0,100,0,0
197664,-62.5,4,1,0,100,0,0
214121,-62.5,4,1,0,100,0,0

[HitObjects]
91,112,171,6,0,L|95:185,1,56.2500021457673
205,250,513,2,0,L|217:188,1,56.2500021457673
325,104,856,2,0,L|341:175,1,56.2500021457673
391,266,1199,1,0,0:0:0:0:
493,142,1371,1,0,0:0:0:0:
391,266,1542,6,0,L|328:273,1,56.2500021457673
126,218,1885,2,0,L|190:213,1,56.2500021457673
355,143,2228,1,0,0:0:0:0:
310,279,2399,5,0,0:0:0:0:
282,282,2484,1,0,0:0:0:0:
254,286,2570,1,0,0:0:0:0:
226,290,2656,1,0,0:0:0:0:
198,294,2741,1,0,0:0:0:0:
170,298,2827,1,0,0:0:0:0:
142,302,2913,1,0,0:0:0:0:
5,186,3085,5,0,0:0:0:0:
210,140,3256,2,0,L|264:176,1,56.2500021457673
499,219,3599,2,0,L|433:177,1,56.2500021457673
246,290,3942,1,0,0:0:0:0:
477,285,4113,1,0,0:0:0:0:
290,187,4285,2,0,L|220:218,1,56.2500021457673
331,353,4628,6,0,L|358:290,1,56.2500021457673
419,132,4971,1,0,0:0:0:0:
268,235,5142,5,0,0:0:0:0:
244,250,5227,1,0,0:0:0:0:
219,263,5313,1,0,0:0:0:0:
193,272,5399,1,0,0:0:0:0:
165,277,5484,1,0,0:0:0:0:
137,278,5570,1,0,0:0:0:0:
109,275,5656,1,0,0:0:0:0:
11,94,5828,5,0,0:0:0:0:
199,156,5999,2,0,L|218:225,1,56.2500021457673
257,377,6342,2,0,L|186:367,1,56.2500021457673
11,332,6685,2,0,L|66:282,1,56.2500021457673
223,125,7028,5,0,0:0:0:0:
295,320,7199,1,0,0:0:0:0:
308,32,7371,5,0,0:0:0:0:
386,251,7542,1,0,0:0:0:0:
195,248,7713,1,0,0:0:0:0:
239,104,7885,5,0,0:0:0:0:
266,111,7970,1,0,0:0:0:0:
293,119,8056,1,0,0:0:0:0:
320,127,8142,1,0,0:0:0:0:
347,135,8227,1,0,0:0:0:0:
374,142,8313,1,0,0:0:0:0:
401,150,8399,1,0,0:0:0:0:
430,306,8571,5,0,0:0:0:0:
401,150,8742,2,0,L|340:134,1,56.2500021457673
239,177,9085,2,0,L|260:252,1,56.2500021457673
47,176,9428,2,0,L|105:127,1,56.2500021457673
354,97,9771,5,0,0:0:0:0:
384,126,9856,1,0,0:0:0:0:
402,166,9942,1,0,0:0:0:0:
410,207,10028,1,0,0:0:0:0:
404,247,10113,1,0,0:0:0:0:
385,284,10199,1,0,0:0:0:0:
383,324,10285,1,0,0:0:0:0:
397,363,10371,1,0,0:0:0:0:
357,321,10456,5,0,0:0:0:0:
323,286,10542,1,0,0:0:0:0:
269,264,10628,1,0,0:0:0:0:
211,270,10713,1,0,0:0:0:0:
191,320,10799,1,0,0:0:0:0:
237,355,10885,1,0,0:0:0:0:
283,319,10971,1,0,0:0:0:0:
269,264,11056,1,0,0:0:0:0:
226,232,11142,2,0,P|157:208|123:207,1,75
23,165,11485,6,0,P|44:222|69:253,1,75
252,157,11828,6,0,L|151:168,1,75
66,307,12171,6,0,L|152:300,1,75
340,199,12513,6,0,L|245:206,1,75
410,293,12856,6,0,P|450:251|458:211,1,75
366,98,13199,5,0,0:0:0:0:
150,191,13371,5,0,0:0:0:0:
187,195,13456,1,0,0:0:0:0:
224,200,13542,1,0,0:0:0:0:
261,205,13628,1,0,0:0:0:0:
298,209,13713,1,0,0:0:0:0:
336,214,13799,1,0,0:0:0:0:
373,219,13885,1,0,0:0:0:0:
404,367,14056,5,0,0:0:0:0:
414,123,14228,1,0,0:0:0:0:
414,123,14399,1,0,0:0:0:0:
179,235,14571,1,0,0:0:0:0:
179,235,14742,1,0,0:0:0:0:
325,175,14913,6,0,L|298:266,1,75
87,128,15256,6,0,L|173:89,1,75
381,159,15599,6,0,L|286:211,1,75
117,302,15942,1,0,0:0:0:0:
192,111,16113,1,0,0:0:0:0:
201,136,16199,1,0,0:0:0:0:
211,165,16285,1,0,0:0:0:0:
222,194,16371,2,0,L|236:239,3,37.5
206,363,16799,5,0,0:0:0:0:
71,222,16971,1,0,0:0:0:0:
220,269,17142,1,0,0:0:0:0:
36,361,17313,1,0,0:0:0:0:
126,129,17485,1,0,0:0:0:0:
83,296,17656,5,0,0:0:0:0:
291,163,17828,1,0,0:0:0:0:
280,316,17999,1,0,0:0:0:0:
140,75,18171,1,0,0:0:0:0:
391,162,18342,1,0,0:0:0:0:
232,123,18513,5,0,0:0:0:0:
192,354,18685,1,0,0:0:0:0:
25,212,18856,1,0,0:0:0:0:
320,213,19028,1,0,0:0:0:0:
121,330,19199,2,0,P|113:293|113:279,1,37.5
112,266,19371,5,0,0:0:0:0:
116,240,19456,1,0,0:0:0:0:
128,217,19542,1,0,0:0:0:0:
148,197,19628,1,0,0:0:0:0:
166,171,19713,1,0,0:0:0:0:
172,138,19799,1,0,0:0:0:0:
163,103,19885,1,0,0:0:0:0:
136,78,19971,1,0,0:0:0:0:
102,68,20056,1,0,0:0:0:0:
71,84,20142,5,0,0:0:0:0:
57,117,20228,1,0,0:0:0:0:
70,151,20313,1,0,0:0:0:0:
102,168,20399,1,0,0:0:0:0:
136,163,20485,1,0,0:0:0:0:
164,143,20571,1,0,0:0:0:0:
203,134,20656,1,0,0:0:0:0:
236,139,20742,1,0,0:0:0:0:
256,192,20913,12,0,22113,0:0:0:0:
381,304,22285,5,0,0:0:0:0:
219,285,22456,2,0,P|151:261|144:257,1,56.2500021457673
116,149,22799,1,0,0:0:0:0:
293,159,22971,1,0,0:0:0:0:
219,285,23142,2,0,P|206:245|204:207,1,56.2500021457673
223,83,23485,5,0,0:0:0:0:
283,235,23656,1,0,0:0:0:0:
223,83,23828,2,0,P|241:147|241:156,1,56.2500021457673
217,286,24171,1,0,0:0:0:0:
84,223,24342,5,0,0:0:0:0:
92,212,24428,1,0,0:0:0:0:
103,203,24513,1,0,0:0:0:0:
115,194,24599,1,0,0:0:0:0:
129,188,24685,1,0,0:0:0:0:
142,183,24771,1,0,0:0:0:0:
157,180,24856,1,0,0:0:0:0:
366,215,25028,5,0,0:0:0:0:
233,259,25199,2,0,P|189:262|171:257,1,56.2500021457673
36,197,25542,1,0,0:0:0:0:
207,185,25713,1,0,0:0:0:0:
36,197,25885,2,0,P|83:206|97:205,1,56.2500021457673
185,115,26228,5,0,0:0:0:0:
147,261,26399,1,0,0:0:0:0:
107,99,26571,2,0,P|132:55|152:40,1,56.2500021457673
318,72,26913,1,0,0:0:0:0:
238,214,27085,5,0,0:0:0:0:
228,221,27171,1,0,0:0:0:0:
216,228,27256,1,0,0:0:0:0:
203,232,27342,1,0,0:0:0:0:
189,234,27428,1,0,0:0:0:0:
174,232,27513,1,0,0:0:0:0:
161,227,27599,1,0,0:0:0:0:
179,53,27771,5,0,0:0:0:0:
277,160,27942,2,0,P|301:202|305:223,1,56.2500021457673
257,357,28285,1,0,0:0:0:0:
164,210,28456,1,0,0:0:0:0:
272,84,28628,2,0,P|330:79|352:81,1,56.2500021457673
403,230,28971,5,0,0:0:0:0:
371,86,29142,1,0,0:0:0:0:
403,230,29313,2,0,P|396:290|395:309,1,56.2500021457673
475,143,29656,1,0,0:0:0:0:
321,47,29828,5,0,0:0:0:0:
319,62,29913,1,0,0:0:0:0:
317,78,29999,1,0,0:0:0:0:
314,93,30085,1,0,0:0:0:0:
312,107,30171,1,0,0:0:0:0:
309,121,30256,1,0,0:0:0:0:
307,136,30342,1,0,0:0:0:0:
321,323,30513,5,0,0:0:0:0:
215,144,30685,1,0,0:0:0:0:
224,281,30856,1,0,0:0:0:0:
360,105,31028,1,0,0:0:0:0:
482,231,31199,1,0,0:0:0:0:
360,105,31371,2,0,P|298:98|281:98,1,56.2500021457673
81,109,31713,5,0,0:0:0:0:
95,154,31799,1,0,0:0:0:0:
131,185,31885,1,0,0:0:0:0:
180,174,31971,1,0,0:0:0:0:
212,135,32056,1,0,0:0:0:0:
251,103,32142,1,0,0:0:0:0:
298,88,32228,1,0,0:0:0:0:
348,88,32313,1,0,0:0:0:0:
396,108,32399,5,0,0:0:0:0:
416,155,32485,1,0,0:0:0:0:
398,202,32571,1,0,0:0:0:0:
351,220,32656,1,0,0:0:0:0:
307,197,32742,1,0,0:0:0:0:
291,150,32828,1,0,0:0:0:0:
265,108,32913,1,0,0:0:0:0:
224,82,32999,1,0,0:0:0:0:
176,71,33085,2,0,P|109:96|87:122,1,93.75
185,334,33428,6,0,L|174:223,1,93.75
97,347,33771,1,0,0:0:0:0:
315,262,33942,1,0,0:0:0:0:
164,148,34113,2,0,P|176:225|198:269,1,93.75
312,341,34456,5,0,0:0:0:0:
318,185,34628,1,0,0:0:0:0:
208,85,34799,2,0,P|126:82|115:91,1,93.75
170,276,35142,1,0,0:0:0:0:
326,73,35313,5,0,0:0:0:0:
324,98,35399,1,0,0:0:0:0:
322,123,35485,1,0,0:0:0:0:
320,150,35571,2,0,L|315:205,3,46.875
369,353,35999,5,0,0:0:0:0:
455,156,36171,2,0,L|462:56,1,97.4999955368044
262,83,36513,1,0,0:0:0:0:
443,240,36685,1,0,0:0:0:0:
255,316,36856,2,0,B|202:331|202:331|125:323,1,97.4999955368044
34,243,37199,5,0,0:0:0:0:
251,154,37371,1,0,0:0:0:0:
34,243,37542,2,0,B|89:259|89:259|152:249,1,97.4999955368044
199,80,37885,1,0,0:0:0:0:
96,183,38056,5,0,0:0:0:0:
111,203,38142,1,0,0:0:0:0:
129,225,38228,1,0,0:0:0:0:
146,247,38313,1,0,0:0:0:0:
160,266,38399,1,0,0:0:0:0:
178,285,38485,1,0,0:0:0:0:
194,304,38571,1,0,0:0:0:0:
377,375,38742,5,0,0:0:0:0:
456,226,38913,2,0,B|420:189|420:189|374:184,1,97.4999955368044
166,238,39256,1,0,0:0:0:0:
358,312,39428,1,0,0:0:0:0:
202,129,39599,2,0,B|153:115|153:115|82:149,1,97.4999955368044
168,308,39942,1,0,0:0:0:0:
303,154,40113,1,0,0:0:0:0:
110,130,40285,2,0,L|153:259,1,97.4999955368044
263,341,40628,1,0,0:0:0:0:
42,291,40799,5,0,0:0:0:0:
75,279,40885,1,0,0:0:0:0:
106,269,40971,1,0,0:0:0:0:
138,256,41056,1,0,0:0:0:0:
169,248,41142,1,0,0:0:0:0:
202,237,41228,1,0,0:0:0:0:
231,227,41313,1,0,0:0:0:0:
439,183,41485,5,0,0:0:0:0:
237,61,41656,2,0,L|285:160,1,97.4999955368044
367,307,41999,1,0,0:0:0:0:
409,93,42171,1,0,0:0:0:0:
241,260,42342,2,0,L|140:256,1,97.4999955368044
228,65,42685,6,0,B|286:78|286:78|313:104|345:117|345:117|311:117|275:147|275:147|264:139,1,168.750006437302
242,142,43028,2,0,B|189:197|207:258|207:258|232:258|246:242,1,168.750006437302
300,191,43371,2,0,B|367:142|480:201|430:332|356:344|296:287|296:287|356:240,1,393.750015020371
226,232,44056,6,0,B|155:219|96:244|96:244|100:190|100:190|57:176|38:143,1,262.5
130,88,45427,6,0,B|176:117|263:97|263:97|318:168|385:189,1,262.5
355,75,46798,6,0,P|302:18|213:146,1,262.5
274,97,48170,6,0,P|249:184|121:128,1,262.5
188,35,49541,6,0,B|283:0|357:49|357:49|344:101|361:141,1,262.5
353,291,50913,6,0,B|314:348|239:360|239:360|201:340|201:340|159:363|96:356,1,262.5
11,295,52284,6,0,B|23:245|100:242|100:242|137:215|122:155|122:155|46:172|46:153,1,262.5
92,54,53656,6,0,L|142:50,1,37.5
208,134,53998,2,0,L|268:130,1,37.5
203,43,54341,6,0,L|142:50,1,37.5
327,125,54684,2,0,L|268:130,1,37.5
159,115,55027,6,0,P|162:173|335:221,1,262.5
212,322,56398,6,0,B|111:296|83:188|83:188|81:265,1,262.5
68,356,57770,6,0,B|34:331|4:324|4:324|11:256|11:256|6:196|6:196|14:149|35:112,1,262.5
117,202,59141,6,0,B|160:245|241:249|241:249|246:170|170:117,1,262.5
119,132,60513,6,0,B|65:135|65:135|34:168|-4:173|-4:173|36:174|70:204|70:204|132:201,1,262.5
268,163,61884,6,0,P|337:185|230:240,1,262.5
179,305,63256,6,0,B|211:363|291:383|356:351|356:351|382:313|421:297,1,262.5
411,212,64627,6,0,L|342:203,1,37.5
314,113,64970,2,0,L|262:105,1,37.5
285,196,65313,6,0,L|342:203,1,37.5
202,97,65656,2,0,L|262:105,1,37.5
448,128,65998,6,0,L|448:256,1,112.500004291535
448,352,66512,1,0,0:0:0:0:
320,256,66683,2,0,P|256:224|192:224,1,112.500004291535
96,224,67369,1,0,0:0:0:0:
160,96,67540,1,0,0:0:0:0:
192,256,67712,1,0,0:0:0:0:
256,128,67883,1,0,0:0:0:0:
320,288,68055,2,0,P|352:320|416:288,1,112.500004291535
416,160,68740,6,0,P|384:128|320:96,1,112.500004291535
192,64,69255,1,0,0:0:0:0:
96,160,69426,2,0,P|160:160|192:192,1,112.500004291535
224,256,70112,1,0,0:0:0:0:
352,192,70283,1,0,0:0:0:0:
288,320,70455,1,0,0:0:0:0:
384,256,70626,1,0,0:0:0:0:
320,384,70798,2,0,P|384:352|384:320,1,112.500004291535
352,160,71312,1,0,0:0:0:0:
256,224,71483,6,0,P|192:224|160:192,1,112.500004291535
224,160,71998,1,0,0:0:0:0:
192,96,72169,2,0,P|256:96|288:128,1,112.500004291535
320,224,72855,5,0,0:0:0:0:
192,288,73026,1,0,0:0:0:0:
384,288,73198,1,0,0:0:0:0:
256,352,73369,1,0,0:0:0:0:
416,352,73540,2,0,P|448:320|448:256,1,112.500004291535
416,128,74055,1,0,0:0:0:0:
448,64,74226,6,0,P|384:64|352:96,1,112.500004291535
352,224,74740,1,0,0:0:0:0:
256,128,74912,2,0,P|224:96|160:96,1,112.500004291535
64,160,75426,1,0,0:0:0:0:
96,288,75598,6,0,L|160:288,1,56.2500021457673
256,288,75940,2,0,L|256:224,1,56.2500021457673
256,128,76283,2,0,L|320:128,1,56.2500021457673
416,128,76626,2,0,L|416:64,1,56.2500021457673
320,32,76969,6,0,P|256:32|224:64,1,112.500004291535
192,160,77483,1,0,0:0:0:0:
96,224,77655,2,0,P|160:256|224:256,1,112.500004291535
288,256,78340,5,0,0:0:0:0:
288,128,78512,1,0,0:0:0:0:
384,192,78683,1,0,0:0:0:0:
192,192,78855,1,0,0:0:0:0:
192,96,79026,2,0,P|128:96|96:128,1,112.500004291535
96,256,79540,1,0,0:0:0:0:
224,256,79712,6,0,P|288:256|320:224,1,112.500004291535
320,96,80226,1,0,0:0:0:0:
416,96,80398,2,0,P|448:128|448:192,1,112.500004291535
416,288,81083,5,0,0:0:0:0:
224,288,81255,1,0,0:0:0:0:
320,352,81426,1,0,0:0:0:0:
320,224,81598,1,0,0:0:0:0:
192,224,81769,2,0,P|160:224|128:160,1,112.500004291535
128,64,82283,1,0,0:0:0:0:
256,64,82455,6,0,P|320:96|320:128,1,112.500004291535
320,224,82969,1,0,0:0:0:0:
448,224,83140,2,0,P|480:192|480:128,1,112.500004291535
448,32,83826,5,0,0:0:0:0:
288,128,83998,1,0,0:0:0:0:
384,64,84169,1,0,0:0:0:0:
224,160,84340,1,0,0:0:0:0:
192,96,84512,2,0,P|128:96|96:128,1,112.500004291535
64,224,85026,1,0,0:0:0:0:
256,192,85198,12,0,87769,0:0:0:0:
32,32,87940,6,0,L|96:96,1,75
192,96,88283,2,0,L|128:32,1,75
128,128,88626,2,0,L|192:192,1,75
288,192,88969,2,0,L|224:128,1,75
224,224,89312,6,0,L|288:288,1,75
384,288,89655,2,0,L|320:224,1,75
320,320,89998,2,0,L|384:384,1,75
448,352,90255,2,0,L|416:320,1,37.5
384,288,90426,2,0,L|352:256,1,37.5
320,224,90683,6,0,L|256:160,1,75
224,224,91026,2,0,L|288:288,1,75
352,192,91369,2,0,L|288:128,1,75
192,256,91712,2,0,L|256:320,1,75
384,160,92055,6,0,L|320:96,1,75
160,288,92398,2,0,L|224:352,1,75
416,128,92740,2,0,L|352:64,1,75
256,128,92998,2,0,L|288:160,1,37.5
352,128,93169,2,0,L|320:96,1,37.5
480,32,93426,6,0,L|416:96,1,75
320,96,93769,2,0,L|384:32,1,75
384,128,94112,2,0,L|320:192,1,75
224,192,94455,2,0,L|288:128,1,75
288,224,94798,6,0,L|224:288,1,75
128,288,95140,2,0,L|192:224,1,75
192,320,95483,2,0,L|128:384,1,75
64,352,95740,2,0,L|96:320,1,37.5
128,288,95912,2,0,L|160:256,1,37.5
192,192,96169,6,0,L|256:256,1,75
288,192,96512,2,0,L|224:128,1,75
160,224,96855,2,0,L|224:288,1,75
320,160,97198,2,0,L|256:96,1,75
128,256,97540,6,0,L|192:320,1,75
288,224,97798,2,0,L|256:192,1,37.5
192,224,97969,2,0,L|224:256,1,37.5
352,128,98226,2,0,L|288:64,1,75
192,160,98483,2,0,L|224:192,1,37.5
288,160,98655,2,0,L|256:128,1,37.5
128,288,98912,5,0,0:0:0:0:
288,96,99255,1,0,0:0:0:0:
288,288,99598,1,0,0:0:0:0:
128,288,99940,1,0,0:0:0:0:
288,96,100283,5,0,0:0:0:0:
288,288,100626,1,0,0:0:0:0:
128,96,100969,1,0,0:0:0:0:
128,256,101140,2,0,L|128:320,1,37.5
192,288,101312,2,0,L|192:224,1,37.5
192,192,101483,2,0,L|192:128,1,37.5
192,96,101655,5,0,0:0:0:0:
352,288,101998,1,0,0:0:0:0:
352,96,102340,1,0,0:0:0:0:
192,96,102683,1,0,0:0:0:0:
352,96,103026,5,0,0:0:0:0:
192,288,103369,1,0,0:0:0:0:
352,288,103712,1,0,0:0:0:0:
352,128,103883,2,0,L|352:64,1,37.5
288,96,104055,2,0,L|288:160,1,37.5
288,192,104226,2,0,L|288:256,1,37.5
288,288,104398,5,0,0:0:0:0:
136,178,104569,1,0,0:0:0:0:
219,345,104740,1,0,0:0:0:0:
214,156,104912,1,0,0:0:0:0:
131,323,105083,1,0,0:0:0:0:
283,212,105255,1,0,0:0:0:0:
99,246,105426,1,0,0:0:0:0:
282,286,105598,1,0,0:0:0:0:
468,301,105769,5,0,0:0:0:0:
396,128,105940,1,0,0:0:0:0:
384,315,106112,1,0,0:0:0:0:
474,151,106283,1,0,0:0:0:0:
319,258,106455,1,0,0:0:0:0:
502,223,106626,1,0,0:0:0:0:
321,168,106798,1,0,0:0:0:0:
462,289,106969,1,0,0:0:0:0:
237,287,107140,5,0,0:0:0:0:
165,88,107312,1,0,0:0:0:0:
300,247,107483,1,0,0:0:0:0:
112,150,107655,1,0,0:0:0:0:
321,151,107826,5,0,0:0:0:0:
450,317,107998,1,0,0:0:0:0:
399,113,108169,1,0,0:0:0:0:
369,320,108340,1,0,0:0:0:0:
281,80,108512,5,0,0:0:0:0:
226,121,108683,1,0,0:0:0:0:
178,170,108855,1,0,0:0:0:0:
145,230,109026,1,0,0:0:0:0:
116,299,109198,1,0,0:0:0:0:
96,371,109369,1,0,0:0:0:0:
170,372,109540,2,0,P|199:279|250:208,1,150
322,95,109883,5,0,0:0:0:0:
358,260,110055,1,0,0:0:0:0:
358,260,110226,1,0,0:0:0:0:
229,150,110398,1,0,0:0:0:0:
265,314,110569,1,0,0:0:0:0:
265,314,110740,1,0,0:0:0:0:
112,147,110912,1,0,0:0:0:0:
317,237,111083,1,0,0:0:0:0:
95,282,111255,5,0,0:0:0:0:
276,150,111426,1,0,0:0:0:0:
171,350,111598,1,0,0:0:0:0:
194,126,111769,1,0,0:0:0:0:
223,234,111940,2,0,B|285:289|285:289|331:278,1,112.500004291535
384,224,112626,6,0,P|366:170|338:145,1,75
447,193,112969,2,0,P|421:136|391:104,1,75
309,39,113312,2,0,P|257:56|227:92,1,75
320,96,113655,2,0,P|279:118|256:160,1,75
157,242,113998,5,0,0:0:0:0:
304,218,114169,1,0,0:0:0:0:
171,148,114340,1,0,0:0:0:0:
235,284,114512,1,0,0:0:0:0:
277,63,114683,1,0,0:0:0:0:
162,257,114855,1,0,0:0:0:0:
346,128,115026,1,0,0:0:0:0:
128,186,115198,1,0,0:0:0:0:
351,203,115369,5,0,0:0:0:0:
220,96,115540,1,0,0:0:0:0:
220,96,115712,1,0,0:0:0:0:
384,130,115883,1,0,0:0:0:0:
307,36,116055,1,0,0:0:0:0:
307,36,116226,1,0,0:0:0:0:
476,34,116398,1,0,0:0:0:0:
281,145,116569,1,0,0:0:0:0:
504,119,116740,5,0,0:0:0:0:
298,212,116912,1,0,0:0:0:0:
512,198,117083,1,0,0:0:0:0:
302,281,117255,1,0,0:0:0:0:
505,269,117426,2,0,B|456:308|456:308|406:307,1,112.500004291535
320,179,118112,6,0,P|288:136|284:102,1,75
372,144,118455,2,0,P|347:109|346:72,1,75
297,253,118798,2,0,P|269:277|255:323,1,75
236,215,119140,2,0,P|206:253|196:309,1,75
59,217,119483,5,0,0:0:0:0:
164,109,119655,1,0,0:0:0:0:
139,256,119826,1,0,0:0:0:0:
85,115,119998,1,0,0:0:0:0:
268,244,120169,1,0,0:0:0:0:
50,186,120340,1,0,0:0:0:0:
271,140,120512,1,0,0:0:0:0:
81,260,120683,1,0,0:0:0:0:
200,68,120855,5,0,0:0:0:0:
347,148,121026,1,0,0:0:0:0:
347,148,121198,1,0,0:0:0:0:
200,68,121369,1,0,0:0:0:0:
240,231,121540,1,0,0:0:0:0:
240,231,121712,1,0,0:0:0:0:
301,74,121883,1,0,0:0:0:0:
128,219,122055,1,0,0:0:0:0:
349,180,122226,5,0,0:0:0:0:
139,94,122398,1,0,0:0:0:0:
276,271,122569,1,0,0:0:0:0:
228,51,122740,1,0,0:0:0:0:
216,163,122912,2,0,B|168:210|168:210|167:261,1,112.500004291535
302,308,123598,6,0,P|333:262|368:244,1,75
282,283,123940,2,0,P|333:254|361:250,1,75
337,193,124283,2,0,P|284:183|243:196,1,75
330,159,124626,2,0,P|273:176|254:204,1,75
209,242,124969,5,0,0:0:0:0:
248,97,125140,1,0,0:0:0:0:
309,234,125312,1,0,0:0:0:0:
181,156,125483,1,0,0:0:0:0:
406,141,125655,1,0,0:0:0:0:
201,232,125826,1,0,0:0:0:0:
359,71,125998,1,0,0:0:0:0:
283,282,126169,1,0,0:0:0:0:
477,118,126340,5,0,0:0:0:0:
311,153,126512,1,0,0:0:0:0:
311,153,126683,1,0,0:0:0:0:
142,136,126855,1,0,0:0:0:0:
311,153,127026,1,0,0:0:0:0:
311,153,127198,1,0,0:0:0:0:
186,284,127369,1,0,0:0:0:0:
270,76,127540,1,0,0:0:0:0:
293,299,127712,5,0,0:0:0:0:
373,89,127883,1,0,0:0:0:0:
391,313,128055,1,0,0:0:0:0:
449,96,128226,1,0,0:0:0:0:
475,323,128398,2,0,B|478:261|478:261|449:212,1,112.500004291535
446,116,129083,6,0,P|408:104|371:75,1,75
351,168,129426,2,0,P|397:183|434:216,1,75
280,82,129769,2,0,P|231:86|192:65,1,75
176,153,130112,2,0,P|226:168|258:197,1,75
311,315,130455,5,0,0:0:0:0:
308,165,130626,1,0,0:0:0:0:
435,303,130798,1,0,0:0:0:0:
255,251,130969,1,0,0:0:0:0:
460,161,131140,1,0,0:0:0:0:
304,324,131312,1,0,0:0:0:0:
362,107,131483,1,0,0:0:0:0:
400,329,131655,1,0,0:0:0:0:
235,217,131826,6,0,P|168:230|106:264,1,112.500004291535
227,353,132169,1,0,0:0:0:0:
162,101,132340,1,0,0:0:0:0:
106,260,132512,1,0,0:0:0:0:
363,228,132683,1,0,0:0:0:0:
156,187,132855,2,0,P|187:300|184:309,1,112.500004291535
59,166,133198,5,0,0:0:0:0:
258,236,133369,1,0,0:0:0:0:
75,252,133540,1,0,0:0:0:0:
320,95,133712,1,0,0:0:0:0:
191,273,133883,1,0,0:0:0:0:
200,29,134055,1,0,0:0:0:0:
296,182,134226,2,0,L|272:300,1,112.500004291535
373,164,134569,5,0,0:0:0:0:
276,289,134740,1,0,0:0:0:0:
326,39,134912,1,0,0:0:0:0:
306,232,135083,1,0,0:0:0:0:
493,174,135255,1,0,0:0:0:0:
196,126,135426,1,0,0:0:0:0:
102,271,135598,2,0,L|225:248,1,112.500004291535
371,172,135940,5,0,0:0:0:0:
230,98,136112,1,0,0:0:0:0:
234,256,136283,1,0,0:0:0:0:
411,93,136455,1,0,0:0:0:0:
234,256,136626,1,0,0:0:0:0:
249,27,136798,1,0,0:0:0:0:
234,256,136969,2,0,P|221:154|212:129,1,112.500004291535
130,32,137312,5,0,0:0:0:0:
137,211,137483,1,0,0:0:0:0:
398,42,137655,1,0,0:0:0:0:
168,119,137826,1,0,0:0:0:0:
319,315,137998,1,0,0:0:0:0:
358,107,138169,1,0,0:0:0:0:
207,260,138340,2,0,P|129:292|85:286,1,112.500004291535
269,317,138683,5,0,0:0:0:0:
92,117,138855,1,0,0:0:0:0:
106,273,139026,1,0,0:0:0:0:
410,174,139198,1,0,0:0:0:0:
125,77,139369,1,0,0:0:0:0:
253,268,139540,1,0,0:0:0:0:
236,89,139712,2,0,L|108:75,1,112.500004291535
130,332,140055,5,0,0:0:0:0:
327,161,140226,1,0,0:0:0:0:
146,227,140398,1,0,0:0:0:0:
307,334,140569,1,0,0:0:0:0:
327,161,140740,1,0,0:0:0:0:
17,221,140912,1,0,0:0:0:0:
245,276,141083,2,0,L|253:145,1,112.500004291535
334,251,141426,5,0,0:0:0:0:
345,39,141598,1,0,0:0:0:0:
69,190,141769,2,0,L|189:187,1,112.500004291535
272,290,142112,5,0,0:0:0:0:
131,35,142283,1,0,0:0:0:0:
204,306,142455,5,0,0:0:0:0:
205,20,142626,1,0,0:0:0:0:
387,228,142798,6,0,B|319:223|299:231|299:231|271:249|271:249|205:230|205:230|177:238|145:238,1,225.000008583069
337,306,143312,1,0,0:0:0:0:
409,89,143483,1,0,0:0:0:0:
167,139,143655,1,0,0:0:0:0:
337,306,143826,2,0,P|333:226|330:174,1,112.500004291535
261,340,144169,5,0,0:0:0:0:
464,178,144340,1,0,0:0:0:0:
390,354,144512,1,0,0:0:0:0:
227,96,144683,1,0,0:0:0:0:
485,249,144855,1,0,0:0:0:0:
165,204,145026,1,0,0:0:0:0:
375,260,145198,2,0,P|451:260|489:246,1,112.500004291535
420,103,145540,5,0,0:0:0:0:
272,319,145712,1,0,0:0:0:0:
484,189,145883,1,0,0:0:0:0:
253,101,146055,1,0,0:0:0:0:
484,189,146226,1,0,0:0:0:0:
272,319,146398,1,0,0:0:0:0:
41,228,146569,2,0,B|46:164|46:164|81:101,1,112.500004291535
126,326,146912,5,0,0:0:0:0:
30,147,147083,1,0,0:0:0:0:
248,152,147255,1,0,0:0:0:0:
126,246,147426,1,0,0:0:0:0:
188,51,147598,5,0,0:0:0:0:
272,361,147769,1,0,0:0:0:0:
271,47,147940,5,0,0:0:0:0:
187,357,148111,1,0,0:0:0:0:
121,184,148283,6,0,P|186:173|221:175,1,93.75
313,241,148798,6,0,P|325:312|338:341,1,93.75
406,370,149140,1,0,0:0:0:0:
423,297,149312,2,0,P|406:237|407:193,1,93.75
250,155,149826,5,0,0:0:0:0:
256,163,149998,2,0,L|143:176,1,93.75
117,235,150340,2,0,P|157:265|160:319,1,93.75
86,304,150683,5,0,0:0:0:0:
51,199,150855,1,0,0:0:0:0:
163,167,151026,2,0,P|219:159|261:168,1,75
317,376,151540,5,0,0:0:0:0:
317,376,151712,2,0,L|313:285,1,75
256,192,152055,12,0,153598,0:0:0:0:
97,85,153769,6,0,P|117:128|134:151,1,56.2500021457673
207,217,154112,1,0,0:0:0:0:
327,205,154283,1,0,0:0:0:0:
391,120,154455,1,0,0:0:0:0:
280,110,154626,1,0,0:0:0:0:
327,205,154798,1,0,0:0:0:0:
433,219,154969,1,0,0:0:0:0:
327,205,155140,5,0,0:0:0:0:
433,219,155312,2,0,P|414:295|413:297,1,56.2500021457673
356,155,155655,1,0,0:0:0:0:
459,263,155826,1,0,0:0:0:0:
337,333,155998,5,0,0:0:0:0:
325,329,156083,1,0,0:0:0:0:
312,324,156169,1,0,0:0:0:0:
298,319,156255,1,0,0:0:0:0:
286,313,156340,1,0,0:0:0:0:
271,308,156426,1,0,0:0:0:0:
259,302,156512,1,0,0:0:0:0:
115,214,156683,5,0,0:0:0:0:
226,166,156855,2,0,L|208:228,1,56.2500021457673
110,299,157198,1,0,0:0:0:0:
133,164,157369,1,0,0:0:0:0:
247,248,157540,1,0,0:0:0:0:
99,233,157712,1,0,0:0:0:0:
188,124,157883,2,0,L|248:127,1,56.2500021457673
331,53,158226,5,0,0:0:0:0:
245,173,158398,1,0,0:0:0:0:
224,38,158569,1,0,0:0:0:0:
351,170,158740,5,0,0:0:0:0:
354,179,158826,1,0,0:0:0:0:
356,189,158912,1,0,0:0:0:0:
357,198,158998,2,0,L|341:245,3,28.1250010728836
358,347,159426,1,0,0:0:0:0:
431,245,159598,2,0,L|427:176,1,56.2500021457673
293,124,159940,2,0,L|296:187,1,56.2500021457673
416,96,160283,5,0,0:0:0:0:
276,44,160455,1,0,0:0:0:0:
296,181,160626,1,0,0:0:0:0:
416,96,160798,1,0,0:0:0:0:
296,181,160969,2,0,P|261:197|226:208,1,56.2500021457673
108,182,161312,1,0,0:0:0:0:
225,145,161483,5,0,0:0:0:0:
224,162,161569,1,0,0:0:0:0:
226,179,161655,1,0,0:0:0:0:
230,195,161740,1,0,0:0:0:0:
238,210,161826,1,0,0:0:0:0:
246,224,161912,1,0,0:0:0:0:
258,236,161998,1,0,0:0:0:0:
383,304,162169,5,0,0:0:0:0:
310,174,162340,1,0,0:0:0:0:
320,361,162512,1,0,0:0:0:0:
404,239,162683,1,0,0:0:0:0:
297,361,162855,1,0,0:0:0:0:
381,239,163026,5,0,0:0:0:0:
200,230,163198,1,0,0:0:0:0:
381,239,163369,1,0,0:0:0:0:
233,135,163540,5,0,0:0:0:0:
203,121,163626,1,0,0:0:0:0:
169,127,163712,1,0,0:0:0:0:
142,151,163798,1,0,0:0:0:0:
138,186,163883,1,0,0:0:0:0:
164,217,163969,1,0,0:0:0:0:
200,230,164055,2,0,P|248:229|279:233,1,56.2500021457673
297,239,164312,5,0,0:0:0:0:
339,254,164398,1,0,0:0:0:0:
374,277,164483,1,0,0:0:0:0:
390,237,164569,1,0,0:0:0:0:
408,199,164655,1,0,0:0:0:0:
433,165,164740,1,0,0:0:0:0:
329,143,164912,5,0,0:0:0:0:
190,189,165083,2,0,P|148:241|146:251,1,56.2500021457673
123,131,165426,6,0,P|138:89|132:62,1,56.2500021457673
221,108,165769,6,0,P|260:134|282:134,1,56.2500021457673
359,127,166112,6,0,P|355:172|363:208,1,56.2500021457673
462,120,166455,6,0,L|436:63,1,56.2500021457673
361,125,166798,6,0,L|354:187,1,56.2500021457673
352,197,167055,1,0,0:0:0:0:
352,197,167140,1,0,0:0:0:0:
272,297,167312,5,0,0:0:0:0:
272,297,167398,1,0,0:0:0:0:
272,297,167483,2,0,P|228:257|221:223,1,67.4999979400635
342,231,167826,6,0,L|420:238,1,67.4999979400635
324,130,168169,6,0,L|251:125,1,67.4999979400635
176,187,168512,6,0,L|102:180,1,67.4999979400635
189,273,168855,6,0,P|238:258|264:226,1,67.4999979400635
326,279,169198,6,0,P|368:315|395:320,1,67.4999979400635
404,212,169540,6,0,P|373:175|344:161,1,67.4999979400635
328,161,169798,1,0,0:0:0:0:
328,161,169883,1,0,0:0:0:0:
244,301,170055,5,0,0:0:0:0:
244,301,170140,1,0,0:0:0:0:
244,301,170226,2,0,L|242:227,1,75
142,111,170569,1,0,0:0:0:0:
107,272,170740,1,0,0:0:0:0:
259,103,170912,1,0,0:0:0:0:
115,167,171083,1,0,0:0:0:0:
345,216,171255,1,0,0:0:0:0:
336,59,171426,5,0,0:0:0:0:
336,59,171512,1,0,0:0:0:0:
336,59,171598,2,0,L|314:161,1,82.5000025177003
272,311,171940,5,0,0:0:0:0:
159,120,172112,1,0,0:0:0:0:
316,239,172283,1,0,0:0:0:0:
212,39,172455,1,0,0:0:0:0:
156,205,172626,1,0,0:0:0:0:
314,152,172798,6,0,P|352:125|359:117,1,41.2500012588501
368,82,172969,1,0,0:0:0:0:
340,40,173055,1,0,0:0:0:0:
283,34,173140,1,0,0:0:0:0:
241,70,173226,1,0,0:0:0:0:
249,126,173312,1,0,0:0:0:0:
286,169,173398,1,0,0:0:0:0:
327,209,173483,1,0,0:0:0:0:
358,257,173569,1,0,0:0:0:0:
303,245,173655,5,0,0:0:0:0:
245,246,173740,1,0,0:0:0:0:
189,258,173826,1,0,0:0:0:0:
156,306,173912,1,0,0:0:0:0:
186,355,173998,1,0,0:0:0:0:
242,353,174083,1,0,0:0:0:0:
273,305,174169,1,0,0:0:0:0:
259,250,174255,1,0,0:0:0:0:
214,214,174340,1,0,0:0:0:0:
50,196,174512,5,0,0:0:0:0:
84,267,174683,1,0,0:0:0:0:
156,281,174855,1,0,0:0:0:0:
215,232,175026,1,0,0:0:0:0:
214,157,175198,1,0,0:0:0:0:
147,196,175369,1,0,0:0:0:0:
215,232,175540,1,0,0:0:0:0:
342,230,175712,6,0,B|297:251|297:251|268:214|260:216|260:216|240:222|203:235|203:235|203:236,1,150
64,224,177083,2,0,B|98:167|98:167|64:153|70:142|70:142|89:95,1,150
320,64,178455,2,0,B|352:128|352:128|384:96|384:96|416:128,1,150
352,288,179826,2,0,B|384:256|384:224|384:224|384:192|384:192|352:192|352:160,1,150
160,96,181198,6,0,B|128:160|128:160|160:192|160:192|128:224,1,150
160,256,182569,2,0,B|160:192|160:192|192:192|192:160|192:160|224:128,1,150
384,128,183940,2,0,B|352:160|352:160|320:128|320:128|288:128|288:128|256:128,1,150
64,96,185312,6,0,L|128:32,1,75
160,128,185655,2,0,L|224:192,1,75
352,192,185998,2,0,L|288:256,1,75
384,288,186340,2,0,L|448:352,1,75
288,352,186683,6,0,B|256:288|256:288|224:320|224:320|192:288,1,150
224,128,188055,2,0,B|288:160|288:160|288:128|288:128|352:128,1,150
224,256,189426,2,0,B|192:224|192:224|160:224|160:224|128:192|128:192|128:160|128:160,1,150
320,128,190798,2,0,B|256:128|256:128|256:160|256:160|288:224|288:224,1,150
224,256,192169,6,0,B|192:224|192:224|192:192|192:192|192:160|160:160|160:128,1,150
288,128,193540,2,0,B|320:160|320:160|288:192|320:224|320:224|320:256,1,150
288,256,194912,2,0,B|256:224|256:224|256:192|256:160|256:160|224:128,1,150
128,96,196283,6,0,L|192:32,1,75
224,128,196626,2,0,L|288:192,1,75
256,288,196969,2,0,B|288:288|288:288|288:256|320:224|320:224|352:224,1,131.25
