osu file format v14

[General]
AudioFilename: Promise.mp3
AudioLeadIn: 0
PreviewTime: 109884
Countdown: 1
SampleSet: None
StackLeniency: 0.7
Mode: 0
LetterboxInBreaks: 0
WidescreenStoryboard: 0

[Editor]
DistanceSpacing: 0.7
BeatDivisor: 4
GridSize: 4
TimelineZoom: 1

[Metadata]
Title:Promise
TitleUnicode:Promise
Artist:gya9
ArtistUnicode:gya9
Creator:Esti
Version:shitmap
Source:
Tags:
BeatmapID:811872
BeatmapSetID:370453

[Difficulty]
HPDrainRate:6.5
CircleSize:4
OverallDifficulty:8
ApproachRate:9.2
SliderMultiplier:1.8
SliderTickRate:1

[Events]
//Background and Video events
0,0,"zF45Erk.jpg",0,0
//Break Periods
//Storyboard Layer 0 (Background)
//Storyboard Layer 1 (Fail)
//Storyboard Layer 2 (Pass)
//Storyboard Layer 3 (Foreground)
//Storyboard Sound Samples

[TimingPoints]
177,342.857142857143,4,2,0,100,1,0
22119,-100,4,2,0,100,0,0
44055,-100,4,2,0,100,0,0
66005,-142.857142857143,4,2,0,100,0,0
87948,-100,4,2,0,100,0,0
98919,-90.9090909090909,4,2,0,100,0,0
101662,-83.3333333333333,4,2,0,100,0,0
104405,-76.9230769230769,4,2,0,100,0,0
107148,-71.4285714285714,4,2,0,100,0,0
109891,-62.5,4,2,0,100,0,1
152405,-111.111111111111,4,2,0,100,0,0
153777,-90.9090909090909,4,2,0,100,0,0
164748,-90.9090909090909,4,2,0,100,0,0
170234,-83.3333333333333,4,2,0,100,0,0
175719,-142.857142857143,4,2,0,100,0,0
196291,-76.9230769230769,4,2,0,100,0,0
197662,-83.3333333333333,4,2,0,100,0,0
203141,-76.9230769230769,4,2,0,100,0,0
208634,-62.5,4,2,0,100,0,1
251148,-62.5,4,2,0,100,0,0
252519,-100,4,2,0,100,0,0

[HitObjects]
179,82,176,5,0,0:0:0:0:
145,153,518,1,0,0:0:0:0:
105,222,861,1,0,0:0:0:0:
105,222,1204,1,0,0:0:0:0:
165,283,1547,2,0,P|228:273|291:310,1,135
344,372,1890,2,0,L|398:228,1,135
460,189,2233,2,0,B|502:175|502:175|348:161,1,180
286,88,2918,5,0,0:0:0:0:
279,131,3004,1,0,0:0:0:0:
251,162,3090,1,0,0:0:0:0:
211,179,3176,1,0,0:0:0:0:
168,178,3261,2,0,L|129:145,2,45
199,316,3604,5,0,0:0:0:0:
199,316,3690,2,0,B|261:308|260:308|338:323,1,135
350,327,4033,1,0,0:0:0:0:
364,332,4118,1,0,0:0:0:0:
403,213,4290,2,0,B|386:114|386:114|423:146,1,135
426,32,4633,2,0,P|342:32|297:81,1,135
251,162,4972,5,0,0:0:0:0:
251,162,5060,1,0,0:0:0:0:
251,162,5147,1,0,0:0:0:0:
199,316,5316,1,0,0:0:0:0:
199,316,5404,1,0,0:0:0:0:
199,316,5490,1,0,0:0:0:0:
364,245,5661,6,0,B|419:237|419:237|494:257,1,90
251,162,6004,2,0,L|140:182,1,90
199,316,6347,5,0,0:0:0:0:
366,243,6690,1,0,0:0:0:0:
163,62,7033,1,0,0:0:0:0:
162,177,7375,1,0,0:0:0:0:
322,106,7718,2,0,P|378:140|347:255,1,180
236,338,8404,5,0,0:0:0:0:
196,316,8490,1,0,0:0:0:0:
196,268,8576,1,0,0:0:0:0:
154,249,8661,1,0,0:0:0:0:
142,202,8747,2,0,L|170:162,1,45
391,205,8918,2,0,L|363:245,1,45
196,316,9090,2,0,L|224:276,2,45
82,293,9347,5,0,0:0:0:0:
82,293,9433,2,0,B|70:248|70:248|81:203|81:203|64:140,1,135
135,115,9775,2,0,B|122:78|122:78|173:89|173:89|228:86,1,135
334,46,10118,1,0,0:0:0:0:
372,68,10204,1,0,0:0:0:0:
396,105,10290,1,0,0:0:0:0:
403,148,10375,1,0,0:0:0:0:
393,192,10461,6,0,L|361:249,2,45
466,57,10804,1,0,0:0:0:0:
466,57,10890,1,0,0:0:0:0:
466,57,10975,1,0,0:0:0:0:
290,150,11147,2,0,B|263:167|263:167|253:64,1,135
251,41,11490,1,0,0:0:0:0:
143,236,11662,1,0,0:0:0:0:
143,236,11833,6,0,L|258:253,1,90
454,244,12090,2,0,L|395:268,1,45
319,321,12347,1,0,0:0:0:0:
251,41,12518,1,0,0:0:0:0:
291,152,12861,1,0,0:0:0:0:
258,318,13204,2,0,L|279:223,1,90
412,260,13461,6,0,L|454:244,1,45
291,152,13718,1,0,0:0:0:0:
291,152,13804,1,0,0:0:0:0:
291,152,13890,1,0,0:0:0:0:
274,110,13975,1,0,0:0:0:0:
238,81,14061,1,0,0:0:0:0:
192,82,14147,1,0,0:0:0:0:
153,104,14233,6,0,B|176:137|176:137|46:115,1,135
205,237,14575,1,0,0:0:0:0:
205,237,14661,1,0,0:0:0:0:
205,237,14747,1,0,0:0:0:0:
412,260,14918,1,0,0:0:0:0:
412,260,15004,1,0,0:0:0:0:
412,260,15090,1,0,0:0:0:0:
437,80,15261,6,0,B|344:108|344:108|242:76,1,180
152,102,15775,1,0,0:0:0:0:
205,237,15947,1,0,0:0:0:0:
205,237,16033,1,0,0:0:0:0:
205,237,16118,1,0,0:0:0:0:
412,260,16290,1,0,0:0:0:0:
412,260,16375,1,0,0:0:0:0:
412,260,16461,1,0,0:0:0:0:
412,260,16547,1,0,0:0:0:0:
412,260,16633,1,0,0:0:0:0:
257,338,16804,5,0,0:0:0:0:
359,135,16976,1,0,0:0:0:0:
152,102,17147,1,0,0:0:0:0:
242,217,17318,1,0,0:0:0:0:
280,42,17490,1,0,0:0:0:0:
152,102,17661,1,0,0:0:0:0:
205,237,17833,1,0,0:0:0:0:
412,260,18004,6,0,P|452:220|469:172,1,90
280,42,18347,2,0,P|240:82|223:130,1,90
359,135,18690,2,0,L|472:160,1,90
419,284,18947,1,0,0:0:0:0:
419,284,19033,2,0,L|258:319,1,135
103,222,19376,6,0,L|48:234,1,45
218,126,19547,2,0,L|273:114,1,45
97,109,19718,2,0,L|85:54,1,45
218,235,19890,2,0,L|230:290,1,45
358,134,20061,6,0,L|368:178,1,45
428,327,20233,2,0,L|418:283,1,45
486,158,20404,2,0,L|431:170,1,45
291,279,20576,2,0,L|346:267,1,45
486,158,20747,2,0,L|347:194,1,135
355,191,21090,6,0,P|178:73|161:291,1,495
270,334,22119,2,0,B|291:317|291:317|385:318,1,90
463,233,22461,2,0,P|405:195|391:162,1,90
339,81,22804,2,0,B|304:110|304:110|182:109,1,135
161,54,23147,2,0,P|147:145|195:185,1,135
307,181,23490,5,0,0:0:0:0:
270,334,23661,1,0,0:0:0:0:
464,235,23833,1,0,0:0:0:0:
339,80,24004,1,0,0:0:0:0:
162,53,24176,1,0,0:0:0:0:
274,187,24347,1,0,0:0:0:0:
274,187,24433,1,0,0:0:0:0:
274,187,24518,2,0,P|221:232|201:261,1,90
464,235,24861,6,0,P|439:164|394:112,1,135
339,80,25204,2,0,B|288:97|288:97|246:98|246:98|207:110,1,135
108,239,25547,1,0,0:0:0:0:
108,239,25633,1,0,0:0:0:0:
108,239,25718,1,0,0:0:0:0:
274,187,25890,2,0,L|381:198,1,90
466,234,26233,5,0,0:0:0:0:
320,326,26404,1,0,0:0:0:0:
340,81,26576,1,0,0:0:0:0:
108,239,26747,1,0,0:0:0:0:
282,232,26918,1,0,0:0:0:0:
274,187,27004,1,0,0:0:0:0:
257,145,27090,1,0,0:0:0:0:
223,114,27176,1,0,0:0:0:0:
182,95,27261,2,0,B|118:107|118:107|66:98,1,90
340,81,27604,5,0,0:0:0:0:
340,81,27690,1,0,0:0:0:0:
340,81,27776,1,0,0:0:0:0:
411,196,27947,2,0,L|399:285,1,90
108,239,28290,1,0,0:0:0:0:
257,145,28461,1,0,0:0:0:0:
257,145,28547,2,0,L|90:117,1,135
211,321,28976,5,0,0:0:0:0:
410,198,29147,1,0,0:0:0:0:
398,342,29318,1,0,0:0:0:0:
410,198,29490,1,0,0:0:0:0:
398,342,29661,2,0,P|339:326|294:332,1,90
211,321,29918,1,0,0:0:0:0:
211,321,30004,2,0,L|183:181,1,135
302,53,30347,6,0,L|321:149,1,90
410,198,30604,1,0,0:0:0:0:
410,198,30690,2,0,L|428:293,1,90
257,314,31033,1,0,0:0:0:0:
211,321,31118,1,0,0:0:0:0:
168,304,31204,1,0,0:0:0:0:
168,175,31376,6,0,B|177:147|177:147|208:88,1,90
318,213,31718,2,0,P|338:263|345:305,1,90
257,314,31976,1,0,0:0:0:0:
257,314,32061,2,0,L|141:334,1,90
410,198,32404,1,0,0:0:0:0:
429,157,32490,1,0,0:0:0:0:
450,117,32576,6,0,L|513:95,1,45
426,74,32747,2,0,L|465:40,2,45
192,101,33090,2,0,B|136:142|136:142|140:193|140:193|93:273,1,180
257,314,33604,1,0,0:0:0:0:
410,198,33775,1,0,0:0:0:0:
108,54,34033,1,0,0:0:0:0:
108,54,34118,2,0,L|202:57,1,90
462,108,34461,6,0,L|344:117,1,90
295,62,34804,1,0,0:0:0:0:
228,200,34976,1,0,0:0:0:0:
108,54,35147,1,0,0:0:0:0:
368,222,35404,1,0,0:0:0:0:
368,222,35490,1,0,0:0:0:0:
223,163,35661,1,0,0:0:0:0:
114,230,35833,6,0,P|140:284|149:322,1,90
278,230,36090,1,0,0:0:0:0:
278,230,36175,2,0,P|283:162|311:100,1,135
287,62,36518,1,0,0:0:0:0:
244,75,36604,1,0,0:0:0:0:
198,76,36690,1,0,0:0:0:0:
156,59,36775,1,0,0:0:0:0:
121,30,36861,6,0,B|128:73|128:73|116:131,1,90
209,330,37204,2,0,L|201:225,1,90
223,163,37461,1,0,0:0:0:0:
223,163,37547,2,0,P|312:194|375:172,1,135
414,117,37890,1,0,0:0:0:0:
414,117,37975,1,0,0:0:0:0:
414,117,38061,1,0,0:0:0:0:
474,280,38233,6,0,L|380:290,1,90
208,333,38575,1,0,0:0:0:0:
223,163,38747,1,0,0:0:0:0:
223,163,38918,1,0,0:0:0:0:
385,290,39090,1,0,0:0:0:0:
414,117,39261,2,0,B|381:106|381:106|321:100,1,90
223,163,39518,1,0,0:0:0:0:
223,163,39604,2,0,P|203:106|215:52,1,90
342,137,39947,5,0,0:0:0:0:
223,163,40118,1,0,0:0:0:0:
415,117,40290,1,0,0:0:0:0:
151,184,40461,1,0,0:0:0:0:
385,290,40633,1,0,0:0:0:0:
342,137,40804,1,0,0:0:0:0:
342,137,40890,1,0,0:0:0:0:
342,137,40975,2,0,P|314:93|272:70,1,90
151,184,41318,6,0,P|105:239|104:320,1,135
195,271,41661,2,0,L|283:292,1,90
385,290,42004,1,0,0:0:0:0:
369,247,42090,1,0,0:0:0:0:
368,202,42175,1,0,0:0:0:0:
380,158,42261,1,0,0:0:0:0:
411,126,42347,2,0,L|461:97,2,45
150,183,42690,5,0,0:0:0:0:
369,247,42947,1,0,0:0:0:0:
369,247,43033,2,0,L|259:257,1,90
90,88,43375,2,0,L|189:97,1,90
350,310,43718,1,0,0:0:0:0:
350,310,43804,1,0,0:0:0:0:
350,310,43890,1,0,0:0:0:0:
350,310,43975,1,0,0:0:0:0:
350,310,44062,6,0,P|341:227|364:177,1,135
410,65,44404,2,0,B|436:88|436:88|306:92,1,135
156,177,44747,2,0,L|258:170,1,90
460,272,45090,2,0,P|358:292|348:347,1,135
269,230,45433,2,0,B|296:181|340:165|340:165|306:142,1,135
410,66,45776,2,0,L|440:206,1,135
420,333,46118,5,0,0:0:0:0:
155,178,46290,2,0,L|58:187,1,90
269,230,46718,1,0,0:0:0:0:
269,230,46804,2,0,P|304:166|302:101,1,135
241,48,47147,2,0,B|184:63|184:63|87:57,1,135
2,130,47490,2,0,L|96:137,1,90
155,179,47747,1,0,0:0:0:0:
155,179,47833,2,0,B|130:242|130:242|133:281|133:281|118:325,1,135
214,348,48176,5,0,0:0:0:0:
395,245,48347,1,0,0:0:0:0:
395,245,48518,2,0,P|358:186|349:114,1,135
353,98,48861,1,0,0:0:0:0:
155,179,49033,1,0,0:0:0:0:
243,47,49204,2,0,B|240:95|240:95|247:146|247:146|240:215,1,135
240,212,49547,5,0,0:0:0:0:
214,348,49718,1,0,0:0:0:0:
395,245,49890,2,0,P|437:209|452:170,1,90
353,98,50147,1,0,0:0:0:0:
353,98,50233,2,0,L|260:56,1,90
155,179,50576,2,0,P|234:184|269:227,1,135
214,348,50918,2,0,L|185:246,1,90
353,98,51261,5,0,0:0:0:0:
353,98,51347,2,0,L|326:238,1,135
411,336,51776,1,0,0:0:0:0:
155,179,51947,2,0,P|97:186|18:181,1,135
188,58,52290,1,0,0:0:0:0:
359,101,52461,1,0,0:0:0:0:
280,186,52633,2,0,L|300:322,1,135
411,336,52976,5,0,0:0:0:0:
426,164,53147,1,0,0:0:0:0:
170,267,53318,2,0,L|153:169,1,90
188,58,53576,1,0,0:0:0:0:
188,58,53661,2,0,P|259:78|291:69,1,90
359,101,54004,2,0,B|336:152|336:152|341:201|341:201|286:179,1,135
197,148,54347,5,0,0:0:0:0:
170,267,54518,1,0,0:0:0:0:
325,291,54690,2,0,P|392:277|432:206,1,135
359,101,55033,1,0,0:0:0:0:
170,267,55204,1,0,0:0:0:0:
197,148,55376,2,0,P|146:85|80:98,1,135
62,176,55718,5,0,0:0:0:0:
209,338,55890,1,0,0:0:0:0:
359,101,56061,1,0,0:0:0:0:
359,101,56147,1,0,0:0:0:0:
359,101,56233,1,0,0:0:0:0:
197,147,56404,1,0,0:0:0:0:
344,290,56576,1,0,0:0:0:0:
209,338,56747,6,0,L|101:315,1,90
197,147,57004,1,0,0:0:0:0:
197,147,57090,2,0,L|349:127,1,135
359,101,57433,2,0,P|342:182|390:236,1,135
344,290,57776,5,0,0:0:0:0:
423,156,57947,1,0,0:0:0:0:
197,147,58118,2,0,L|61:137,1,135
10,215,58461,2,0,B|51:218|51:218|32:255|51:291,1,90
45,346,58718,1,0,0:0:0:0:
45,346,58804,2,0,P|117:303|122:255,1,135
197,147,59147,5,0,0:0:0:0:
10,215,59318,1,0,0:0:0:0:
230,348,59490,2,0,B|266:323|266:323|306:325|326:313|326:313|380:331,1,135
471,285,59833,1,0,0:0:0:0:
342,131,60004,1,0,0:0:0:0:
383,248,60176,2,0,B|323:228|323:228|287:243|287:243|230:238,1,135
197,147,60518,5,0,0:0:0:0:
230,348,60690,1,0,0:0:0:0:
342,131,60861,1,0,0:0:0:0:
342,131,60947,1,0,0:0:0:0:
385,248,61118,1,0,0:0:0:0:
385,248,61204,1,0,0:0:0:0:
165,253,61376,1,0,0:0:0:0:
278,211,61547,6,0,B|251:173|251:173|248:118|248:118|201:86,1,135
110,129,61890,1,0,0:0:0:0:
342,131,62061,1,0,0:0:0:0:
329,331,62233,2,0,P|385:254|429:251,1,135
278,211,62576,2,0,L|157:221,1,90
110,129,62918,2,0,B|152:124|152:124|194:79|194:79|200:119,1,135
342,131,63261,5,0,0:0:0:0:
213,258,63433,1,0,0:0:0:0:
330,332,63604,2,0,L|356:177,1,135
286,69,63947,1,0,0:0:0:0:
213,258,64118,1,0,0:0:0:0:
110,128,64290,2,0,L|95:240,1,90
49,301,64547,1,0,0:0:0:0:
49,301,64633,2,0,B|100:294|100:294|174:316,1,90
451,230,64976,6,0,L|299:246,1,135
213,258,65318,1,0,0:0:0:0:
286,69,65490,1,0,0:0:0:0:
192,162,65661,2,0,L|345:145,1,135
501,317,66005,2,0,L|417:327,1,62.9999980773926
353,333,66347,1,0,0:0:0:0:
282,285,66518,1,0,0:0:0:0:
278,197,66690,2,0,L|293:126,1,62.9999980773926
193,163,67033,6,0,L|116:198,1,62.9999980773926
105,347,67376,2,0,L|182:312,1,62.9999980773926
282,285,67718,2,0,P|288:333|276:366,2,62.9999980773926
136,191,68233,1,0,0:0:0:0:
226,110,68404,2,0,L|295:87,1,62.9999980773926
422,153,68747,2,0,P|366:189|362:253,1,125.999996154785
414,302,69261,1,0,0:0:0:0:
355,358,69433,6,0,L|276:353,1,62.9999980773926
431,226,69776,2,0,L|514:221,1,62.9999980773926
329,97,70118,2,0,P|285:124|274:155,1,62.9999980773926
252,206,70461,1,0,0:0:0:0:
286,281,70633,1,0,0:0:0:0:
371,287,70804,2,0,P|383:324|382:359,1,62.9999980773926
210,335,71147,2,0,P|198:298|199:263,1,62.9999980773926
252,206,71490,5,0,0:0:0:0:
333,212,71661,1,0,0:0:0:0:
390,157,71833,2,0,L|407:78,1,62.9999980773926
260,17,72176,2,0,L|270:103,2,62.9999980773926
350,33,72690,1,0,0:0:0:0:
402,94,72861,2,0,P|451:97|476:88,1,62.9999980773926
333,212,73204,2,0,P|290:176|275:144,1,62.9999980773926
267,344,73547,2,0,P|321:356|351:350,1,62.9999980773926
449,302,73890,2,0,L|428:217,1,62.9999980773926
241,242,74233,6,0,L|152:235,1,62.9999980773926
86,94,74576,2,0,P|106:39|179:34,1,125.999996154785
227,91,75090,1,0,0:0:0:0:
276,165,75261,2,0,L|367:149,1,62.9999980773926
411,206,75604,1,0,0:0:0:0:
477,142,75776,1,0,0:0:0:0:
418,72,75947,2,0,P|403:41|396:8,1,62.9999980773926
227,91,76290,2,0,L|140:108,1,62.9999980773926
277,167,76633,2,0,P|314:130|321:98,1,62.9999980773926
294,38,76976,5,0,0:0:0:0:
419,72,77147,1,0,0:0:0:0:
165,103,77318,1,0,0:0:0:0:
323,284,77490,1,0,0:0:0:0:
276,168,77661,1,0,0:0:0:0:
177,264,77833,1,0,0:0:0:0:
110,184,78004,2,0,L|27:170,1,62.9999980773926
165,103,78347,5,0,0:0:0:0:
276,168,78518,1,0,0:0:0:0:
285,47,78690,1,0,0:0:0:0:
110,185,78861,1,0,0:0:0:0:
323,284,79033,1,0,0:0:0:0:
261,164,79204,1,0,0:0:0:0:
374,137,79376,2,0,L|390:58,1,62.9999980773926
323,284,79718,6,0,L|406:301,1,62.9999980773926
455,344,80061,1,0,0:0:0:0:
261,164,80233,1,0,0:0:0:0:
374,137,80404,1,0,0:0:0:0:
323,284,80576,1,0,0:0:0:0:
188,108,80747,2,0,P|172:73|149:52,2,62.9999980773926
59,130,81261,5,0,0:0:0:0:
216,232,81433,2,0,L|286:220,1,62.9999980773926
323,284,81776,1,0,0:0:0:0:
434,132,81947,1,0,0:0:0:0:
295,132,82118,2,0,P|284:86|281:60,1,62.9999980773926
413,222,82461,5,0,0:0:0:0:
277,221,82633,1,0,0:0:0:0:
345,330,82804,1,0,0:0:0:0:
298,131,82976,1,0,0:0:0:0:
154,284,83147,1,0,0:0:0:0:
280,230,83318,1,0,0:0:0:0:
109,142,83490,2,0,L|198:152,1,62.9999980773926
413,222,83833,2,0,L|325:230,1,62.9999980773926
154,284,84176,6,0,P|140:247|140:221,1,62.9999980773926
280,230,84518,1,0,0:0:0:0:
109,142,84690,1,0,0:0:0:0:
299,130,84861,2,0,P|336:91|343:67,1,62.9999980773926
253,55,85204,1,0,0:0:0:0:
163,69,85376,1,0,0:0:0:0:
109,142,85547,2,0,B|127:208|127:208|127:272,1,125.999996154785
177,338,86061,5,0,0:0:0:0:
224,257,86233,1,0,0:0:0:0:
295,335,86404,1,0,0:0:0:0:
315,187,86576,1,0,0:0:0:0:
415,349,86747,1,0,0:0:0:0:
256,192,86918,12,0,87776,0:0:0:0:
315,187,87948,6,0,L|381:172,1,45
371,261,88118,1,0,0:0:0:0:
371,261,88204,2,0,L|415:279,1,45
333,335,88376,2,0,L|279:332,1,45
261,330,88547,1,0,0:0:0:0:
233,318,88633,1,0,0:0:0:0:
216,293,88718,1,0,0:0:0:0:
209,263,88804,6,0,P|217:237|207:167,1,90
152,118,89061,1,0,0:0:0:0:
152,118,89147,2,0,L|56:127,1,90
84,218,89404,2,0,L|50:250,2,45
209,262,89661,2,0,L|262:255,2,45
228,162,89918,2,0,L|244:105,1,45
346,86,90090,5,0,0:0:0:0:
346,86,90176,2,0,P|351:152|369:182,1,90
476,245,90518,2,0,P|388:308|297:291,1,180
209,262,91033,2,0,L|226:173,1,90
168,106,91290,1,0,0:0:0:0:
168,106,91376,2,0,P|217:92|229:89,1,45
346,86,91547,6,0,B|333:142|333:142|341:190|341:190|326:263,1,180
209,261,92061,1,0,0:0:0:0:
209,261,92147,1,0,0:0:0:0:
397,344,92318,1,0,0:0:0:0:
397,344,92404,2,0,P|427:292|451:262,1,90
488,174,92661,5,0,0:0:0:0:
488,174,92747,2,0,L|415:185,1,45
368,135,92918,1,0,0:0:0:0:
368,135,93004,2,0,L|268:147,1,90
115,80,93347,1,0,0:0:0:0:
115,80,93433,2,0,L|135:139,1,45
209,261,93604,6,0,P|249:210|290:215,1,90
303,221,93861,1,0,0:0:0:0:
329,245,93947,1,0,0:0:0:0:
357,266,94033,1,0,0:0:0:0:
392,270,94118,1,0,0:0:0:0:
426,259,94204,1,0,0:0:0:0:
453,235,94290,6,0,L|427:119,1,90
374,82,94547,1,0,0:0:0:0:
374,82,94633,2,0,P|442:64|473:45,1,90
248,44,94976,2,0,P|238:97|240:147,1,90
248,167,95233,1,0,0:0:0:0:
262,199,95318,1,0,0:0:0:0:
267,234,95404,1,0,0:0:0:0:
261,269,95490,1,0,0:0:0:0:
241,299,95576,1,0,0:0:0:0:
216,325,95661,6,0,L|146:318,2,45
145,180,95918,1,0,0:0:0:0:
145,180,96004,2,0,P|64:198|14:114,1,180
248,45,96433,1,0,0:0:0:0:
248,45,96518,2,0,B|281:95|281:95|290:128,1,90
287,165,96776,1,0,0:0:0:0:
272,202,96861,1,0,0:0:0:0:
274,242,96947,1,0,0:0:0:0:
297,275,97033,6,0,B|353:281|353:281|399:276,1,90
473,232,97290,1,0,0:0:0:0:
473,232,97376,2,0,L|453:332,1,90
348,360,97633,1,0,0:0:0:0:
348,360,97718,2,0,L|339:260,1,90
248,45,98061,6,0,L|253:118,1,45
298,277,98233,2,0,L|291:209,1,45
211,27,98404,2,0,L|217:103,1,45
217,117,98576,1,0,0:0:0:0:
221,161,98661,1,0,0:0:0:0:
224,205,98747,1,0,0:0:0:0:
230,249,98833,1,0,0:0:0:0:
234,293,98919,6,0,P|302:277|375:292,1,99.0000030212403
460,241,99261,2,0,L|485:174,1,49.5000015106202
370,294,99433,2,0,L|341:367,1,49.5000015106202
366,165,99604,1,0,0:0:0:0:
366,165,99690,1,0,0:0:0:0:
366,165,99776,2,0,L|403:69,1,99.0000030212403
130,47,100118,1,0,0:0:0:0:
290,92,100290,6,0,L|176:105,1,99.0000030212403
98,156,100547,1,0,0:0:0:0:
98,156,100633,2,0,B|109:185|134:198|134:198|72:275,1,148.50000453186
221,318,100976,1,0,0:0:0:0:
221,318,101061,1,0,0:0:0:0:
221,318,101147,2,0,L|287:237,1,99.0000030212403
393,258,101490,1,0,0:0:0:0:
290,91,101662,6,0,P|228:111|178:112,1,107.999996704102
98,156,102004,2,0,P|166:236|138:296,1,161.999995056153
170,319,102347,1,0,0:0:0:0:
208,338,102433,1,0,0:0:0:0:
250,334,102518,1,0,0:0:0:0:
393,258,102690,1,0,0:0:0:0:
289,90,102861,1,0,0:0:0:0:
316,200,103033,6,0,B|427:167|427:167|382:159,1,161.999995056153
86,235,103376,2,0,B|68:297|96:323|96:323|136:315|136:315|180:347,1,161.999995056153
289,90,103718,1,0,0:0:0:0:
289,90,103804,2,0,L|267:203,1,107.999996704102
301,316,104061,2,0,P|375:256|431:280,1,161.999995056153
480,199,104405,5,0,0:0:0:0:
375,333,104576,1,0,0:0:0:0:
268,195,104747,2,0,P|215:166|159:162,1,116.999994644165
95,265,105090,1,0,0:0:0:0:
289,90,105261,1,0,0:0:0:0:
302,319,105433,1,0,0:0:0:0:
160,162,105604,5,0,0:0:0:0:
276,196,105776,1,0,0:0:0:0:
188,278,105947,1,0,0:0:0:0:
75,250,106118,2,0,B|65:309|65:309|86:365,1,116.999994644165
302,319,106376,1,0,0:0:0:0:
302,319,106461,2,0,B|312:260|312:260|291:204,1,116.999994644165
160,162,106804,1,0,0:0:0:0:
358,87,106976,1,0,0:0:0:0:
276,196,107147,5,0,0:0:0:0:
247,220,107233,1,0,0:0:0:0:
235,264,107318,1,0,0:0:0:0:
251,305,107404,1,0,0:0:0:0:
275,349,107490,1,0,0:0:0:0:
319,322,107576,1,0,0:0:0:0:
369,329,107661,1,0,0:0:0:0:
423,351,107747,5,0,0:0:0:0:
479,320,107833,1,0,0:0:0:0:
499,248,107918,1,0,0:0:0:0:
467,165,108004,1,0,0:0:0:0:
407,94,108090,1,0,0:0:0:0:
307,75,108176,1,0,0:0:0:0:
212,123,108261,1,0,0:0:0:0:
155,235,108347,5,0,0:0:0:0:
155,235,108433,1,0,0:0:0:0:
155,235,108518,2,0,L|92:250,1,62.9999980773926
251,305,108690,2,0,L|326:284,1,62.9999980773926
307,75,108861,1,0,0:0:0:0:
311,84,108947,1,0,0:0:0:0:
314,91,109033,1,0,0:0:0:0:
316,98,109118,1,0,0:0:0:0:
319,105,109204,6,0,L|344:173,1,62.9999980773926
386,298,109376,1,0,0:0:0:0:
342,273,109461,1,0,0:0:0:0:
290,268,109547,1,0,0:0:0:0:
245,291,109633,1,0,0:0:0:0:
222,335,109718,2,0,B|189:351|189:351|128:344,1,62.9999980773926
155,235,109891,6,0,P|118:146|130:92,1,144
332,50,110233,2,0,P|369:139|357:193,1,144
334,225,110490,1,0,0:0:0:0:
296,258,110576,1,0,0:0:0:0:
245,269,110661,2,0,B|179:264|179:264|98:288,1,144
24,222,110918,2,0,B|124:191|124:191|82:167,1,144
252,90,111261,6,0,P|253:117|295:114,1,72
437,117,111433,1,0,0:0:0:0:
437,117,111518,2,0,P|459:146|423:174,1,72
246,267,111776,1,0,0:0:0:0:
246,267,111861,1,0,0:0:0:0:
246,267,111947,2,0,B|292:297|292:297|327:306,1,72
378,352,112118,2,0,B|399:317|391:280|391:280,1,72
335,217,112290,5,0,0:0:0:0:
335,217,112376,1,0,0:0:0:0:
335,217,112461,1,0,0:0:0:0:
140,57,112633,2,0,B|153:128|153:128|136:199|136:199|152:298,1,216
246,267,112976,2,0,P|349:313|436:225,1,216
426,103,113318,2,0,L|413:192,1,72
335,217,113490,2,0,B|329:53|329:53|230:95|230:95|118:68,1,360
54,154,114004,6,0,L|75:233,1,72
342,319,114261,1,0,0:0:0:0:
342,319,114347,1,0,0:0:0:0:
146,347,114518,1,0,0:0:0:0:
146,347,114604,1,0,0:0:0:0:
146,347,114690,2,0,P|182:281|183:192,1,144
273,122,114947,1,0,0:0:0:0:
273,122,115033,2,0,B|300:202|289:271|289:271|353:224,1,216
397,136,115376,6,0,P|452:210|396:329,1,216
364,332,115718,1,0,0:0:0:0:
313,330,115804,1,0,0:0:0:0:
275,296,115890,1,0,0:0:0:0:
251,251,115976,1,0,0:0:0:0:
202,237,116061,2,0,B|162:211|168:165|168:165|85:227|85:227|30:209|30:209|-44:216,1,288
98,354,116576,1,0,0:0:0:0:
276,154,116747,5,0,0:0:0:0:
364,332,117004,1,0,0:0:0:0:
364,332,117090,1,0,0:0:0:0:
201,256,117261,1,0,0:0:0:0:
201,256,117347,1,0,0:0:0:0:
201,256,117433,2,0,P|160:187|161:118,1,144
315,47,117776,5,0,0:0:0:0:
436,200,117947,1,0,0:0:0:0:
276,154,118118,2,0,B|201:167|201:167|132:145|132:145|55:161,1,216
46,258,118461,2,0,P|157:275|156:363,1,216
93,319,118804,1,0,0:0:0:0:
93,319,118890,1,0,0:0:0:0:
93,319,118976,2,0,P|170:268|256:263,1,144
358,350,119318,5,0,0:0:0:0:
274,157,119490,1,0,0:0:0:0:
274,157,119576,1,0,0:0:0:0:
461,216,119747,1,0,0:0:0:0:
461,216,119833,1,0,0:0:0:0:
245,321,120004,1,0,0:0:0:0:
137,127,120176,5,0,0:0:0:0:
137,127,120261,2,0,B|190:128|190:128|212:72|272:67,1,144
411,123,120518,1,0,0:0:0:0:
409,132,120604,1,0,0:0:0:0:
407,143,120690,1,0,0:0:0:0:
404,155,120776,1,0,0:0:0:0:
401,168,120861,6,0,B|376:199|376:199|388:237|376:308,1,144
245,321,121118,1,0,0:0:0:0:
245,321,121204,2,0,P|208:248|148:241,1,144
267,54,121547,1,0,0:0:0:0:
267,54,121633,1,0,0:0:0:0:
267,54,121718,2,0,L|306:203,1,144
171,313,122061,1,0,0:0:0:0:
416,288,122233,5,0,0:0:0:0:
416,288,122318,2,0,L|455:137,1,144
371,93,122576,2,0,B|320:110|320:110|261:94|221:116|221:116|276:147,1,216
296,267,122918,2,0,L|221:225,1,72
143,186,123090,2,0,P|138:273|209:327,1,144
416,288,123433,1,0,0:0:0:0:
416,288,123518,1,0,0:0:0:0:
416,288,123604,6,0,B|439:215|439:215|442:138,1,144
256,66,123861,1,0,0:0:0:0:
256,66,123947,2,0,P|169:106|115:73,1,144
154,283,124290,1,0,0:0:0:0:
154,283,124376,1,0,0:0:0:0:
154,283,124461,2,0,L|298:268,1,144
371,93,124804,5,0,0:0:0:0:
416,288,124976,1,0,0:0:0:0:
416,288,125061,1,0,0:0:0:0:
187,140,125233,1,0,0:0:0:0:
187,140,125318,2,0,P|163:214|30:243,1,216
238,338,125661,2,0,B|297:321|297:321|382:347|382:347|460:325,1,216
371,93,126004,6,0,L|221:132,1,144
78,150,126347,1,0,0:0:0:0:
239,339,126518,1,0,0:0:0:0:
333,207,126690,1,0,0:0:0:0:
202,126,126861,1,0,0:0:0:0:
183,173,126947,1,0,0:0:0:0:
165,220,127033,1,0,0:0:0:0:
144,265,127118,1,0,0:0:0:0:
123,311,127204,1,0,0:0:0:0:
314,347,127376,5,0,0:0:0:0:
333,207,127547,1,0,0:0:0:0:
421,273,127718,2,0,L|519:264,1,72
333,207,127890,2,0,L|261:213,1,72
414,193,128061,2,0,L|405:95,1,72
343,283,128233,2,0,L|349:354,1,72
421,273,128404,5,0,0:0:0:0:
421,273,128490,1,0,0:0:0:0:
421,273,128576,2,0,L|411:177,1,72
316,63,128747,2,0,L|333:207,1,144
251,333,129090,2,0,P|203:266|129:272,1,144
80,341,129347,1,0,0:0:0:0:
80,341,129433,2,0,B|59:272|59:272|68:204|68:204|42:114,1,216
163,38,129776,5,0,0:0:0:0:
163,38,129861,1,0,0:0:0:0:
163,38,129947,2,0,P|205:114|260:122,1,144
315,62,130290,1,0,0:0:0:0:
251,334,130461,1,0,0:0:0:0:
350,257,130633,6,0,L|438:252,1,72
255,164,130804,2,0,L|167:154,1,72
41,285,130976,2,0,L|143:277,1,72
251,334,131147,1,0,0:0:0:0:
277,290,131233,1,0,0:0:0:0:
281,240,131318,1,0,0:0:0:0:
263,192,131404,1,0,0:0:0:0:
245,144,131490,5,0,0:0:0:0:
247,93,131576,1,0,0:0:0:0:
271,49,131661,2,0,B|350:34|350:34|345:136|345:136|399:94|451:119|451:119|482:184,1,360
417,270,132176,2,0,L|402:361,1,72
281,240,132347,2,0,L|271:155,1,72
132,58,132518,5,0,0:0:0:0:
132,58,132604,1,0,0:0:0:0:
132,58,132690,2,0,P|92:131|26:141,1,144
153,320,133033,1,0,0:0:0:0:
245,144,133204,1,0,0:0:0:0:
245,144,133290,1,0,0:0:0:0:
418,269,133461,1,0,0:0:0:0:
418,269,133547,1,0,0:0:0:0:
285,248,133718,5,0,0:0:0:0:
285,248,133804,1,0,0:0:0:0:
285,248,133890,2,0,B|284:313|315:348|315:348|184:329,1,216
153,320,134233,5,0,0:0:0:0:
245,144,134404,1,0,0:0:0:0:
61,74,134576,1,0,0:0:0:0:
61,74,134661,1,0,0:0:0:0:
124,214,134833,1,0,0:0:0:0:
124,214,134918,1,0,0:0:0:0:
285,248,135090,2,0,L|368:229,1,72
493,298,135261,5,0,0:0:0:0:
493,298,135347,1,0,0:0:0:0:
493,298,135433,2,0,L|346:334,1,144
245,144,135776,1,0,0:0:0:0:
153,320,135947,1,0,0:0:0:0:
153,320,136033,1,0,0:0:0:0:
401,230,136204,1,0,0:0:0:0:
401,230,136290,1,0,0:0:0:0:
138,82,136461,5,0,0:0:0:0:
138,82,136547,1,0,0:0:0:0:
138,82,136633,2,0,B|147:139|147:139|127:175|127:175|137:223,1,144
245,144,136976,2,0,P|314:113|380:133,1,144
434,230,137233,1,0,0:0:0:0:
434,230,137318,2,0,L|425:319,1,72
331,271,137490,2,0,L|310:172,1,72
244,144,137661,6,0,B|176:170|176:170|89:153,1,144
45,235,138004,1,0,0:0:0:0:
45,235,138090,1,0,0:0:0:0:
45,235,138176,2,0,B|70:282|70:282|118:262|118:262|164:332|164:332|213:298|297:347,1,288
434,230,138690,1,0,0:0:0:0:
244,144,138861,1,0,0:0:0:0:
244,144,138947,2,0,L|284:79,1,72
332,273,139204,5,0,0:0:0:0:
332,273,139290,1,0,0:0:0:0:
332,273,139376,2,0,B|272:275|272:275|174:299,1,144
45,235,139718,1,0,0:0:0:0:
135,365,139890,1,0,0:0:0:0:
244,144,140061,1,0,0:0:0:0:
434,230,140233,1,0,0:0:0:0:
434,230,140318,1,0,0:0:0:0:
434,230,140404,6,0,L|461:84,1,144
347,100,140661,1,0,0:0:0:0:
347,100,140747,2,0,B|286:51|286:51|258:83|206:75,1,144
87,39,141090,1,0,0:0:0:0:
45,235,141261,1,0,0:0:0:0:
244,144,141433,1,0,0:0:0:0:
244,144,141518,1,0,0:0:0:0:
309,336,141690,1,0,0:0:0:0:
309,336,141776,1,0,0:0:0:0:
182,268,141947,5,0,0:0:0:0:
182,268,142033,1,0,0:0:0:0:
347,100,142204,1,0,0:0:0:0:
347,100,142290,1,0,0:0:0:0:
434,227,142461,1,0,0:0:0:0:
397,261,142547,1,0,0:0:0:0:
347,277,142633,1,0,0:0:0:0:
297,268,142718,1,0,0:0:0:0:
256,237,142804,6,0,B|224:227|224:227|210:169|162:140|162:140|86:191,1,216
10,139,143147,2,0,B|96:80|96:80|79:47|79:47|172:49,1,216
347,100,143490,1,0,0:0:0:0:
347,100,143576,1,0,0:0:0:0:
347,100,143661,2,0,P|210:136|266:253,1,288
165,310,144176,2,0,L|73:324,1,72
288,168,144347,2,0,L|375:158,2,72
432,310,144690,6,0,L|521:298,1,72
330,248,144861,1,0,0:0:0:0:
330,248,144947,1,0,0:0:0:0:
330,248,145033,2,0,P|375:190|363:118,1,144
207,43,145376,1,0,0:0:0:0:
164,310,145547,1,0,0:0:0:0:
289,167,145718,2,0,L|185:159,1,72
65,248,145890,5,0,0:0:0:0:
75,198,145976,1,0,0:0:0:0:
84,148,146061,1,0,0:0:0:0:
94,98,146147,1,0,0:0:0:0:
104,48,146233,2,0,L|205:38,1,72
300,192,146404,2,0,L|206:203,1,72
94,27,146576,6,0,L|257:12,1,144
419,135,146918,1,0,0:0:0:0:
419,135,147004,1,0,0:0:0:0:
237,327,147176,1,0,0:0:0:0:
237,327,147261,1,0,0:0:0:0:
198,171,147433,1,0,0:0:0:0:
198,171,147518,1,0,0:0:0:0:
198,171,147604,2,0,P|283:178|333:63,1,216
249,96,147947,6,0,L|270:320,1,216
387,269,148290,2,0,P|426:262|473:268,1,72
237,327,148461,2,0,P|198:334|151:328,1,72
198,171,148633,2,0,P|241:96|309:72,1,144
451,204,148976,1,0,0:0:0:0:
451,204,149061,1,0,0:0:0:0:
451,204,149147,2,0,L|296:177,1,144
238,327,149490,5,0,0:0:0:0:
88,165,149661,1,0,0:0:0:0:
88,165,149747,1,0,0:0:0:0:
251,94,149918,1,0,0:0:0:0:
251,94,150004,1,0,0:0:0:0:
218,227,150176,2,0,L|304:221,1,72
446,314,150347,5,0,0:0:0:0:
446,314,150433,1,0,0:0:0:0:
446,314,150518,1,0,0:0:0:0:
238,327,150690,2,0,B|289:268|289:268|253:208|182:177|182:177|232:105,1,288
360,71,151204,1,0,0:0:0:0:
410,77,151290,1,0,0:0:0:0:
448,109,151376,1,0,0:0:0:0:
466,155,151461,1,0,0:0:0:0:
470,205,151547,1,0,0:0:0:0:
452,252,151633,1,0,0:0:0:0:
419,290,151718,6,0,L|316:308,1,72
76,167,151890,2,0,L|186:161,1,72
238,325,152061,6,0,L|136:333,1,72
272,83,152233,2,0,L|370:76,1,72
256,192,152405,12,0,153605,0:0:0:0:
336,143,153777,6,0,B|444:160|444:160|419:224|431:274,1,198.000006042481
282,353,154290,2,0,P|232:249|163:251,1,198.000006042481
36,172,154804,2,0,L|243:128,1,198.000006042481
342,250,155318,1,0,0:0:0:0:
336,143,155490,2,0,L|357:36,1,99.0000030212403
427,80,155747,2,0,B|465:40|465:40|460:113|479:146|479:146|467:231,1,247.500007553101
342,250,156347,5,0,0:0:0:0:
297,347,156518,2,0,B|239:324|233:259|233:259|196:292,1,148.50000453186
201,288,156861,2,0,P|148:298|118:216,1,148.50000453186
123,209,157204,1,0,0:0:0:0:
236,64,157376,2,0,L|356:78,1,99.0000030212403
342,250,157718,1,0,0:0:0:0:
260,192,157890,6,0,B|122:206|122:206|184:248,1,198.000006042481
293,324,158318,1,0,0:0:0:0:
293,324,158490,2,0,L|445:312,1,148.50000453186
479,54,158918,1,0,0:0:0:0:
389,175,159090,1,0,0:0:0:0:
328,76,159261,6,0,P|240:21|132:58,1,198.000006042481
71,150,159776,2,0,B|76:221|76:221|97:271|97:271|105:350,1,198.000006042481
389,175,160290,2,0,P|437:199|467:245,1,99.0000030212403
248,275,160633,2,0,P|216:175|254:84,1,198.000006042481
466,64,161147,1,0,0:0:0:0:
466,64,161233,2,0,B|406:103|406:103|319:116,1,148.50000453186
219,44,161661,5,0,0:0:0:0:
81,162,161833,1,0,0:0:0:0:
249,276,162004,2,0,B|323:261|391:224|391:224|377:296,1,198.000006042481
441,344,162518,1,0,0:0:0:0:
316,158,162690,1,0,0:0:0:0:
131,344,162861,2,0,L|95:220,1,99.0000030212403
219,44,163204,1,0,0:0:0:0:
316,158,163376,2,0,P|248:200|259:274,1,148.50000453186
352,345,163718,5,0,0:0:0:0:
352,345,163804,2,0,L|463:337,1,99.0000030212403
506,217,164061,2,0,L|453:219,1,49.5000015106202
219,44,164404,1,0,0:0:0:0:
203,75,164490,1,0,0:0:0:0:
186,105,164576,1,0,0:0:0:0:
172,136,164661,1,0,0:0:0:0:
156,167,164747,1,0,0:0:0:0:
352,345,165090,5,0,0:0:0:0:
334,133,165433,1,0,0:0:0:0:
126,282,165776,1,0,0:0:0:0:
293,266,166118,1,0,0:0:0:0:
200,78,166461,1,0,0:0:0:0:
117,196,166804,2,0,P|154:262|166:304,1,99.0000030212403
342,139,167147,5,0,0:0:0:0:
351,343,167318,1,0,0:0:0:0:
351,343,167404,1,0,0:0:0:0:
351,343,167490,2,0,B|407:303|407:303|394:239|394:239|473:189,1,198.000006042481
296,52,168176,1,0,0:0:0:0:
129,197,168518,1,0,0:0:0:0:
318,270,168861,1,0,0:0:0:0:
262,130,169204,5,0,0:0:0:0:
182,326,169547,2,0,L|303:313,1,99.0000030212403
445,191,169890,2,0,L|372:199,1,49.5000015106202
212,135,170061,2,0,L|285:127,1,49.5000015106202
379,50,170234,1,0,0:0:0:0:
318,270,170404,1,0,0:0:0:0:
165,220,170576,2,0,B|110:226|110:226|58:265,1,107.999996704102
401,342,170918,2,0,L|429:232,1,107.999996704102
212,133,171261,5,0,0:0:0:0:
318,270,171433,1,0,0:0:0:0:
379,50,171604,1,0,0:0:0:0:
317,161,171776,1,0,0:0:0:0:
474,169,171947,2,0,L|445:280,1,107.999996704102
256,222,172290,2,0,B|201:214|201:214|173:245|129:236,1,107.999996704102
134,145,172633,6,0,L|124:32,1,107.999996704102
245,56,172890,1,0,0:0:0:0:
245,56,172976,1,0,0:0:0:0:
270,83,173061,1,0,0:0:0:0:
304,99,173147,1,0,0:0:0:0:
341,102,173233,1,0,0:0:0:0:
377,92,173318,6,0,L|440:83,1,53.9999983520508
387,259,173490,2,0,L|324:268,1,53.9999983520508
400,125,173661,2,0,L|463:116,1,53.9999983520508
373,299,173833,2,0,L|310:308,1,53.9999983520508
112,265,174004,5,0,0:0:0:0:
127,230,174090,1,0,0:0:0:0:
145,197,174176,1,0,0:0:0:0:
160,163,174261,1,0,0:0:0:0:
176,128,174347,1,0,0:0:0:0:
256,192,174518,12,0,175376,0:0:0:0:
353,279,175719,6,0,L|441:271,1,62.9999980773926
472,201,176061,1,0,0:0:0:0:
353,66,176233,1,0,0:0:0:0:
387,157,176404,1,0,0:0:0:0:
450,91,176576,1,0,0:0:0:0:
295,140,176747,2,0,P|253:154|212:162,1,62.9999980773926
66,121,177090,6,0,L|120:183,1,62.9999980773926
173,231,177433,1,0,0:0:0:0:
197,318,177604,1,0,0:0:0:0:
288,306,177776,2,0,B|338:299|338:299|371:307,1,62.9999980773926
469,332,178118,2,0,L|442:255,1,62.9999980773926
389,206,178461,1,0,0:0:0:0:
199,217,178633,1,0,0:0:0:0:
298,175,178804,5,0,0:0:0:0:
115,151,178976,1,0,0:0:0:0:
197,318,179147,1,0,0:0:0:0:
389,206,179318,1,0,0:0:0:0:
441,130,179490,2,0,P|465:92|481:55,1,62.9999980773926
286,114,179833,2,0,P|296:162|315:195,2,62.9999980773926
366,67,180347,1,0,0:0:0:0:
184,87,180518,6,0,L|111:104,1,62.9999980773926
199,217,180861,1,0,0:0:0:0:
288,113,181033,1,0,0:0:0:0:
364,164,181204,2,0,P|411:163|451:154,1,62.9999980773926
484,96,181547,1,0,0:0:0:0:
347,305,181718,1,0,0:0:0:0:
184,87,181890,1,0,0:0:0:0:
281,225,182061,1,0,0:0:0:0:
223,300,182233,6,0,L|228:378,1,62.9999980773926
364,164,182576,2,0,L|359:86,1,62.9999980773926
296,41,182918,1,0,0:0:0:0:
207,16,183090,1,0,0:0:0:0:
127,62,183261,1,0,0:0:0:0:
101,149,183433,1,0,0:0:0:0:
158,222,183604,2,0,P|205:201|227:179,1,62.9999980773926
363,162,183947,6,0,P|419:224|404:288,1,125.999996154785
354,332,184461,1,0,0:0:0:0:
341,240,184633,2,0,L|260:225,1,62.9999980773926
192,318,184976,1,0,0:0:0:0:
101,149,185147,1,0,0:0:0:0:
363,162,185318,1,0,0:0:0:0:
195,210,185490,1,0,0:0:0:0:
242,64,185661,5,0,0:0:0:0:
354,332,185833,1,0,0:0:0:0:
157,224,186004,1,0,0:0:0:0:
368,161,186176,1,0,0:0:0:0:
276,127,186347,2,0,P|252:97|241:60,1,62.9999980773926
435,91,186690,2,0,P|459:121|470:158,1,62.9999980773926
430,226,187033,5,0,0:0:0:0:
349,271,187204,1,0,0:0:0:0:
262,239,187376,2,0,P|218:219|190:218,1,62.9999980773926
117,122,187718,2,0,P|74:155|55:188,2,62.9999980773926
212,136,188233,1,0,0:0:0:0:
349,271,188404,1,0,0:0:0:0:
427,71,188576,1,0,0:0:0:0:
335,150,188747,5,0,0:0:0:0:
268,345,188918,1,0,0:0:0:0:
349,271,189090,1,0,0:0:0:0:
212,136,189261,1,0,0:0:0:0:
117,122,189433,2,0,B|128:189|128:189|115:251,1,125.999996154785
268,345,189947,1,0,0:0:0:0:
240,220,190118,5,0,0:0:0:0:
434,263,190290,1,0,0:0:0:0:
363,115,190461,1,0,0:0:0:0:
336,278,190633,1,0,0:0:0:0:
212,136,190804,2,0,P|158:127|133:131,1,62.9999980773926
268,345,191147,2,0,P|299:320|319:275,1,62.9999980773926
301,80,191490,5,0,0:0:0:0:
436,232,191661,1,0,0:0:0:0:
224,252,191833,1,0,0:0:0:0:
293,186,192004,1,0,0:0:0:0:
383,165,192176,2,0,P|421:150|447:127,1,62.9999980773926
263,93,192518,5,0,0:0:0:0:
224,252,192690,1,0,0:0:0:0:
321,274,192861,1,0,0:0:0:0:
293,186,193033,1,0,0:0:0:0:
114,95,193204,1,0,0:0:0:0:
142,282,193376,1,0,0:0:0:0:
224,252,193547,6,0,P|271:280|291:310,1,62.9999980773926
454,288,193890,2,0,P|437:245|423:220,1,62.9999980773926
349,83,194233,2,0,P|405:98|422:110,1,62.9999980773926
293,186,194576,2,0,P|237:171|220:159,1,62.9999980773926
91,68,194918,2,0,P|85:122|92:152,1,62.9999980773926
145,209,195261,5,0,0:0:0:0:
224,272,195433,1,0,0:0:0:0:
251,370,195604,2,0,L|333:360,1,62.9999980773926
437,203,195947,2,0,L|355:213,1,62.9999980773926
265,91,196291,6,0,L|244:146,3,58.4999973220826
145,209,196633,2,0,L|162:256,6,29.2499986610413
141,104,196976,2,0,P|83:94|30:113,1,116.999994644165
113,315,197318,1,0,0:0:0:0:
113,315,197404,1,0,0:0:0:0:
113,315,197490,1,0,0:0:0:0:
113,315,197576,1,0,0:0:0:0:
113,315,197662,6,0,B|180:335|180:335|289:328,1,161.999995056153
305,327,198004,2,0,P|268:252|379:200,1,215.999993408203
440,272,198518,1,0,0:0:0:0:
415,68,198690,2,0,L|291:98,1,107.999996704102
84,130,199033,6,0,L|204:167,1,107.999996704102
283,187,199290,1,0,0:0:0:0:
283,187,199376,2,0,P|245:255|258:290,1,107.999996704102
386,338,199718,1,0,0:0:0:0:
386,338,199804,1,0,0:0:0:0:
386,338,199890,2,0,B|431:307|431:307|486:311,2,107.999996704102
320,253,200405,6,0,B|349:192|349:192|328:128|328:128|361:49,1,215.999993408203
454,129,200918,1,0,0:0:0:0:
454,129,201090,1,0,0:0:0:0:
85,255,201433,1,0,0:0:0:0:
213,92,201776,1,0,0:0:0:0:
213,92,201861,1,0,0:0:0:0:
213,92,201947,2,0,B|237:145|237:145|273:184,1,107.999996704102
454,129,202290,1,0,0:0:0:0:
416,257,202461,6,0,P|356:287|296:281,1,107.999996704102
312,116,202804,1,0,0:0:0:0:
312,116,202890,1,0,0:0:0:0:
312,116,202976,1,0,0:0:0:0:
90,121,203148,2,0,B|150:158|150:158|169:207,1,116.999994644165
308,307,203490,2,0,L|266:177,1,116.999994644165
312,116,203833,5,0,0:0:0:0:
158,57,204004,1,0,0:0:0:0:
90,288,204176,1,0,0:0:0:0:
197,207,204347,1,0,0:0:0:0:
308,307,204518,2,0,P|370:328|422:312,1,116.999994644165
484,248,204776,1,0,0:0:0:0:
484,248,204861,2,0,L|451:136,1,116.999994644165
335,75,205204,6,0,B|283:126|283:126|221:142,1,116.999994644165
158,57,205547,1,0,0:0:0:0:
90,288,205718,1,0,0:0:0:0:
311,307,205890,1,0,0:0:0:0:
217,226,206061,1,0,0:0:0:0:
334,74,206233,1,0,0:0:0:0:
466,240,206404,1,0,0:0:0:0:
371,294,206576,6,0,L|309:308,1,58.4999973220826
338,161,206747,2,0,L|406:147,1,58.4999973220826
181,58,206918,1,0,0:0:0:0:
169,97,207004,1,0,0:0:0:0:
154,135,207090,1,0,0:0:0:0:
141,173,207176,1,0,0:0:0:0:
127,211,207261,6,0,B|133:258|133:258|186:262|212:351,1,175.499991966248
371,295,207604,2,0,L|454:255,1,58.4999973220826
357,171,207776,2,0,L|393:116,1,58.4999973220826
278,80,207947,2,0,L|271:16,1,58.4999973220826
151,82,208118,2,0,L|86:40,1,58.4999973220826
57,158,208290,2,0,L|22:170,6,29.2499986610413
129,213,208634,6,0,B|218:252|241:284|241:284|321:251,1,216
469,277,208976,2,0,L|361:324,1,72
355,324,209147,1,0,0:0:0:0:
304,326,209233,1,0,0:0:0:0:
265,293,209318,2,0,B|238:232|238:232|272:175|272:175|235:93,1,216
377,31,209661,2,0,B|281:63|281:63|206:56,1,144
94,22,209918,1,0,0:0:0:0:
94,22,210004,2,0,B|71:58|86:101|86:101|67:167,1,144
216,340,210347,5,0,0:0:0:0:
254,306,210433,1,0,0:0:0:0:
291,272,210518,1,0,0:0:0:0:
329,239,210604,1,0,0:0:0:0:
368,207,210690,2,0,P|404:216|451:211,2,72
291,42,211033,2,0,P|244:72|208:152,1,144
291,272,211376,5,0,0:0:0:0:
291,272,211461,2,0,P|277:321|257:323,1,72
159,248,211633,1,0,0:0:0:0:
159,248,211718,2,0,P|120:239|87:241,1,72
48,144,211890,1,0,0:0:0:0:
48,144,211976,1,0,0:0:0:0:
48,144,212061,2,0,L|107:82,2,72
243,106,212404,6,0,B|251:179|251:179|234:273,1,144
305,343,212747,2,0,P|381:254|466:282,1,216
396,346,213090,2,0,L|387:123,1,216
165,64,213433,2,0,B|217:112|217:112|191:159|191:159|230:263,1,216
163,360,213776,2,0,L|107:219,1,144
29,142,214033,1,0,0:0:0:0:
29,142,214118,2,0,B|96:132|96:132|180:82,1,144
265,37,214376,5,0,0:0:0:0:
265,37,214461,2,0,L|274:113,1,72
382,171,214633,1,0,0:0:0:0:
382,171,214718,1,0,0:0:0:0:
382,171,214804,2,0,P|317:231|262:236,1,144
148,88,215147,5,0,0:0:0:0:
148,88,215233,1,0,0:0:0:0:
148,88,215318,1,0,0:0:0:0:
88,250,215490,1,0,0:0:0:0:
88,250,215576,1,0,0:0:0:0:
266,339,215747,1,0,0:0:0:0:
266,339,215833,1,0,0:0:0:0:
247,183,216004,5,0,0:0:0:0:
247,183,216090,1,0,0:0:0:0:
247,183,216176,2,0,P|332:156|371:112,1,144
148,88,216518,2,0,L|121:245,1,144
266,339,216861,1,0,0:0:0:0:
99,346,217033,1,0,0:0:0:0:
99,346,217118,1,0,0:0:0:0:
99,346,217204,6,0,L|174:319,1,72
247,183,217376,2,0,L|172:210,1,72
89,165,217547,1,0,0:0:0:0:
89,165,217633,1,0,0:0:0:0:
89,165,217718,2,0,P|111:76|167:98,1,144
299,254,218061,1,0,0:0:0:0:
382,87,218233,5,0,0:0:0:0:
382,87,218318,1,0,0:0:0:0:
456,258,218490,1,0,0:0:0:0:
456,258,218576,1,0,0:0:0:0:
327,173,218747,1,0,0:0:0:0:
276,331,218918,2,0,B|231:284|231:284|141:293|141:293|76:261,1,216
194,52,219261,5,0,0:0:0:0:
211,99,219347,1,0,0:0:0:0:
228,146,219433,1,0,0:0:0:0:
244,193,219518,1,0,0:0:0:0:
244,193,219604,2,0,B|339:214|339:214|381:191,1,144
506,207,219947,6,0,L|417:257,1,72
181,228,220118,2,0,L|270:178,1,72
361,148,220290,2,0,L|311:59,1,72
322,298,220461,2,0,L|372:387,1,72
378,152,220633,2,0,L|303:13,1,144
126,66,220976,5,0,0:0:0:0:
126,66,221061,1,0,0:0:0:0:
181,229,221233,1,0,0:0:0:0:
181,229,221318,1,0,0:0:0:0:
150,324,221490,2,0,L|76:351,1,72
222,136,221661,2,0,L|296:109,1,72
394,68,221833,2,0,P|371:170|523:195,1,288
389,314,222347,6,0,B|347:303|318:271|318:271|257:325,1,144
205,354,222604,1,0,0:0:0:0:
205,354,222690,1,0,0:0:0:0:
205,354,222776,1,0,0:0:0:0:
205,354,222861,2,0,B|185:316|197:273|197:273|221:244,1,72
254,196,223033,5,0,0:0:0:0:
254,196,223118,1,0,0:0:0:0:
254,196,223204,1,0,0:0:0:0:
156,117,223376,2,0,B|91:148|91:148|16:159,1,144
106,251,223718,1,0,0:0:0:0:
106,251,223804,2,0,P|169:297|232:267,1,144
254,196,224061,2,0,B|271:114|271:114|331:56,1,144
391,131,224318,5,0,0:0:0:0:
391,131,224404,2,0,B|445:152|475:137|475:137|469:240,1,144
423,275,224661,1,0,0:0:0:0:
423,275,224747,2,0,B|352:263|352:263|282:298|282:298|212:286,1,216
96,126,225090,2,0,L|187:145,1,72
253,195,225261,1,0,0:0:0:0:
277,151,225347,1,0,0:0:0:0:
316,119,225433,1,0,0:0:0:0:
364,108,225518,1,0,0:0:0:0:
413,118,225604,6,0,B|443:152|443:152|449:208,1,72
423,275,225776,1,0,0:0:0:0:
423,275,225861,1,0,0:0:0:0:
423,275,225947,2,0,P|344:284|316:337,1,144
118,292,226290,1,0,0:0:0:0:
253,195,226461,1,0,0:0:0:0:
253,195,226547,2,0,L|226:42,1,144
333,88,226804,6,0,P|421:114|480:78,1,144
457,143,227061,1,0,0:0:0:0:
446,192,227147,1,0,0:0:0:0:
432,240,227233,1,0,0:0:0:0:
418,288,227318,2,0,B|328:278|328:278|203:330,1,216
185,341,227661,1,0,0:0:0:0:
115,120,227833,5,0,0:0:0:0:
115,120,227918,1,0,0:0:0:0:
253,195,228090,1,0,0:0:0:0:
253,195,228176,1,0,0:0:0:0:
92,293,228347,1,0,0:0:0:0:
92,293,228433,1,0,0:0:0:0:
92,293,228518,2,0,P|149:328|244:328,1,144
293,257,228776,5,0,0:0:0:0:
293,257,228861,2,0,B|258:187|258:187|277:119|277:119|259:46,1,216
253,31,229204,1,0,0:0:0:0:
91,208,229376,2,0,L|116:303,1,72
311,326,229547,2,0,L|286:231,1,72
152,110,229718,2,0,L|177:205,1,72
406,286,229890,5,0,0:0:0:0:
442,250,229976,1,0,0:0:0:0:
457,202,230061,1,0,0:0:0:0:
449,152,230147,1,0,0:0:0:0:
423,108,230233,1,0,0:0:0:0:
380,82,230318,1,0,0:0:0:0:
329,85,230404,6,0,B|273:88|273:88|226:122|226:122|164:56|164:56|98:152|0:118,1,360
37,243,230918,2,0,B|108:246|169:198|169:198|224:278,1,216
318,278,231261,1,0,0:0:0:0:
318,278,231347,1,0,0:0:0:0:
318,278,231433,1,0,0:0:0:0:
457,336,231604,1,0,0:0:0:0:
442,154,231776,1,0,0:0:0:0:
258,122,231947,5,0,0:0:0:0:
258,122,232033,1,0,0:0:0:0:
231,320,232204,1,0,0:0:0:0:
231,320,232290,1,0,0:0:0:0:
107,226,232461,1,0,0:0:0:0:
107,226,232547,1,0,0:0:0:0:
107,226,232633,2,0,L|48:55,1,144
258,122,232976,6,0,P|302:61|376:73,1,144
442,154,233318,2,0,L|414:305,1,144
316,340,233576,1,0,0:0:0:0:
316,340,233661,2,0,B|250:298|250:298|161:314,1,144
135,318,233918,1,0,0:0:0:0:
89,296,234004,1,0,0:0:0:0:
68,249,234090,1,0,0:0:0:0:
71,198,234176,1,0,0:0:0:0:
259,123,234347,6,0,B|302:169|302:169|387:184,1,144
474,121,234690,1,0,0:0:0:0:
474,121,234776,1,0,0:0:0:0:
404,283,234947,1,0,0:0:0:0:
404,283,235033,2,0,P|319:263|277:317,1,144
208,368,235290,1,0,0:0:0:0:
208,368,235376,2,0,B|170:303|170:303|204:241|204:241|163:156,1,216
341,70,235718,6,0,B|348:146|348:146|417:122|441:125|441:125|458:210,1,216
404,283,236061,2,0,P|326:251|241:335,1,216
141,264,236404,2,0,L|111:169,1,72
201,41,236576,2,0,L|231:136,1,72
304,195,236747,1,0,0:0:0:0:
304,195,236833,1,0,0:0:0:0:
304,195,236918,2,0,B|377:159|377:159|481:185,1,144
405,284,237261,5,0,0:0:0:0:
211,331,237433,1,0,0:0:0:0:
211,331,237518,2,0,P|155:242|107:211,1,144
50,107,237776,2,0,B|126:143|126:143|194:118|263:111,1,216
448,170,238118,2,0,P|362:173|283:190,1,144
211,331,238461,1,0,0:0:0:0:
156,109,238633,1,0,0:0:0:0:
297,191,238804,5,0,0:0:0:0:
297,191,238890,1,0,0:0:0:0:
297,191,238976,2,0,B|324:150|358:124,1,72
420,238,239147,2,0,P|421:274|431:325,1,72
339,382,239318,2,0,P|319:345|302:298,1,72
198,234,239490,1,0,0:0:0:0:
198,234,239576,1,0,0:0:0:0:
198,234,239661,2,0,B|130:261|130:261|53:232,1,144
156,109,240004,5,0,0:0:0:0:
341,66,240176,1,0,0:0:0:0:
341,66,240261,1,0,0:0:0:0:
419,237,240433,1,0,0:0:0:0:
419,237,240518,1,0,0:0:0:0:
289,229,240690,2,0,B|294:300|294:300|331:369,1,144
404,154,241033,1,0,0:0:0:0:
232,67,241204,5,0,0:0:0:0:
196,103,241290,1,0,0:0:0:0:
148,120,241376,1,0,0:0:0:0:
98,117,241461,1,0,0:0:0:0:
51,98,241547,2,0,L|73:278,1,144
150,319,241804,1,0,0:0:0:0:
150,319,241890,2,0,B|196:297|214:274|214:274|267:312|267:312|349:318,1,216
457,237,242233,5,0,0:0:0:0:
457,237,242318,1,0,0:0:0:0:
457,237,242404,1,0,0:0:0:0:
317,93,242576,1,0,0:0:0:0:
317,93,242661,2,0,P|263:176|212:183,1,144
86,289,242918,2,0,B|141:314|141:314|191:287|191:287|253:333|327:333,1,216
223,87,243261,2,0,B|169:62|139:24|139:24|23:49,1,216
66,157,243604,5,0,0:0:0:0:
66,157,243690,1,0,0:0:0:0:
66,157,243776,2,0,B|121:205|131:219|131:219|157:167,1,144
270,147,244033,1,0,0:0:0:0:
270,147,244118,2,0,L|231:237,1,72
338,353,244290,2,0,L|376:248,1,72
213,47,244461,2,0,L|175:152,1,72
426,335,244633,2,0,L|459:235,1,72
421,136,244804,2,0,L|382:240,1,72
344,64,244976,5,0,0:0:0:0:
344,64,245061,1,0,0:0:0:0:
344,64,245147,1,0,0:0:0:0:
344,64,245233,1,0,0:0:0:0:
344,64,245318,2,0,B|322:130|322:130|259:147|259:147|234:237,1,216
146,326,245661,6,0,P|98:268|101:194,1,144
140,82,245918,1,0,0:0:0:0:
140,82,246004,2,0,B|201:132|201:132|280:146,1,144
463,192,246261,1,0,0:0:0:0:
463,192,246347,2,0,B|389:225|389:225|304:222,1,144
147,325,246604,1,0,0:0:0:0:
147,325,246690,2,0,P|230:203|138:132,1,288
294,88,247204,5,0,0:0:0:0:
343,75,247290,1,0,0:0:0:0:
392,62,247376,1,0,0:0:0:0:
440,49,247461,1,0,0:0:0:0:
494,33,247547,2,0,L|479:131,1,72
337,325,247718,2,0,L|352:227,1,72
463,192,247890,5,0,0:0:0:0:
463,192,247976,1,0,0:0:0:0:
463,192,248061,2,0,B|385:158|385:158|297:176,1,144
142,264,248404,1,0,0:0:0:0:
142,264,248490,1,0,0:0:0:0:
251,58,248661,1,0,0:0:0:0:
251,58,248747,1,0,0:0:0:0:
309,233,248918,1,0,0:0:0:0:
323,281,249004,1,0,0:0:0:0:
338,329,249090,6,0,P|379:317|431:315,1,72
463,192,249261,2,0,P|379:191|366:193,1,72
161,135,249433,2,0,P|267:106|331:101,1,144
416,325,249776,1,0,0:0:0:0:
416,325,249861,1,0,0:0:0:0:
187,269,250033,1,0,0:0:0:0:
187,269,250118,1,0,0:0:0:0:
309,233,250290,6,0,P|333:202|356:157,1,72
161,135,250461,2,0,P|137:166|114:211,2,72
445,88,250804,2,0,B|474:162|474:162|479:251,1,144
336,342,251148,2,0,L|333:256,1,72
158,63,251318,2,0,L|161:149,1,72
115,271,251490,2,0,L|201:268,1,72
365,144,251661,2,0,L|279:147,1,72
158,63,251833,5,0,0:0:0:0:
116,90,251918,1,0,0:0:0:0:
95,136,252004,1,0,0:0:0:0:
103,185,252090,1,0,0:0:0:0:
132,225,252176,2,0,B|156:246|156:246|169:269,6,36
