osu file format v14

[General]
AudioFilename: colorfulchannelsubcon.mp3
AudioLeadIn: 0
PreviewTime: 62091
Countdown: 0
SampleSet: Soft
StackLeniency: 0.7
Mode: 0
LetterboxInBreaks: 0
WidescreenStoryboard: 0

[Editor]
Bookmarks: 30327,44444
DistanceSpacing: 1.3
BeatDivisor: 4
GridSize: 8
TimelineZoom: 1.550002

[Metadata]
Title:subconsciousness
TitleUnicode:subconsciousness
Artist:guna with team kyukkyu
ArtistUnicode:guna with チーム・キュッキュ
Creator:Snow Note
Version:Normal
Source:ゆめにっき
Tags:7odoa maki BMS サブコンシャスネス 戦 [sen-goku] 國 ~夏の陣~ 戦國 Powered by Yume Nikki 夢日記 Madotsuki 窓付き ききやま kikiyama horror video game Dream Diary instrumental electronic colorful channel みゅに aquaseeds aqua seeds colourful
BeatmapID:446181
BeatmapSetID:151945

[Difficulty]
HPDrainRate:2
CircleSize:2.8
OverallDifficulty:4
ApproachRate:3
SliderMultiplier:1
SliderTickRate:2

[Events]
//Background and Video events
Video,292,"Subconsious BGA.avi"
0,0,"BG.jpg",0,0
//Break Periods
2,118762,124181
//Storyboard Layer 0 (Background)
//Storyboard Layer 1 (Fail)
//Storyboard Layer 2 (Pass)
//Storyboard Layer 3 (Foreground)
//Storyboard Layer 4 (Overlay)
//Storyboard Sound Samples

[TimingPoints]
327,588.235294117648,3,2,1,35,1,0
327,-50,3,2,1,35,0,0
2091,-66.6666666666665,3,2,1,35,0,0
29959,-66.6666666666665,3,2,1,16,0,0
30326,-50,3,1,1,55,0,0
58635,-66.6666666666665,3,2,2,50,0,0
61135,-66.6666666666665,3,2,1,55,0,0
62091,-41.6666666666667,3,1,1,75,0,1
90327,-66.6666666666665,3,2,1,55,0,0
104444,-41.6666666666667,3,2,1,75,0,1
118562,-100,3,2,1,75,0,0
125327,-100,3,2,1,50,0,0

[Colours]
Combo1 : 228,228,228
Combo2 : 255,0,0
Combo3 : 247,214,228
Combo4 : 180,96,255

[HitObjects]
284,340,2091,6,0,L|448:332,1,150.000005722046,2|0,0:0|0:0,0:0:0:0:
360,168,3268,1,2,0:0:0:0:
212,272,3856,6,0,L|48:264,1,150.000005722046,2|0,0:0|0:0,0:0:0:0:
136,104,5033,1,2,0:0:0:0:
288,192,5621,6,0,L|452:184,1,150.000005722046,2|0,0:0|0:0,0:0:0:0:
344,32,6798,1,2,0:0:0:0:
168,32,7385,5,2,0:0:0:0:
80,228,7974,2,0,L|68:312,1,75.0000028610231
168,276,8562,2,0,L|156:360,1,75.0000028610231
256,320,9150,6,0,P|336:328|408:296,1,150.000005722046,2|0,0:0|0:0,0:0:0:0:
472,136,10327,1,2,0:0:0:0:
316,216,10915,6,0,P|236:224|164:192,1,150.000005722046,2|0,0:0|0:0,0:0:0:0:
104,32,12092,1,2,0:0:0:0:
261,110,12679,6,0,P|341:118|413:86,1,150.000005722046,2|0,0:0|0:0,0:0:0:0:
480,264,13856,1,2,0:0:0:0:
480,264,14150,1,0,0:0:0:0:
480,264,14444,6,0,P|412:288|336:248,1,150.000005722046,2|0,0:0|0:0,0:0:0:0:
404,92,15621,1,0,0:0:0:0:
208,24,16209,6,0,P|136:16|92:36,1,112.500004291535,2|0,0:0|0:0,0:0:0:0:
68,56,16797,2,0,L|76:152,1,75.0000028610231
44,208,17385,1,2,0:0:0:0:
160,352,17974,6,0,P|236:352|268:312,1,112.500004291535,2|0,0:0|0:0,0:0:0:0:
272,292,18562,2,0,L|376:288,1,75.0000028610231
408,236,19150,1,2,0:0:0:0:
248,160,19738,6,0,P|236:96|268:48,1,112.500004291535,2|0,0:0|0:0,0:0:0:0:
232,24,20327,2,0,L|148:24,1,75.0000028610231
76,40,20915,1,2,0:0:0:0:
60,120,21209,1,0,0:0:0:0:
44,200,21503,5,2,0:0:0:0:
96,376,22091,1,0,0:0:0:0:
256,312,22679,2,0,L|256:236,1,75.0000028610231,2|0,0:0|0:0,0:0:0:0:
300,160,23268,6,0,P|352:136|408:144,1,112.500004291535,2|0,0:0|0:0,0:0:0:0:
432,168,23856,2,0,L|442:249,1,75.0000028610231
420,320,24444,1,2,0:0:0:0:
248,368,25032,6,0,P|192:368|140:332,1,112.500004291535,2|0,0:0|0:0,0:0:0:0:
128,304,25621,2,0,L|36:308,1,75.0000028610231
0,236,26209,1,2,0:0:0:0:
72,72,26797,6,0,P|96:32|164:20,1,112.500004291535,2|0,0:0|0:0,0:0:0:0:
192,36,27385,2,0,L|272:32,1,75.0000028610231
360,24,27974,1,2,0:0:0:0:
256,228,28562,6,0,L|104:220,1,150.000005722046,2|0,0:0|0:0,0:0:0:0:
80,304,29444,2,0,P|128:360|212:364,1,150.000005722046
280,324,30327,1,4,1:0:0:0:
456,192,30915,6,0,L|464:304,1,100,0|8,1:0|1:0,0:0:0:0:
372,248,31503,2,0,L|364:148,1,100,0|8,1:0|1:0,0:0:0:0:
448,96,32091,2,0,P|368:124|300:32,1,200,0|0,1:0|2:0,0:0:0:0:
204,20,32974,1,8,1:0:0:0:
220,120,33268,2,0,P|217:168|191:216,1,100,0|8,1:0|1:0,0:0:0:0:
116,276,33856,1,4,1:0:0:0:
344,360,34444,6,0,L|452:376,1,100,0|8,1:0|1:0,0:0:0:0:
496,292,35032,2,0,L|398:277,1,100,2|8,1:0|1:0,0:0:0:0:
300,256,35621,2,0,P|284:196|380:100,1,200,0|0,0:0|2:0,0:0:0:0:
296,36,36503,1,8,0:0:0:0:
216,96,36797,2,0,P|172:108|120:92,1,100,0|8,0:0|0:0,0:0:0:0:
56,24,37385,1,4,0:0:0:0:
80,264,37974,6,0,L|68:380,1,100,0|8,1:0|0:0,0:0:0:0:
168,368,38562,2,0,L|178:268,1,100,0|8,0:0|1:0,0:0:0:0:
244,192,39150,2,0,P|312:172|420:244,1,200,0|0,0:0|2:0,0:0:0:0:
420,336,40032,1,8,0:0:0:0:
328,300,40327,2,0,P|280:296|228:312,1,100,0|8,0:0|0:0,0:0:0:0:
160,380,40915,1,4,0:0:0:0:
128,144,41503,6,0,L|116:40,1,100,0|8,0:0|0:0,0:0:0:0:
20,24,42091,2,0,L|31:123,1,100,2|8,0:0|0:0,0:0:0:0:
64,220,42679,2,0,P|140:240|224:156,1,200,0|0,0:0|2:0,0:0:0:0:
272,80,43562,1,8,0:0:0:0:
352,136,43856,2,0,P|403:129|444:100,1,100,0|8,0:0|0:0,0:0:0:0:
480,12,44444,1,4,0:0:0:0:
428,224,45032,6,0,P|424:280|440:332,1,100,0|8,0:0|0:0,0:0:0:0:
336,300,45621,2,0,P|289:268|236:256,1,100,0|8,0:0|0:0,0:0:0:0:
176,328,46209,2,0,P|124:352|28:260,1,200,0|0,0:0|2:0,0:0:0:0:
64,176,47091,1,8,0:0:0:0:
156,216,47385,2,0,L|264:204,1,100,0|8,0:0|0:0,0:0:0:0:
360,192,47974,1,4,0:0:0:0:
124,36,48562,6,0,L|24:47,1,100,0|8,1:0|0:0,0:0:0:0:
80,132,49150,2,0,L|179:120,1,100,2|8,0:0|0:0,0:0:0:0:
248,48,49738,2,0,B|400:32|400:32|440:88,1,200,0|0,0:0|2:0,0:0:0:0:
404,168,50621,2,0,L|416:284,1,100,8|0,0:0|0:0,0:0:0:0:
452,360,51209,1,8,0:0:0:0:
508,276,51503,1,4,0:0:0:0:
288,368,52091,6,0,P|240:359|194:314,1,100,0|8,0:0|0:0,0:0:0:0:
141,250,52679,2,0,P|110:287|98:362,1,100,0|8,0:0|0:0,0:0:0:0:
24,268,53268,2,0,L|32:64,1,200,0|0,0:0|2:0,0:0:0:0:
120,16,54150,1,8,0:0:0:0:
184,96,54444,2,0,L|292:80,1,100,0|8,0:0|0:0,0:0:0:0:
376,56,55032,1,4,0:0:0:0:
336,288,55621,6,0,P|302:304|236:300,2,100,0|8|2,0:0|0:0|0:0,0:0:0:0:
380,196,56503,1,8,0:0:0:0:
472,232,56797,2,0,P|492:304|468:384,2,150,0|0|8,0:0|0:0|0:0,0:0:0:0:
380,196,57974,2,0,L|268:204,1,100,0|8,0:0|0:0,0:0:0:0:
180,212,58562,1,4,2:0:0:0:
256,192,58635,12,0,60327,0:0:0:0:
70,58,61209,5,2,0:0:0:0:
85,146,61503,1,2,0:0:0:0:
100,234,61797,1,2,0:0:0:0:
120,324,62091,6,0,L|248:340,2,119.999996337891,4|8|0,1:1|1:0|1:0,0:0:0:0:
192,244,62974,2,0,L|320:260,2,119.999996337891,8|0|0,1:0|1:0|1:0,0:0:0:0:
248,152,63856,6,0,L|128:137,2,119.999996337891,0|8|0,1:0|1:0|1:0,0:0:0:0:
316,68,64738,2,0,L|196:53,2,119.999996337891,8|0|0,1:0|1:0|1:0,0:0:0:0:
404,128,65621,6,0,P|444:76|440:8,2,119.999996337891,0|8|0,1:0|1:0|1:0,0:0:0:0:
372,232,66503,2,0,P|397:292|457:323,2,119.999996337891,8|2|0,1:0|1:0|1:0,0:0:0:0:
300,152,67385,6,0,P|320:104|308:28,2,119.999996337891,0|8|0,1:0|1:0|1:0,0:0:0:0:
256,252,68268,1,8,1:0:0:0:
212,152,68562,2,0,L|205:78,2,59.9999981689454,0|2|2,1:0|0:0|1:0,1:0:0:0:
108,195,69150,6,0,P|84:256|96:316,2,119.999996337891,4|8|0,1:0|1:0|1:0,0:0:0:0:
188,268,70032,2,0,P|220:320|280:340,2,119.999996337891,8|0|0,1:0|1:0|1:0,0:0:0:0:
292,244,70915,6,0,L|420:216,2,119.999996337891,0|8|0,1:0|1:0|1:0,0:0:0:0:
316,140,71797,2,0,L|404:43,2,119.999996337891,8|0|0,1:0|1:0|1:0,0:0:0:0:
208,156,72679,6,0,P|164:132|84:128,2,119.999996337891,0|8|0,1:0|1:0|1:0,0:0:0:0:
304,228,73562,2,0,P|348:252|428:256,2,119.999996337891,8|2|0,1:0|1:0|1:0,0:0:0:0:
212,304,74444,6,0,P|168:328|88:332,2,119.999996337891,0|8|0,1:0|1:0|1:0,0:0:0:0:
256,188,75327,1,8,1:0:0:0:
212,80,75621,2,0,L|192:24,2,59.9999981689454,0|2|2,1:0|1:1|1:1,0:0:0:0:
320,23,76209,6,0,P|388:24|472:192,1,239.999992675781,4|0,1:1|1:0,0:0:0:0:
463,260,77091,2,0,P|378:323|331:229,1,239.999992675781,8|0,1:0|1:0,0:0:0:0:
276,140,77974,6,0,P|202:129|120:252,1,239.999992675781,0|0,1:0|1:0,0:0:0:0:
176,344,78856,2,0,P|249:354|332:232,1,239.999992675781,8|0,1:0|1:0,0:0:0:0:
336,124,79738,6,0,P|310:56|149:41,1,239.999992675781,4|0,1:0|1:0,0:0:0:0:
88,112,80621,1,8,1:0:0:0:
192,368,81209,1,0,1:0:0:0:
320,368,81503,6,0,B|400:368|400:368|454:314|454:314|454:208,1,239.999992675781,0|0,1:0|1:0,0:0:0:0:
390,142,82385,2,0,B|310:142|310:142|256:196|256:196|256:302,1,239.999992675781,8|0,1:0|1:0,0:0:0:0:
148,284,83268,6,0,L|148:140,1,119.999996337891,4|8,1:0|1:0,0:0:0:0:
212,76,83856,1,0,1:0:0:0:
320,76,84150,2,0,P|412:144|420:272,1,239.999992675781,8|0,1:0|1:0,0:0:0:0:
376,360,85032,6,0,L|176:360,2,179.999994506836,0|8|0,1:0|1:0|1:0,0:0:0:0:
424,262,86209,1,2,1:0:0:0:
304,264,86503,1,8,1:0:0:0:
184,264,86797,6,0,P|112:272|56:117,1,239.999992675781,4|0,1:0|1:0,0:0:0:0:
160,104,87679,2,0,B|240:104|240:104|294:158|294:158|384:158,1,239.999992675781,8|0,1:0|1:0,0:0:0:0:
496,152,88562,5,4,1:0:0:0:
256,384,89444,1,2,1:0:0:0:
16,152,90327,6,0,B|0:104|0:104|0:8|0:8|94:8,1,225.000008583069,6|0,0:0|0:0,0:0:0:0:
133,144,91797,1,0,0:0:0:0:
133,144,92091,2,0,P|191:245|290:239,1,225.000008583069,2|0,0:0|0:0,0:0:0:0:
332,188,93268,1,0,0:0:0:0:
396,204,93562,1,0,0:0:0:0:
416,268,93856,6,0,B|420:320|368:360|304:360|304:360|224:360,2,225.000008583069,2|0|2,0:0|0:0|0:0,0:0:0:0:
406,91,96209,1,0,0:0:0:0:
406,91,96503,2,0,P|482:111|510:183,1,150.000005722046
426,175,97385,6,0,P|350:157|418:4,1,300.000011444092,2|0,0:0|0:0,0:0:0:0:
236,32,99150,2,0,B|164:44|164:44|197:191|197:191|120:208,1,300.000011444092,2|0,0:0|0:0,0:0:0:0:
13,321,100915,2,0,B|217:274|217:274|249:386,1,300.000011444092,2|0,0:0|0:0,0:0:0:0:
256,192,102679,12,4,104444,0:0:0:0:
256,192,105032,5,0,0:0:0:0:
336,120,105327,2,0,P|400:124|476:264,1,239.999992675781,8|8,1:0|1:0,0:0:0:0:
395,336,106209,6,0,P|285:303|256:192,1,239.999992675781,0|0,1:0|1:0,0:0:0:0:
176,120,107091,1,8,1:0:0:0:
152,224,107385,2,0,P|128:288|80:336,1,119.999996337891,0|8,1:0|1:0,0:0:0:0:
12,256,107974,6,0,P|52:208|4:48,1,239.999992675781,0|0,1:0|1:0,0:0:0:0:
116,32,108856,2,0,P|137:90|300:129,1,239.999992675781,8|8,1:0|1:0,0:0:0:0:
260,236,109738,2,0,P|198:225|83:346,1,239.999992675781,0|0,1:0|1:0,0:0:0:0:
176,384,110621,5,8,1:1:0:0:
256,328,110915,1,0,1:0:0:0:
336,384,111209,1,8,1:0:0:0:
404,316,111503,6,0,B|428:200|428:200|400:144,2,179.999994506836,4|0|8,1:0|1:0|1:0,0:0:0:0:
336,384,112679,2,0,L|208:364,1,119.999996337891,0|8,1:0|1:0,0:0:0:0:
123,342,113268,6,0,P|87:272|117:165,1,179.999994506836,4|0,1:0|1:0,0:0:0:0:
320,216,114150,1,8,1:0:0:0:
320,216,114444,2,0,L|444:200,1,119.999996337891,0|8,1:0|1:0,0:0:0:0:
364,124,115032,6,0,B|256:136|256:136|220:208,2,179.999994506836,4|0|8,1:0|1:0|1:0,0:0:0:0:
440,200,116209,2,0,L|432:320,1,119.999996337891,0|8,1:0|1:0,0:0:0:0:
336,368,116797,6,0,P|280:376|168:316,2,179.999994506836,4|0|8,1:0|1:0|1:0,0:0:0:0:
312,276,117974,1,0,1:0:0:0:
288,184,118268,1,8,1:0:0:0:
264,92,118562,1,4,1:0:0:0:
212,152,125621,5,2,0:0:0:0:
298,230,126503,1,0,0:0:0:0:
212,152,127385,1,2,0:0:0:0:
298,230,129150,5,0,0:0:0:0:
298,230,130032,1,0,0:0:0:0:
212,152,130915,1,2,0:0:0:0:
298,230,132679,5,0,0:0:0:0:
212,152,133561,1,2,0:0:0:0:
298,230,134444,1,0,0:0:0:0:
212,152,136209,5,2,0:0:0:0:
298,230,137091,2,0,L|414:230,1,100
480,190,137974,1,2,0:0:0:0:
256,192,138268,12,8,140327,0:0:0:0:
