osu file format v14

[General]
AudioFilename: colorfulchannelsubcon.mp3
AudioLeadIn: 0
PreviewTime: 62091
Countdown: 0
SampleSet: Soft
StackLeniency: 0.3
Mode: 0
LetterboxInBreaks: 0
WidescreenStoryboard: 0

[Editor]
Bookmarks: 30327,44444
DistanceSpacing: 1
BeatDivisor: 4
GridSize: 8
TimelineZoom: 1.46

[Metadata]
Title:subconsciousness
TitleUnicode:subconsciousness
Artist:guna with team kyukkyu
ArtistUnicode:guna with チーム・キュッキュ
Creator:Snow Note
Version:Hyper
Source:ゆめにっき
Tags:7odoa maki BMS サブコンシャスネス 戦 [sen-goku] 國 ~夏の陣~ 戦國 Powered by Yume Nikki 夢日記 Madotsuki 窓付き ききやま kikiyama horror video game Dream Diary instrumental electronic colorful channel みゅに aquaseeds aqua seeds colourful
BeatmapID:446142
BeatmapSetID:151945

[Difficulty]
HPDrainRate:3
CircleSize:3.7
OverallDifficulty:6.3
ApproachRate:6.5
SliderMultiplier:1.3
SliderTickRate:4

[Events]
//Background and Video events
Video,292,"Subconsious BGA.avi"
0,0,"BG.jpg",0,0
//Break Periods
2,118762,124467
//Storyboard Layer 0 (Background)
//Storyboard Layer 1 (Fail)
//Storyboard Layer 2 (Pass)
//Storyboard Layer 3 (Foreground)
//Storyboard Layer 4 (Overlay)
//Storyboard Sound Samples

[TimingPoints]
327,588.235294117648,3,2,1,28,1,0
327,-50,3,2,1,28,0,0
2091,-66.6666666666665,3,2,1,35,0,0
29959,-66.6666666666665,3,2,1,16,0,0
30326,-50,3,1,1,55,0,0
58635,-66.6666666666665,3,2,2,50,0,0
61135,-66.6666666666665,3,2,1,55,0,0
62091,-41.6666666666667,3,2,1,75,0,1
90327,-66.6666666666665,3,2,1,55,0,0
104444,-41.6666666666667,3,2,1,75,0,1
118562,-100,3,2,1,70,0,0
125327,-100,3,2,1,50,0,0

[Colours]
Combo1 : 228,228,228
Combo2 : 255,0,0
Combo3 : 247,214,228
Combo4 : 180,96,255

[HitObjects]
32,192,2091,5,2,0:0:0:0:
16,352,2385,1,0,0:0:0:0:
32,352,2532,1,0,0:0:0:0:
48,352,2679,1,0,0:0:0:0:
336,352,3268,1,2,0:0:0:0:
480,192,3856,5,2,0:0:0:0:
496,352,4150,1,0,0:0:0:0:
480,352,4297,1,0,0:0:0:0:
464,352,4444,1,0,0:0:0:0:
176,352,5033,1,2,0:0:0:0:
256,168,5621,5,2,0:0:0:0:
256,336,5915,1,0,0:0:0:0:
256,352,6062,1,0,0:0:0:0:
256,368,6209,1,0,0:0:0:0:
164,264,6503,5,0,0:0:0:0:
344,192,6797,1,2,0:0:0:0:
164,120,7091,1,0,0:0:0:0:
208,336,7385,6,0,L|312:328,1,97.50000371933,2|0,0:0|0:0,0:0:0:0:
320,326,7827,1,0,0:0:0:0:
336,324,7974,1,0,0:0:0:0:
208,256,8268,1,0,0:0:0:0:
304,192,8562,1,0,0:0:0:0:
208,128,8856,1,0,0:0:0:0:
256,24,9150,5,2,0:0:0:0:
352,80,9444,1,0,0:0:0:0:
376,77,9591,1,0,0:0:0:0:
400,74,9738,1,0,0:0:0:0:
376,328,10327,1,2,0:0:0:0:
176,80,10915,5,2,0:0:0:0:
80,136,11209,1,0,0:0:0:0:
56,133,11356,1,0,0:0:0:0:
32,130,11503,1,0,0:0:0:0:
56,384,12092,1,2,0:0:0:0:
224,160,12679,5,2,0:0:0:0:
320,216,12973,1,0,0:0:0:0:
344,213,13120,1,0,0:0:0:0:
368,210,13267,1,0,0:0:0:0:
468,200,13562,5,0,0:0:0:0:
512,92,13856,1,2,0:0:0:0:
424,12,14150,1,0,0:0:0:0:
328,76,14444,5,2,0:0:0:0:
208,160,14738,2,0,L|200:224,2,48.750001859665
304,160,15327,1,0,0:0:0:0:
184,76,15621,2,0,P|144:64|64:76,1,97.50000371933
12,156,16209,5,2,0:0:0:0:
8,272,16503,1,0,0:0:0:0:
8,272,16650,1,0,0:0:0:0:
8,272,16797,1,0,0:0:0:0:
88,356,17091,1,0,0:0:0:0:
204,348,17385,1,2,0:0:0:0:
268,248,17679,1,0,0:0:0:0:
244,136,17974,5,2,0:0:0:0:
308,36,18268,1,0,0:0:0:0:
308,36,18415,1,0,0:0:0:0:
308,36,18562,1,0,0:0:0:0:
424,28,18856,1,0,0:0:0:0:
504,112,19150,1,2,0:0:0:0:
488,228,19444,1,0,0:0:0:0:
484,264,19591,1,0,0:0:0:0:
480,300,19738,5,2,0:0:0:0:
364,328,20032,1,0,0:0:0:0:
368,292,20179,1,0,0:0:0:0:
372,256,20327,1,0,0:0:0:0:
316,160,20621,2,0,L|308:100,1,48.750001859665
232,148,20915,2,0,L|240:216,1,48.750001859665,2|0,0:0|0:0,0:0:0:0:
156,192,21209,2,0,L|96:180,1,48.750001859665
68,176,21503,6,0,P|52:240|124:356,1,195.00000743866,2|0,0:0|0:0,0:0:0:0:
224,368,22385,1,0,0:0:0:0:
260,256,22679,1,2,0:0:0:0:
256,212,22827,1,0,0:0:0:0:
252,168,22974,1,0,0:0:0:0:
288,76,23268,6,0,P|352:60|392:76,1,97.50000371933,2|0,0:0|0:0,0:0:0:0:
424,96,23709,1,0,0:0:0:0:
424,96,23856,2,0,L|436:192,1,97.50000371933
492,284,24444,2,0,L|392:276,1,97.50000371933,2|0,0:0|0:0,0:0:0:0:
312,208,25032,5,2,0:0:0:0:
232,296,25327,1,0,0:0:0:0:
200,304,25474,1,0,0:0:0:0:
168,312,25621,2,0,L|64:296,1,97.50000371933
8,192,26209,1,2,0:0:0:0:
56,72,26503,1,0,0:0:0:0:
188,24,26797,6,0,P|230:21|288:44,1,97.50000371933,2|0,0:0|0:0,0:0:0:0:
302,66,27238,1,0,0:0:0:0:
311,98,27385,1,0,0:0:0:0:
268,216,27679,2,0,L|260:288,1,48.750001859665
340,260,27974,2,0,L|357:330,1,48.750001859665,2|0,0:0|0:0,0:0:0:0:
424,276,28268,2,0,L|464:336,1,48.750001859665
504,256,28562,5,2,0:0:0:0:
440,156,28856,1,0,0:0:0:0:
408,164,29003,1,0,0:0:0:0:
376,172,29150,1,0,0:0:0:0:
268,124,29444,2,0,P|252:72|372:16,1,195.00000743866
376,172,30327,6,0,P|372:236|320:280,1,130,4|8,1:0|2:1,0:0:0:0:
280,276,30768,1,0,1:0:0:0:
152,188,31062,1,8,2:1:0:0:
152,188,31209,2,0,L|136:336,1,130,8|0,2:1|1:0,0:0:0:0:
280,380,31797,1,8,2:1:0:0:
428,336,32091,5,0,1:0:0:0:
280,276,32385,1,0,1:2:0:0:
300,24,32827,1,8,2:1:0:0:
300,24,32974,2,0,L|444:36,1,130,8|0,2:1|1:0,0:0:0:0:
480,180,33562,1,8,2:1:0:0:
340,112,33856,6,0,P|296:152|292:224,1,130,4|8,1:0|2:1,0:0:0:0:
312,264,34297,2,0,L|180:260,1,130,0|8,1:0|2:1,0:0:0:0:
128,256,34738,1,8,2:1:0:0:
24,160,35032,2,0,L|40:24,1,130,2|8,1:0|2:1,0:0:0:0:
196,72,35621,6,0,P|260:88|336:64,1,130,0|8,0:0|2:1,0:0:0:0:
364,44,36062,2,0,P|364:112|416:156,1,130,0|8,0:0|2:1,0:0:0:0:
456,144,36503,1,8,2:1:0:0:
460,196,36650,1,0,1:0:0:0:
464,248,36797,1,0,0:0:0:0:
384,368,37091,1,8,2:1:0:0:
264,292,37385,6,0,P|212:276|136:328,1,130,4|8,0:0|2:1,0:0:0:0:
116,352,37827,1,0,0:0:0:0:
8,260,38121,1,8,2:1:0:0:
8,260,38268,2,0,L|24:120,1,130,8|0,2:1|0:0,0:0:0:0:
132,40,38856,1,8,2:1:0:0:
120,184,39150,5,0,0:0:0:0:
16,36,39444,1,0,0:0:0:0:
376,24,39885,1,8,2:1:0:0:
376,24,40032,2,0,P|440:28|496:80,1,130,8|0,2:1|0:0,0:0:0:0:
424,196,40621,1,8,2:1:0:0:
288,156,40915,6,0,P|220:172|200:228,1,130,4|8,0:0|2:1,0:0:0:0:
172,268,41356,2,0,P|219:318|278:308,1,130,0|8,0:0|2:1,0:0:0:0:
316,340,41797,1,8,2:1:0:0:
368,192,42091,1,2,0:0:0:0:
436,300,42385,1,8,2:1:0:0:
288,252,42679,6,0,L|272:112,1,130,0|8,0:0|2:1,0:0:0:0:
284,72,43121,2,0,P|220:48|152:72,1,130,0|8,0:0|2:1,0:0:0:0:
136,108,43562,1,8,2:1:0:0:
84,100,43709,1,0,0:0:0:0:
32,92,43856,1,0,0:0:0:0:
4,232,44150,1,8,2:1:0:0:
72,356,44444,6,0,P|136:340|164:264,1,130,4|8,0:0|2:1,0:0:0:0:
156,236,44885,1,0,0:0:0:0:
284,304,45179,1,8,2:1:0:0:
284,304,45327,2,0,L|412:324,1,130,8|0,2:1|0:0,0:0:0:0:
512,220,45915,1,8,2:1:0:0:
368,212,46209,5,0,0:0:0:0:
464,60,46503,1,0,0:0:0:0:
200,124,46944,1,8,2:1:0:0:
200,124,47091,2,0,B|132:132|132:132|72:100,1,130,8|0,2:1|0:0,0:0:0:0:
196,20,47679,1,8,2:1:0:0:
300,120,47974,6,0,P|308:204|284:248,1,130,4|8,0:0|2:1,0:0:0:0:
236,256,48415,1,0,0:0:0:0:
332,364,48709,1,8,2:1:0:0:
332,364,48856,1,8,2:1:0:0:
448,224,49150,2,0,L|428:96,1,130,2|8,0:0|2:1,0:0:0:0:
300,28,49738,6,0,P|232:32|192:88,1,130,0|8,0:0|2:1,0:0:0:0:
196,128,50179,2,0,L|328:152,1,130,0|8,0:0|2:1,0:0:0:0:
320,204,50621,1,8,2:1:0:0:
316,256,50768,1,0,0:0:0:0:
312,308,50915,1,0,0:0:0:0:
184,372,51209,1,8,2:1:0:0:
164,232,51503,6,0,P|120:180|44:184,1,130,4|8,0:0|2:1,0:0:0:0:
16,204,51944,1,0,0:0:0:0:
108,312,52238,1,8,2:1:0:0:
108,312,52385,2,0,B|148:324|148:324|256:296,1,130,8|0,2:1|0:0,0:0:0:0:
256,160,52974,1,8,2:1:0:0:
156,60,53268,5,0,0:0:0:0:
100,232,53562,1,0,0:0:0:0:
376,176,54003,1,8,2:1:0:0:
376,176,54150,2,0,L|360:40,1,130,8|0,2:1|0:0,0:0:0:0:
488,108,54738,1,8,2:1:0:0:
456,248,55032,6,0,P|408:288|336:280,1,130,4|8,0:0|2:1,0:0:0:0:
300,252,55474,1,0,0:0:0:0:
244,384,55768,1,8,2:1:0:0:
244,384,55915,2,0,L|392:368,1,130,8|2,2:1|0:0,0:0:0:0:
384,216,56503,1,8,2:1:0:0:
256,124,56797,6,0,L|116:136,1,130,0|8,0:0|2:1,0:0:0:0:
80,116,57238,2,0,P|64:180|84:248,1,130,0|8,0:0|2:1,0:0:0:0:
116,276,57679,1,8,2:1:0:0:
168,288,57827,1,0,0:0:0:0:
216,272,57974,1,0,0:0:0:0:
332,168,58268,1,8,2:1:0:0:
252,32,58562,1,4,2:0:0:0:
256,192,58635,12,0,60327,0:0:0:0:
168,104,61209,6,0,L|160:48,2,48.750001859665,2|2|2,0:0|0:0|0:0,0:0:0:0:
216,192,61650,2,0,L|224:248,2,48.750001859665,2|2|2,0:0|0:0|0:0,0:0:0:0:
120,192,62091,5,4,1:1:0:0:
256,80,62385,1,8,1:0:0:0:
256,80,62532,1,0,0:0:0:0:
256,80,62679,2,0,P|312:76|340:92,1,77.999997619629,0|8,1:0|0:1,0:0:0:0:
376,152,62974,2,0,P|368:216|280:272,2,155.999995239258,8|0|8,1:0|1:0|1:0,0:0:0:0:
504,56,63856,6,0,P|468:96|468:200,1,155.999995239258,0|8,1:0|1:0,0:0:0:0:
504,272,64297,1,0,0:0:0:0:
476,352,64444,2,0,L|371:344,1,77.999997619629,0|8,1:0|0:1,0:0:0:0:
312,336,64738,1,8,1:0:0:0:
100,180,65032,2,0,L|256:192,1,155.999995239258,0|8,1:0|1:0,0:0:0:0:
200,336,65621,5,0,1:0:0:0:
360,264,65915,2,0,L|437:269,1,77.999997619629,8|0,1:0|0:1,0:0:0:0:
496,188,66209,2,8,L|418:182,1,77.999997619629,0|8,1:1|2:1,2:1:0:0:
332,172,66503,1,8,1:0:0:0:
160,40,66797,2,0,P|112:24|8:72,1,155.999995239258,2|8,1:0|1:0,0:0:0:0:
17,323,67385,6,0,P|85:359|160:344,1,155.999995239258,0|8,1:0|1:0,0:0:0:0:
208,272,67827,1,0,0:0:0:0:
272,328,67974,2,0,L|352:336,1,77.999997619629,0|8,1:0|0:1,0:0:0:0:
432,344,68268,1,8,1:0:0:0:
512,160,68562,5,0,1:0:0:0:
508,128,68709,1,2,1:0:0:0:
504,96,68856,1,10,1:0:0:0:
500,64,69003,1,0,1:0:0:0:
496,32,69150,6,0,L|336:32,1,155.999995239258,4|8,1:0|1:0,0:0:0:0:
256,36,69591,1,0,0:0:0:0:
304,112,69738,2,0,L|384:112,1,77.999997619629,0|8,1:0|0:1,0:0:0:0:
312,192,70032,2,0,B|264:192|264:192|216:160|216:160|148:160,2,155.999995239258,8|0|8,1:0|1:0|1:0,0:0:0:0:
144,240,70915,6,0,B|195:240|195:240|243:272|243:272|291:272,1,155.999995239258,0|8,1:0|1:0,0:0:0:0:
376,272,71356,1,0,0:0:0:0:
344,352,71503,2,0,L|255:353,1,77.999997619629,0|8,1:0|0:1,0:0:0:0:
184,352,71797,1,8,1:0:0:0:
184,160,72091,2,0,B|235:160|235:160|283:192|283:192|331:192,1,155.999995239258,0|8,1:0|1:0,0:0:0:0:
184,352,72679,5,0,1:0:0:0:
16,264,72974,1,8,1:0:0:0:
16,264,73121,1,0,0:0:0:0:
16,264,73268,2,0,L|104:264,1,77.999997619629,0|8,1:0|0:1,0:0:0:0:
184,264,73562,1,8,1:0:0:0:
176,80,73856,2,0,P|128:88|80:184,1,155.999995239258,2|8,1:0|1:0,0:0:0:0:
336,304,74444,6,0,P|384:296|432:200,1,155.999995239258,0|8,1:0|1:0,0:0:0:0:
432,112,74885,1,0,2:0:0:0:
352,160,75032,2,0,L|245:149,1,77.999997619629,0|8,1:0|0:1,0:0:0:0:
184,136,75327,1,8,1:0:0:0:
16,264,75621,5,0,1:0:0:0:
20,288,75768,1,2,1:1:0:0:
24,312,75914,1,10,1:1:0:0:
28,336,76061,1,0,1:1:0:0:
32,360,76209,6,0,L|188:340,1,155.999995239258,4|8,1:1|1:0,0:0:0:0:
312,224,76797,2,0,L|232:216,1,77.999997619629,0|8,1:0|0:1,0:0:0:0:
156,248,77091,2,0,P|120:196|132:104,1,155.999995239258,8|0,1:0|1:0,0:0:0:0:
280,24,77679,1,8,1:0:0:0:
336,28,77827,1,0,0:0:0:0:
392,36,77974,6,0,B|468:44|468:44|492:144,1,155.999995239258,0|8,1:0|1:0,0:0:0:0:
408,296,78562,2,0,L|488:304,1,77.999997619629,0|8,1:0|0:1,0:0:0:0:
456,384,78856,2,0,L|296:372,1,155.999995239258,8|0,1:0|1:0,0:0:0:0:
128,312,79444,1,8,1:0:0:0:
328,260,79738,6,0,P|340:180|300:120,1,155.999995239258,0|8,1:0|1:0,0:0:0:0:
260,116,80179,1,0,1:0:0:0:
220,112,80327,1,0,1:0:0:0:
180,108,80474,1,8,1:1:0:0:
140,104,80621,1,8,1:0:0:0:
296,32,80915,1,2,1:0:0:0:
256,200,81209,1,8,1:0:0:0:
188,360,81503,6,0,P|120:380|36:344,1,155.999995239258,0|8,1:0|1:0,0:0:0:0:
16,196,82091,2,0,L|100:212,1,77.999997619629,0|8,1:0|0:1,0:0:0:0:
172,180,82385,1,8,1:0:0:0:
324,220,82679,5,0,1:0:0:0:
332,180,82827,1,2,1:0:0:0:
340,140,82974,1,10,1:0:0:0:
348,100,83121,1,0,1:0:0:0:
356,60,83268,6,0,P|292:20|200:24,1,155.999995239258,4|8,1:0|1:0,0:0:0:0:
88,112,83856,2,0,L|176:124,1,77.999997619629,0|8,1:0|0:1,0:0:0:0:
232,180,84150,2,0,P|248:256|212:332,1,155.999995239258,8|0,1:0|1:0,0:0:0:0:
68,376,84738,1,8,1:0:0:0:
6,234,85032,6,0,P|29:160|88:112,2,155.999995239258,0|8|0,1:0|1:1|1:0,0:0:0:0:
56,296,85768,1,8,1:0:0:0:
132,272,85915,1,8,1:0:0:0:
312,314,86209,5,2,1:0:0:0:
394,338,86356,1,2,1:0:0:0:
476,364,86503,1,8,1:0:0:0:
508,153,86797,6,0,P|500:83|439:18,1,155.999995239258,4|8,1:0|1:0,0:0:0:0:
256,24,87385,2,0,L|160:32,1,77.999997619629,0|8,1:0|2:1,0:0:0:0:
144,120,87679,2,0,L|320:104,1,155.999995239258,8|2,1:0|1:0,0:0:0:0:
200,314,88268,5,8,1:0:0:0:
118,338,88415,1,0,1:0:0:0:
36,364,88562,1,4,1:0:0:0:
256,24,89444,1,2,1:0:0:0:
476,364,90327,6,0,L|492:160,1,195.00000743866,6|0,0:0|0:0,0:0:0:0:
396,160,91209,2,0,L|380:354,1,195.00000743866
284,364,92091,2,0,B|208:364|208:364|168:328|168:328|92:328,1,195.00000743866,2|0,0:0|0:0,0:0:0:0:
44,244,92974,5,0,0:0:0:0:
71,146,93268,1,0,0:0:0:0:
156,220,93562,1,0,0:0:0:0:
156,220,93709,1,0,0:0:0:0:
156,220,93856,6,0,P|208:232|224:124,1,195.00000743866,2|0,0:0|0:0,0:0:0:0:
244,28,94738,2,0,P|292:60|436:48,1,195.00000743866
452,148,95621,2,0,P|460:208|420:296,1,146.250005578995,2|0,0:0|0:0,0:0:0:0:
408,312,96209,5,0,0:0:0:0:
381,329,96356,1,0,0:0:0:0:
350,336,96503,1,0,0:0:0:0:
256,316,96797,1,0,0:0:0:0:
160,336,97091,1,0,0:0:0:0:
131,329,97238,1,0,0:0:0:0:
104,312,97385,6,0,P|76:268|292:184,1,390.00001487732,2|0,0:0|0:0,0:0:0:0:
252,260,98856,1,0,0:0:0:0:
292,348,99150,2,0,P|432:332|452:112,1,390.00001487732,2|0,0:0|0:0,0:0:0:0:
364,92,100621,1,0,0:0:0:0:
364,92,100915,6,0,B|220:68|220:68|164:104|152:184|204:252|288:220,1,390.00001487732,2|0,0:0|0:0,0:0:0:0:
372,252,102385,1,0,0:0:0:0:
372,252,102532,1,0,0:0:0:0:
372,252,102679,2,0,P|328:292|92:144,1,390.00001487732,2|8,0:0|0:1,0:0:0:0:
168,32,104150,5,0,0:0:0:0:
168,32,104297,1,8,0:1:0:0:
168,32,104444,2,0,P|224:88|300:88,1,155.999995239258,4|8,1:0|0:1,0:0:0:0:
360,40,104885,1,0,1:0:0:0:
440,192,105179,1,8,0:1:0:0:
440,192,105327,2,0,L|276:180,1,155.999995239258,8|0,2:1|1:0,0:0:0:0:
120,236,105915,1,8,0:1:0:0:
232,104,106209,5,0,1:0:0:0:
256,304,106503,1,0,1:0:0:0:
492,128,106944,1,8,0:1:0:0:
492,128,107091,2,0,L|484:44,1,77.999997619629,8|0,2:1|0:0,0:0:0:0:
408,16,107385,2,0,P|344:48|364:168,1,155.999995239258,0|8,1:0|2:1,0:0:0:0:
380,196,107827,1,0,2:0:0:0:
432,264,107974,6,0,P|422:338|356:373,1,155.999995239258,0|8,1:0|0:1,0:0:0:0:
268,368,108415,1,0,1:0:0:0:
172,232,108709,1,8,0:1:0:0:
172,232,108856,2,0,P|268:220|324:280,1,155.999995239258,8|0,0:1|1:0,0:0:0:0:
480,192,109444,1,8,2:1:0:0:
312,152,109738,6,0,P|254:74|278:-3,1,155.999995239258,0|8,1:0|0:1,0:0:0:0:
168,40,110179,1,0,1:2:0:0:
168,40,110327,2,0,L|156:132,1,77.999997619629,0|8,2:0|2:1,0:0:0:0:
180,200,110621,2,0,L|20:180,1,155.999995239258,8|0,2:1|1:0,0:0:0:0:
88,340,111209,1,8,2:1:0:0:
88,340,111356,1,0,2:0:0:0:
88,340,111503,6,0,B|160:368|160:368|244:348,1,155.999995239258,4|8,1:0|0:1,0:0:0:0:
316,320,111944,1,0,1:0:0:0:
256,156,112238,1,8,0:1:0:0:
256,156,112385,2,0,L|96:176,1,155.999995239258,8|0,0:1|1:0,0:0:0:0:
208,40,112974,1,8,2:1:0:0:
380,24,113268,6,0,P|444:48|468:136,1,155.999995239258,4|8,1:0|0:1,0:0:0:0:
444,208,113709,1,0,1:0:0:0:
488,360,114003,1,8,0:1:0:0:
488,360,114150,2,0,L|320:344,1,155.999995239258,8|0,0:1|1:0,0:0:0:0:
176,272,114738,1,8,0:1:0:0:
328,188,115032,6,0,B|352:116|352:116|316:44,1,155.999995239258,4|8,1:0|0:1,0:0:0:0:
236,80,115474,2,0,L|76:88,1,155.999995239258,0|8,1:0|0:1,0:0:0:0:
12,36,115915,1,8,0:1:0:0:
33,226,116209,5,0,1:0:0:0:
37,258,116356,1,0,1:0:0:0:
41,290,116503,1,8,1:0:0:0:
45,322,116650,1,0,1:0:0:0:
51,355,116797,6,0,P|103:383|203:355,1,155.999995239258,4|8,1:0|0:1,0:0:0:0:
251,299,117238,1,0,1:0:0:0:
147,131,117532,1,8,0:1:0:0:
147,131,117679,2,0,L|143:215,1,77.999997619629,8|0,0:1|1:0,0:0:0:0:
139,295,117974,5,0,1:0:0:0:
256,167,118268,1,8,2:1:0:0:
373,295,118562,1,4,1:0:0:0:
183,126,125621,5,2,0:0:0:0:
327,256,126503,1,0,0:0:0:0:
183,126,127385,1,2,0:0:0:0:
327,256,129150,5,0,0:0:0:0:
327,256,130032,1,0,0:0:0:0:
183,126,130915,1,2,0:0:0:0:
327,256,132679,5,0,0:0:0:0:
183,126,133561,1,2,0:0:0:0:
327,256,134444,1,0,0:0:0:0:
183,126,136209,5,2,0:0:0:0:
327,256,137091,1,0,0:0:0:0:
327,256,137679,1,0,0:0:0:0:
185,128,137974,1,2,0:0:0:0:
256,192,138268,12,8,140327,0:0:0:0:
