osu file format v14

[General]
AudioFilename: colorfulchannelsubcon.mp3
AudioLeadIn: 0
PreviewTime: 62091
Countdown: 0
SampleSet: Soft
StackLeniency: 0.3
Mode: 0
LetterboxInBreaks: 0
WidescreenStoryboard: 0

[Editor]
Bookmarks: 30327,44444
DistanceSpacing: 1.2
BeatDivisor: 4
GridSize: 8
TimelineZoom: 1.6

[Metadata]
Title:subconsciousness
TitleUnicode:subconsciousness
Artist:guna with team kyukkyu
ArtistUnicode:guna with チーム・キュッキュ
Creator:Snow Note
Version:Another
Source:ゆめにっき
Tags:7odoa maki BMS サブコンシャスネス 戦 [sen-goku] 國 ~夏の陣~ 戦國 Powered by Yume Nikki 夢日記 Madotsuki 窓付き ききやま kikiyama horror video game Dream Diary instrumental electronic colorful channel みゅに aquaseeds aqua seeds colourful
BeatmapID:445207
BeatmapSetID:151945

[Difficulty]
HPDrainRate:4
CircleSize:3.7
OverallDifficulty:7.6
ApproachRate:7.8
SliderMultiplier:1.8
SliderTickRate:4

[Events]
//Background and Video events
Video,292,"Subconsious BGA.avi"
0,0,"BG.jpg",0,0
//Break Periods
2,118762,124692
//Storyboard Layer 0 (Background)
//Storyboard Layer 1 (Fail)
//Storyboard Layer 2 (Pass)
//Storyboard Layer 3 (Foreground)
//Storyboard Layer 4 (Overlay)
//Storyboard Sound Samples

[TimingPoints]
327,588.235294117648,3,2,1,28,1,0
327,-50,3,2,1,28,0,0
2091,-66.6666666666665,3,2,1,35,0,0
29959,-66.6666666666665,3,2,1,16,0,0
30326,-50,3,1,1,55,0,0
58635,-66.6666666666665,3,2,2,50,0,0
61135,-66.6666666666665,3,2,1,55,0,0
62091,-41.6666666666667,3,2,1,75,0,1
90327,-66.6666666666665,3,2,1,55,0,0
98194,-66.6666666666665,3,2,1,10,0,0
98341,-66.6666666666665,3,2,1,55,0,0
99959,-66.6666666666665,3,2,1,10,0,0
100106,-66.6666666666665,3,2,1,55,0,0
102018,-66.6666666666665,3,2,1,10,0,0
102165,-66.6666666666665,3,2,1,55,0,0
104444,-41.6666666666667,3,2,1,75,0,1
110327,-37.037037037037,3,2,1,75,0,1
111503,-41.6666666666667,3,2,1,75,0,1
118562,-100,3,2,1,70,0,0
125327,-100,3,2,1,50,0,0

[Colours]
Combo1 : 228,228,228
Combo2 : 255,0,0
Combo3 : 247,214,228
Combo4 : 180,96,255

[HitObjects]
28,28,2091,6,0,P|16:92|76:140,1,135.000005149842,2|0,0:0|0:0,0:0:0:0:
136,120,2532,1,0,0:0:0:0:
208,96,2679,1,0,0:0:0:0:
208,96,3268,1,2,0:0:0:0:
488,144,3856,6,0,P|500:208|440:256,1,135.000005149842,2|0,0:0|0:0,0:0:0:0:
380,236,4297,1,0,0:0:0:0:
308,212,4444,1,0,0:0:0:0:
308,212,5033,1,2,0:0:0:0:
20,260,5621,6,0,P|8:324|68:372,1,135.000005149842,2|0,0:0|0:0,0:0:0:0:
128,352,6062,1,0,0:0:0:0:
200,328,6209,1,0,0:0:0:0:
340,276,6503,5,0,0:0:0:0:
141,222,6797,1,2,0:0:0:0:
286,77,7091,1,0,0:0:0:0:
340,276,7385,6,0,P|300:344|240:348,1,135.000005149842,2|0,0:0|0:0,0:0:0:0:
176,336,7827,1,0,0:0:0:0:
136,272,7974,1,0,0:0:0:0:
340,276,8268,1,0,0:0:0:0:
200,384,8562,1,0,0:0:0:0:
256,184,8856,1,0,0:0:0:0:
96,76,9150,5,2,0:0:0:0:
112,232,9444,1,0,0:0:0:0:
184,208,9591,1,0,0:0:0:0:
256,184,9738,1,0,0:0:0:0:
24,168,10327,1,2,0:0:0:0:
416,76,10915,5,2,0:0:0:0:
400,232,11209,1,0,0:0:0:0:
328,208,11356,1,0,0:0:0:0:
256,184,11503,1,0,0:0:0:0:
488,168,12092,1,2,0:0:0:0:
256,12,12679,5,2,0:0:0:0:
184,128,12974,1,0,0:0:0:0:
256,152,13121,1,0,0:0:0:0:
328,128,13268,1,0,0:0:0:0:
156,48,13562,5,0,0:0:0:0:
176,208,13856,1,2,0:0:0:0:
336,208,14150,1,0,0:0:0:0:
356,48,14444,1,2,0:0:0:0:
256,154,14738,5,0,0:0:0:0:
256,230,14885,1,0,0:0:0:0:
256,306,15032,2,0,B|304:354|304:354|372:354,1,135.000005149842
256,78,15621,2,0,B|208:30|208:30|140:30,1,135.000005149842
76,160,16209,6,0,P|88:244|44:284,1,135.000005149841,2|0,0:0|0:0,0:0:0:0:
16,208,16650,1,0,0:0:0:0:
76,160,16797,2,0,L|216:144,1,135.000005149841
368,108,17385,1,2,0:0:0:0:
272,236,17679,1,0,0:0:0:0:
256,76,17974,6,0,P|200:48|116:76,1,135.000005149842,2|0,0:0|0:0,0:0:0:0:
60,102,18415,1,0,0:0:0:0:
15,169,18562,2,0,P|7:233|35:313,1,135.000005149842
192,384,19150,1,2,0:0:0:0:
192,212,19444,2,0,L|192:124,1,67.5000025749208
104,188,19738,6,0,P|120:272|168:304,1,135.000005149842,2|0,0:0|0:0,0:0:0:0:
256,324,20179,1,0,0:0:0:0:
356,300,20327,2,0,P|404:254|409:189,1,135.000005149841
358,121,20768,1,0,0:0:0:0:
330,195,20915,5,2,0:0:0:0:
256,223,21062,1,0,0:0:0:0:
181,195,21209,1,0,0:0:0:0:
153,121,21356,1,0,0:0:0:0:
181,46,21503,5,2,0:0:0:0:
54,129,21797,1,0,0:0:0:0:
21,203,21944,1,0,0:0:0:0:
101,194,22091,1,0,0:0:0:0:
116,380,22385,1,0,0:0:0:0:
272,280,22679,5,2,0:0:0:0:
256,192,22827,1,0,0:0:0:0:
240,104,22974,1,0,0:0:0:0:
240,104,23268,6,0,P|324:116|384:76,1,135.000005149841,2|0,0:0|0:0,0:0:0:0:
437,56,23709,1,0,0:0:0:0:
512,85,23856,1,0,0:0:0:0:
396,192,24150,1,0,0:0:0:0:
496,336,24444,2,0,L|356:316,1,135.000005149841,2|0,0:0|0:0,0:0:0:0:
196,260,25032,6,0,L|336:240,1,135.000005149841,2|0,0:0|0:0,0:0:0:0:
396,194,25474,1,0,0:0:0:0:
324,160,25621,1,0,0:0:0:0:
256,360,25915,1,0,0:0:0:0:
120,272,26209,1,2,0:0:0:0:
392,112,26503,1,0,0:0:0:0:
168,24,26797,6,0,P|124:12|28:44,1,135.000005149841,2|0,0:0|0:0,0:0:0:0:
1,106,27238,1,0,0:0:0:0:
16,185,27385,1,0,0:0:0:0:
256,192,27679,5,0,0:0:0:0:
252,112,27827,1,0,0:0:0:0:
340,204,27974,1,2,0:0:0:0:
336,124,28122,1,0,0:0:0:0:
424,212,28268,1,0,0:0:0:0:
420,132,28416,1,0,0:0:0:0:
416,52,28562,6,0,P|344:24|268:64,1,135.000005149842,2|0,0:0|0:0,0:0:0:0:
252,112,29003,1,0,0:0:0:0:
256,192,29150,1,0,0:0:0:0:
196,344,29444,2,0,P|92:328|28:184,1,270.000010299683
256,192,30327,6,0,P|348:220|412:168,1,180,4|8,1:0|2:1,0:0:0:0:
289,120,30768,2,0,P|253:209|299:278,1,180,0|8,1:0|2:1,0:0:0:0:
387,331,31209,1,8,2:1:0:0:
384,104,31503,2,0,P|318:33|236:46,1,180,0|8,1:0|2:1,0:0:0:0:
17,79,32091,5,0,1:0:0:0:
109,275,32385,1,0,1:0:0:0:
109,275,32827,1,8,2:1:0:0:
37,355,32974,2,0,P|13:327|9:251,1,90,8|0,2:1|2:0,0:0:0:0:
57,183,33268,1,0,1:0:0:0:
137,383,33562,1,8,2:1:0:0:
312,216,33856,6,0,P|400:224|472:284,1,180,4|8,1:0|2:1,0:0:0:0:
392,352,34297,2,0,P|304:344|232:284,1,180,0|8,1:0|2:1,0:0:0:0:
208,184,34738,1,8,2:1:0:0:
288,128,34885,1,0,2:0:0:0:
256,36,35032,1,2,1:0:0:0:
40,24,35327,1,8,2:1:0:0:
12,268,35621,6,0,P|24:320|140:340,1,180,0|8,0:0|2:1,0:0:0:0:
224,300,36062,2,0,L|320:308,1,90,0|0,0:0|2:0,0:0:0:0:
392,368,36356,1,8,2:1:0:0:
408,272,36503,1,8,2:1:0:0:
424,176,36650,1,0,1:0:0:0:
332,208,36797,1,0,1:0:0:0:
484,344,37091,1,8,2:1:0:0:
492,72,37385,6,0,P|448:28|336:48,1,180,4|8,0:0|2:1,0:0:0:0:
240,32,37827,2,0,L|248:124,1,90,0|0,0:0|2:1,0:0:0:0:
324,184,38121,1,8,2:1:0:0:
256,268,38268,1,8,2:1:0:0:
256,268,38562,2,0,P|340:264|404:332,1,180,0|8,0:0|2:1,0:0:0:0:
192,376,39150,5,0,0:0:0:0:
76,192,39444,1,0,0:0:0:0:
76,192,39885,1,8,2:1:0:0:
0,264,40032,2,0,P|36:294|100:293,1,90,8|0,2:1|2:0,0:0:0:0:
160,128,40327,2,0,P|124:72|16:76,1,180,0|8,0:0|2:1,0:0:0:0:
164,236,40915,6,0,P|230:232|281:137,1,180,4|8,0:0|2:1,0:0:0:0:
232,48,41356,2,0,L|340:60,1,90,0|0,1:0|2:0,0:0:0:0:
432,24,41650,1,8,2:1:0:0:
432,24,41797,1,8,2:1:0:0:
392,356,42091,2,0,P|325:352|274:257,1,180,2|8,0:0|2:1,0:0:0:0:
456,192,42679,6,0,L|480:380,1,180,0|8,0:0|2:1,0:0:0:0:
360,272,43121,2,0,L|337:93,1,180,0|8,0:0|2:1,0:0:0:0:
256,36,43562,1,8,2:1:0:0:
188,108,43709,1,0,1:0:0:0:
92,92,43856,1,0,1:0:0:0:
92,92,44150,1,8,2:1:0:0:
8,320,44444,6,0,P|101:368|167:328,1,180,4|8,0:0|2:1,0:0:0:0:
232,256,44885,2,0,L|220:156,1,90,0|0,0:0|2:0,0:0:0:0:
288,80,45179,1,8,2:1:0:0:
392,120,45327,1,8,2:1:0:0:
119,223,45621,2,0,P|76:188|73:69,1,180,0|8,0:0|2:1,0:0:0:0:
288,80,46209,5,0,0:0:0:0:
220,288,46503,1,0,0:0:0:0:
220,288,46944,1,8,2:1:0:0:
308,352,47091,2,0,L|412:328,1,90,8|0,2:1|0:0,0:0:0:0:
256,212,47385,2,0,P|200:204|136:312,1,180,0|8,0:0|2:1,0:0:0:0:
376,224,47974,6,0,P|396:128|336:56,1,180,4|8,0:0|2:1,0:0:0:0:
248,24,48415,2,0,L|253:141,1,90,0|0,0:0|2:0,0:0:0:0:
256,208,48709,1,8,2:1:0:0:
153,173,48856,1,8,2:1:0:0:
383,4,49150,5,2,0:0:0:0:
512,192,49444,1,8,2:1:0:0:
383,380,49738,6,0,P|297:374|255:298,1,180,0|8,0:0|2:1,0:0:0:0:
336,176,50179,2,0,P|396:240|340:296,1,180,0|8,0:0|2:1,0:0:0:0:
244,208,50621,1,8,2:1:0:0:
264,112,50768,1,0,0:0:0:0:
284,16,50915,1,0,0:0:0:0:
472,208,51209,1,8,2:1:0:0:
200,368,51503,6,0,P|140:360|88:260,1,180,4|8,0:0|2:1,0:0:0:0:
120,168,51944,2,0,L|212:176,1,90,0|0,0:0|2:0,0:0:0:0:
304,108,52238,1,8,2:1:0:0:
244,8,52385,1,8,2:1:0:0:
172,268,52679,2,0,P|256:294|340:268,1,180,0|8,0:0|2:1,0:0:0:0:
512,128,53268,5,0,0:0:0:0:
328,24,53562,1,0,0:0:0:0:
328,24,54003,1,8,2:1:0:0:
320,136,54150,2,0,P|316:184|336:244,1,90,8|0,2:1|2:0,0:0:0:0:
400,340,54444,2,0,P|476:328|504:232,1,180,0|8,0:0|2:1,0:0:0:0:
200,92,55032,6,0,P|152:160|168:256,1,180,4|8,0:0|2:1,0:0:0:0:
312,292,55474,2,0,P|360:224|344:128,1,180,0|8,0:0|2:1,0:0:0:0:
256,20,55915,1,8,2:1:0:0:
372,12,56062,1,0,2:0:0:0:
488,4,56209,1,2,0:0:0:0:
488,4,56503,1,8,2:1:0:0:
276,272,56797,6,0,P|188:272|124:208,1,180,0|8,0:0|2:1,0:0:0:0:
236,112,57238,2,0,P|324:111|387:173,1,180,0|8,0:0|2:1,0:0:0:0:
356,288,57679,1,8,2:1:0:0:
256,192,57827,1,0,1:0:0:0:
156,96,57974,1,0,0:0:0:0:
452,80,58268,1,8,2:1:0:0:
60,304,58562,1,4,2:0:0:0:
256,192,58635,12,0,60327,0:0:0:0:
388,276,61209,5,2,0:0:0:0:
440,116,61356,1,2,0:0:0:0:
331,214,61503,1,2,0:0:0:0:
496,179,61650,5,2,0:0:0:0:
357,133,61797,1,2,0:0:0:0:
470,260,61944,1,2,0:0:0:0:
384,48,62091,6,0,P|345:24|268:35,1,107.999996704102,4|0,1:1|0:0,0:0:0:0:
176,116,62385,2,0,P|220:126|289:89,1,107.999996704102,8|0,1:0|0:0,0:0:0:0:
144,16,62679,2,0,P|98:23|46:81,1,107.999996704102,0|8,1:0|0:1,0:0:0:0:
32,176,62974,6,0,L|20:284,1,107.999996704102,8|0,1:0|0:0,0:0:0:0:
136,360,63268,2,0,L|129:252,1,107.999996704102,0|0,1:0|0:0,0:0:0:0:
248,208,63562,2,0,L|236:316,1,107.999996704102,8|0,1:0|0:0,0:0:0:0:
128,48,63856,6,0,P|166:24|243:35,1,107.999996704102,0|0,1:0|0:0,0:0:0:0:
336,116,64150,2,0,P|291:126|222:89,1,107.999996704102,8|0,1:0|0:0,0:0:0:0:
368,16,64444,2,0,P|413:23|465:81,1,107.999996704102,0|8,1:0|0:1,0:0:0:0:
480,176,64738,6,0,L|492:284,1,107.999996704102,8|0,1:0|0:0,0:0:0:0:
376,360,65033,2,0,L|382:252,1,107.999996704102,0|0,1:0|0:0,0:0:0:0:
264,208,65326,2,0,L|276:316,1,107.999996704102,8|0,1:0|0:0,0:0:0:0:
176,368,65621,6,0,P|128:376|64:344,1,107.999996704102,0|0,1:0|0:0,0:0:0:0:
96,200,65915,2,0,P|126:238|131:309,1,107.999996704102,8|0,1:0|0:0,0:0:0:0:
1,208,66209,2,0,P|7:154|40:112,1,107.999996704102,0|8,1:0|0:1,0:0:0:0:
168,40,66503,6,0,L|32:24,1,107.999996704102,8|0,1:0|0:0,0:0:0:0:
96,200,66797,2,0,L|203:188,1,107.999996704102,2|0,1:0|0:0,0:0:0:0:
275,53,67091,2,0,L|139:37,1,107.999996704102,8|0,1:0|0:0,0:0:0:0:
352,112,67385,6,0,P|367:68|342:-8,1,107.999996704102,0|0,1:0|0:0,0:0:0:0:
203,188,67679,2,0,P|187:233|212:309,1,107.999996704102,8|0,1:0|0:0,0:0:0:0:
384,360,67974,2,0,L|491:368,1,107.999996704102,0|8,1:0|0:1,0:0:0:0:
400,248,68268,2,0,L|292:241,1,107.999996704102,8|0,1:0|0:0,0:0:0:0:
198,291,68562,5,0,1:0:0:0:
112,224,68709,1,2,1:0:0:0:
128,120,68856,1,10,1:0:0:0:
224,72,69003,1,0,1:0:0:0:
304,144,69150,6,0,L|411:152,1,107.999996704102,4|0,1:0|0:0,0:0:0:0:
472,64,69444,2,0,L|365:56,1,107.999996704102,8|0,1:0|0:0,0:0:0:0:
336,240,69738,2,0,L|443:248,1,107.999996704102,0|8,1:0|0:1,0:0:0:0:
208,144,70032,6,0,L|101:152,1,107.999996704102,8|0,1:0|0:0,0:0:0:0:
40,64,70326,2,0,L|147:56,1,107.999996704102,0|0,1:0|0:0,0:0:0:0:
176,240,70620,2,0,L|69:248,1,107.999996704102,8|0,1:0|0:0,0:0:0:0:
101,152,70915,6,0,L|208:144,1,107.999996704102,0|0,1:0|0:0,0:0:0:0:
304,248,71209,2,0,P|328:296|320:352,1,107.999996704102,8|0,1:0|0:0,0:0:0:0:
193,341,71503,2,0,P|169:293|177:237,1,107.999996704102,0|8,1:0|0:1,0:0:0:0:
304,144,71797,6,0,L|411:152,1,107.999996704102,8|0,1:0|0:0,0:0:0:0:
176,56,72091,2,0,L|69:64,1,107.999996704102,0|0,1:0|0:0,0:0:0:0:
336,56,72385,2,0,L|443:64,1,107.999996704102,8|0,1:0|0:0,0:0:0:0:
488,192,72679,6,0,P|496:248|456:304,1,107.999996704102,0|0,1:0|0:0,0:0:0:0:
312,272,72974,2,0,P|356:238|424:244,1,107.999996704102,8|0,1:0|0:0,0:0:0:0:
472,384,73268,2,0,P|419:363|391:301,1,107.999996704102,0|8,1:0|0:1,0:0:0:0:
488,192,73562,6,0,P|496:136|456:80,1,107.999996704102,8|0,1:0|0:0,0:0:0:0:
312,112,73857,2,0,P|356:147|424:141,1,107.999996704102,2|0,1:0|0:0,0:0:0:0:
472,0,74151,2,0,P|419:22|391:84,1,107.999996704102,8|0,1:0|0:0,0:0:0:0:
360,232,74444,6,0,L|368:344,1,107.999996704102,0|0,1:0|0:0,0:0:0:0:
256,216,74738,2,0,L|264:328,1,107.999996704102,8|0,1:0|0:0,0:0:0:0:
152,192,75032,2,0,L|160:304,1,107.999996704102,0|8,1:0|0:1,0:0:0:0:
56,280,75327,2,0,L|48:173,1,107.999996704102,8|0,1:0|0:0,0:0:0:0:
0,64,75621,5,0,1:0:0:0:
104,80,75768,1,2,1:1:0:0:
208,96,75915,1,10,1:1:0:0:
312,112,76062,1,0,1:1:0:0:
416,128,76209,6,0,P|448:232|408:336,1,215.999993408203,4|8,1:1|1:0,0:0:0:0:
320,384,76650,1,0,0:0:0:0:
320,280,76797,2,0,L|208:288,1,107.999996704102,0|8,1:1|0:1,0:0:0:0:
96,256,77091,6,0,P|64:152|104:48,1,215.999993408203,8|0,1:0|1:0,0:0:0:0:
192,0,77532,1,0,0:0:0:0:
192,104,77679,2,0,L|304:96,1,107.999996704102,8|0,1:0|0:0,0:0:0:0:
416,128,77974,6,0,P|448:232|408:336,1,215.999993408203,0|8,1:0|1:0,0:0:0:0:
320,384,78415,1,0,0:0:0:0:
320,280,78562,2,0,L|208:288,1,107.999996704102,0|8,1:0|0:1,0:0:0:0:
96,256,78856,6,0,P|64:152|104:48,1,215.999993408203,8|0,1:0|1:0,0:0:0:0:
192,0,79297,1,0,0:0:0:0:
192,104,79444,2,0,L|304:96,1,107.999996704102,8|0,1:0|2:0,0:0:0:0:
471,176,79738,6,0,L|256:192,1,215.999993408203,0|8,1:0|1:0,0:0:0:0:
152,200,80179,1,0,1:0:0:0:
40,208,80327,1,0,1:0:0:0:
88,112,80474,1,8,1:1:0:0:
152,200,80621,6,0,P|160:288|48:360,2,215.999993408203,8|2|8,1:0|1:0|1:0,0:0:0:0:
88,112,81356,1,0,0:0:0:0:
40,207,81503,6,0,L|256:192,1,215.999993408203,0|8,1:0|1:0,0:0:0:0:
360,184,81944,1,0,2:0:0:0:
299,96,82091,2,0,L|192:104,1,107.999996704102,0|8,1:0|0:1,0:0:0:0:
212,287,82385,2,0,L|320:280,1,107.999996704102,8|0,1:0|0:0,0:0:0:0:
360,184,82679,5,0,1:0:0:0:
256,192,82827,1,2,1:0:0:0:
152,200,82974,1,10,1:0:0:0:
48,208,83121,1,0,1:0:0:0:
104,294,83268,6,0,L|320:279,1,215.999993408203,4|8,1:0|1:0,0:0:0:0:
424,272,83709,1,0,0:0:0:0:
467,176,83856,2,0,L|360:184,1,107.999996704102,0|8,1:0|0:1,0:0:0:0:
299,96,84150,6,0,L|520:80,1,215.999993408203,8|0,1:0|1:0,0:0:0:0:
467,176,84591,1,0,0:0:0:0:
299,96,84738,2,0,B|336:56|336:56|399:54,1,107.999996704102,8|0,1:0|0:0,0:0:0:0:
359,184,85032,6,0,B|256:192|256:192|184:104,1,215.999993408203,0|8,1:0|1:1,0:0:0:0:
8,152,85474,2,0,B|111:144|111:144|183:232,1,215.999993408203,0|8,1:0|0:1,0:0:0:0:
128,360,85915,2,0,L|21:368,1,107.999996704102,8|0,1:0|0:0,0:0:0:0:
48,248,86209,5,2,1:0:0:0:
182,231,86356,1,2,1:0:0:0:
128,360,86503,1,8,1:0:0:0:
128,360,86797,6,0,L|349:344,1,215.999993408203,4|8,1:0|1:0,0:0:0:0:
384,240,87238,1,0,0:0:0:0:
450,336,87385,2,0,L|343:344,1,107.999996704102,0|8,1:0|0:1,0:0:0:0:
280,256,87679,2,0,L|320:40,2,215.999993408203,8|2|8,1:0|1:0|1:0,0:0:0:0:
256,384,88415,1,0,1:0:0:0:
80,328,88562,5,4,1:0:0:0:
256,384,88856,1,0,1:0:0:0:
256,384,89150,1,0,1:0:0:0:
432,328,89444,1,2,1:0:0:0:
206,124,89738,5,0,1:0:0:0:
178,215,89885,1,2,1:0:0:0:
255,272,90032,1,2,1:0:0:0:
334,215,90179,1,0,1:0:0:0:
306,124,90327,6,0,P|205:122|207:277,1,270.000010299683,6|0,0:0|0:0,0:0:0:0:
322,263,91209,2,0,P|327:140|206:124,1,270.000010299683
109,215,92091,2,0,P|144:338|270:359,1,270.000010299683,2|0,0:0|0:0,0:0:0:0:
408,336,92974,5,0,0:0:0:0:
256,136,93268,1,0,0:0:0:0:
104,336,93562,1,0,0:0:0:0:
104,336,93709,1,0,0:0:0:0:
104,336,93856,6,0,P|172:348|232:324,1,135.000005149842,2|0,0:0|0:0,0:0:0:0:
444,244,94444,1,0,0:0:0:0:
444,244,94738,2,0,P|376:256|316:232,1,135.000005149842
152,164,95327,1,0,0:0:0:0:
256,48,95621,6,0,P|312:24|436:80,1,202.500007724762,2|0,0:0|0:0,0:0:0:0:
444,124,96209,1,0,0:0:0:0:
424,168,96356,1,0,0:0:0:0:
396,208,96503,2,0,P|396:260|456:332,1,135.000005149842
296,376,97091,1,0,0:0:0:0:
288,344,97238,1,0,0:0:0:0:
280,312,97385,6,0,B|268:256|268:256|216:268|176:236|168:180|192:136|236:120|284:128|312:172|312:172|336:208|380:200,1,405.000015449525,2|0,0:0|0:0,0:0:0:0:
476,184,98562,1,0,0:0:0:0:
432,88,98856,1,0,0:0:0:0:
328,37,99150,6,0,B|261:37|261:37|234:96|234:96|160:96|160:96|130:154|130:154|62:154|62:154|33:224,1,405.000015449525,2|0,0:0|0:0,0:0:0:0:
128,288,100327,1,0,0:0:0:0:
16,320,100621,1,0,0:0:0:0:
112,384,100915,6,0,B|180:384|180:384|208:320|208:320|272:320|272:320|304:380|304:380|368:380|368:380|392:320|392:320|360:256|360:256|380:188,1,540.000020599366,2|0,0:0|0:0,0:0:0:0:
264,168,102385,1,0,0:0:0:0:
253,199,102532,1,0,0:0:0:0:
242,230,102679,6,0,L|89:230,1,135.000005149842,2|0,0:0|0:0,0:0:0:0:
24,216,103121,2,0,P|13:268|78:358,1,135.000005149842,2|0,0:0|0:0,0:0:0:0:
128,360,103562,5,8,0:1:0:0:
80,152,103856,1,8,0:1:0:0:
80,152,104003,1,8,0:1:0:0:
256,24,104297,1,8,0:1:0:0:
256,24,104444,6,0,P|336:32|400:148,1,215.999993408203,4|8,1:0|0:1,0:0:0:0:
336,240,104885,1,0,1:1:0:0:
144,144,105032,2,0,P|128:104|128:36,1,107.999996704102,0|8,2:0|2:1,0:0:0:0:
256,128,105327,6,0,P|248:208|132:272,1,215.999993408203,8|0,2:1|1:1,0:0:0:0:
0,232,105768,1,0,0:0:0:0:
125,376,105915,2,0,P|141:325|139:272,1,107.999996704102,8|0,0:1|0:0,0:0:0:0:
112,104,106209,6,0,L|-8:104,1,107.999996704102,0|0,1:0|0:0,0:0:0:0:
139,272,106503,2,0,L|247:272,1,107.999996704102,0|0,1:0|0:0,0:0:0:0:
424,272,106797,1,0,2:0:0:0:
424,272,106944,1,8,0:1:0:0:
328,144,107091,6,0,P|315:192|342:253,1,107.999996704102,8|0,2:1|0:0,0:0:0:0:
440,80,107385,2,0,P|356:52|220:144,1,215.999993408203,0|8,1:0|2:1,0:0:0:0:
256,312,107827,1,0,0:0:0:0:
448,376,107974,6,0,P|502:311|469:191,1,215.999993408203,0|8,1:0|0:1,0:0:0:0:
256,192,108415,1,0,1:1:0:0:
353,346,108562,2,0,P|399:319|424:272,1,107.999996704102,0|8,2:0|0:1,0:0:0:0:
352,48,108856,6,0,P|272:7|160:48,1,215.999993408203,8|0,2:1|1:0,0:0:0:0:
104,192,109297,1,0,0:0:0:0:
160,336,109444,2,0,P|187:358|265:376,1,107.999996704102,8|0,2:1|2:0,0:0:0:0:
352,220,109738,6,0,P|332:164|188:152,1,215.999993408203,0|8,1:0|0:1,0:0:0:0:
152,256,110179,1,0,1:0:0:0:
360,336,110327,6,0,P|416:336|472:304,1,121.500000463486,0|8,0:0|2:1,0:0:0:0:
160,56,110621,2,0,P|106:55|40:96,1,121.500000463486,8|8,2:1|1:1,0:0:0:0:
148,376,110915,2,0,P|258:332|302:222,1,243.000000926971,0|8,1:0|2:1,0:0:0:0:
224,112,111356,1,0,2:0:0:0:
344,52,111503,6,0,P|435:105|470:205,1,215.999993408203,4|8,1:0|2:1,0:0:0:0:
336,376,111944,2,0,P|244:322|209:222,1,215.999993408203,0|8,1:0|2:1,0:0:0:0:
344,52,112385,1,8,0:1:0:0:
344,52,112532,1,0,0:0:0:0:
470,205,112679,2,0,P|368:240|280:176,1,215.999993408203,0|8,1:0|2:1,0:0:0:0:
24,200,113268,6,0,P|16:312|88:384,1,215.999993408203,4|8,1:0|2:1,0:0:0:0:
252,242,113709,2,0,P|263:137|193:60,1,215.999993408203,0|8,1:0|2:1,0:0:0:0:
32,64,114150,1,8,0:1:0:0:
32,64,114297,1,0,0:0:0:0:
160,336,114444,2,0,P|259:378|352:336,1,215.999993408203,0|8,1:0|2:1,0:0:0:0:
193,60,115032,6,0,P|106:132|123:244,1,215.999993408203,4|8,1:0|0:1,0:0:0:0:
400,227,115474,2,0,P|401:123|319:60,1,215.999993408203,0|8,1:0|0:1,0:0:0:0:
201,346,115915,2,0,L|317:346,1,107.999996704102,8|0,0:1|2:0,0:0:0:0:
400,227,116209,5,0,1:0:0:0:
316,142,116356,1,0,1:0:0:0:
196,142,116503,1,8,1:0:0:0:
118,225,116650,1,0,1:0:0:0:
160,335,116797,6,0,P|227:375|351:336,1,215.999993408203,4|8,1:0|0:1,0:0:0:0:
351,48,117238,2,0,P|255:5|160:49,1,215.999993408203,0|8,1:0|0:1,0:0:0:0:
180,252,117679,1,8,0:1:0:0:
332,252,117827,1,0,1:0:0:0:
256,112,117974,5,0,1:0:0:0:
56,384,118268,1,8,0:1:0:0:
456,384,118562,1,4,1:0:0:0:
152,99,125621,5,2,0:0:0:0:
359,284,126503,1,0,0:0:0:0:
152,99,127385,1,2,0:0:0:0:
359,284,129150,5,0,0:0:0:0:
359,284,130032,1,0,0:0:0:0:
152,99,130915,1,2,0:0:0:0:
359,284,132679,5,0,0:0:0:0:
152,99,133561,1,2,0:0:0:0:
359,284,134444,1,0,0:0:0:0:
152,99,136209,5,2,0:0:0:0:
359,284,137091,1,0,0:0:0:0:
359,284,137679,1,0,0:0:0:0:
152,99,137974,1,2,0:0:0:0:
256,192,138268,12,8,140327,0:0:0:0:
