osu file format v14

[General]
AudioFilename: gh.mp3
AudioLeadIn: 0
PreviewTime: 21653
Countdown: 0
SampleSet: Soft
StackLeniency: 0.7
Mode: 0
LetterboxInBreaks: 0
WidescreenStoryboard: 1

[Editor]
Bookmarks: 22277,43261,64244,85228,106212,127195,148179,169162,190146
DistanceSpacing: 0.9
BeatDivisor: 4
GridSize: 8
TimelineZoom: 2

[Metadata]
Title:Tiger Blood
TitleUnicode:Tiger Blood
Artist:graves & MYRNE
ArtistUnicode:graves & MYRNE
Creator:VINXIS
Version:vintyui
Source:
Tags:rrtyui future bass edm naitoshi -tochi
BeatmapID:969314
BeatmapSetID:451850

[Difficulty]
HPDrainRate:6
CircleSize:5
OverallDifficulty:8
ApproachRate:9.3
SliderMultiplier:1.91999990463257
SliderTickRate:1

[Events]
//Background and Video events
0,0,"hvick225.jpg",0,0
//Break Periods
//Storyboard Layer 0 (Background)
Sprite,Background,Centre,"hvick225.jpg",320,240
//Storyboard Layer 1 (Fail)
//Storyboard Layer 2 (Pass)
//Storyboard Layer 3 (Foreground)
//Storyboard Sound Samples

[TimingPoints]
1326,327.868852459016,4,2,1,41,1,0
1326,-200,4,2,2,60,0,0
11817,-125,4,2,2,60,0,0
21653,-125,4,2,1,100,0,0
21899,-125,4,2,1,10,0,0
21981,-90.9090909090909,4,2,1,80,0,0
22063,-90.9090909090909,4,2,1,10,0,0
22145,-66.6666666666667,4,2,1,80,0,0
22227,-66.6666666666667,4,2,1,10,0,0
22309,-58.8235294117647,4,2,1,85,0,0
22801,-58.8235294117647,4,2,0,85,0,0
22965,-58.8235294117647,4,2,1,85,0,0
25424,-58.8235294117647,4,2,0,85,0,0
25588,-58.8235294117647,4,2,1,85,0,0
25916,-90.9090909090909,4,2,1,85,0,0
26244,-58.8235294117647,4,2,1,85,0,0
28047,-58.8235294117647,4,2,0,85,0,0
28211,-58.8235294117647,4,2,1,85,0,0
30670,-58.8235294117647,4,2,0,85,0,0
30834,-58.8235294117647,4,2,1,85,0,0
31162,-90.9090909090909,4,2,1,85,0,0
31489,-58.8235294117647,4,2,1,85,0,0
33293,-58.8235294117647,4,2,0,85,0,0
33457,-58.8235294117647,4,2,1,85,0,0
35916,-58.8235294117647,4,2,0,85,0,0
36080,-58.8235294117647,4,2,1,85,0,0
38539,-58.8235294117647,4,2,0,85,0,0
38703,-58.8235294117647,4,2,1,85,0,0
41162,-58.8235294117647,4,2,0,85,0,0
41244,-58.8235294117647,4,2,2,85,0,0
41325,-58.8235294117647,4,2,1,85,0,0
41489,-58.8235294117647,4,2,2,85,0,0
41653,-58.8235294117647,4,2,1,85,0,0
41981,-58.8235294117647,4,2,2,85,0,0
42473,-58.8235294117647,4,2,1,85,0,0
42637,-58.8235294117647,4,2,2,85,0,0
42801,-58.8235294117647,4,2,1,100,0,0
42965,-58.8235294117647,4,2,1,85,0,0
43293,-58.8235294117647,4,2,1,85,0,0
44112,-58.8235294117647,4,2,0,85,0,0
44194,-58.8235294117647,4,2,1,85,0,0
45096,-58.8235294117647,4,2,0,85,0,0
45178,-58.8235294117647,4,2,1,85,0,0
46735,-58.8235294117647,4,2,0,85,0,0
46817,-58.8235294117647,4,2,1,85,0,0
47719,-58.8235294117647,4,2,0,85,0,0
47801,-58.8235294117647,4,2,1,85,0,0
49358,-58.8235294117647,4,2,0,85,0,0
49440,-58.8235294117647,4,2,1,85,0,0
50342,-58.8235294117647,4,2,0,85,0,0
50424,-58.8235294117647,4,2,1,85,0,0
51981,-58.8235294117647,4,2,0,85,0,0
52063,-58.8235294117647,4,2,1,85,0,0
52965,-58.8235294117647,4,2,0,85,0,0
53047,-58.8235294117647,4,2,1,85,0,0
54604,-58.8235294117647,4,2,0,85,0,0
54686,-58.8235294117647,4,2,1,85,0,0
55588,-58.8235294117647,4,2,0,85,0,0
55670,-58.8235294117647,4,2,1,85,0,0
55752,-62.5,4,2,1,85,0,0
57227,-62.5,4,2,0,85,0,0
57391,-62.5,4,2,1,85,0,0
58211,-62.5,4,2,0,85,0,0
58293,-62.5,4,2,1,85,0,0
59850,-62.5,4,2,0,85,0,0
60014,-62.5,4,2,1,85,0,0
60834,-62.5,4,2,0,85,0,0
60916,-62.5,4,2,1,85,0,0
62473,-62.5,4,2,0,85,0,0
62637,-62.5,4,2,1,85,0,0
62801,-66.6666666666667,4,2,1,85,0,0
64276,-111.111111111111,4,2,1,50,0,0
64768,-111.111111111111,4,2,0,50,0,0
64932,-111.111111111111,4,2,1,50,0,0
66571,-111.111111111111,4,2,3,50,0,0
66735,-111.111111111111,4,2,1,50,0,0
67391,-111.111111111111,4,2,0,50,0,0
67555,-111.111111111111,4,2,1,50,0,0
69194,-111.111111111111,4,2,3,50,0,0
69358,-111.111111111111,4,2,1,50,0,0
70014,-111.111111111111,4,2,0,50,0,0
70178,-111.111111111111,4,2,1,50,0,0
72637,-111.111111111111,4,2,0,50,0,0
72801,-111.111111111111,4,2,1,50,0,0
75260,-111.111111111111,4,2,0,50,0,0
75424,-111.111111111111,4,2,1,50,0,0
77063,-111.111111111111,4,2,3,50,0,0
77227,-111.111111111111,4,2,1,50,0,0
77883,-111.111111111111,4,2,0,50,0,0
78047,-111.111111111111,4,2,1,50,0,0
79686,-111.111111111111,4,2,3,50,0,0
79850,-111.111111111111,4,2,1,50,0,0
84440,-111.111111111111,4,2,0,50,0,0
84604,-111.111111111111,4,2,2,80,0,0
84768,-111.111111111111,4,2,2,50,0,0
84932,-111.111111111111,4,2,2,80,0,0
85260,-111.111111111111,4,2,1,40,0,0
85916,-200,4,2,2,50,0,0
87391,-200,4,2,2,30,0,0
87555,-200,4,2,2,50,0,0
87719,-200,4,2,2,30,0,0
87883,-111.111111111111,4,2,2,50,0,0
88539,-200,4,2,2,50,0,0
90014,-200,4,2,2,30,0,0
90178,-200,4,2,2,50,0,0
90342,-200,4,2,2,30,0,0
90506,-105.263157894737,4,2,2,50,0,0
91162,-200,4,2,2,50,0,0
92473,-100,4,2,2,50,0,0
92965,-100,4,2,2,30,0,0
93129,-200,4,2,2,50,0,0
95752,-125,4,2,2,50,0,0
105588,-200,4,2,1,100,0,0
105916,-200,4,2,1,5,0,0
106080,-200,4,2,1,30,0,0
106162,-200,4,2,1,60,0,0
106244,-100,4,2,1,95,0,1
108539,-100,4,2,2,95,0,1
108703,-100,4,2,1,95,0,1
108866,-76.9230769230769,4,2,1,95,0,1
109850,-76.9230769230769,4,2,0,95,0,1
109932,-76.9230769230769,4,2,0,30,0,1
110014,-76.9230769230769,4,2,1,95,0,1
115096,-76.9230769230769,4,2,0,95,0,1
115151,-76.9230769230769,4,2,1,95,0,1
117391,-66.6666666666667,4,2,1,95,0,1
119030,-66.6666666666667,4,2,2,95,0,1
119194,-66.6666666666667,4,2,1,95,0,1
120342,-66.6666666666667,4,2,0,95,0,1
120424,-66.6666666666667,4,2,0,30,0,1
120506,-66.6666666666667,4,2,1,95,0,1
125588,-66.6666666666667,4,2,0,95,0,1
125642,-66.6666666666667,4,2,1,95,0,1
126571,-76.9230769230769,4,2,1,95,0,1
127227,-76.9230769230769,4,2,4,100,0,0
127555,-76.9230769230769,4,2,1,95,0,0
127883,-66.6666666666667,4,2,1,95,0,1
128129,-76.9230769230769,4,2,1,95,0,1
129522,-76.9230769230769,4,2,2,95,0,1
129686,-76.9230769230769,4,2,1,95,0,1
130834,-76.9230769230769,4,2,0,95,0,1
130916,-76.9230769230769,4,2,1,30,0,1
130998,-76.9230769230769,4,2,1,95,0,1
138375,-66.6666666666667,4,2,1,95,0,1
140014,-66.6666666666667,4,2,2,95,0,1
140178,-66.6666666666667,4,2,1,95,0,1
141325,-66.6666666666667,4,2,0,95,0,1
141407,-66.6666666666667,4,2,1,30,0,1
141489,-66.6666666666667,4,2,1,95,0,1
146571,-66.6666666666667,4,2,0,95,0,1
146626,-66.6666666666667,4,2,1,95,0,1
146899,-66.6666666666667,4,2,1,85,0,1
148211,-133.333333333333,4,2,1,60,0,0
150506,-133.333333333333,4,2,3,60,0,0
150670,-133.333333333333,4,2,1,80,0,0
150834,-133.333333333333,4,2,1,60,0,0
153129,-133.333333333333,4,2,3,60,0,0
153293,-133.333333333333,4,2,1,60,0,0
155670,-133.333333333333,4,2,1,30,0,0
155752,-133.333333333333,4,2,1,50,0,0
157063,-133.333333333333,4,2,0,50,0,0
157227,-133.333333333333,4,2,1,50,0,0
158866,-133.333333333333,4,2,1,30,0,0
159112,-133.333333333333,4,2,1,30,0,0
159194,-133.333333333333,4,2,1,40,0,0
160997,-133.333333333333,4,2,3,40,0,0
161161,-133.333333333333,4,2,1,70,0,0
161325,-133.333333333333,4,2,1,40,0,0
163620,-133.333333333333,4,2,3,40,0,0
163784,-133.333333333333,4,2,1,40,0,0
167555,-133.333333333333,4,2,0,40,0,0
167719,-133.333333333333,4,2,1,40,0,0
169194,-133.333333333333,4,2,1,40,0,0
169850,-133.333333333333,4,2,3,40,0,0
170014,-133.333333333333,4,2,1,40,0,0
170178,-133.333333333333,4,2,3,40,0,0
170342,-133.333333333333,4,2,1,40,0,0
171162,-133.333333333333,4,2,3,40,0,0
171981,-133.333333333333,4,2,1,40,0,0
172309,-125,4,2,3,40,0,0
172473,-133.333333333333,4,2,1,40,0,0
172801,-117.647058823529,4,2,3,40,0,0
172965,-133.333333333333,4,2,1,40,0,0
173785,-133.333333333333,4,2,3,40,0,0
174440,-133.333333333333,4,2,3,40,0,0
174604,-133.333333333333,4,2,1,40,0,0
174932,-133.333333333333,4,2,3,40,0,0
175096,-133.333333333333,4,2,1,40,0,0
175424,-133.333333333333,4,2,3,40,0,0
175588,-133.333333333333,4,2,1,40,0,0
177063,-133.333333333333,4,2,3,40,0,0
177227,-133.333333333333,4,2,1,40,0,0
177555,-133.333333333333,4,2,3,40,0,0
177719,-133.333333333333,4,2,1,40,0,0
178375,-133.333333333333,4,2,3,40,0,0
178539,-133.333333333333,4,2,1,40,0,0
178866,-133.333333333333,4,2,3,40,0,0
179030,-133.333333333333,4,2,1,40,0,0
179686,-133.333333333333,4,2,3,30,0,0
182309,-142.857142857143,4,2,3,30,0,0
182801,-153.846153846154,4,2,3,30,0,0
183293,-166.666666666667,4,2,3,30,0,0
184276,-133.333333333333,4,2,3,30,0,0
187063,-153.846153846154,4,2,3,30,0,0
187555,-166.666666666667,4,2,3,30,0,0
188047,-166.666666666667,4,2,3,30,0,0
188539,-181.818181818182,4,2,3,30,0,0
188866,-142.857142857143,4,2,3,30,0,0
189522,-133.333333333333,4,2,3,20,0,0
189850,-117.647058823529,4,2,3,20,0,0
190014,-133.333333333333,4,2,3,5,0,0

[Colours]
Combo1 : 66,66,255
Combo2 : 192,192,192
Combo3 : 108,108,255
Combo4 : 128,128,128

[HitObjects]
382,260,1326,6,0,L|376:355,2,95.9999952316285,0|0|8,3:0|3:0|3:2,0:0:0:0:
382,124,2637,6,0,L|376:28,2,95.9999952316285,0|0|8,3:0|3:0|3:2,0:0:0:0:
256,257,3948,6,0,L|160:251,2,95.9999952316285,0|0|8,3:0|3:0|3:2,0:0:0:0:
130,124,5260,6,0,L|34:129,2,95.9999952316285,0|0|8,3:0|3:0|3:2,0:0:0:0:
130,260,6571,6,0,L|136:355,2,95.9999952316285,0|0|8,3:0|3:0|3:2,0:0:0:0:
130,124,7883,6,0,L|136:28,2,95.9999952316285,0|0|8,3:0|3:0|3:2,0:0:0:0:
256,257,9194,6,0,L|352:251,2,95.9999952316285,0|0|8,3:0|3:0|3:2,0:0:0:0:
382,124,10506,6,0,L|478:129,2,95.9999952316285,0|0|8,3:0|3:0|3:2,0:0:0:0:
163,359,11817,5,6,0:0:0:0:
300,326,12309,1,2,0:0:0:0:
303,325,12391,1,2,0:0:0:0:
306,324,12473,1,10,0:0:0:0:
212,250,12801,5,2,0:0:0:0:
349,217,13293,1,2,0:0:0:0:
355,215,13457,1,2,0:0:0:0:
261,141,13785,5,10,0:0:0:0:
124,108,14440,5,2,0:0:0:0:
261,141,14932,1,2,0:0:0:0:
264,142,15014,1,2,0:0:0:0:
267,143,15096,1,10,0:0:0:0:
173,217,15424,5,2,0:0:0:0:
262,238,15752,1,2,0:0:0:0:
265,238,15834,1,2,0:0:0:0:
268,239,15916,1,2,0:0:0:0:
354,259,16080,1,2,0:0:0:0:
222,326,16407,5,10,0:0:0:0:
222,326,17063,5,2,0:0:0:0:
312,341,17227,1,2,0:0:0:0:
354,259,17391,1,2,0:0:0:0:
441,286,17555,1,2,0:0:0:0:
407,200,17719,5,10,0:0:0:0:
317,185,17883,1,2,0:0:0:0:
275,267,18047,1,2,0:0:0:0:
188,240,18211,1,2,0:0:0:0:
146,157,18375,5,2,0:0:0:0:
236,172,18539,1,2,0:0:0:0:
278,90,18703,1,2,0:0:0:0:
365,117,18867,1,2,0:0:0:0:
331,31,19030,5,10,0:0:0:0:
241,16,19194,1,2,0:0:0:0:
199,98,19358,1,2,0:0:0:0:
112,71,19522,1,2,0:0:0:0:
59,146,19686,5,2,0:0:0:0:
56,185,19767,1,2,0:0:0:0:
70,220,19849,1,2,0:0:0:0:
97,247,19931,1,2,0:0:0:0:
133,260,20013,1,2,0:0:0:0:
171,257,20095,1,2,0:0:0:0:
204,239,20177,1,2,0:0:0:0:
227,209,20259,1,2,0:0:0:0:
236,171,20341,5,10,0:0:0:0:
244,209,20424,1,2,0:0:0:0:
267,239,20506,1,2,0:0:0:0:
300,257,20588,1,2,0:0:0:0:
338,260,20670,1,2,0:0:0:0:
374,247,20752,1,2,0:0:0:0:
401,220,20834,1,2,0:0:0:0:
415,185,20916,1,2,0:0:0:0:
413,147,20998,5,2,0:0:0:0:
374,144,21080,1,2,0:0:0:0:
339,158,21162,1,2,0:0:0:0:
312,185,21244,1,2,0:0:0:0:
299,221,21326,1,2,0:0:0:0:
302,259,21408,1,2,0:0:0:0:
320,292,21490,1,2,0:0:0:0:
350,315,21572,1,2,0:0:0:0:
388,324,21653,6,0,P|352:316|260:334,1,115.199994277954,4|0,3:3|0:0,0:0:0:0:
155,367,21981,6,0,P|159:334|159:315,1,52.7999989887238,0|0,1:0|0:0,0:0:0:0:
95,239,22145,6,0,P|90:206|90:167,1,71.9999991703034,8|0,0:3|0:0,0:0:0:0:
110,87,22309,6,0,L|190:70,1,81.5999975032807,4|0,1:0|0:0,0:0:0:0:
291,119,22473,2,0,L|211:136,1,81.5999975032807,2|0,0:0|0:0,0:0:0:0:
110,78,22637,2,0,L|190:61,1,81.5999975032807,2|0,0:3|0:0,0:0:0:0:
291,128,22801,2,0,L|211:145,1,81.5999975032807,2|0,0:0|0:0,0:0:0:0:
319,38,22965,5,8,0:0:0:0:
279,316,23293,6,0,P|243:338|234:300,1,81.5999975032807,0|0,3:0|0:0,0:0:0:0:
283,226,23457,2,0,P|313:224|373:257,1,81.5999975032807,8|0,0:3|0:0,0:0:0:0:
201,234,23621,2,0,P|171:236|111:203,1,81.5999975032807
41,122,23785,5,0,1:0:0:0:
186,139,23948,2,0,L|210:41,1,81.5999975032807,0|0,1:0|0:0,0:0:0:0:
291,128,24112,2,0,L|267:226,1,81.5999975032807,4|0,0:3|0:0,0:0:0:0:
396,116,24276,6,0,P|435:107|475:114,1,81.5999975032807,8|0,0:0|0:0,0:0:0:0:
435,214,24440,2,0,P|395:223|355:216,1,81.5999975032807,2|0,0:0|0:0,0:0:0:0:
249,66,24604,2,0,P|288:56|328:63,1,81.5999975032807,8|0,0:3|0:0,0:0:0:0:
502,178,24768,1,2,1:2:0:0:
348,318,24932,6,0,L|258:326,1,81.5999975032807,0|0,1:0|0:0,0:0:0:0:
139,220,25096,2,0,L|229:212,1,81.5999975032807
352,310,25260,2,0,L|262:318,1,81.5999975032807,2|0,0:3|0:0,0:0:0:0:
135,228,25424,2,0,L|225:220,1,81.5999975032807,2|0,0:0|0:0,0:0:0:0:
413,210,25588,5,8,0:0:0:0:
433,213,25916,6,0,L|424:140,2,70.3999986516317,0|0|0,3:0|0:0|0:0,0:0:0:0:
381,89,26244,6,0,P|419:76|459:84,1,81.5999975032807
512,264,26407,1,0,1:0:0:0:
299,209,26571,2,0,L|290:125,1,81.5999975032807,0|0,1:0|0:0,0:0:0:0:
385,280,26735,2,0,L|394:364,1,81.5999975032807,4|0,0:3|0:0,0:0:0:0:
273,363,26899,6,0,P|294:286|223:301,1,163.199995006561,8|0,0:0|0:0,0:0:0:0:
189,348,27145,2,0,P|154:272|217:209,1,163.199995006561,2|0,1:0|0:0,0:0:0:0:
234,285,27391,2,0,P|266:255|280:215,1,81.5999975032807,0|0,1:0|0:0,0:0:0:0:
323,153,27555,6,0,L|252:113,1,81.5999975032807,0|0,1:0|0:0,0:0:0:0:
170,128,27719,2,0,L|242:88,1,81.5999975032807,2|0,0:0|0:0,0:0:0:0:
303,103,27883,2,0,L|232:63,1,81.5999975032807,2|0,0:3|0:0,0:0:0:0:
150,78,28047,2,0,L|222:38,1,81.5999975032807,2|0,0:0|0:0,0:0:0:0:
407,71,28211,5,8,0:0:0:0:
56,246,28539,6,0,P|33:211|70:191,1,81.5999975032807,0|0,3:0|0:0,0:0:0:0:
145,238,28703,2,0,P|185:255|262:243,1,81.5999975032807,8|0,0:3|0:0,0:0:0:0:
282,184,28866,2,0,P|242:167|165:179,1,81.5999975032807
103,319,29030,5,0,1:0:0:0:
132,146,29194,2,0,L|143:46,1,81.5999975032807,0|0,1:0|0:0,0:0:0:0:
231,254,29358,2,0,L|220:354,1,81.5999975032807,4|0,0:3|0:0,0:0:0:0:
312,111,29522,6,0,P|352:108|393:111,1,81.5999975032807,8|0,0:0|0:0,0:0:0:0:
434,195,29686,2,0,P|393:197|352:194,1,81.5999975032807,2|0,0:0|0:0,0:0:0:0:
303,103,29850,2,0,P|343:100|384:103,1,81.5999975032807
442,202,30014,2,0,P|401:204|360:201,1,81.5999975032807,2|0,1:2|0:0,0:0:0:0:
212,137,30178,6,0,L|217:241,1,81.5999975032807,0|0,1:0|0:0,0:0:0:0:
104,124,30342,2,0,L|99:20,1,81.5999975032807
16,212,30506,2,0,L|19:293,1,81.5999975032807,2|0,0:3|0:0,0:0:0:0:
124,202,30670,2,0,L|120:120,1,81.5999975032807,2|0,0:0|0:0,0:0:0:0:
231,254,30834,5,8,0:0:0:0:
290,211,31162,6,0,P|300:244|297:279,2,70.3999986516317,0|0|0,3:0|0:0|0:0,0:0:0:0:
350,342,31489,6,0,P|314:360|274:356,1,81.5999975032807
214,229,31653,1,0,1:0:0:0:
410,189,31817,2,0,L|424:298,1,81.5999975032807,0|0,1:0|0:0,0:0:0:0:
193,210,31981,2,0,L|179:101,1,81.5999975032807,4|0,0:3|0:0,0:0:0:0:
164,6,32145,1,8,0:0:0:0:
306,132,32309,1,2,1:0:0:0:
70,69,32473,1,0,0:0:0:0:
281,39,32637,1,0,1:0:0:0:
48,201,32801,5,0,1:0:0:0:
410,189,32965,1,2,1:2:0:0:
79,79,33129,2,0,L|177:80,1,81.5999975032807,2|0,1:3|0:0,0:0:0:0:
327,160,33293,2,0,L|232:165,1,81.5999975032807,2|0,0:0|0:0,0:0:0:0:
62,168,33457,5,8,0:0:0:0:
385,335,33785,6,0,P|403:317|363:322,1,81.5999975032807,0|0,3:0|0:0,0:0:0:0:
275,378,33948,5,8,1:3:0:0:
342,242,34112,2,0,P|382:232|421:241,1,81.5999975032807
488,370,34276,5,0,1:0:0:0:
222,263,34440,2,0,L|229:181,1,81.5999975032807,0|0,1:0|0:0,0:0:0:0:
338,144,34604,2,0,L|331:226,1,81.5999975032807,4|0,0:3|0:0,0:0:0:0:
299,56,34768,6,0,P|339:52|380:57,1,81.5999975032807,8|0,0:0|0:0,0:0:0:0:
512,150,34932,2,0,P|471:154|430:149,1,81.5999975032807,2|0,0:0|0:0,0:0:0:0:
307,48,35096,2,0,P|347:43|388:48,1,81.5999975032807
504,159,35260,2,0,P|463:163|422:158,1,81.5999975032807,2|0,0:0|0:0,0:0:0:0:
214,138,35424,5,0,1:0:0:0:
231,304,35588,1,0,1:2:0:0:
198,132,35752,2,0,L|206:30,1,81.5999975032807,2|0,1:3|0:0,0:0:0:0:
338,144,35916,2,0,L|330:246,1,81.5999975032807,2|0,0:0|0:0,0:0:0:0:
202,233,36080,5,8,0:0:0:0:
202,233,36407,6,0,P|184:215|189:255,1,81.5999975032807,0|0,3:0|0:0,0:0:0:0:
342,242,36571,5,8,1:3:0:0:
194,150,36735,2,0,P|154:154|119:174,1,81.5999975032807
9,298,36899,5,0,1:0:0:0:
262,319,37063,2,0,L|271:222,1,81.5999975032807,0|0,1:0|0:0,0:0:0:0:
100,267,37227,2,0,L|91:364,1,81.5999975032807,4|0,0:3|0:0,0:0:0:0:
387,179,37391,6,0,P|348:166|308:173,1,81.5999975032807,8|0,0:0|0:0,0:0:0:0:
433,276,37555,2,0,P|471:288|511:281,1,81.5999975032807,2|0,0:0|0:0,0:0:0:0:
362,251,37719,2,0,P|349:289|356:329,1,81.5999975032807,4|0,0:0|0:0,0:0:0:0:
459,205,37883,1,0,1:0:0:0:
225,234,38047,5,0,1:0:0:0:
475,186,38211,1,2,1:2:0:0:
221,261,38375,2,0,P|202:227|209:162,1,81.5999975032807,2|0,1:3|0:0,0:0:0:0:
287,97,38539,2,0,P|306:131|299:196,1,81.5999975032807,2|0,0:0|0:0,0:0:0:0:
232,356,38703,5,8,0:0:0:0:
169,67,39030,6,0,P|188:40|201:71,1,81.5999975032807,0|0,3:0|0:0,0:0:0:0:
74,150,39194,5,8,1:3:0:0:
286,97,39358,2,0,P|295:57|285:18,1,81.5999975032807
180,160,39522,5,0,1:0:0:0:
369,176,39686,2,0,L|485:184,1,81.5999975032807,0|0,1:0|0:0,0:0:0:0:
324,274,39850,2,0,L|208:266,1,81.5999975032807,4|0,0:3|0:0,0:0:0:0:
469,245,40014,6,0,P|469:285|459:325,1,81.5999975032807,8|0,0:0|0:0,0:0:0:0:
337,368,40178,2,0,P|336:327|346:287,1,81.5999975032807,2|0,0:0|0:0,0:0:0:0:
478,246,40342,2,0,P|478:286|468:326,1,81.5999975032807
328,367,40506,2,0,P|327:326|337:286,1,81.5999975032807,2|0,0:0|0:0,0:0:0:0:
446,105,40670,5,0,1:0:0:0:
214,151,40834,1,0,1:2:0:0:
466,218,40998,1,2,1:3:0:0:
212,119,41162,5,2,0:0:0:0:
212,119,41244,1,4,0:3:0:0:
212,119,41325,1,8,0:0:0:0:
221,326,41489,1,4,0:3:0:0:
346,158,41653,6,0,P|342:136|323:166,1,81.5999975032807,0|0,3:0|0:0,0:0:0:0:
405,314,41817,1,2,1:0:0:0:
399,40,41981,5,4,0:3:0:0:
137,57,42145,1,4,1:3:0:0:
113,112,42226,1,4,0:3:0:0:
127,170,42308,1,4,1:3:0:0:
174,208,42390,1,4,0:3:0:0:
234,210,42473,1,4,0:3:0:0:
446,156,42637,5,8,0:0:0:0:
406,346,42801,1,2,1:0:0:0:
356,193,42965,1,0,0:0:0:0:
305,295,43129,1,0,0:0:0:0:
234,210,43293,6,0,P|232:168|251:131,1,81.5999975032807,4|0,1:0|0:0,0:0:0:0:
307,88,43457,2,0,P|352:88|386:105,1,81.5999975032807
486,248,43621,2,0,P|484:285|479:329,1,81.5999975032807
414,350,43785,1,0,0:0:0:0:
434,41,43948,6,0,P|340:65|257:55,1,163.199995006561,8|2,0:0|0:0,0:0:0:0:
187,22,44194,1,0,0:0:0:0:
197,37,44276,2,0,P|237:42|274:59,1,81.5999975032807,8|0,0:3|0:0,0:0:0:0:
351,14,44440,2,0,P|349:54|364:92,1,81.5999975032807
449,127,44604,2,0,P|486:109|512:78,1,81.5999975032807,2|0,0:0|0:0,0:0:0:0:
351,14,44768,1,0,1:0:0:0:
512,78,44932,2,0,P|490:171|501:242,1,163.199995006561,2|2,1:2|0:0,0:0:0:0:
456,294,45178,1,0,0:0:0:0:
455,293,45260,6,0,P|416:282|376:283,1,81.5999975032807,8|0,0:0|0:0,0:0:0:0:
329,230,45424,2,0,P|292:245|261:271,1,81.5999975032807,4|0,0:0|0:0,0:0:0:0:
190,260,45588,2,0,P|172:297|165:337,1,81.5999975032807
295,378,45752,1,0,1:0:0:0:
79,227,45916,6,0,P|113:240|162:242,1,81.5999975032807,4|0,1:0|0:0,0:0:0:0:
303,154,46080,2,0,P|337:141|386:139,1,81.5999975032807
496,235,46244,2,0,P|484:273|482:316,1,81.5999975032807
426,27,46407,2,0,P|441:60|443:106,1,81.5999975032807
251,198,46571,6,0,P|153:199|89:175,1,163.199995006561,8|2,0:0|0:0,0:0:0:0:
73,54,46817,1,0,0:0:0:0:
68,67,46899,2,0,P|116:68|157:55,1,81.5999975032807,8|0,0:3|0:0,0:0:0:0:
313,77,47063,1,0,1:0:0:0:
105,2,47227,6,0,P|129:33|164:57,1,81.5999975032807,2|0,0:0|0:0,0:0:0:0:
360,22,47391,2,0,P|405:21|450:38,1,81.5999975032807,0|0,1:0|0:0,0:0:0:0:
487,266,47555,2,0,P|410:286|325:288,1,163.199995006561,2|2,1:2|0:0,0:0:0:0:
298,229,47801,1,0,0:0:0:0:
298,229,47883,6,0,P|288:200|285:147,1,81.5999975032807,8|0,0:0|0:0,0:0:0:0:
244,76,48047,2,0,P|211:80|164:74,1,81.5999975032807,4|0,0:0|0:0,0:0:0:0:
99,128,48211,2,0,P|90:167|90:208,1,81.5999975032807
146,272,48375,2,0,P|168:272|226:287,1,81.5999975032807,0|0,1:0|0:0,0:0:0:0:
353,153,48539,6,0,P|406:145|441:127,1,81.5999975032807,0|0,1:0|0:0,0:0:0:0:
276,17,48703,2,0,P|248:8|192:8,1,81.5999975032807
504,96,48866,2,0,P|490:52|488:12,1,81.5999975032807
459,276,49030,2,0,P|437:305|422:347,1,81.5999975032807
414,50,49194,1,8,0:0:0:0:
247,189,49358,6,0,P|248:148|264:111,1,81.5999975032807,2|0,0:0|0:0,0:0:0:0:
134,17,49522,2,0,L|148:98,1,81.5999975032807,8|0,0:3|0:0,0:0:0:0:
91,218,49686,2,0,P|73:181|44:154,1,81.5999975032807
330,95,49850,2,0,P|353:73|322:75,1,81.5999975032807,2|0,0:0|0:0,0:0:0:0:
328,376,50014,1,0,1:0:0:0:
149,292,50178,6,0,B|177:257|221:256|221:256|258:286|306:276,1,163.199995006561,2|2,1:2|0:0,0:0:0:0:
356,244,50424,1,0,0:0:0:0:
356,244,50506,2,0,B|395:304|468:300|468:300|425:246,1,163.199995006561,8|4,0:0|0:0,0:0:0:0:
72,169,50834,5,0,0:0:0:0:
72,168,50998,2,0,P|93:191|89:161,1,81.5999975032807,0|0,1:0|0:0,0:0:0:0:
88,15,51162,6,0,P|129:12|167:25,1,81.5999975032807,0|0,1:0|0:0,0:0:0:0:
304,96,51325,2,0,P|289:57|288:17,1,81.5999975032807
215,280,51489,2,0,P|172:281|134:267,1,81.5999975032807
88,88,51653,1,0,0:0:0:0:
376,104,51817,6,0,P|360:176|376:272,1,163.199995006561,8|2,0:0|0:0,0:0:0:0:
436,296,52063,1,0,0:0:0:0:
435,296,52145,2,0,P|467:293|441:273,1,81.5999975032807,8|0,0:3|0:0,0:0:0:0:
336,48,52309,5,0,1:0:0:0:
168,256,52473,2,0,P|216:272|280:264,1,81.5999975032807,2|0,0:0|0:0,0:0:0:0:
192,0,52637,2,0,P|224:48|232:112,1,81.5999975032807,0|0,1:0|0:0,0:0:0:0:
416,120,52801,6,0,P|384:184|368:288,1,163.199995006561,2|2,1:2|0:0,0:0:0:0:
436,296,53047,1,0,0:0:0:0:
436,296,53129,2,0,B|448:312|472:320|472:320|400:328|360:376,1,163.199995006561,8|2,0:0|1:0,0:0:0:0:
78,86,53457,6,8,L|75:126,3,40.7999987516403,8|8|8|8,0:1|0:1|0:1|0:1,0:1:0:0:
63,141,53621,2,0,P|70:171|84:142,1,81.5999975032807,0|0,1:0|0:0,0:0:0:0:
216,0,53785,5,0,1:0:0:0:
408,72,53948,1,0,1:0:0:0:
134,25,54112,2,0,P|176:25|213:37,1,81.5999975032807,0|0,1:0|0:0,0:0:0:0:
428,60,54276,2,0,P|388:55|347:62,1,81.5999975032807
272,104,54440,2,0,P|252:180|260:264,1,163.199995006561,8|2,0:0|0:0,0:0:0:0:
332,292,54686,1,0,0:0:0:0:
340,280,54768,2,0,P|378:269|424:272,1,81.5999975032807,8|0,0:3|0:0,0:0:0:0:
83,116,54932,6,0,P|44:84|24:48,1,81.5999975032807,0|0,1:0|0:0,0:0:0:0:
204,0,55096,1,2,0:0:0:0:
344,165,55260,6,0,P|384:140|404:112,1,81.5999975032807,0|0,1:0|0:0,0:0:0:0:
140,44,55424,2,0,P|160:88|164:204,1,163.199995006561,2|2,1:2|0:0,0:0:0:0:
228,244,55670,1,0,0:0:0:0:
231,228,55752,6,0,P|270:221|307:225,1,76.7999961853028,8|0,0:0|0:0,0:0:0:0:
407,261,55916,2,0,P|439:281|464:310,1,76.7999961853028,4|0,0:0|0:0,0:0:0:0:
287,103,56080,2,0,P|317:129|335:162,1,76.7999961853028
375,322,56244,2,0,P|344:345|324:377,1,76.7999961853028
508,216,56407,5,0,1:0:0:0:
248,244,56571,1,0,1:0:0:0:
512,196,56735,1,0,1:0:0:0:
319,378,56899,1,2,0:0:0:0:
319,378,56981,1,0,0:0:0:0:
319,378,57063,2,0,L|164:360,2,153.599992370606,8|2|8,0:0|0:0|0:3,0:0:0:0:
492,336,57555,6,0,P|500:232|480:180,1,153.599992370606,0|2,1:0|0:0,0:0:0:0:
344,53,57883,1,0,1:0:0:0:
468,288,58047,2,0,P|376:240|268:248,1,153.599992370606,2|2,1:2|0:0,0:0:0:0:
260,252,58293,1,0,0:0:0:0:
248,260,58375,6,0,B|175:306|181:238|102:278,1,153.599992370606,8|4,0:0|0:0,0:0:0:0:
32,172,58703,2,8,L|40:112,2,38.3999980926514,8|8|8,0:1|0:1|0:1,0:1:0:0:
64,159,58866,2,8,L|56:99,2,38.3999980926514,8|8|8,0:1|0:1|0:1,0:1:0:0:
129,201,59030,5,0,1:0:0:0:
404,181,59194,1,0,1:0:0:0:
122,192,59358,1,0,1:0:0:0:
429,178,59522,1,2,0:0:0:0:
429,178,59604,1,0,0:0:0:0:
429,178,59686,2,0,P|460:244|456:344,2,153.599992370606,8|2|8,0:0|0:0|0:3,0:0:0:0:
288,88,60178,6,0,P|216:115|140:108,1,153.599992370606,0|2,1:0|0:0,0:0:0:0:
92,53,60424,1,0,0:0:0:0:
89,64,60506,1,0,1:0:0:0:
346,123,60670,6,0,P|270:116|198:143,1,153.599992370606,2|2,1:2|0:0,0:0:0:0:
135,198,60916,1,0,0:0:0:0:
131,187,60998,2,0,P|129:149|138:111,1,76.7999961853028,8|0,0:0|0:0,0:0:0:0:
329,189,61162,2,0,P|337:226|335:264,1,76.7999961853028,4|0,0:0|0:0,0:0:0:0:
76,288,61325,1,0,0:0:0:0:
232,160,61489,1,0,0:0:0:0:
272,356,61653,6,8,L|312:360,2,38.3999980926514,8|8|8,1:1|0:1|0:1,0:1:0:0:
380,321,61817,2,8,L|432:313,2,38.3999980926514,8|8|8,1:1|0:1|0:1,0:1:0:0:
472,372,61981,2,0,P|456:328|452:220,1,153.599992370606,0|2,1:0|0:0,0:0:0:0:
492,160,62227,1,0,0:0:0:0:
500,168,62309,6,0,P|499:128|486:94,1,76.7999961853028,8|0,0:0|0:0,0:0:0:0:
229,45,62473,1,2,0:0:0:0:
440,8,62637,1,8,0:3:0:0:
366,209,62801,6,0,P|280:216|192:192,1,143.999998340607,0|2,1:0|0:0,0:0:0:0:
108,130,63129,1,0,1:0:0:0:
244,38,63293,1,2,1:2:0:0:
242,49,63374,1,8,0:1:0:0:
240,61,63456,1,8,0:1:0:0:
238,73,63538,1,8,0:1:0:0:
236,85,63620,5,8,0:0:0:0:
412,32,63785,1,4,0:0:0:0:
380,224,63948,2,8,L|328:216,6,35.9999995851517,8|8|8|8|8|8|8,0:1|0:1|0:1|0:1|0:1|0:1|0:1,0:1:0:0:
454,176,64276,6,0,L|459:262,1,86.3999930717471,4|0,1:0|0:0,0:0:0:0:
465,341,64604,1,0,0:0:0:0:
372,297,64768,1,2,0:0:0:0:
209,364,64932,2,0,L|296:361,1,86.3999930717471,8|0,0:0|0:0,0:0:0:0:
297,217,65260,1,0,0:0:0:0:
297,217,65424,2,0,L|210:213,1,86.3999930717471
372,297,65752,1,0,1:0:0:0:
316,117,65916,1,0,1:0:0:0:
251,292,66080,1,0,0:0:0:0:
392,159,66244,6,0,P|400:114|388:69,1,86.3999930717471,8|0,0:0|0:0,0:0:0:0:
134,171,66571,2,0,P|126:216|138:261,1,86.3999930717471,8|0,0:0|1:0,0:0:0:0:
259,163,66899,6,0,L|259:68,1,86.3999930717471,0|0,1:0|0:0,0:0:0:0:
171,254,67227,1,0,0:0:0:0:
316,229,67391,1,2,0:0:0:0:
122,152,67555,2,0,L|31:159,1,86.3999930717471,8|0,0:0|0:0,0:0:0:0:
243,210,67883,1,0,0:0:0:0:
137,44,68047,5,0,1:0:0:0:
150,270,68211,1,0,0:0:0:0:
278,95,68375,1,0,1:0:0:0:
67,171,68539,1,0,1:0:0:0:
67,171,68866,2,0,L|60:84,1,86.3999930717471,8|4,0:0|0:0,0:0:0:0:
159,253,69194,1,8,0:0:0:0:
9,259,69358,1,2,1:0:0:0:
219,209,69522,6,0,P|230:250|221:292,1,86.3999930717471,0|0,1:0|0:0,0:0:0:0:
16,24,69850,2,0,P|57:12|99:21,1,86.3999930717471,0|2,0:0|0:0,0:0:0:0:
285,118,70178,2,0,P|243:129|201:120,1,86.3999930717471,8|0,0:0|0:0,0:0:0:0:
199,3,70506,1,0,0:0:0:0:
343,37,70670,1,0,0:0:0:0:
185,24,70834,1,0,0:0:0:0:
336,166,70998,5,0,1:0:0:0:
354,22,71162,1,0,1:0:0:0:
451,130,71325,1,0,0:0:0:0:
258,40,71489,2,0,P|299:30|342:36,1,86.3999930717471,8|0,0:0|0:0,0:0:0:0:
346,249,71817,1,0,0:0:0:0:
426,121,71981,1,0,1:0:0:0:
164,131,72145,6,0,L|171:220,1,86.3999930717471,0|0,1:0|0:0,0:0:0:0:
298,185,72473,2,0,L|304:98,1,86.3999930717471,0|2,0:0|0:0,0:0:0:0:
263,256,72801,2,0,P|305:263|345:248,1,86.3999930717471,8|0,0:0|0:0,0:0:0:0:
319,18,73129,1,0,0:0:0:0:
166,113,73293,1,0,1:0:0:0:
166,113,73621,5,0,1:0:0:0:
304,98,73785,1,0,1:0:0:0:
251,202,73948,1,0,0:0:0:0:
222,12,74112,1,12,0:0:0:0:
309,120,74276,1,0,1:0:0:0:
117,173,74440,2,0,P|92:138|92:95,1,86.3999930717471,0|0,0:0|1:0,0:0:0:0:
251,228,74768,6,0,L|159:245,1,86.3999930717471,4|0,1:0|0:0,0:0:0:0:
68,264,75096,1,0,0:0:0:0:
166,335,75260,1,2,0:0:0:0:
166,113,75424,2,0,L|164:26,1,86.3999930717471,8|0,0:0|0:0,0:0:0:0:
260,201,75752,6,0,L|269:156,1,43.1999965358736
294,51,75916,1,0,1:0:0:0:
166,113,76080,2,0,L|175:158,1,43.1999965358736
217,313,76244,1,0,1:0:0:0:
363,207,76407,1,0,1:0:0:0:
260,201,76571,1,0,0:0:0:0:
437,251,76735,6,0,P|447:209|438:167,1,86.3999930717471,8|0,0:0|0:0,0:0:0:0:
261,117,77063,2,0,P|250:158|259:200,1,86.3999930717471,8|0,0:0|0:0,0:0:0:0:
336,50,77391,5,0,1:0:0:0:
112,75,77555,1,0,1:0:0:0:
321,61,77719,1,0,1:0:0:0:
181,121,77883,1,2,0:0:0:0:
437,100,78047,2,0,L|441:10,1,86.3999930717471,8|0,0:0|0:0,0:0:0:0:
493,187,78375,1,0,0:0:0:0:
317,147,78539,6,0,L|321:57,1,86.3999930717471,0|0,1:0|0:0,0:0:0:0:
391,209,78866,1,0,1:0:0:0:
201,301,79030,1,0,1:0:0:0:
201,301,79358,2,0,L|205:211,1,86.3999930717471,8|4,0:0|0:0,0:0:0:0:
219,65,79686,1,8,0:0:0:0:
311,256,79850,1,2,1:0:0:0:
106,118,80014,5,0,1:0:0:0:
323,122,80178,1,0,1:0:0:0:
202,108,80342,1,0,1:0:0:0:
202,108,80670,2,0,L|205:194,1,86.3999930717471,8|0,0:0|0:0,0:0:0:0:
269,71,80998,1,0,0:0:0:0:
327,228,81162,2,0,L|330:141,1,86.3999930717471,0|0,1:0|0:0,0:0:0:0:
217,277,81489,1,0,1:0:0:0:
396,285,81653,1,0,1:0:0:0:
232,191,81817,1,0,0:0:0:0:
403,298,81981,6,0,L|405:211,1,86.3999930717471,8|0,0:0|0:0,0:0:0:0:
235,104,82309,2,0,L|231:190,1,86.3999930717471
362,60,82637,5,0,1:0:0:0:
92,152,82801,1,0,1:0:0:0:
384,193,82965,1,0,1:0:0:0:
250,83,83129,1,0,0:0:0:0:
189,266,83293,2,0,P|227:280|273:267,1,86.3999930717471,8|0,0:0|0:0,0:0:0:0:
264,97,83621,1,0,0:0:0:0:
317,361,83785,5,0,1:0:0:0:
317,361,84112,1,0,1:0:0:0:
76,317,84276,2,0,L|165:313,1,86.3999930717471,0|2,1:0|0:0,0:0:0:0:
317,194,84604,2,0,L|230:190,2,86.3999930717471,0|8|0,3:0|3:0|3:0,0:0:0:0:
403,197,85096,1,0,3:0:0:0:
403,197,85260,6,0,P|448:138|433:40,1,172.799986143494,6|0,0:1|0:0,0:0:0:0:
248,106,85916,2,0,L|261:300,1,191.999990463257,8|0,0:0|0:0,0:0:0:0:
379,118,86899,1,0,0:0:0:0:
502,208,87227,6,0,P|479:207|454:201,1,47.9999976158143,12|0,0:0|0:0,0:0:0:0:
345,237,87555,2,0,P|370:238|392:243,1,47.9999976158143
510,325,87883,6,0,P|437:306|358:366,1,172.799986143494
174,215,88539,2,0,P|121:153|159:49,1,191.999990463257,8|0,0:0|0:0,0:0:0:0:
421,9,89522,1,0,0:0:0:0:
511,98,89850,6,0,P|506:122|504:148,1,47.9999976158143,8|0,0:0|0:0,0:0:0:0:
280,24,90178,2,0,P|284:0|285:-23,1,47.9999976158143,4|0,0:0|0:0,0:0:0:0:
346,105,90506,6,0,L|166:81,1,182.399986069489
315,179,91162,2,0,L|513:162,1,191.999990463257,8|0,0:0|0:0,0:0:0:0:
510,170,92145,1,0,0:0:0:0:
296,116,92473,1,12,0:0:0:0:
510,87,92801,2,0,P|514:46|481:6,1,95.9999952316285
405,11,93129,6,0,P|406:57|415:107,2,95.9999952316285,0|0|8,0:0|0:0|0:0,0:0:0:0:
474,142,94440,2,0,P|472:193|464:237,1,95.9999952316285
186,249,95096,5,8,0:0:0:0:
269,29,95424,1,4,0:0:0:0:
399,127,95752,5,0,3:0:0:0:
322,108,95916,1,0,0:0:0:0:
322,108,96080,1,8,0:0:0:0:
322,108,96244,1,0,0:0:0:0:
285,205,96407,5,8,3:2:0:0:
264,71,96571,1,0,0:0:0:0:
264,71,96735,1,0,0:0:0:0:
264,71,96899,1,0,0:0:0:0:
169,138,97063,5,0,3:0:0:0:
255,6,97227,1,0,0:0:0:0:
255,6,97391,1,0,0:0:0:0:
255,6,97555,1,0,0:0:0:0:
400,45,97719,6,0,P|397:80|390:121,1,76.7999961853028,12|0,3:2|0:0,0:0:0:0:
510,79,98047,2,0,P|502:40|499:2,1,76.7999961853028,12|0,3:2|0:0,0:0:0:0:
390,121,98375,5,0,3:0:0:0:
510,79,98539,1,0,0:0:0:0:
510,79,98703,1,0,0:0:0:0:
510,79,98866,1,0,0:0:0:0:
441,179,99030,5,8,3:2:0:0:
321,137,99194,1,0,0:0:0:0:
321,137,99358,1,0,0:0:0:0:
321,137,99521,1,0,0:0:0:0:
390,237,99686,5,0,3:0:0:0:
510,195,99850,1,0,0:0:0:0:
510,195,100014,1,0,0:0:0:0:
510,195,100177,1,0,0:0:0:0:
441,294,100342,6,0,P|403:313|370:311,1,76.7999961853028,8|0,3:2|0:0,0:0:0:0:
339,180,100670,2,0,P|377:161|410:163,1,76.7999961853028,4|0,0:0|0:0,0:0:0:0:
390,237,100998,6,0,L|311:229,1,76.7999961853028,0|0,3:0|0:0,0:0:0:0:
138,205,101325,2,0,L|214:212,1,76.7999961853028
397,226,101653,6,0,L|317:224,1,76.7999961853028,8|0,3:2|0:0,0:0:0:0:
125,221,101981,2,0,L|201:221,1,76.7999961853028
401,212,102310,6,0,L|321:216,1,76.7999961853028,0|0,3:0|0:0,0:0:0:0:
113,235,102637,2,0,L|188:228,1,76.7999961853028
402,196,102965,6,0,L|323:208,1,76.7999961853028,12|0,3:2|0:0,0:0:0:0:
101,256,103293,2,0,L|176:242,1,76.7999961853028
481,182,103621,5,0,3:0:0:0:
455,346,103948,1,0,3:2:0:0:
215,221,104276,1,8,3:2:0:0:
291,371,104604,1,0,3:2:0:0:
335,103,104932,5,0,3:0:0:0:
499,93,105096,1,0,1:0:0:0:
412,16,105260,1,0,3:0:0:0:
422,180,105424,1,0,1:0:0:0:
287,35,105588,6,0,B|246:2|195:26|182:48|182:48|223:56,1,143.999992847443,8|0,3:3|0:0,0:0:0:0:
375,76,106162,1,0,0:0:0:0:
380,62,106244,6,0,L|382:38,10,23.9999988079071,4|0|0|0|2|0|0|0|0|0|0,1:0|0:0|0:0|0:0|0:0|0:0|0:0|0:0|0:0|0:0|0:0,0:0:0:0:
296,117,106735,2,0,L|291:165,2,47.9999976158143,2|0|2,1:0|0:0|0:0,0:0:0:0:
388,253,107063,1,0,1:0:0:0:
226,267,107227,2,0,L|130:273,1,95.9999952316285,6|2,0:1|0:0,0:0:0:0:
318,188,107555,2,0,L|222:194,1,95.9999952316285,0|2,0:0|0:0,0:0:0:0:
391,110,107883,2,0,L|296:117,1,95.9999952316285
428,285,108211,5,8,0:0:0:0:
182,94,108539,5,8,0:3:0:0:
322,44,108703,1,2,0:0:0:0:
112,126,108866,6,0,P|107:95|111:64,1,62.3999940441135,4|0,1:0|0:0,0:0:0:0:
317,126,109030,2,0,P|321:156|317:187,1,62.3999940441135,2|0,0:0|0:0,0:0:0:0:
98,140,109194,2,0,P|93:109|97:78,1,62.3999940441135,0|0,3:0|0:0,0:0:0:0:
303,140,109358,1,0,1:0:0:0:
130,250,109522,2,0,L|200:253,1,62.3999940441135,10|0,0:0|0:0,0:0:0:0:
244,91,109686,2,0,L|174:94,1,62.3999940441135,0|0,3:0|0:0,0:0:0:0:
298,318,109850,6,0,L|300:237,1,62.3999940441135,2|0,0:0|0:0,0:0:0:0:
303,140,110014,1,2,0:3:0:0:
400,236,110178,2,0,L|402:155,1,62.3999940441135
405,58,110342,1,2,0:3:0:0:
282,153,110506,2,0,L|218:161,1,62.3999940441135
338,42,110670,1,0,1:0:0:0:
401,173,110834,2,8,L|456:178,4,41.599996029409,10|8|8|8|0,0:0|0:1|0:1|0:1|0:1,0:1:0:0:
299,255,111162,2,8,L|244:260,4,41.599996029409,8|8|8|6|8,0:1|0:1|0:1|0:0|0:1,0:1:0:0:
445,306,111489,6,0,P|456:276|459:245,1,62.3999940441135,0|0,1:0|0:0,0:0:0:0:
401,173,111653,2,0,P|395:142|382:113,1,62.3999940441135,2|0,0:0|0:0,0:0:0:0:
289,105,111817,2,0,P|268:81|243:62,1,62.3999940441135,0|0,3:0|0:0,0:0:0:0:
299,255,111981,1,0,1:0:0:0:
381,182,112145,2,0,P|375:151|362:122,1,62.3999940441135,10|0,0:0|0:0,0:0:0:0:
269,114,112309,2,0,P|248:90|223:71,1,62.3999940441135,0|0,3:0|0:0,0:0:0:0:
112,193,112473,6,0,P|132:216|157:235,1,62.3999940441135,0|0,1:0|0:0,0:0:0:0:
123,92,112637,2,0,P|117:61|104:32,1,62.3999940441135,2|0,0:0|0:0,0:0:0:0:
19,140,112801,2,0,P|8:169|5:200,1,62.3999940441135
195,154,112965,1,2,1:2:0:0:
106,303,113129,1,0,1:0:0:0:
119,110,113293,1,0,0:0:0:0:
271,228,113457,1,8,0:0:0:0:
341,29,113621,5,8,3:3:0:0:
280,13,113702,1,8,3:3:0:0:
220,26,113784,1,4,3:3:0:0:
271,228,113948,1,0,3:0:0:0:
167,96,114112,6,0,L|251:104,1,62.3999940441135,4|0,1:0|0:0,0:0:0:0:
384,133,114276,2,0,L|300:141,1,62.3999940441135,2|0,0:0|0:0,0:0:0:0:
183,116,114440,2,0,L|267:124,1,62.3999940441135,0|0,3:0|0:0,0:0:0:0:
367,152,114604,2,0,P|371:183|368:215,1,62.3999940441135
174,303,114768,2,0,P|170:271|173:240,1,62.3999940441135,10|0,0:0|0:0,0:0:0:0:
304,337,114932,2,8,L|349:340,7,41.599996029409,8|8|8|2|8|8|2|8,3:1|0:1|0:1|0:0|0:1|0:1|0:3|0:1,0:1:0:0:
174,303,115424,6,0,P|170:271|173:240,1,62.3999940441135
367,152,115588,2,0,P|371:183|368:215,1,62.3999940441135,2|0,0:3|0:0,0:0:0:0:
230,102,115752,1,0,1:0:0:0:
411,79,115916,1,4,0:0:0:0:
187,165,116080,2,0,P|157:111|242:25,1,187.19998213234,10|0,0:0|0:0,0:0:0:0:
230,102,116407,2,0,L|371:120,1,124.799988088227,0|2,0:0|0:0,0:0:0:0:
477,132,116735,5,0,1:0:0:0:
171,169,116981,1,8,3:3:0:0:
378,25,117227,1,4,3:0:0:0:
381,221,117391,6,0,L|236:228,1,143.999998340607,14|0,0:0|3:0,0:0:0:0:
129,111,117719,2,0,P|162:99|198:103,1,71.9999991703034,4|0,1:0|0:0,0:0:0:0:
279,285,117883,2,0,P|245:296|209:292,1,71.9999991703034,2|0,0:0|0:0,0:0:0:0:
62,139,118047,2,0,P|57:103|69:69,1,71.9999991703034
261,76,118211,2,0,P|265:111|253:145,1,71.9999991703034,2|0,0:0|0:0,0:0:0:0:
81,248,118375,2,8,L|28:252,4,47.9999994468689,8|8|8|8|8,1:1|0:1|0:1|0:1|0:1,0:1:0:0:
209,292,118703,5,10,0:0:0:0:
381,85,119030,5,8,0:3:0:0:
198,103,119194,1,2,0:0:0:0:
306,186,119358,6,0,P|317:149|312:115,1,71.9999991703034,0|0,1:0|0:0,0:0:0:0:
147,253,119522,2,0,P|136:290|140:323,1,71.9999991703034,2|0,0:0|0:0,0:0:0:0:
206,121,119686,2,0,L|112:128,1,71.9999991703034,0|0,3:0|0:0,0:0:0:0:
233,290,119850,2,0,L|327:283,1,71.9999991703034
226,140,120014,1,10,0:0:0:0:
162,265,120178,1,0,3:0:0:0:
380,249,120342,6,0,L|474:242,1,71.9999991703034,2|0,0:0|0:0,0:0:0:0:
280,198,120506,1,2,0:3:0:0:
217,313,120670,2,0,L|224:407,1,71.9999991703034
268,213,120834,1,2,0:3:0:0:
350,359,120998,2,0,L|357:265,1,71.9999991703034,0|0,1:0|0:0,0:0:0:0:
367,161,121162,1,0,0:0:0:0:
160,224,121325,2,8,L|113:235,4,47.9999994468689,10|8|8|8|0,0:0|0:1|0:1|0:1|0:0,0:1:0:0:
237,88,121653,2,8,L|284:99,4,47.9999994468689,8|8|8|2|8,0:1|0:1|0:1|0:0|0:1,0:1:0:0:
125,46,121981,6,0,P|89:40|54:47,1,71.9999991703034,0|0,1:0|0:0,0:0:0:0:
80,298,122145,2,0,P|115:303|150:296,1,71.9999991703034,2|0,0:0|0:0,0:0:0:0:
196,156,122309,2,0,P|160:150|125:157,1,71.9999991703034,0|0,3:0|0:0,0:0:0:0:
258,283,122473,2,0,L|262:180,1,71.9999991703034
267,13,122637,1,10,0:0:0:0:
440,106,122801,2,0,L|368:108,1,71.9999991703034,0|0,3:0|0:0,0:0:0:0:
356,365,122965,6,0,P|369:331|365:296,1,71.9999991703034
270,142,123129,2,0,P|256:175|260:210,1,71.9999991703034,2|0,0:0|0:0,0:0:0:0:
449,187,123293,2,0,P|415:173|380:177,1,71.9999991703034
295,319,123457,1,2,1:2:0:0:
472,308,123621,1,0,1:0:0:0:
360,167,123785,1,0,0:0:0:0:
173,282,123948,5,8,0:0:0:0:
227,90,124112,1,8,3:3:0:0:
293,288,124276,5,4,3:3:0:0:
208,73,124440,1,0,3:0:0:0:
380,177,124604,6,0,P|393:143|390:108,1,71.9999991703034,0|0,1:0|0:0,0:0:0:0:
231,244,124768,2,0,P|217:277|220:312,1,71.9999991703034,2|0,0:0|0:0,0:0:0:0:
360,167,124932,2,0,P|373:133|370:98,1,71.9999991703034,0|0,3:0|0:0,0:0:0:0:
251,254,125096,2,0,P|237:287|240:322,1,71.9999991703034
243,121,125260,2,0,L|160:129,1,71.9999991703034,10|0,0:0|0:0,0:0:0:0:
20,143,125424,2,8,L|67:139,7,47.9999994468689,8|8|8|2|8|8|2|8,3:1|0:1|0:1|0:0|0:1|0:1|0:3|0:1,0:1:0:0:
171,127,125916,6,0,L|243:121,1,71.9999991703034
251,254,126080,2,0,P|237:287|240:322,1,71.9999991703034,2|0,0:3|0:0,0:0:0:0:
360,167,126244,2,0,P|373:133|370:98,1,71.9999991703034,0|0,1:0|0:0,0:0:0:0:
345,284,126407,2,0,L|416:277,1,71.9999991703034
285,184,126571,6,0,L|98:201,1,187.19998213234,10|0,0:0|0:0,0:0:0:0:
171,127,126899,2,0,L|295:115,1,124.799988088227,0|2,0:0|0:0,0:0:0:0:
501,95,127227,5,4,0:0:0:0:
501,95,127555,6,0,L|439:101,1,62.3999940441135,0|0,3:0|0:0,0:0:0:0:
469,300,127719,2,0,P|450:265|450:239,1,62.3999940441135,6|0,1:0|0:0,0:0:0:0:
417,36,127883,2,0,L|398:206,1,143.999998340607,10|0,0:0|3:0,0:0:0:0:
449,243,128129,1,0,0:0:0:0:
449,243,128211,6,0,P|414:258|381:258,1,62.3999940441135
224,188,128375,2,0,P|259:173|292:173,1,62.3999940441135,2|0,0:0|0:0,0:0:0:0:
468,224,128539,2,0,P|470:253|457:290,1,62.3999940441135
205,207,128703,2,0,P|203:178|216:141,1,62.3999940441135,2|0,0:0|0:0,0:0:0:0:
374,32,128866,5,0,1:0:0:0:
317,266,129030,5,0,0:0:0:0:
254,251,129112,1,0,0:0:0:0:
192,273,129194,2,0,B|182:325|205:369|205:369|231:321,1,124.799988088227,10|0,0:0|0:0,0:0:0:0:
442,30,129522,5,8,0:3:0:0:
415,193,129686,1,2,0:0:0:0:
374,32,129850,6,0,P|341:31|308:44,1,62.3999940441135,0|0,1:0|0:0,0:0:0:0:
442,196,130014,2,0,P|475:197|508:184,1,62.3999940441135,2|0,0:0|0:0,0:0:0:0:
298,19,130178,2,0,P|287:48|284:78,1,62.3999940441135,0|0,3:0|0:0,0:0:0:0:
509,119,130342,2,0,P|498:149|478:172,1,62.3999940441135
361,185,130506,6,0,B|328:157|285:165|285:165|271:178|242:183,1,124.799988088227,10|0,0:0|3:0,0:0:0:0:
201,129,130752,1,0,0:0:0:0:
201,129,130834,2,0,P|178:160|186:220,1,62.3999940441135,2|0,0:0|0:0,0:0:0:0:
404,241,130998,2,0,P|427:210|419:150,1,62.3999940441135,2|0,0:3|0:0,0:0:0:0:
245,308,131162,5,0,0:0:0:0:
404,241,131325,2,0,P|441:227|482:231,1,62.3999940441135,2|0,0:3|0:0,0:0:0:0:
245,308,131489,2,0,L|111:293,1,124.799988088227,0|0,1:0|0:0,0:0:0:0:
57,309,131735,1,0,0:0:0:0:
57,309,131817,6,8,L|63:357,4,41.599996029409,10|8|8|8|0,0:0|0:1|0:1|0:1|0:0,0:1:0:0:
210,191,132145,2,8,L|203:233,4,41.599996029409,8|8|8|6|8,0:1|0:1|0:1|0:0|0:1,0:1:0:0:
101,44,132473,6,0,P|63:40|24:60,1,62.3999940441135,0|0,1:0|0:0,0:0:0:0:
229,205,132637,2,0,P|267:209|306:189,1,62.3999940441135,2|0,0:0|0:0,0:0:0:0:
163,12,132801,2,0,P|170:41|163:73,1,62.3999940441135,0|0,3:0|0:0,0:0:0:0:
96,193,132965,2,0,P|91:224|101:253,1,62.3999940441135
348,234,133129,6,0,P|288:211|193:230,1,124.799988088227,10|0,0:0|3:0,0:0:0:0:
160,218,133375,1,0,0:0:0:0:
160,218,133457,2,0,L|167:157,1,62.3999940441135
410,194,133621,2,0,L|417:271,1,62.3999940441135,2|0,0:0|0:0,0:0:0:0:
313,346,133785,1,0,0:0:0:0:
291,105,133948,6,0,P|306:137|298:188,1,62.3999940441135,2|0,1:2|0:0,0:0:0:0:
313,342,134112,2,0,L|159:327,1,124.799988088227,0|0,1:0|0:0,0:0:0:0:
124,346,134358,1,0,0:0:0:0:
124,346,134440,5,10,0:0:0:0:
199,150,134604,1,2,0:0:0:0:
130,236,134768,1,0,0:0:0:0:
305,120,134932,1,2,0:0:0:0:
282,260,135096,6,0,P|250:259|221:249,1,62.3999940441135,0|0,1:0|0:0,0:0:0:0:
390,221,135260,2,0,P|419:212|450:211,1,62.3999940441135,2|0,0:0|0:0,0:0:0:0:
303,81,135424,2,0,P|302:112|310:142,1,62.3999940441135,0|0,3:0|0:0,0:0:0:0:
461,213,135588,2,0,P|462:244|454:274,1,62.3999940441135
350,332,135752,6,0,L|187:311,1,124.799988088227,10|0,0:0|3:0,0:0:0:0:
168,271,135998,2,8,L|123:274,5,41.599996029409,8|8|8|8|8|8,0:1|0:1|0:1|0:1|0:1|0:1,0:1:0:0:
201,148,136407,6,0,P|211:182|210:225,1,62.3999940441135
350,332,136571,2,0,P|351:300|361:271,1,62.3999940441135,2|0,0:3|0:0,0:0:0:0:
286,153,136735,5,0,1:0:0:0:
258,369,136899,1,4,0:0:0:0:
88,274,137064,6,0,B|190:245|174:320|274:292,1,187.19998213234,10|0,0:0|0:0,0:0:0:0:
321,253,137391,2,0,L|308:382,1,124.799988088227,0|2,0:0|0:0,0:0:0:0:
209,169,137719,5,0,1:0:0:0:
295,13,137883,1,8,3:0:0:0:
303,83,137965,1,8,3:0:0:0:
310,153,138047,1,4,3:0:0:0:
486,174,138211,1,0,3:0:0:0:
372,35,138375,6,0,P|407:25|449:33,1,71.9999991703034,14|0,0:0|0:0,0:0:0:0:
509,181,138539,2,0,P|474:191|432:183,1,71.9999991703034,0|0,3:0|0:0,0:0:0:0:
360,16,138703,2,0,P|395:6|437:14,1,71.9999991703034,4|0,1:0|0:0,0:0:0:0:
505,157,138866,2,0,P|470:167|428:159,1,71.9999991703034,2|0,0:0|0:0,0:0:0:0:
456,14,139030,5,0,0:0:0:0:
189,39,139194,1,2,0:0:0:0:
400,71,139358,1,0,1:0:0:0:
404,75,139440,1,0,0:0:0:0:
408,79,139522,1,8,0:1:0:0:
412,83,139604,1,8,0:1:0:0:
416,87,139686,6,0,L|269:74,1,143.999998340607,10|0,0:0|0:0,0:0:0:0:
118,17,140014,5,8,0:3:0:0:
413,5,140178,1,2,0:0:0:0:
332,111,140342,6,0,P|341:68|329:35,1,71.9999991703034,0|0,1:0|0:0,0:0:0:0:
190,46,140506,2,0,P|154:23|125:20,1,71.9999991703034,2|0,0:0|0:0,0:0:0:0:
357,100,140670,2,0,P|394:80|412:56,1,71.9999991703034,0|0,3:0|0:0,0:0:0:0:
135,90,140834,2,0,L|123:161,1,71.9999991703034
214,230,140998,6,0,B|292:213|277:259|357:241,1,143.999998340607,10|0,0:0|3:0,0:0:0:0:
406,197,141244,1,0,0:0:0:0:
406,197,141325,2,0,P|419:222|414:272,1,71.9999991703034,2|0,0:0|0:0,0:0:0:0:
161,274,141489,2,0,P|148:248|153:199,1,71.9999991703034,2|0,0:3|0:0,0:0:0:0:
337,350,141653,5,0,0:0:0:0:
160,273,141817,2,0,P|131:252|96:249,1,71.9999991703034,2|0,0:3|0:0,0:0:0:0:
329,353,141981,2,0,L|472:344,1,143.999998340607,0|0,1:0|0:0,0:0:0:0:
501,278,142227,1,0,0:0:0:0:
501,278,142309,6,8,L|507:230,4,47.9999994468689,10|8|8|8|0,0:0|0:1|0:1|0:1|0:0,0:1:0:0:
378,147,142637,2,8,L|371:99,4,47.9999994468689,8|8|8|2|8,0:1|0:1|0:1|0:0|0:1,0:1:0:0:
203,71,142965,6,0,P|170:57|123:60,1,71.9999991703034,0|0,1:0|0:0,0:0:0:0:
378,147,143129,2,0,P|411:161|458:158,1,71.9999991703034,2|0,0:0|0:0,0:0:0:0:
257,20,143293,2,0,P|272:48|272:93,1,71.9999991703034,0|0,3:0|0:0,0:0:0:0:
78,104,143457,2,0,P|63:132|63:177,1,71.9999991703034
248,214,143621,6,0,L|432:200,1,143.999998340607,10|0,0:0|3:0,0:0:0:0:
450,240,143866,1,0,0:0:0:0:
450,240,143948,2,0,P|453:282|443:311,1,71.9999991703034
419,64,144112,2,0,P|457:67|488:87,1,71.9999991703034,2|0,0:0|0:0,0:0:0:0:
302,208,144276,6,0,P|315:166|306:134,1,71.9999991703034
106,128,144440,2,0,P|93:170|102:202,1,71.9999991703034,2|0,0:0|0:0,0:0:0:0:
362,91,144604,1,0,0:0:0:0:
362,91,144686,1,0,0:0:0:0:
362,91,144768,1,8,0:1:0:0:
362,91,144850,1,8,0:1:0:0:
362,91,144932,6,0,L|203:102,1,143.999998340607,10|0,0:0|0:0,0:0:0:0:
23,41,145260,1,4,0:0:0:0:
331,15,145424,1,2,0:0:0:0:
84,83,145588,6,0,P|86:118|111:157,1,71.9999991703034,0|0,1:0|0:0,0:0:0:0:
297,112,145752,2,0,L|226:104,1,71.9999991703034,2|0,0:0|0:0,0:0:0:0:
77,56,145916,2,0,P|53:82|43:127,1,71.9999991703034,0|0,3:0|0:0,0:0:0:0:
161,261,146080,2,0,L|232:254,1,71.9999991703034
372,91,146244,6,0,L|380:17,1,71.9999991703034,10|0,0:0|0:0,0:0:0:0:
488,228,146407,2,8,L|493:276,7,47.9999994468689,8|8|8|2|8|8|2|8,3:1|0:1|0:1|0:0|0:1|0:1|0:3|0:1,0:1:0:0:
510,158,146899,6,8,P|472:155|441:171,1,71.9999991703034,8|8,0:1|0:1,0:1:0:0:
308,76,147063,2,0,P|340:91|375:87,1,71.9999991703034,2|8,0:3|0:1,0:0:0:0:
488,228,147227,2,8,L|476:302,1,71.9999991703034,8|8,0:1|0:1,0:1:0:0:
353,17,147391,2,8,L|425:6,1,71.9999991703034,8|8,0:1|0:1,0:1:0:0:
141,67,147555,6,0,B|288:83,1,143.999998340607,10|8,0:0|0:1,0:0:0:0:
395,84,147801,1,8,0:1:0:0:
414,82,147883,2,8,L|456:75,6,35.9999995851517,8|8|8|8|2|8|8,0:1|0:1|0:1|0:1|0:0|0:1|0:1,0:1:0:0:
353,17,148211,5,4,1:0:0:0:
284,82,148375,1,0,0:0:0:0:
344,155,148539,1,2,0:0:0:0:
282,228,148703,5,0,0:0:0:0:
217,159,148867,1,2,0:3:0:0:
144,219,149030,1,2,0:0:0:0:
344,155,149194,5,0,0:0:0:0:
413,220,149358,1,2,0:0:0:0:
353,293,149522,1,0,3:0:0:0:
144,219,149686,5,2,0:0:0:0:
213,284,149850,1,0,1:0:0:0:
153,357,150014,1,0,0:0:0:0:
217,159,150178,5,2,0:3:0:0:
286,94,150342,1,4,0:1:0:0:
226,21,150506,1,8,0:0:0:0:
155,86,150670,1,8,3:0:0:0:
368,165,150834,6,0,L|474:162,2,71.9999991703034,0|0|0,1:0|0:0|0:0,0:0:0:0:
144,219,151325,2,0,L|38:222,2,71.9999991703034,0|2|0,0:0|0:3|0:0,0:0:0:0:
283,304,151817,6,0,L|285:375,2,71.9999991703034,0|2|0,0:0|0:3|3:0,0:0:0:0:
229,80,152309,2,0,L|226:8,2,71.9999991703034,2|0|0,0:3|1:0|0:0,0:0:0:0:
283,304,152801,5,2,0:3:0:0:
368,165,152965,1,4,0:0:0:0:
229,80,153129,1,8,0:0:0:0:
144,219,153293,1,2,0:0:0:0:
373,236,153457,6,0,L|368:165,1,71.9999991703034,0|0,1:0|0:0,0:0:0:0:
362,93,153785,1,0,0:0:0:0:
138,147,153948,2,0,L|144:219,1,71.9999991703034,0|2,0:0|0:3,0:0:0:0:
149,290,154276,1,0,0:0:0:0:
246,66,154440,6,0,L|156:63,2,71.9999991703034,0|0|0,0:0|0:0|3:0,0:0:0:0:
368,115,154932,1,0,1:0:0:0:
256,164,155096,1,0,1:0:0:0:
257,48,155260,1,2,0:0:0:0:
309,212,155424,6,0,P|247:236|193:198,1,107.999998755455,2|0,0:3|0:0,0:0:0:0:
256,164,155752,1,4,1:0:0:0:
419,173,155916,1,2,0:0:0:0:
317,363,156080,6,0,L|315:291,2,71.9999991703034,0|0|0,1:0|0:0|0:0,0:0:0:0:
419,173,156571,2,0,L|420:244,2,71.9999991703034,0|2|0,3:3|0:3|0:0,0:0:0:0:
337,98,157063,1,2,0:0:0:0:
411,16,157227,1,2,0:3:0:0:
301,13,157391,6,0,L|222:11,1,71.9999991703034,0|2,3:0|0:3,0:0:0:0:
446,121,157719,1,0,1:0:0:0:
337,98,157883,1,0,0:0:0:0:
446,121,158047,2,0,L|444:200,1,71.9999991703034,2|0,0:3|0:0,0:0:0:0:
329,264,158375,2,0,L|331:185,1,71.9999991703034,4|0,0:0|0:0,0:0:0:0:
404,328,158703,5,0,1:0:0:0:
404,328,158866,2,0,L|269:348,1,107.999998755455,4|0,0:0|0:0,0:0:0:0:
297,343,159194,1,0,0:0:0:0:
290,143,159358,2,0,P|326:130|374:142,1,71.9999991703034,2|2,0:3|0:0,0:0:0:0:
211,221,159686,2,0,P|175:234|127:222,1,71.9999991703034,0|2,0:0|0:0,0:0:0:0:
333,202,160014,6,0,L|342:303,1,71.9999991703034,0|2,3:0|0:0,0:0:0:0:
189,116,160342,2,0,L|180:15,1,71.9999991703034,0|0,1:0|0:0,0:0:0:0:
239,231,160670,1,2,0:3:0:0:
91,177,160834,1,4,0:1:0:0:
245,213,160998,1,8,0:0:0:0:
137,316,161162,1,8,3:0:0:0:
91,177,161325,6,0,L|94:88,2,71.9999991703034,0|0|0,1:0|0:0|0:0,0:0:0:0:
253,193,161817,2,0,L|250:282,2,71.9999991703034,0|2|0,0:0|0:3|0:0,0:0:0:0:
145,305,162309,1,0,0:0:0:0:
300,318,162473,5,2,0:3:0:0:
112,186,162637,1,0,3:0:0:0:
267,199,162801,1,2,0:3:0:0:
167,322,162965,1,0,1:0:0:0:
195,134,163129,1,2,0:0:0:0:
300,318,163293,6,0,L|383:320,1,71.9999991703034,2|4,0:3|0:0,0:0:0:0:
278,182,163621,2,0,L|361:184,1,71.9999991703034,8|0,0:0|0:0,0:0:0:0:
195,134,163948,6,0,L|200:36,2,71.9999991703034,0|0|0,1:0|0:0|0:0,0:0:0:0:
263,270,164440,2,0,L|268:172,2,71.9999991703034,0|2|0,0:0|0:3|0:0,0:0:0:0:
122,192,164932,2,0,P|72:186|43:200,1,71.9999991703034
174,270,165260,5,0,3:0:0:0:
205,67,165424,1,0,1:0:0:0:
352,224,165588,1,0,1:0:0:0:
366,91,165752,1,2,0:0:0:0:
266,198,165916,2,0,L|263:270,1,71.9999991703034,2|0,0:3|0:0,0:0:0:0:
437,249,166244,2,0,L|440:177,1,71.9999991703034,4|2,1:0|0:0,0:0:0:0:
336,335,166571,6,0,L|421:340,1,71.9999991703034,0|0,1:0|0:0,0:0:0:0:
352,224,166899,1,0,0:0:0:0:
184,214,167063,2,0,L|99:209,1,71.9999991703034,0|2,3:0|0:3,0:0:0:0:
168,325,167391,1,0,0:0:0:0:
200,205,167555,1,2,0:0:0:0:
165,87,167719,1,2,0:3:0:0:
213,195,167883,6,0,L|288:198,1,71.9999991703034,0|2,3:0|0:3,0:0:0:0:
168,15,168211,2,0,L|165:87,1,71.9999991703034,0|0,1:0|0:0,0:0:0:0:
372,17,168539,1,2,0:3:0:0:
280,108,168703,1,0,0:0:0:0:
371,200,168866,1,4,0:0:0:0:
463,108,169030,1,0,0:0:0:0:
372,105,169194,5,0,1:0:0:0:
353,132,169357,1,8,0:1:0:0:
347,164,169521,1,8,0:1:0:0:
354,196,169685,1,8,0:1:0:0:
486,255,169850,5,2,0:0:0:0:
451,223,170014,1,0,0:0:0:0:
373,373,170178,5,2,0:0:0:0:
391,311,170341,1,0,0:0:0:0:
355,248,170505,1,8,0:1:0:0:
269,205,170670,1,2,0:0:0:0:
144,230,170834,1,8,1:0:0:0:
80,347,170998,1,8,0:1:0:0:
80,347,171162,6,0,P|123:367|166:355,1,71.9999991703034,8|0,0:0|0:0,0:0:0:0:
290,311,171489,2,0,P|310:268|298:225,1,71.9999991703034,4|0,0:0|0:0,0:0:0:0:
199,111,171817,6,0,L|206:183,1,71.9999991703034,2|8,0:0|0:1,0:0:0:0:
205,182,172145,1,8,0:1:0:0:
352,54,172309,2,0,L|344:131,1,76.7999961853028,2|8,0:0|0:1,0:0:0:0:
345,131,172637,1,8,0:1:0:0:
170,14,172801,2,0,L|179:96,1,81.5999975032807,2|8,0:0|0:1,0:0:0:0:
442,12,173129,5,8,0:1:0:0:
404,123,173293,1,2,0:0:0:0:
444,236,173457,1,8,1:1:0:0:
337,98,173621,1,8,0:1:0:0:
500,155,173785,6,0,P|521:185|524:222,1,71.9999991703034,8|0,0:0|0:0,0:0:0:0:
443,334,174112,2,0,P|413:355|376:358,1,71.9999991703034,4|0,0:0|0:0,0:0:0:0:
296,192,174440,5,2,0:0:0:0:
298,174,174604,1,8,0:1:0:0:
301,156,174767,1,8,0:1:0:0:
296,192,174932,5,2,0:0:0:0:
289,112,175096,1,8,0:1:0:0:
282,32,175260,1,8,0:1:0:0:
296,192,175424,5,2,0:0:0:0:
73,128,175588,1,8,0:1:0:0:
168,280,175752,5,8,0:1:0:0:
168,280,175916,1,2,0:0:0:0:
326,229,176080,1,8,1:1:0:0:
417,358,176244,1,8,0:1:0:0:
476,191,176407,1,2,0:0:0:0:
346,344,176571,5,8,0:1:0:0:
328,344,176735,1,8,0:1:0:0:
310,338,176898,1,8,0:1:0:0:
246,166,177063,5,2,0:0:0:0:
264,164,177227,1,8,0:1:0:0:
254,150,177391,1,8,0:1:0:0:
246,166,177555,1,2,0:0:0:0:
92,93,177719,5,8,1:1:0:0:
274,69,177883,1,8,0:1:0:0:
209,244,178047,1,8,0:1:0:0:
103,80,178211,1,8,0:1:0:0:
274,182,178375,5,2,0:0:0:0:
276,164,178539,1,8,0:1:0:0:
290,174,178703,1,8,0:1:0:0:
274,182,178867,1,2,0:0:0:0:
231,67,179030,5,0,1:0:0:0:
417,117,179194,1,8,0:1:0:0:
290,246,179358,1,8,0:1:0:0:
239,48,179522,1,8,0:1:0:0:
449,209,179686,5,2,0:0:0:0:
448,216,179850,1,0,0:0:0:0:
447,223,180014,1,0,0:0:0:0:
446,230,180178,1,0,0:0:0:0:
377,257,180342,1,2,0:0:0:0:
378,264,180506,1,0,0:0:0:0:
447,291,180670,1,2,0:0:0:0:
446,298,180834,1,0,0:0:0:0:
445,305,180998,5,0,0:0:0:0:
378,264,181162,1,2,0:0:0:0:
446,230,181325,1,0,1:0:0:0:
256,221,181489,1,0,0:0:0:0:
302,286,181653,6,0,B|304:328|293:357|293:357,1,71.9999991703034,8|0,0:0|0:0,0:0:0:0:
256,221,181981,2,0,B|245:192|247:150,1,71.9999991703034,4|0,0:0|0:0,0:0:0:0:
88,93,182309,6,0,P|95:113|98:167,1,67.1999946113589,2|0,0:0|0:0,0:0:0:0:
250,154,182637,1,0,0:0:0:0:
250,154,182801,2,0,P|240:173|212:204,1,62.3999940441135,2|0,0:0|0:0,0:0:0:0:
303,299,183129,1,0,0:0:0:0:
303,299,183293,2,0,P|276:307|247:308,1,57.5999953811647,2|0,0:0|0:0,0:0:0:0:
188,200,183621,5,0,0:0:0:0:
196,127,183785,1,2,0:0:0:0:
167,59,183948,1,0,1:0:0:0:
326,105,184112,1,0,0:0:0:0:
268,154,184276,6,0,P|259:193|259:228,1,71.9999991703034,8|0,0:0|0:0,0:0:0:0:
333,330,184604,2,0,P|332:294|323:259,1,71.9999991703034,4|0,0:0|0:0,0:0:0:0:
196,127,184932,5,2,0:0:0:0:
190,90,185096,1,0,0:0:0:0:
196,127,185260,1,0,0:0:0:0:
115,137,185424,1,2,0:0:0:0:
112,155,185588,1,0,0:0:0:0:
115,137,185752,1,0,0:0:0:0:
34,127,185916,1,2,0:0:0:0:
33,119,186080,1,0,0:0:0:0:
192,127,186244,5,0,0:0:0:0:
223,105,186407,1,0,0:0:0:0:
268,103,186571,1,0,1:0:0:0:
317,116,186735,1,0,0:0:0:0:
359,83,186899,1,2,0:0:0:0:
421,122,187063,6,0,P|452:121|481:108,2,62.3999940441135
359,82,187555,6,0,P|359:55|352:27,1,57.5999953811647,2|0,0:0|0:0,0:0:0:0:
502,182,187883,1,0,0:0:0:0:
502,182,188047,2,0,P|502:211|495:237,1,57.5999953811647,2|0,0:0|1:0,0:0:0:0:
420,349,188375,1,0,0:0:0:0:
420,348,188539,2,0,P|419:320|413:297,1,52.7999989887238
318,165,188866,6,0,L|245:156,3,67.1999946113589,2|0|0|2,0:0|0:0|0:0|0:0,0:0:0:0:
380,123,189522,6,0,P|393:156|388:191,1,71.9999991703034,0|0,1:0|0:0,0:0:0:0:
210,28,189850,2,0,P|194:64|198:106,1,81.5999975032807,8|0,0:0|0:0,0:0:0:0:
