osu file format v14

[General]
AudioFilename: audio.mp3
AudioLeadIn: 0
PreviewTime:98519
Countdown: 0
SampleSet: Soft
StackLeniency: 0.5
Mode: 0
LetterboxInBreaks: 1
WidescreenStoryboard: 1

[Editor]
Bookmarks: 126447,140161,167590,181304,195019,208733,222447,236161,249876
DistanceSpacing: 1.1
BeatDivisor: 4
GridSize: 4
TimelineZoom: 2.3

[Metadata]
Title:ruriair
TitleUnicode:ruriair
Artist:grasun cat
ArtistUnicode:グラサンねこ
Creator:Dada
Version:neko ds' Hard
Source:うみねこのなく頃に散
Tags:gurasan Kitaouji Mizuki Beatrice Ryukishi07 07th Expansion when the seagulls cry Umineko no Naku Koro ni Chiru chapter 6 neko ds 北大路 瑞希 they sing vol.3 Video Game Instrumental electronic impromptu
BeatmapID:2277608
BeatmapSetID:1074503

[Difficulty]
HPDrainRate:5
CircleSize:4
OverallDifficulty:7
ApproachRate:8
SliderMultiplier:1.4
SliderTickRate:1

[Events]
//Background and Video events
0,0,"beeeeeeeeeeeeeeeeeeeeeeeeeeeatrice.jpg",0,0
//Break Periods
2,3219,5547
2,6647,8976
2,10076,12404
2,13504,15833
2,30647,36340
2,37932,42126
2,140361,153126
//Storyboard Layer 0 (Background)
//Storyboard Layer 1 (Fail)
//Storyboard Layer 2 (Pass)
//Storyboard Layer 3 (Foreground)
//Storyboard Layer 4 (Overlay)
//Storyboard Sound Samples

[TimingPoints]
448,428.571428571429,4,2,3,65,1,0
662,-100,4,2,3,65,0,0
876,-100,4,2,3,65,0,0
1090,-100,4,2,3,65,0,0
1305,-100,4,2,3,65,0,0
1519,-100,4,2,3,65,0,0
1733,-100,4,2,3,65,0,0
1948,-100,4,2,3,65,0,0
2162,-100,4,2,3,65,0,0
2376,-100,4,2,3,65,0,0
2590,-100,4,2,3,65,0,0
2805,-100,4,2,3,65,0,0
2912,-100,4,2,3,5,0,0
3019,428.571428571429,4,2,3,65,1,0
6447,-100,4,2,3,65,0,0
16733,-100,4,2,3,50,0,0
28733,-100,4,2,3,75,0,0
30447,-100,4,2,3,75,0,0
37090,-100,4,2,3,60,0,0
37519,-100,4,2,3,65,0,0
42876,-100,4,2,3,75,0,0
44161,-100,4,2,3,60,0,0
57876,-100,4,2,3,65,0,0
83590,-100,4,2,3,75,0,0
85304,-142.857142857143,4,2,3,65,0,0
87019,-142.857142857143,4,2,3,55,0,0
97304,-142.857142857143,4,2,3,65,0,0
98590,-142.857142857143,4,2,3,70,0,0
99019,-86.9565217391304,4,2,3,75,0,1
126447,-90.9090909090909,4,2,3,65,0,0
133304,-100,4,2,3,65,0,0
138447,-100,4,2,3,70,0,0
138876,-100,4,2,3,75,0,0
139304,-100,4,2,3,80,0,0
139733,-100,4,2,3,80,0,0
153876,-125,4,2,3,60,0,0
167376,-125,4,2,3,70,0,0
167590,-100,4,2,3,70,0,0
168019,-100,4,2,3,65,0,0
193304,-100,4,2,3,70,0,0
193733,-100,4,2,3,75,0,0
194161,-100,4,2,3,80,0,0
194590,-100,4,2,3,80,0,0
195019,-86.9565217391304,4,2,3,75,0,1
236161,-80,4,2,3,75,0,1
249876,-80,4,2,3,75,0,0

[Colours]
Combo1 : 255,0,0
Combo2 : 191,191,0
Combo3 : 138,73,43
Combo4 : 247,240,157

[HitObjects]
256,192,448,12,4,3019,0:0:0:0:
364,306,6447,5,0,0:0:0:0:
364,78,9876,5,0,0:0:0:0:
148,78,13304,5,0,0:0:0:0:
148,308,16733,5,0,3:0:0:0:
220,280,16947,1,0,0:0:0:0:
296,297,17161,2,0,P|330:269|346:225,1,70,4|0,3:0|0:0,0:0:0:0:
410,211,17590,1,0,3:0:0:0:
410,211,17697,1,0,0:0:0:0:
410,211,17804,1,0,0:0:0:0:
473,255,18019,2,0,L|458:331,1,70,4|0,3:0|0:0,0:0:0:0:
388,352,18447,5,0,3:0:0:0:
333,297,18661,1,0,0:0:0:0:
276,349,18876,2,0,P|225:341|165:349,1,105,4|0,3:0|0:0,0:0:0:0:
133,350,19304,1,0,3:0:0:0:
127,323,19412,1,0,0:0:0:0:
122,296,19519,1,0,0:0:0:0:
48,318,19733,2,0,P|19:258|19:240,1,70,4|0,3:0|0:0,0:0:0:0:
92,186,20161,6,0,L|169:178,1,70,0|0,3:0|0:0,0:0:0:0:
181,104,20590,2,0,L|107:89,1,70,4|0,3:0|0:0,0:0:0:0:
35,99,21019,1,0,3:0:0:0:
23,22,21233,1,0,0:0:0:0:
99,10,21447,1,4,3:0:0:0:
99,10,21876,5,0,3:0:0:0:
172,31,22090,1,0,0:0:0:0:
246,49,22304,1,4,3:0:0:0:
281,117,22519,1,0,0:0:0:0:
352,85,22733,1,0,3:0:0:0:
352,85,22947,2,0,P|356:40|370:1,2,70,0|4|0,3:0|3:0|0:0,0:0:0:0:
456,114,23590,6,0,L|471:195,1,70,0|0,3:0|0:0,0:0:0:0:
400,218,24019,2,0,L|387:293,1,70,4|0,3:0|0:0,0:0:0:0:
460,312,24447,1,0,3:0:0:0:
400,360,24661,1,0,0:0:0:0:
328,332,24876,1,4,3:0:0:0:
328,332,25304,5,0,3:0:0:0:
251,343,25519,1,0,0:0:0:0:
174,348,25733,1,4,3:0:0:0:
207,278,25947,1,0,0:0:0:0:
288,260,26161,1,0,3:0:0:0:
288,260,26269,1,0,0:0:0:0:
288,260,26376,1,0,0:0:0:0:
252,192,26590,2,0,L|182:202,1,70,4|0,3:0|0:0,0:0:0:0:
107,240,27019,6,0,P|96:202|95:166,1,70,0|0,3:0|0:0,0:0:0:0:
146,114,27447,2,0,P|155:69|150:0,1,105,4|0,3:0|0:0,0:0:0:0:
125,14,27876,1,0,3:0:0:0:
98,19,27983,1,0,0:0:0:0:
71,23,28090,1,0,0:0:0:0:
40,93,28304,1,4,3:0:0:0:
229,59,28733,5,2,1:1:0:0:
229,59,28947,2,0,B|221:89|221:89|268:132,1,70,0|2,0:0|1:1,0:0:0:0:
326,111,29376,1,0,0:0:0:0:
398,137,29590,2,0,B|426:163|426:163|418:193,1,70,2|0,1:1|0:0,0:0:0:0:
347,224,30019,1,0,1:0:0:0:
319,220,30126,1,0,1:0:0:0:
300,241,30233,1,2,0:0:0:0:
272,235,30340,1,2,0:0:0:0:
247,248,30447,1,0,1:0:0:0:
259,158,37090,6,0,L|256:221,1,35,4|0,0:0|0:0,0:0:0:0:
220,205,37304,2,0,B|186:193|186:193|163:240|86:262,1,140,4|4,0:1|3:0,0:0:0:0:
457,240,42876,5,0,1:0:0:0:
457,240,42983,2,0,L|398:248,3,35,0|2|0|0,0:0|1:2|0:0|1:0,0:0:0:0:
365,296,43519,6,0,L|310:292,1,35,2|0,1:2|0:0,0:0:0:0:
307,262,43733,2,0,L|262:270,1,35,0|0,1:0|0:0,0:0:0:0:
242,293,43947,2,0,B|203:301,2,23.3333333333333,2|2|2,1:2|1:2|1:2,0:0:0:0:
235,267,44161,6,0,L|244:187,1,70,2|0,0:0|0:0,0:0:0:0:
177,173,44590,1,2,2:0:0:0:
177,173,44804,2,0,B|192:123|192:123|167:61,1,105,2|0,0:0|0:0,0:0:0:0:
101,173,45447,1,2,2:0:0:0:
101,173,45661,2,0,L|87:297,1,105
22,182,46304,1,0,0:0:0:0:
101,173,46519,2,0,B|143:172|143:172|191:198,1,70,0|0,3:0|0:0,0:0:0:0:
233,145,46947,1,0,1:0:0:0:
296,187,47161,2,0,P|277:218|263:264,1,70
207,299,47590,5,0,1:0:0:0:
207,299,47697,2,0,L|230:384,1,70,2|0,0:0|0:0,0:0:0:0:
262,376,48019,2,0,P|294:332|312:319,1,70,2|2,0:0|0:0,0:0:0:0:
386,334,48447,1,0,0:0:0:0:
386,334,48554,2,0,P|379:284|370:245,1,70
409,246,48876,2,0,P|434:269|453:299,1,70,2|0,0:0|0:0,0:0:0:0:
505,242,49304,2,0,L|496:81,1,140,0|0,1:0|0:0,0:0:0:0:
494,25,49947,1,0,0:0:0:0:
418,40,50161,1,0,0:0:0:0:
416,116,50376,1,0,1:0:0:0:
491,102,50590,1,0,0:0:0:0:
420,72,50804,2,0,L|360:90,1,35,4|0,0:0|0:0,0:0:0:0:
348,87,51019,6,0,P|308:90|249:74,1,70,4|0,1:0|0:0,0:0:0:0:
209,51,51447,1,2,0:0:0:0:
209,51,51661,2,0,L|186:179,1,105,2|0,0:0|0:0,0:0:0:0:
231,267,52304,1,2,0:0:0:0:
231,267,52519,2,0,P|170:252|113:261,1,105
177,360,53161,1,0,0:0:0:0:
251,338,53376,2,0,B|284:329|284:329|335:343,1,70
390,312,53804,1,0,1:0:0:0:
331,261,54019,2,0,P|322:208|328:182,1,70
401,183,54447,5,0,1:0:0:0:
401,183,54554,2,0,P|434:181|470:174,1,70,2|0,0:0|0:0,0:0:0:0:
496,202,54876,2,0,L|486:279,1,70,2|2,0:0|0:0,0:0:0:0:
413,269,55304,1,0,0:0:0:0:
413,269,55411,2,0,P|378:271|343:278,1,70
318,250,55733,2,0,L|327:180,1,70,2|0,0:0|0:0,0:0:0:0:
250,178,56161,6,0,L|95:205,1,140,0|0,1:0|0:0,0:0:0:0:
36,187,56804,1,0,0:0:0:0:
28,110,57019,1,0,0:0:0:0:
102,130,57233,1,0,1:0:0:0:
169,92,57447,1,0,1:0:0:0:
245,103,57661,2,0,L|310:98,1,35,4|0,0:0|0:0,0:0:0:0:
363,112,57876,6,0,L|351:194,1,70,4|2,1:0|0:0,0:0:0:0:
407,235,58304,2,0,P|431:212|470:199,1,70
470,316,58733,2,0,B|416:306|416:306|343:337,2,105,0|2|2,1:0|0:0|0:0,0:0:0:0:
500,249,59590,5,0,0:0:0:0:
500,249,59697,1,0,0:0:0:0:
500,249,59804,2,0,L|494:176,1,70,2|0,0:0|0:0,0:0:0:0:
466,152,60126,2,0,B|448:142|448:142|378:158,1,70,2|0,0:0|0:0,0:0:0:0:
378,120,60447,2,0,L|403:240,2,105,0|0|2,1:0|0:0|0:0,0:0:0:0:
308,86,61304,5,0,0:0:0:0:
308,86,61411,1,0,0:0:0:0:
308,86,61519,2,0,L|238:141,1,70,2|0,0:0|0:0,0:0:0:0:
214,135,61840,2,0,L|238:229,1,70,2|0,0:0|0:0,0:0:0:0:
227,241,62161,2,0,P|176:243|116:286,2,105,0|0|2,1:0|0:0|0:0,0:0:0:0:
296,205,63019,1,0,1:0:0:0:
292,281,63233,6,0,L|291:359,2,70,2|0|0,0:0|0:0|0:0,0:0:0:0:
296,205,63876,2,0,P|306:173|315:121,1,70,0|2,1:0|0:0,0:0:0:0:
344,114,64197,1,0,0:0:0:0:
344,114,64304,2,0,P|367:139|394:160,1,70,0|2,1:0|0:0,0:0:0:0:
289,48,64947,6,0,B|263:67|263:67|208:69,1,70,2|0,0:0|0:0,0:0:0:0:
200,98,65269,2,0,B|162:99|162:99|136:118,1,70,2|0,0:0|0:0,0:0:0:0:
97,117,65590,2,0,B|63:58|63:58|22:38,2,105,0|2|2,1:0|0:0|0:0,0:0:0:0:
34,162,66447,5,0,0:0:0:0:
39,178,66554,1,0,0:0:0:0:
43,195,66661,2,0,L|35:275,1,70,2|0,0:0|0:0,0:0:0:0:
69,283,66983,2,0,B|107:271|107:271|160:296,1,70,2|0,0:0|0:0,0:0:0:0:
164,260,67304,2,0,L|145:150,2,105,0|2|2,1:0|0:0|0:0,0:0:0:0:
192,330,68161,5,0,1:0:0:0:
258,290,68376,2,0,B|282:316|282:316|335:320,1,70,2|0,0:0|0:0,0:0:0:0:
347,295,68697,2,0,L|336:218,1,70,2|0,0:0|0:0,0:0:0:0:
366,200,69019,2,0,B|400:202|400:202|415:232|458:253,2,105,0|2|2,1:0|0:0|0:0,0:0:0:0:
300,159,69876,5,0,1:0:0:0:
300,159,69983,1,0,0:0:0:0:
300,159,70090,2,0,L|234:204,1,70,2|0,0:0|0:0,0:0:0:0:
207,215,70411,2,0,P|197:182|205:129,1,70,2|0,0:0|0:0,0:0:0:0:
199,108,70733,2,0,P|209:74|207:39,1,70,0|0,1:0|0:0,0:0:0:0:
168,44,71054,1,2,0:0:0:0:
97,11,71269,1,0,0:0:0:0:
62,27,71376,2,0,P|66:52|64:78,1,35,4|0,0:0|0:0,0:0:0:0:
33,82,71590,6,0,P|29:119|14:157,1,70,4|2,1:0|0:0,0:0:0:0:
54,217,72019,1,0,0:0:0:0:
100,155,72233,1,0,0:0:0:0:
137,223,72447,2,0,P|148:255|152:290,1,70,0|0,1:0|0:0,0:0:0:0:
187,307,72769,2,0,P|213:284|245:269,1,70,2|0,0:0|0:0,0:0:0:0:
277,290,73090,1,2,0:0:0:0:
269,138,73519,6,0,P|270:92|260:54,1,70,2|0,0:0|0:0,0:0:0:0:
288,38,73840,2,0,P|322:32|357:34,1,70,2|0,0:0|0:0,0:0:0:0:
378,65,74161,2,0,B|366:97|366:97|400:117|420:174,2,105,0|2|2,1:0|0:0|0:0,0:0:0:0:
447,31,75019,6,0,L|503:21,1,35,0|0,1:0|0:0,0:0:0:0:
499,58,75233,2,0,P|505:123|512:153,1,70,2|0,0:0|0:0,0:0:0:0:
490,170,75554,2,0,P|484:209|478:245,1,70,2|0,0:0|0:0,0:0:0:0:
442,253,75876,1,0,1:0:0:0:
328,274,76197,2,0,P|318:232|329:160,1,105,0|2,0:0|0:0,0:0:0:0:
247,176,76733,6,0,L|186:191,2,35,0|0|2,1:0|0:0|0:0,0:0:0:0:
282,107,77161,1,0,1:0:0:0:
282,107,77376,1,0,0:0:0:0:
222,58,77590,2,0,P|187:61|143:82,1,70,0|0,1:0|0:0,0:0:0:0:
134,106,77911,2,0,B|100:120|100:120|55:115,1,70,2|0,0:0|0:0,0:0:0:0:
30,128,78233,2,0,L|20:209,1,70,2|0,0:0|0:0,0:0:0:0:
90,231,78661,6,0,L|177:213,1,70,2|0,0:0|0:0,0:0:0:0:
194,231,78983,1,2,0:0:0:0:
86,273,79304,2,0,P|77:311|60:381,2,105,0|2|2,1:0|0:0|0:0,0:0:0:0:
165,308,80161,1,0,1:0:0:0:
165,308,80269,1,0,0:0:0:0:
165,308,80376,6,0,L|233:322,1,70,2|0,0:0|0:0,0:0:0:0:
267,304,80697,1,2,0:0:0:0:
264,200,81019,2,0,B|280:147|280:147|331:114,2,105,0|2|2,1:0|0:0|0:0,0:0:0:0:
348,203,81876,1,0,1:0:0:0:
348,203,81983,1,0,0:0:0:0:
348,203,82090,6,0,P|384:216|425:238,1,70,2|0,0:0|0:0,0:0:0:0:
450,231,82411,2,0,L|451:147,1,70,2|0,0:0|0:0,0:0:0:0:
483,140,82733,1,0,1:0:0:0:
378,91,83054,2,0,P|413:47|459:34,1,105,2|2,0:0|0:0,0:0:0:0:
460,111,83590,5,0,3:0:0:0:
460,111,83697,2,0,P|476:145|481:193,1,70,0|0,1:0|1:0,0:0:0:0:
461,210,84019,1,0,3:0:0:0:
385,219,84233,5,0,1:0:0:0:
347,212,84340,1,0,3:0:0:0:
311,226,84447,2,0,L|294:145,1,70,0|0,1:0|3:0,0:0:0:0:
220,147,84876,2,0,P|199:154|178:177,2,35,0|0|4,1:0|1:0|1:2,0:0:0:0:
242,228,85304,5,4,1:0:0:0:
242,228,87019,5,0,0:0:0:0:
174,265,87233,1,0,0:0:0:0:
105,225,87447,1,2,0:0:0:0:
242,228,88733,5,0,0:0:0:0:
310,191,88947,1,0,0:0:0:0:
379,230,89161,1,2,0:0:0:0:
242,228,90447,5,0,0:0:0:0:
279,296,90661,1,0,0:0:0:0:
241,363,90876,1,2,0:0:0:0:
242,228,92161,5,0,0:0:0:0:
205,160,92376,1,0,0:0:0:0:
242,93,92590,1,2,0:0:0:0:
242,228,93876,5,0,0:0:0:0:
242,228,94090,1,0,0:0:0:0:
242,228,94304,2,0,L|233:278,1,48.9999985046387,2|0,0:0|0:0,0:0:0:0:
161,300,94733,2,0,L|179:353,1,48.9999985046387
285,352,95161,2,0,L|300:305,1,48.9999985046387
242,228,95590,5,0,0:0:0:0:
242,228,95804,1,0,0:0:0:0:
242,228,96019,1,2,0:0:0:0:
385,259,96447,5,2,0:0:0:0:
392,336,96661,1,0,0:0:0:0:
398,258,96876,1,2,0:0:0:0:
446,197,97090,1,0,0:0:0:0:
374,167,97304,5,0,1:0:0:0:
318,228,97519,1,0,3:0:0:0:
289,128,97733,1,0,1:0:0:0:
221,205,97947,1,0,3:0:0:0:
199,103,98161,1,0,1:0:0:0:
96,122,98376,1,0,3:0:0:0:
116,225,98590,1,0,1:0:0:0:
116,225,98697,1,0,1:0:0:0:
116,225,98804,1,4,1:2:0:0:
47,293,99019,6,0,L|35:359,2,40.2500007677078,4|0|0,1:0|0:0|0:0,0:0:0:0:
30,256,99340,1,0,0:0:0:0:
6,223,99447,2,0,P|3:176|15:135,1,80.5000015354157,0|0,1:0|0:0,0:0:0:0:
84,177,99876,6,0,B|124:192|124:192|170:160,1,80.5000015354157,0|0,1:0|0:0,0:0:0:0:
116,102,100304,2,0,B|106:70|106:70|118:15,1,80.5000015354157,2|0,1:0|0:0,0:0:0:0:
155,14,100626,1,0,0:0:0:0:
192,17,100733,6,0,B|213:41|237:55|237:55|243:75,1,80.5000015354157,2|0,1:0|0:0,0:0:0:0:
323,77,101161,2,0,B|329:56|329:56|356:43|374:18,1,80.5000015354157,0|0,1:0|0:0,0:0:0:0:
243,75,101590,2,0,P|248:117|255:175,1,80.5000015354157,0|0,1:0|0:0,0:0:0:0:
382,213,102019,2,0,P|377:171|372:133,1,80.5000015354157,2|0,1:0|0:0,0:0:0:0:
308,215,102447,5,2,1:0:0:0:
308,215,102554,1,2,0:0:0:0:
308,215,102661,2,0,P|290:258|284:300,1,80.5000015354157,0|0,0:0|1:2,0:0:0:0:
347,341,103090,1,0,0:0:0:0:
387,271,103304,2,0,L|377:195,4,40.2500007677078,0|0|0|0|2,1:2|0:0|0:0|0:0|1:0,0:0:0:0:
347,341,103947,1,8,0:0:0:0:
427,340,104161,6,0,P|460:293|456:241,1,80.5000015354157,2|8,1:0|0:0,0:0:0:0:
446,192,104590,2,0,P|435:153|433:112,1,80.5000015354157,0|8,1:0|0:0,0:0:0:0:
479,47,105019,1,2,1:0:0:0:
512,120,105233,1,8,0:0:0:0:
355,107,105447,1,2,1:0:0:0:
388,34,105661,1,4,0:0:0:0:
432,113,105876,6,0,L|420:184,2,40.2500007677078,6|0|0,1:0|0:0|0:0,0:0:0:0:
393,101,106197,1,0,0:0:0:0:
359,64,106304,2,0,L|247:74,1,80.5000015354157,0|0,1:0|0:0,0:0:0:0:
198,76,106733,2,0,P|203:99|202:182,1,80.5000015354157,0|0,1:0|0:0,0:0:0:0:
127,172,107161,2,0,B|91:169|91:169|25:185,1,80.5000015354157,2|0,1:0|0:0,0:0:0:0:
46,219,107483,5,0,0:0:0:0:
64,255,107590,2,0,P|69:300|74:343,1,80.5000015354157,2|0,1:0|0:0,0:0:0:0:
152,350,108019,2,0,B|163:309|163:309|142:270,1,80.5000015354157,0|0,1:0|0:0,0:0:0:0:
281,236,108447,2,0,B|262:275|262:275|275:333,1,80.5000015354157,0|0,1:0|0:0,0:0:0:0:
195,195,108876,2,0,B|206:156|206:156|186:116,1,80.5000015354157,2|0,1:0|0:0,0:0:0:0:
294,137,109304,5,2,1:0:0:0:
294,137,109411,1,2,0:0:0:0:
294,137,109519,2,0,P|338:148|375:166,1,80.5000015354157,0|0,0:0|1:0,0:0:0:0:
441,126,109947,1,0,0:0:0:0:
389,64,110161,2,0,L|331:77,4,40.2500007677078,0|0|0|0|2,1:0|0:0|0:0|0:0|1:0,0:0:0:0:
335,3,110804,1,8,0:0:0:0:
265,44,111019,6,0,P|227:60|177:52,1,80.5000015354157,2|8,1:0|0:0,0:0:0:0:
118,17,111447,2,0,B|72:20|40:58,1,80.5000015354157,0|8,1:0|0:0,0:0:0:0:
0,116,111876,1,2,1:0:0:0:
9,195,112090,1,8,0:0:0:0:
156,145,112304,1,2,1:0:0:0:
123,71,112519,1,4,0:0:0:0:
202,82,112733,6,0,P|241:118|231:168,1,80.5000015354157,6|0,1:0|0:0,0:0:0:0:
201,211,113161,1,0,1:0:0:0:
281,215,113376,1,0,0:0:0:0:
408,250,113590,5,0,1:0:0:0:
408,250,113697,1,0,0:0:0:0:
408,250,113804,2,0,L|415:201,1,40.2500007677078
382,185,114018,2,0,P|369:149|361:100,1,80.5000015354157,2|0,1:0|0:0,0:0:0:0:
274,87,114447,5,2,1:0:0:0:
274,87,114554,1,0,0:0:0:0:
273,87,114661,2,0,L|213:102,1,40.2500007677078
203,69,114876,2,0,P|177:104|140:142,1,80.5000015354157,0|0,1:0|0:0,0:0:0:0:
139,210,115304,1,0,1:0:0:0:
78,156,115519,1,0,0:0:0:0:
96,77,115733,2,0,P|59:85|5:93,1,80.5000015354157,2|0,1:0|0:0,0:0:0:0:
4,170,116161,6,0,L|17:232,4,40.2500007677078,2|2|0|0|0,1:0|0:0|0:0|0:0|1:0,0:0:0:0:
84,161,116804,1,0,0:0:0:0:
139,219,117019,2,0,L|130:258,4,40.2500007677078,0|0|0|0|2,1:0|0:0|0:0|0:0|1:0,0:0:0:0:
219,222,117661,1,8,0:0:0:0:
298,237,117876,6,0,P|314:253|326:328,1,80.5000015354157,2|8,1:0|0:0,0:0:0:0:
204,372,118304,2,0,P|211:332|236:301,1,80.5000015354157,0|8,1:0|0:0,0:0:0:0:
330,307,118733,2,0,P|369:299|400:274,1,80.5000015354157,2|8,1:0|0:0,0:0:0:0:
236,301,119161,2,0,P|196:308|165:333,1,80.5000015354157,2|4,1:0|0:0,0:0:0:0:
85,340,119590,6,0,L|68:240,1,80.5000015354157,6|0,1:0|0:0,0:0:0:0:
63,180,120019,1,0,1:0:0:0:
134,217,120233,1,0,0:0:0:0:
261,178,120447,5,0,1:0:0:0:
261,178,120554,1,0,0:0:0:0:
261,178,120661,2,0,L|267:121,1,40.2500007677078
274,98,120876,2,0,B|296:111|296:111|359:91,1,80.5000015354157,2|0,1:0|0:0,0:0:0:0:
416,170,121304,5,2,1:0:0:0:
416,170,121411,1,0,0:0:0:0:
416,169,121518,2,0,L|420:209,1,40.2500007677078
429,249,121733,2,0,B|451:236|451:236|503:252,1,80.5000015354157,0|0,1:0|0:0,0:0:0:0:
479,329,122161,1,0,1:0:0:0:
402,356,122376,1,0,0:0:0:0:
323,338,122590,2,0,P|305:279|315:231,1,80.5000015354157,2|0,1:0|0:0,0:0:0:0:
232,228,123019,6,0,L|176:242,4,40.2500007677078,2|2|0|0|0,1:0|0:0|0:0|0:0|1:0,0:0:0:0:
297,181,123661,1,0,0:0:0:0:
368,218,123876,2,0,L|407:227,4,40.2500007677078,0|0|0|0|2,1:0|0:0|0:0|0:0|1:0,0:0:0:0:
370,137,124519,1,8,0:0:0:0:
294,110,124733,6,0,P|252:108|191:119,1,80.5000015354157,2|8,1:0|0:0,0:0:0:0:
94,190,125161,2,0,P|134:192|174:187,1,80.5000015354157,0|8,1:0|0:0,0:0:0:0:
213,112,125590,2,0,P|215:72|212:32,1,80.5000015354157,2|8,1:0|0:0,0:0:0:0:
174,187,126019,2,0,P|170:227|173:267,1,80.5000015354157,2|4,1:0|0:0,0:0:0:0:
238,314,126447,5,4,1:0:0:0:
318,313,126661,1,0,0:0:0:0:
387,353,126876,2,0,P|406:309|408:247,1,77.0000023498536,0|0,1:0|0:0,0:0:0:0:
350,221,127304,2,0,P|316:229|269:238,1,77.0000023498536,0|0,1:0|0:0,0:0:0:0:
255,154,127733,2,0,P|294:144|333:139,1,77.0000023498536,0|0,1:0|0:0,0:0:0:0:
409,159,128161,5,0,1:0:0:0:
429,80,128376,1,0,0:0:0:0:
480,17,128590,2,0,L|393:0,1,77.0000023498536,0|0,1:0|0:0,0:0:0:0:
330,44,129019,2,0,P|291:55|235:51,1,77.0000023498536,0|0,1:0|0:0,0:0:0:0:
176,22,129447,2,0,P|168:73|152:116,1,77.0000023498536,0|0,1:0|0:0,0:0:0:0:
82,112,129876,5,0,1:0:0:0:
82,112,129983,1,2,0:0:0:0:
82,112,130090,1,0,0:0:0:0:
12,158,130304,2,0,L|31:240,1,77.0000023498536,0|0,1:0|0:0,0:0:0:0:
109,262,130733,2,0,P|152:255|206:255,1,77.0000023498536,0|0,1:0|0:0,0:0:0:0:
224,182,131161,2,0,P|184:181|144:173,1,77.0000023498536,0|2,1:0|2:0,0:0:0:0:
91,124,131590,5,0,1:0:0:0:
91,124,131697,1,0,0:0:0:0:
91,124,131804,1,2,2:0:0:0:
15,162,132019,2,0,L|31:244,1,77.0000023498536,0|2,1:0|2:0,0:0:0:0:
111,261,132448,2,0,P|154:254|209:254,1,77.0000023498536,0|2,1:0|2:0,0:0:0:0:
247,312,132876,2,0,P|286:318|325:321,1,77.0000023498536,0|4,1:0|2:0,0:0:0:0:
389,269,133304,6,0,P|406:183|396:110,1,140,4|0,1:0|1:2,0:0:0:0:
324,97,133947,1,0,1:0:0:0:
326,180,134161,2,0,B|291:204|291:204|246:206,1,70,0|0,0:0|3:0,0:0:0:0:
185,173,134590,2,0,B|181:130|181:130|202:92,1,70,0|0,1:0|1:0,0:0:0:0:
258,51,135019,6,0,B|283:15|283:15|233:9|164:27,1,140,2|0,0:0|1:0,0:0:0:0:
187,21,135876,6,0,L|89:53,1,70,2|0,0:0|1:0,0:0:0:0:
68,108,136304,2,0,L|44:181,1,70,0|2,1:0|0:0,0:0:0:0:
86,248,136733,6,0,B|131:260|181:254|181:254|156:218,1,140,2|0,1:0|0:0,0:0:0:0:
157,219,137590,6,0,L|135:146,1,70,2|0,0:0|0:0,0:0:0:0:
52,152,138018,2,0,L|73:77,1,70,2|0,0:0|1:0,0:0:0:0:
141,44,138447,5,0,1:0:0:0:
218,64,138661,1,0,0:0:0:0:
295,86,138876,1,0,1:0:0:0:
362,42,139090,1,0,0:0:0:0:
367,122,139304,1,0,1:0:0:0:
368,138,139411,1,0,0:0:0:0:
369,154,139519,1,0,1:0:0:0:
370,170,139626,1,0,0:0:0:0:
372,185,139733,1,0,1:0:0:0:
373,201,139840,1,0,1:0:0:0:
374,217,139947,1,0,1:0:0:0:
375,232,140054,1,0,1:0:0:0:
376,247,140161,1,4,1:0:0:0:
178,112,153876,5,0,0:0:0:0:
52,144,154304,1,4,3:0:0:0:
52,144,154519,2,0,L|56:208,1,56
136,224,154947,1,0,0:0:0:0:
136,224,155162,2,0,L|132:279,2,56,4|0|2,3:0|0:0|0:0,0:0:0:0:
257,188,156019,5,4,3:0:0:0:
257,188,156233,2,0,B|285:180|285:180|301:148,1,56
240,100,156661,1,0,0:0:0:0:
176,64,156876,2,0,B|148:72|148:72|135:96,1,56,4|0,3:0|0:0,0:0:0:0:
68,132,157304,6,0,L|64:252,2,112,2|4|0,0:0|3:0|0:0,0:0:0:0:
72,56,158376,1,0,0:0:0:0:
135,96,158590,2,0,L|191:100,1,56,4|0,3:0|0:0,0:0:0:0:
252,56,159019,6,0,P|308:72|348:120,1,112,2|4,0:0|3:0,0:0:0:0:
296,226,159876,1,0,0:0:0:0:
288,302,160090,1,0,0:0:0:0:
364,310,160304,1,4,3:0:0:0:
372,234,160519,1,2,0:0:0:0:
296,226,160733,5,2,0:0:0:0:
176,192,161161,2,0,P|152:136|172:72,1,112,4|0,3:0|0:0,0:0:0:0:
236,64,161804,1,2,0:0:0:0:
176,16,162019,2,0,L|116:24,1,56,4|2,3:0|0:0,0:0:0:0:
68,80,162447,1,2,0:0:0:0:
89,202,162876,5,4,3:0:0:0:
29,250,163090,1,0,0:0:0:0:
98,285,163304,2,0,P|138:301|154:321,1,56,0|2,0:0|0:0,0:0:0:0:
188,241,163733,2,0,L|196:173,1,56,4|2,3:0|0:0,0:0:0:0:
148,124,164161,6,0,B|168:104|168:104|248:64,1,112,2|4,0:0|3:0,0:0:0:0:
312,108,164804,1,0,0:0:0:0:
312,108,165233,6,0,L|296:168,1,56,2|4,0:0|3:0,0:0:0:0:
364,208,165661,1,2,0:0:0:0:
432,164,165876,2,0,L|400:44,2,112,2|4|0,0:0|3:0|0:0,0:0:0:0:
420,240,166947,1,0,0:0:0:0:
496,252,167161,1,4,3:0:0:0:
508,176,167376,1,0,1:0:0:0:
504,152,167483,1,0,1:0:0:0:
500,128,167590,6,0,P|472:104|372:104,1,140,4|0,1:0|1:0,0:0:0:0:
328,164,168233,1,0,0:0:0:0:
364,232,168447,1,0,0:0:0:0:
408,168,168661,2,0,L|440:96,1,70,4|2,3:0|1:2,0:0:0:0:
284,84,169304,5,2,1:2:0:0:
284,84,169411,2,0,P|248:100|204:104,1,70,4|0,3:0|0:0,0:0:0:0:
180,104,169733,2,0,L|196:36,1,70,2|2,1:2|0:0,0:0:0:0:
268,12,170161,2,0,L|364:40,1,70,2|0,0:0|0:0,0:0:0:0:
360,104,170590,2,0,L|344:196,1,70,2|0,1:2|0:0,0:0:0:0:
272,188,171019,6,0,B|224:176|172:224|124:200,1,140,0|0,1:0|1:0,0:0:0:0:
64,172,171661,1,0,0:0:0:0:
72,248,171876,2,0,P|88:308|88:328,1,70,0|4,0:0|3:0,0:0:0:0:
160,348,172304,2,0,P|164:313|176:280,1,70,0|0,1:0|1:0,0:0:0:0:
196,276,172626,1,0,1:0:0:0:
218,278,172733,5,0,1:0:0:0:
238,281,172840,2,0,P|282:261|346:249,1,105,4|2,3:0|1:2,0:0:0:0:
398,297,173376,1,4,3:0:0:0:
436,228,173590,2,0,L|424:160,1,70,0|0,0:0|3:0,0:0:0:0:
500,140,174019,2,0,L|512:72,1,70,2|2,1:2|3:0,0:0:0:0:
436,80,174447,1,4,1:0:0:0:
436,80,174876,6,0,P|388:80|352:60,2,70,0|0|0,1:0|0:0|0:0,0:0:0:0:
423,159,175519,2,0,L|352:200,1,70,4|2,3:0|1:2,0:0:0:0:
212,188,176161,5,2,1:2:0:0:
212,188,176269,2,0,P|204:224|208:284,1,70,4|0,3:0|0:0,0:0:0:0:
168,272,176590,2,0,B|136:252|136:252|84:272,1,70,2|4,1:2|3:0,0:0:0:0:
36,232,177019,2,0,B|24:184|24:184|32:152,1,70,2|4,1:2|3:0,0:0:0:0:
100,136,177447,2,0,L|104:56,1,70,2|0,1:2|0:0,0:0:0:0:
36,28,177876,5,2,1:2:0:0:
36,28,178304,5,0,1:0:0:0:
103,66,178519,1,0,0:0:0:0:
168,24,178733,1,0,0:0:0:0:
244,28,178947,2,0,P|244:64|241:98,1,70,4|0,3:0|1:0,0:0:0:0:
172,132,179376,5,0,1:0:0:0:
176,153,179483,1,0,1:0:0:0:
184,177,179590,1,2,1:2:0:0:
184,177,179697,2,0,P|152:189|112:189,1,70,0|0,0:0|1:0,0:0:0:0:
79,200,180019,1,2,1:2:0:0:
52,273,180233,2,0,L|12:291,2,35,0|0|2,1:0|1:0|1:2,0:0:0:0:
102,331,180661,2,0,L|133:316,3,35,0|0|2|0,1:0|1:0|1:2|0:0,0:0:0:0:
140,277,181090,1,2,3:0:0:0:
212,302,181304,1,0,0:0:0:0:
341,328,181733,6,0,P|353:280|353:236,1,70,0|4,1:0|3:0,0:0:0:0:
226,218,182376,1,4,3:0:0:0:
300,199,182590,2,0,B|316:175|316:175|296:35,1,140,2|2,1:2|1:2,0:0:0:0:
132,56,183340,5,0,0:0:0:0:
132,56,183447,2,0,P|96:72|52:76,1,70,2|4,1:2|3:0,0:0:0:0:
48,152,183876,2,0,P|79:175|105:211,1,70,2|4,0:0|3:0,0:0:0:0:
172,184,184304,2,0,P|176:144|248:56,1,140,2|2,1:2|1:2,0:0:0:0:
340,176,185161,5,0,1:0:0:0:
268,200,185376,2,0,P|232:208|196:224,1,70,4|0,3:0|0:0,0:0:0:0:
124,220,185804,1,4,3:0:0:0:
160,288,186019,1,0,1:0:0:0:
100,336,186233,1,0,1:0:0:0:
100,336,186340,1,0,1:0:0:0:
100,336,186447,6,0,P|84:308|56:268,1,70,2|0,1:2|0:0,0:0:0:0:
28,208,186876,2,0,P|62:205|97:205,1,70,2|4,1:2|3:0,0:0:0:0:
152,148,187304,2,0,P|167:116|184:86,1,70,2|4,0:0|3:0,0:0:0:0:
136,28,187733,1,2,1:2:0:0:
60,24,187947,1,2,3:0:0:0:
12,84,188161,6,0,B|32:104|32:104|44:236,1,140,4|0,1:0|1:0,0:0:0:0:
12,288,188804,2,0,P|52:296|80:316,1,70,4|0,3:0|0:0,0:0:0:0:
140,268,189233,1,4,3:0:0:0:
192,212,189447,2,0,P|178:173|182:139,1,70,2|0,1:2|0:0,0:0:0:0:
260,140,189876,5,2,1:2:0:0:
336,152,190090,1,0,0:0:0:0:
412,164,190304,1,2,1:2:0:0:
364,224,190519,1,4,3:0:0:0:
336,152,190733,1,2,0:0:0:0:
384,92,190947,1,4,3:0:0:0:
464,108,191161,1,2,1:2:0:0:
464,108,191269,1,4,3:0:0:0:
436,37,191483,1,0,0:0:0:0:
436,37,191590,6,0,B|392:9|392:9|344:17|296:49,1,140,2|0,1:2|1:0,0:0:0:0:
232,36,192233,2,0,L|152:16,1,70,4|0,3:0|0:0,0:0:0:0:
112,76,192661,1,4,3:0:0:0:
36,96,192876,2,0,P|51:125|60:168,1,70,0|2,1:0|0:0,0:0:0:0:
40,176,193197,1,2,0:0:0:0:
16,184,193304,6,0,L|20:236,3,35,0|0|0|0,1:0|0:0|0:0|0:0,0:0:0:0:
48,244,193733,2,0,L|45:278,3,35,0|0|4|0,1:0|0:0|3:0|0:0,0:0:0:0:
28,309,194161,1,0,1:0:0:0:
52,316,194269,1,0,0:0:0:0:
76,320,194376,1,12,3:0:0:0:
100,324,194483,1,0,0:0:0:0:
123,332,194590,2,0,L|120:297,1,35,0|0,1:0|0:0,0:0:0:0:
115,242,194804,2,0,L|109:183,1,35,4|0,0:0|0:0,0:0:0:0:
167,146,195019,6,0,P|215:146|271:202,1,120.750002303124,4|0,1:0|0:0,0:0:0:0:
295,222,195447,2,0,L|319:138,1,80.5000015354157,0|0,1:0|0:0,0:0:0:0:
381,194,195876,1,0,1:0:0:0:
461,182,196090,1,0,0:0:0:0:
501,114,196304,1,2,1:0:0:0:
421,110,196519,1,0,0:0:0:0:
351,69,196733,6,0,P|303:89|259:121,1,80.5000015354157,2|0,1:0|0:0,0:0:0:0:
261,140,197054,1,0,0:0:0:0:
224,125,197161,2,0,P|176:105|132:73,1,80.5000015354157,2|0,1:0|0:0,0:0:0:0:
220,209,197590,2,0,P|215:249|214:289,1,80.5000015354157,0|0,1:0|0:0,0:0:0:0:
337,328,198019,2,0,P|334:287|334:247,1,80.5000015354157,0|0,1:0|0:0,0:0:0:0:
452,209,198447,5,2,1:0:0:0:
452,209,198554,1,2,0:0:0:0:
452,209,198661,2,0,L|459:108,1,80.5000015354157,0|0,0:0|1:0,0:0:0:0:
432,56,199090,1,0,0:0:0:0:
359,57,199304,1,0,1:0:0:0:
359,57,199411,1,0,0:0:0:0:
359,57,199518,2,0,P|362:94|364:137,2,80.5000015354157,0|2|8,0:0|1:0|2:0,0:0:0:0:
279,71,200161,6,0,P|241:80|189:86,1,80.5000015354157,2|8,1:0|2:0,0:0:0:0:
172,77,200483,1,0,0:0:0:0:
147,64,200590,2,0,L|122:157,1,80.5000015354157,0|8,1:0|2:0,0:0:0:0:
253,214,201019,2,0,L|184:145,1,80.5000015354157,2|8,1:0|2:0,0:0:0:0:
70,233,201447,2,0,L|163:208,1,80.5000015354157,2|4,1:0|2:0,0:0:0:0:
191,279,201876,6,0,P|230:321|297:330,1,120.750002303124,6|0,1:0|0:0,0:0:0:0:
327,316,202304,2,0,L|330:225,1,80.5000015354157,0|0,1:0|0:0,0:0:0:0:
392,185,202733,1,0,1:0:0:0:
472,190,202947,1,0,0:0:0:0:
494,267,203161,1,2,1:0:0:0:
431,318,203376,1,0,0:0:0:0:
359,280,203590,6,0,L|345:183,1,80.5000015354157,2|0,1:0|0:0,0:0:0:0:
369,166,203911,1,0,0:0:0:0:
408,155,204019,2,0,P|412:116|426:58,1,80.5000015354157,0|0,1:0|0:0,0:0:0:0:
305,20,204447,2,0,P|302:59|316:97,1,80.5000015354157,0|0,1:0|0:0,0:0:0:0:
206,31,204876,2,0,B|183:26|183:26|149:39|111:42,1,80.5000015354157,2|0,1:0|0:0,0:0:0:0:
54,72,205304,5,2,1:0:0:0:
54,72,205411,1,2,0:0:0:0:
54,72,205519,2,0,P|57:135|52:176,1,80.5000015354157,0|0,0:0|1:0,0:0:0:0:
135,149,205947,1,0,0:0:0:0:
214,192,206161,1,0,1:0:0:0:
214,192,206269,1,0,0:0:0:0:
214,192,206376,2,0,B|255:185|255:185|323:212,1,80.5000015354157,0|2,0:0|1:0,0:0:0:0:
303,119,206804,1,8,2:0:0:0:
365,170,207019,6,0,P|384:186|371:264,1,80.5000015354157,2|8,1:0|2:0,0:0:0:0:
371,260,207340,1,0,0:0:0:0:
344,268,207447,2,0,L|242:291,1,80.5000015354157,0|8,1:0|2:0,0:0:0:0:
172,166,207876,2,0,L|226:225,1,80.5000015354157,2|8,1:0|2:0,0:0:0:0:
172,369,208304,2,0,L|195:292,1,80.5000015354157,2|4,1:0|2:0,0:0:0:0:
125,251,208733,6,0,P|87:247|16:296,1,120.750002303124,6|0,1:0|0:0,0:0:0:0:
44,320,209161,2,0,P|72:339|108:381,1,80.5000015354157,0|0,1:0|0:0,0:0:0:0:
180,350,209590,2,0,L|195:297,3,40.2500007677078,0|0|0|0,1:0|0:0|0:0|0:0,0:0:0:0:
226,291,210019,2,0,B|267:280|324:316,1,80.5000015354157,2|0,1:0|0:0,0:0:0:0:
378,275,210447,6,0,L|386:322,3,40.2500007677078,2|0|0|0,1:0|0:0|0:0|0:0,0:0:0:0:
416,342,210876,1,0,1:0:0:0:
471,283,211090,1,0,0:0:0:0:
490,205,211304,2,0,L|394:197,1,80.5000015354157,0|0,1:0|0:0,0:0:0:0:
383,189,211626,1,0,0:0:0:0:
357,202,211733,2,0,P|310:219|275:216,1,80.5000015354157,2|0,1:0|0:0,0:0:0:0:
301,139,212161,5,2,1:0:0:0:
301,139,212269,1,2,0:0:0:0:
301,139,212376,1,0,0:0:0:0:
226,109,212590,2,0,B|186:105|186:105|141:126,1,80.5000015354157,0|0,1:0|0:0,0:0:0:0:
78,161,213019,1,0,1:0:0:0:
78,161,213126,1,0,0:0:0:0:
78,161,213233,1,0,0:0:0:0:
135,217,213447,2,0,B|171:199|171:199|211:203,1,80.5000015354157,2|8,1:0|2:0,0:0:0:0:
219,284,213876,6,0,L|207:355,4,40.2500007677078,2|0|8|0|0,1:0|0:0|2:0|0:0|1:0,0:0:0:0:
288,242,214519,1,8,2:0:0:0:
363,213,214733,2,0,L|427:222,1,40.2500007677078,2|0,1:0|0:0,0:0:0:0:
435,195,214947,2,0,L|395:189,1,40.2500007677078,8|0,2:0|0:0,0:0:0:0:
380,151,215161,2,0,P|309:149|273:167,1,80.5000015354157,2|4,1:0|2:0,0:0:0:0:
456,122,215590,6,0,B|468:112|468:112|474:62|438:8,1,120.750002303124,6|0,1:0|0:0,0:0:0:0:
403,28,216019,2,0,P|365:34|307:11,1,80.5000015354157,0|0,1:0|0:0,0:0:0:0:
247,44,216447,2,0,L|255:91,3,40.2500007677078,0|0|0|0,1:0|0:0|0:0|0:0,0:0:0:0:
224,111,216876,2,0,P|245:155|246:198,1,80.5000015354157,2|0,1:0|0:0,0:0:0:0:
167,196,217304,6,0,L|93:204,3,40.2500007677078,2|0|0|0,1:0|0:0|0:0|0:0,0:0:0:0:
90,183,217733,1,0,1:0:0:0:
29,235,217947,1,0,0:0:0:0:
85,291,218161,2,0,P|152:293|183:300,1,80.5000015354157,0|0,1:0|0:0,0:0:0:0:
188,312,218483,1,0,0:0:0:0:
213,298,218590,2,0,L|217:213,1,80.5000015354157,2|0,1:0|0:0,0:0:0:0:
275,162,219019,5,2,1:0:0:0:
275,162,219126,1,2,0:0:0:0:
275,162,219233,1,0,0:0:0:0:
208,117,219447,2,0,P|167:118|124:130,1,80.5000015354157,0|0,1:0|0:0,0:0:0:0:
51,106,219876,1,0,1:0:0:0:
51,106,219983,1,0,0:0:0:0:
51,106,220090,1,0,0:0:0:0:
69,27,220304,2,0,P|109:27|148:37,1,80.5000015354157,2|8,1:0|2:0,0:0:0:0:
228,35,220733,6,0,L|299:14,4,40.2500007677078,2|0|8|0|0,1:0|0:0|2:0|0:0|1:0,0:0:0:0:
189,105,221376,1,8,2:0:0:0:
250,164,221590,5,0,3:0:0:0:
250,164,221697,1,0,1:0:0:0:
182,205,221911,1,0,1:0:0:0:
182,205,222019,1,0,3:0:0:0:
131,142,222233,1,4,3:2:0:0:
51,138,222447,6,0,P|55:185|48:232,1,80.5000015354157,6|0,1:0|0:0,0:0:0:0:
28,234,222769,1,0,0:0:0:0:
50,252,222876,2,0,P|106:259|146:268,1,80.5000015354157,0|0,1:0|0:0,0:0:0:0:
195,217,223304,1,0,1:0:0:0:
195,217,223411,1,0,0:0:0:0:
195,217,223519,1,0,0:0:0:0:
260,263,223733,2,0,L|239:356,1,80.5000015354157,2|0,1:0|0:0,0:0:0:0:
329,354,224161,5,2,1:0:0:0:
329,354,224269,1,0,0:0:0:0:
329,354,224376,2,0,P|371:351|421:355,1,80.5000015354157,0|0,0:0|1:0,0:0:0:0:
489,354,224804,1,0,0:0:0:0:
446,285,225019,1,0,1:0:0:0:
366,272,225233,2,0,P|362:217|371:182,1,80.5000015354157,0|2,0:0|1:0,0:0:0:0:
436,151,225661,1,0,0:0:0:0:
360,93,225876,5,2,1:0:0:0:
332,96,225983,1,2,0:0:0:0:
304,99,226090,2,0,L|220:107,2,80.5000015354157,0|0|0,0:0|1:0|0:0,0:0:0:0:
384,88,226733,2,0,L|426:45,3,40.2500007677078,0|0|0|0,1:0|0:0|0:0|0:0,0:0:0:0:
413,19,227161,1,2,1:0:0:0:
493,24,227376,1,8,2:0:0:0:
476,102,227590,1,2,1:0:0:0:
463,127,227697,1,0,0:0:0:0:
451,153,227804,2,0,P|432:183|411:231,2,80.5000015354157,8|0|8,2:0|1:0|2:0,0:0:0:0:
317,182,228447,6,0,P|322:238|322:283,1,80.5000015354157,2|8,1:0|2:0,0:0:0:0:
465,304,228876,2,0,P|424:305|384:309,1,80.5000015354157,2|4,1:0|2:0,0:0:0:0:
244,327,229304,6,0,L|146:346,1,80.5000015354157,6|0,1:0|0:0,0:0:0:0:
140,327,229626,1,0,0:0:0:0:
111,333,229733,2,0,P|85:284|96:245,1,80.5000015354157,0|0,1:0|0:0,0:0:0:0:
161,228,230161,1,0,1:0:0:0:
161,228,230269,1,0,0:0:0:0:
161,228,230376,1,0,0:0:0:0:
240,242,230590,2,0,B|283:240|283:240|345:278,1,80.5000015354157,2|0,1:0|0:0,0:0:0:0:
345,334,231019,5,2,1:0:0:0:
345,334,231126,1,0,0:0:0:0:
345,334,231233,2,0,L|254:353,1,80.5000015354157,0|0,0:0|1:0,0:0:0:0:
192,318,231661,1,0,0:0:0:0:
227,245,231876,1,0,1:0:0:0:
298,207,232090,2,0,P|336:223|396:236,1,80.5000015354157,0|2,0:0|1:0,0:0:0:0:
430,289,232519,1,0,0:0:0:0:
457,213,232733,5,2,1:0:0:0:
459,185,232840,1,2,0:0:0:0:
460,157,232947,2,0,L|409:78,2,80.5000015354157,0|0|0,0:0|1:0|0:0,0:0:0:0:
457,237,233590,2,0,L|452:290,3,40.2500007677078,0|0|0|0,1:0|0:0|0:0|0:0,0:0:0:0:
421,302,234019,1,2,1:0:0:0:
376,234,234233,1,8,2:0:0:0:
330,300,234447,5,2,1:0:0:0:
307,316,234554,1,0,0:0:0:0:
284,332,234661,2,0,L|204:288,1,80.5000015354157,8|0,2:0|1:0,0:0:0:0:
180,219,235090,1,8,2:0:0:0:
50,278,235304,6,0,L|140:280,1,80.5000015354157,2|8,1:0|2:0,0:0:0:0:
159,145,235733,2,0,L|78:146,1,80.5000015354157,2|8,1:0|2:0,0:0:0:0:
207,211,236161,5,6,1:0:0:0:
254,150,236376,1,0,0:0:0:0:
254,150,236483,1,0,0:0:0:0:
254,150,236590,2,0,P|303:149|375:164,1,87.5,0|0,1:0|0:0,0:0:0:0:
397,223,237019,1,0,1:0:0:0:
397,223,237126,1,0,0:0:0:0:
397,223,237233,1,0,0:0:0:0:
420,147,237447,2,0,P|426:90|368:26,1,131.25,2|0,1:0|0:0,0:0:0:0:
347,48,237876,6,0,P|311:56|252:48,1,87.5,2|0,1:0|0:0,0:0:0:0:
238,38,238197,1,0,0:0:0:0:
211,36,238304,2,0,P|185:72|160:114,1,87.5,0|0,1:0|0:0,0:0:0:0:
245,139,238733,1,0,1:0:0:0:
245,139,238840,1,0,0:0:0:0:
245,139,238947,1,0,0:0:0:0:
310,181,239161,2,0,P|335:216|358:253,1,87.5,2|0,1:0|0:0,0:0:0:0:
291,296,239590,5,2,1:0:0:0:
261,301,239697,1,2,0:0:0:0:
230,304,239804,1,2,0:0:0:0:
199,308,239911,1,0,0:0:0:0:
170,294,240019,2,0,L|82:320,1,87.5,0|0,1:0|0:0,0:0:0:0:
34,259,240447,5,0,1:0:0:0:
44,230,240554,1,0,0:0:0:0:
57,202,240661,1,2,0:0:0:0:
69,173,240768,1,2,0:0:0:0:
96,155,240876,2,0,B|115:136|115:136|97:92|126:11,1,131.25,2|0,1:0|0:0,0:0:0:0:
149,9,241304,5,2,1:0:0:0:
198,83,241519,1,8,2:0:0:0:
198,83,241626,1,0,0:0:0:0:
198,83,241733,1,0,1:0:0:0:
275,54,241947,1,8,2:0:0:0:
275,54,242054,1,0,0:0:0:0:
275,54,242161,1,2,1:0:0:0:
341,113,242376,1,8,2:0:0:0:
341,113,242483,1,0,0:0:0:0:
341,113,242590,2,0,P|405:106|438:85,1,87.5,2|4,1:0|2:0,0:0:0:0:
260,146,243019,5,6,1:0:0:0:
333,195,243233,1,0,0:0:0:0:
333,195,243340,1,0,0:0:0:0:
333,195,243447,2,0,P|349:256|343:290,1,87.5,0|0,1:0|0:0,0:0:0:0:
203,285,243876,2,0,P|201:241|216:200,1,87.5,0|0,1:0|0:0,0:0:0:0:
195,184,244197,1,0,0:0:0:0:
169,178,244304,2,0,L|73:191,1,87.5,2|0,1:0|0:0,0:0:0:0:
59,334,244733,5,2,1:0:0:0:
59,334,244840,1,0,0:0:0:0:
59,334,244947,2,0,P|105:306|129:271,1,87.5,0|0,0:0|1:0,0:0:0:0:
50,252,245376,1,0,0:0:0:0:
20,116,245590,1,0,1:0:0:0:
20,116,245697,1,0,0:0:0:0:
20,116,245804,2,0,B|45:102|45:102|84:124|137:97,2,87.5,0|2|0,0:0|1:0|0:0,0:0:0:0:
128,17,246447,5,2,1:0:0:0:
128,17,246554,1,2,0:0:0:0:
128,17,246661,1,0,0:0:0:0:
201,45,246876,2,0,L|185:137,1,87.5,0|0,1:0|0:0,0:0:0:0:
263,174,247304,1,0,1:0:0:0:
263,174,247411,1,0,0:0:0:0:
263,174,247518,1,0,0:0:0:0:
340,190,247733,2,0,B|365:173|365:173|420:189|475:180,1,131.25,2|8,1:0|0:0,0:0:0:0:
491,210,248161,5,2,1:0:0:0:
506,295,248376,1,0,0:0:0:0:
506,295,248483,1,8,0:0:0:0:
506,295,248590,1,0,1:0:0:0:
440,336,248804,1,0,0:0:0:0:
372,293,249019,5,0,3:0:0:0:
373,264,249126,1,0,1:0:0:0:
263,174,249340,1,0,1:0:0:0:
264,204,249447,2,0,P|222:219|160:193,1,87.5,0|4,3:0|3:2,0:0:0:0:
102,171,249876,1,4,0:1:0:0:
