osu file format v14

[General]
AudioFilename: audio.mp3
AudioLeadIn: 0
PreviewTime: 98519
Countdown: 0
SampleSet: Soft
StackLeniency: 0.5
Mode: 0
LetterboxInBreaks: 1
WidescreenStoryboard: 1

[Editor]
Bookmarks: 3019,16733,28733,30447,42876,44161,57876,83590,85304,97304,99019,126447,133304,136733,140161,153876,167376,167590,193304,195019,221590,222447,243019,249019,249876,263376,263590
DistanceSpacing: 0.1
BeatDivisor: 4
GridSize: 8
TimelineZoom: 1.6

[Metadata]
Title:ruriair
TitleUnicode:ruriair
Artist:grasun cat
ArtistUnicode:グラサンねこ
Creator:Dada
Version:Ceremony
Source:うみねこのなく頃に散
Tags:gurasan Kitaouji Mizuki Beatrice Ryukishi07 07th Expansion when the seagulls cry Umineko no Naku Koro ni Chiru chapter 6 neko ds 北大路 瑞希 they sing vol.3 Video Game Instrumental electronic impromptu
BeatmapID:2248613
BeatmapSetID:1074503

[Difficulty]
HPDrainRate:5
CircleSize:4
OverallDifficulty:8
ApproachRate:8
SliderMultiplier:1.4
SliderTickRate:1

[Events]
//Background and Video events
0,0,"beeeeeeeeeeeeeeeeeeeeeeeeeeeatrice.jpg",0,0
//Break Periods
2,3219,15983
2,30647,35590
2,87004,87983
2,90433,91411
2,93861,94840
2,140376,152161
//Storyboard Layer 0 (Background)
//Storyboard Layer 1 (Fail)
//Storyboard Layer 2 (Pass)
//Storyboard Layer 3 (Foreground)
//Storyboard Layer 4 (Overlay)
//Storyboard Sound Samples

[TimingPoints]
448,428.571428571429,4,2,3,65,1,0
2912,-100,4,2,3,5,0,0
3019,428.571428571429,4,2,3,65,1,0
16733,-100,4,2,3,50,0,0
28733,-80,4,2,3,75,0,0
30447,-100,4,2,3,65,0,0
37090,-80,4,2,3,65,0,0
37519,-100,4,2,3,60,0,0
42769,-100,4,2,3,75,0,0
44304,-100,4,2,3,60,0,0
57876,-100,4,2,3,65,0,0
70733,-100,4,2,3,70,0,0
71376,-100,4,2,3,65,0,0
83590,-100,4,2,3,75,0,0
85304,-100,4,2,3,55,0,0
97304,-100,4,2,3,60,0,0
97733,-100,4,2,3,65,0,0
98161,-100,4,2,3,70,0,0
98590,-100,4,2,3,75,0,0
99019,-80,4,2,3,75,0,1
126447,-80,4,2,3,65,0,0
136733,-333.333333333333,4,2,3,65,0,0
138447,-100,4,2,3,65,0,0
138876,-100,4,2,3,70,0,0
139304,-83.3333333333333,4,2,3,75,0,0
139733,-71.4285714285714,4,2,3,80,0,0
153876,-100,4,2,3,60,0,0
167376,-100,4,2,3,70,0,0
167590,-100,4,2,3,65,0,0
193733,-100,4,2,3,70,0,0
194161,-100,4,2,3,75,0,0
194590,-100,4,2,3,80,0,0
195019,-80,4,2,3,75,0,1
221590,-80,4,2,3,75,0,0
222447,-80,4,2,3,75,0,1
246876,-125,4,2,3,77,0,1
247304,-100,4,2,3,79,0,1
247733,-83.3333333333333,4,2,3,81,0,1
248161,-71.4285714285714,4,2,3,83,0,1
248590,-62.5,4,2,3,85,0,1
249019,-80,4,2,3,85,0,1
249876,-133.333333333333,4,2,3,50,0,0

[Colours]
Combo1 : 255,0,0
Combo2 : 191,191,0
Combo3 : 138,73,43
Combo4 : 247,240,157

[HitObjects]
256,192,448,12,0,2912,0:0:0:0:
194,230,3019,5,4,0:0:0:0:
110,233,16733,5,0,3:0:0:0:
176,299,16947,1,0,0:0:0:0:
168,173,17161,2,0,P|165:130|153:66,1,105,4|0,3:0|0:0,0:0:0:0:
127,55,17590,1,0,3:0:0:0:
104,81,17697,1,0,0:0:0:0:
81,107,17804,1,0,0:0:0:0:
239,87,18019,2,0,P|294:85|334:91,1,70,4|0,3:0|0:0,0:0:0:0:
334,115,18340,1,0,0:0:0:0:
334,115,18447,5,0,3:0:0:0:
282,212,18661,1,0,0:0:0:0:
418,179,18876,1,4,3:0:0:0:
381,348,19090,1,0,0:0:0:0:
397,317,19197,1,0,0:0:0:0:
398,282,19304,1,0,3:0:0:0:
385,250,19411,1,0,0:0:0:0:
359,227,19518,1,0,0:0:0:0:
462,240,19733,1,4,3:0:0:0:
319,296,19947,1,0,0:0:0:0:
284,302,20054,1,0,0:0:0:0:
250,308,20161,6,0,L|322:320,1,70,0|0,3:0|0:0,0:0:0:0:
198,224,20590,2,0,P|162:266|154:286,1,70,4|0,3:0|0:0,0:0:0:0:
176,309,20911,1,0,0:0:0:0:
176,309,21019,1,0,3:0:0:0:
91,247,21233,1,0,0:0:0:0:
171,154,21447,2,0,P|207:112|215:92,1,70,4|0,3:0|0:0,0:0:0:0:
188,80,21769,1,0,0:0:0:0:
188,80,21876,6,0,L|269:65,1,70,0|0,3:0|0:0,0:0:0:0:
360,47,22304,1,4,3:0:0:0:
205,1,22519,1,0,0:0:0:0:
170,0,22626,1,0,0:0:0:0:
138,12,22733,1,0,3:0:0:0:
114,37,22840,1,0,0:0:0:0:
103,70,22947,1,0,3:0:0:0:
107,104,23054,1,0,0:0:0:0:
125,134,23161,1,4,3:0:0:0:
255,209,23376,1,0,0:0:0:0:
248,174,23483,1,0,0:0:0:0:
242,140,23590,5,0,3:0:0:0:
165,216,23804,1,0,0:0:0:0:
270,293,24019,2,0,P|308:274|370:252,1,105,4|0,3:0|0:0,0:0:0:0:
392,269,24448,1,0,3:0:0:0:
381,302,24555,1,0,0:0:0:0:
370,335,24662,1,0,0:0:0:0:
235,371,24876,2,0,P|179:359|151:348,1,70,4|0,3:0|0:0,0:0:0:0:
165,328,25197,1,0,0:0:0:0:
165,328,25304,5,0,3:0:0:0:
66,384,25519,1,0,0:0:0:0:
41,246,25733,1,4,3:0:0:0:
140,190,25947,1,0,0:0:0:0:
173,182,26054,1,0,0:0:0:0:
208,187,26161,1,0,3:0:0:0:
239,203,26268,1,0,0:0:0:0:
261,230,26375,1,0,0:0:0:0:
140,190,26590,1,4,3:0:0:0:
233,111,26804,1,0,0:0:0:0:
267,104,26911,1,0,0:0:0:0:
301,98,27018,5,0,3:0:0:0:
239,203,27233,1,0,0:0:0:0:
153,91,27447,1,4,3:0:0:0:
68,267,27661,1,0,0:0:0:0:
92,241,27769,1,0,0:0:0:0:
116,216,27876,1,0,3:0:0:0:
144,194,27983,1,0,0:0:0:0:
144,194,28090,1,0,0:0:0:0:
136,306,28304,5,4,3:0:0:0:
51,178,28519,1,0,0:0:0:0:
32,148,28626,1,0,0:0:0:0:
14,118,28733,6,2,P|86:117|147:106,1,131.25,2|0,1:1|0:0,1:0:0:0:
176,37,29161,6,2,P|245:54|307:59,1,131.25,2|0,1:1|0:0,1:0:0:0:
353,0,29590,6,2,P|415:34|473:55,1,131.25,2|0,1:1|0:0,1:0:0:0:
505,131,30019,5,0,1:0:0:0:
499,160,30126,1,0,1:0:0:0:
494,189,30233,1,2,0:0:0:0:
489,218,30340,1,2,0:0:0:0:
417,189,30447,5,0,1:0:0:0:
29,159,37090,6,0,L|44:245,1,87.5,4|4,0:0|0:1,0:0:0:0:
140,196,37519,1,0,0:0:0:0:
140,196,37626,1,0,0:0:0:0:
140,196,37733,5,4,3:0:0:0:
206,282,37947,2,0,P|250:268|304:221,1,105,2|0,0:0|0:0,0:0:0:0:
297,203,38376,1,0,0:0:0:0:
324,224,38483,1,0,0:0:0:0:
352,245,38590,5,4,3:0:0:0:
446,183,38804,2,0,P|445:133|448:73,1,105,2|0,0:0|0:0,0:0:0:0:
466,53,39233,1,0,0:0:0:0:
431,57,39340,1,0,0:0:0:0:
396,62,39447,5,4,3:0:0:0:
288,119,39661,2,0,P|227:106|182:83,1,105,2|0,0:0|0:0,0:0:0:0:
171,60,40090,1,0,0:0:0:0:
163,94,40197,1,0,0:0:0:0:
155,128,40304,1,4,3:0:0:0:
83,48,40519,1,2,0:0:0:0:
2,140,40733,5,0,3:0:0:0:
8,174,40840,1,0,0:0:0:0:
14,208,40947,1,0,3:0:0:0:
20,243,41054,1,0,0:0:0:0:
26,277,41161,1,4,3:0:0:0:
141,338,41376,1,2,0:0:0:0:
116,215,41590,5,0,3:0:0:0:
150,221,41697,1,0,0:0:0:0:
184,227,41804,1,0,3:0:0:0:
219,233,41911,1,0,0:0:0:0:
253,239,42018,1,4,3:0:0:0:
328,336,42233,1,2,0:0:0:0:
441,289,42447,5,0,3:0:0:0:
434,254,42554,1,0,0:0:0:0:
428,220,42661,1,0,0:0:0:0:
422,185,42768,1,0,1:0:0:0:
416,151,42876,6,0,P|409:114|413:88,1,46.6666666666667,0|0,1:0|0:0,0:0:0:0:
434,82,43090,2,0,P|413:70|391:64,1,46.6666666666667,2|0,1:2|0:0,0:0:0:0:
359,91,43304,6,0,P|334:62|324:37,1,46.6666666666667,0|0,1:0|0:0,0:0:0:0:
351,18,43518,2,0,P|327:18|305:24,1,46.6666666666667,2|0,1:2|0:0,0:0:0:0:
292,61,43733,6,0,P|256:48|235:32,1,46.6666666666667,0|0,1:0|0:0,0:0:0:0:
233,23,43947,6,2,L|235:5,4,17.5,2|2|2|2|2,1:0|0:0|0:0|0:0|0:0,0:0:0:0:
195,66,44304,1,2,0:0:0:0:
41,209,44590,5,2,2:0:0:0:
134,284,44805,1,2,0:0:0:0:
227,359,45019,1,0,2:0:0:0:
253,248,45233,1,2,0:0:0:0:
253,248,45340,1,0,0:0:0:0:
253,248,45447,1,2,2:0:0:0:
339,316,45661,1,0,0:0:0:0:
451,273,45876,6,0,L|416:266,1,35,0|0,1:0|0:0,0:0:0:0:
484,202,46090,2,0,L|449:195,1,35
364,76,46519,2,0,P|397:114|421:154,1,70,0|0,3:0|0:0,0:0:0:0:
385,153,46840,1,0,1:0:0:0:
350,146,46947,1,0,1:0:0:0:
316,140,47054,1,0,0:0:0:0:
230,20,47376,2,0,P|263:58|287:98,1,70
235,142,47697,6,0,P|201:180|177:220,1,70,2|0,0:0|0:0,0:0:0:0:
205,226,48019,1,2,0:0:0:0:
84,205,48233,1,2,0:0:0:0:
158,311,48447,1,0,0:0:0:0:
286,297,48661,1,2,0:0:0:0:
286,297,48769,1,0,0:0:0:0:
286,297,48876,1,2,0:0:0:0:
332,176,49090,1,0,0:0:0:0:
378,297,49304,6,0,L|385:335,1,35,0|0,1:0|0:0,0:0:0:0:
453,289,49519,2,0,L|460:327,1,35
420,171,49947,2,0,P|383:197|343:208,1,70
332,176,50269,1,0,1:0:0:0:
326,141,50376,1,0,1:0:0:0:
320,106,50483,1,0,0:0:0:0:
185,6,50804,1,4,0:0:0:0:
158,173,51019,5,4,1:0:0:0:
158,173,51126,2,0,P|106:175|68:165,1,70,2|0,0:0|0:0,0:0:0:0:
80,141,51447,1,2,0:0:0:0:
58,261,51661,1,2,0:0:0:0:
179,283,51876,1,0,0:0:0:0:
241,159,52090,1,2,0:0:0:0:
235,124,52197,1,0,0:0:0:0:
229,89,52304,1,2,0:0:0:0:
350,111,52519,1,0,0:0:0:0:
328,232,52733,6,0,L|381:241,1,35,0|0,1:0|0:0,0:0:0:0:
314,305,52947,2,0,L|367:314,1,35
429,168,53376,1,0,0:0:0:0:
350,111,53590,1,0,0:0:0:0:
343,76,53697,1,0,1:0:0:0:
337,42,53804,1,0,1:0:0:0:
331,7,53911,1,0,0:0:0:0:
429,168,54233,1,0,0:0:0:0:
261,155,54447,5,0,1:0:0:0:
261,155,54554,2,0,P|196:155|166:163,1,70,2|0,0:0|0:0,0:0:0:0:
185,188,54876,1,2,0:0:0:0:
163,66,55090,1,2,0:0:0:0:
261,155,55304,1,0,0:0:0:0:
239,277,55519,1,2,0:0:0:0:
204,270,55626,1,0,0:0:0:0:
170,264,55733,1,2,0:0:0:0:
106,169,55947,1,0,0:0:0:0:
14,240,56161,6,0,L|4:291,1,35,0|0,1:0|0:0,0:0:0:0:
91,251,56376,2,0,L|81:302,1,35
185,188,56804,1,0,0:0:0:0:
255,121,57019,1,0,0:0:0:0:
261,155,57126,1,0,1:0:0:0:
267,189,57233,1,0,1:0:0:0:
276,227,57340,1,0,0:0:0:0:
276,227,57447,5,0,1:0:0:0:
379,92,57661,1,4,0:0:0:0:
443,260,57876,5,4,1:0:0:0:
443,260,57983,1,0,0:0:0:0:
443,260,58090,2,0,P|428:305|424:336,1,70,2|0,0:0|0:0,0:0:0:0:
447,353,58411,1,2,0:0:0:0:
267,294,58733,1,0,1:0:0:0:
391,173,59054,1,2,0:0:0:0:
391,173,59161,1,0,1:0:0:0:
265,174,59376,2,0,P|280:129|284:98,1,70,2|0,0:0|0:0,0:0:0:0:
264,87,59697,1,0,0:0:0:0:
264,87,59804,5,2,0:0:0:0:
131,154,60019,1,0,1:0:0:0:
131,154,60126,1,2,0:0:0:0:
66,26,60447,2,0,P|113:33|166:58,1,105,0|0,1:0|0:0,0:0:0:0:
177,83,60876,1,0,1:0:0:0:
48,142,61090,1,2,0:0:0:0:
224,170,61304,1,0,1:0:0:0:
258,176,61411,1,0,0:0:0:0:
292,182,61519,5,2,0:0:0:0:
373,90,61733,1,0,1:0:0:0:
338,96,61840,1,2,0:0:0:0:
461,214,62161,2,0,L|356:232,1,105,0|0,1:0|0:0,0:0:0:0:
343,257,62590,1,0,1:0:0:0:
499,287,62804,1,2,0:0:0:0:
376,348,63019,1,0,1:0:0:0:
341,341,63126,1,0,0:0:0:0:
307,335,63233,5,2,0:0:0:0:
223,249,63447,1,0,1:0:0:0:
223,249,63554,1,2,0:0:0:0:
363,106,63876,5,0,1:0:0:0:
333,94,63983,1,0,0:0:0:0:
299,98,64090,1,2,0:0:0:0:
268,114,64197,1,0,0:0:0:0:
246,141,64304,1,0,1:0:0:0:
248,28,64519,1,2,0:0:0:0:
123,132,64733,1,0,1:0:0:0:
123,132,64840,1,0,0:0:0:0:
123,132,64947,6,0,P|138:87|142:56,1,70,2|0,0:0|0:0,0:0:0:0:
119,39,65268,1,2,0:0:0:0:
299,98,65590,1,0,1:0:0:0:
175,219,65911,1,2,0:0:0:0:
175,219,66018,1,0,1:0:0:0:
45,261,66233,2,0,P|73:296|85:327,1,70,2|0,0:0|0:0,0:0:0:0:
64,345,66554,1,0,0:0:0:0:
64,345,66661,5,2,0:0:0:0:
190,322,66876,1,0,1:0:0:0:
190,322,66983,1,2,0:0:0:0:
123,132,67304,1,0,1:0:0:0:
256,162,67519,1,0,0:0:0:0:
256,162,67626,1,2,0:0:0:0:
256,162,67733,1,0,1:0:0:0:
201,65,67947,1,2,0:0:0:0:
226,243,68161,1,0,1:0:0:0:
232,277,68268,1,0,0:0:0:0:
238,311,68375,5,2,0:0:0:0:
331,226,68590,1,0,1:0:0:0:
337,191,68697,1,2,0:0:0:0:
412,347,69019,2,0,L|426:263,1,70,0|0,1:0|0:0,0:0:0:0:
460,263,69340,1,2,0:0:0:0:
460,263,69447,1,0,1:0:0:0:
481,383,69661,1,2,0:0:0:0:
339,319,69876,1,0,1:0:0:0:
304,312,69983,1,0,0:0:0:0:
270,306,70090,6,0,P|215:303|176:312,1,70,2|0,0:0|0:0,0:0:0:0:
183,335,70411,1,2,0:0:0:0:
167,89,70733,2,0,P|163:33|172:-5,1,70,0|0,1:0|0:0,0:0:0:0:
195,8,71054,1,2,0:0:0:0:
195,8,71161,1,0,1:0:0:0:
155,198,71376,5,4,0:0:0:0:
28,33,71590,1,4,1:0:0:0:
26,189,71804,6,0,P|47:225|55:251,1,70,2|0,0:0|0:0,0:0:0:0:
38,283,72126,1,2,0:0:0:0:
186,383,72447,1,0,1:0:0:0:
155,198,72769,1,2,0:0:0:0:
155,198,72876,1,0,1:0:0:0:
267,172,73090,1,2,0:0:0:0:
205,307,73304,1,0,1:0:0:0:
336,216,73519,6,0,P|369:173|383:129,1,70,2|0,0:0|0:0,0:0:0:0:
353,132,73840,1,2,0:0:0:0:
322,318,74161,1,0,1:0:0:0:
484,218,74483,1,2,0:0:0:0:
484,218,74590,1,0,1:0:0:0:
463,334,74804,1,2,0:0:0:0:
497,139,75019,1,0,1:0:0:0:
503,104,75126,1,0,0:0:0:0:
509,70,75233,5,2,0:0:0:0:
379,121,75447,1,0,1:0:0:0:
413,127,75554,1,2,0:0:0:0:
374,7,75876,2,0,P|325:32|285:66,1,105,0|0,1:0|0:0,0:0:0:0:
285,89,76304,1,0,1:0:0:0:
346,198,76519,1,2,0:0:0:0:
191,170,76733,1,0,1:0:0:0:
156,163,76840,1,0,0:0:0:0:
122,157,76947,5,2,0:0:0:0:
64,242,77161,1,0,1:0:0:0:
30,249,77268,1,2,0:0:0:0:
190,339,77590,5,0,1:0:0:0:
224,332,77697,1,0,0:0:0:0:
258,336,77804,1,0,0:0:0:0:
289,352,77911,1,2,0:0:0:0:
313,378,78018,1,0,1:0:0:0:
257,249,78233,1,2,0:0:0:0:
110,333,78447,1,0,1:0:0:0:
110,333,78554,1,0,0:0:0:0:
110,333,78661,6,0,P|54:335|19:346,1,70,2|0,0:0|0:0,0:0:0:0:
26,366,78983,1,2,0:0:0:0:
150,234,79304,1,0,1:0:0:0:
42,124,79626,1,2,0:0:0:0:
42,124,79733,1,0,1:0:0:0:
168,133,79947,1,2,0:0:0:0:
241,280,80161,1,0,1:0:0:0:
355,225,80376,6,0,P|386:186|399:153,1,70,2|0,0:0|0:0,0:0:0:0:
373,143,80697,1,2,0:0:0:0:
330,317,81019,1,0,1:0:0:0:
468,230,81340,1,2,0:0:0:0:
468,230,81447,1,0,1:0:0:0:
355,225,81661,1,2,0:0:0:0:
233,372,81876,1,0,1:0:0:0:
198,365,81983,1,0,0:0:0:0:
164,359,82090,5,2,0:0:0:0:
89,268,82304,1,0,1:0:0:0:
123,261,82411,1,2,0:0:0:0:
229,166,82733,2,0,L|133:148,1,70,0|0,1:0|0:0,0:0:0:0:
140,124,83054,1,2,0:0:0:0:
140,124,83161,1,0,1:0:0:0:
206,247,83376,1,2,0:0:0:0:
310,84,83590,5,0,3:0:0:0:
344,91,83697,1,0,1:0:0:0:
491,126,83911,1,0,1:0:0:0:
484,92,84018,1,0,3:0:0:0:
396,196,84233,5,0,1:0:0:0:
389,230,84340,1,0,3:0:0:0:
382,264,84447,1,0,1:0:0:0:
506,215,84661,1,0,3:0:0:0:
298,179,84876,1,0,1:0:0:0:
263,172,84983,1,0,1:0:0:0:
229,166,85090,1,4,1:2:0:0:
100,241,85304,6,0,P|99:280|88:385,1,140,4|0,1:0|0:0,0:0:0:0:
173,291,85947,1,0,0:0:0:0:
100,241,86161,1,2,0:0:0:0:
150,168,86376,1,0,0:0:0:0:
223,218,86590,1,2,0:0:0:0:
173,291,86804,1,0,0:0:0:0:
419,231,88733,5,0,0:0:0:0:
419,231,88840,2,0,P|419:284|411:315,1,70,2|0,0:0|0:0,0:0:0:0:
384,311,89161,1,2,0:0:0:0:
311,261,89376,1,0,0:0:0:0:
261,334,89590,1,2,0:0:0:0:
334,384,89804,1,0,0:0:0:0:
384,311,90019,1,2,0:0:0:0:
311,261,90233,1,0,0:0:0:0:
177,222,92161,5,0,0:0:0:0:
177,222,92268,2,0,P|177:275|185:306,1,70,2|0,0:0|0:0,0:0:0:0:
211,299,92589,1,2,0:0:0:0:
273,256,92804,1,0,0:0:0:0:
315,318,93018,1,2,0:0:0:0:
253,361,93232,1,0,0:0:0:0:
211,299,93447,1,2,0:0:0:0:
273,256,93661,1,0,0:0:0:0:
326,223,95590,5,0,0:0:0:0:
326,223,95697,2,0,P|326:276|318:307,1,70,2|0,0:0|0:0,0:0:0:0:
292,300,96018,1,2,0:0:0:0:
233,259,96233,1,0,0:0:0:0:
193,318,96447,1,2,0:0:0:0:
252,358,96661,1,0,0:0:0:0:
292,300,96876,1,2,0:0:0:0:
233,259,97090,1,0,0:0:0:0:
125,340,97304,5,0,1:0:0:0:
99,216,97519,1,0,3:0:0:0:
212,48,97733,5,0,1:0:0:0:
181,191,97947,1,0,3:0:0:0:
299,331,98161,5,0,1:0:0:0:
263,166,98376,1,0,3:0:0:0:
371,0,98590,1,0,1:0:0:0:
364,31,98697,1,0,1:0:0:0:
358,65,98804,1,4,1:2:0:0:
435,243,99019,6,0,P|401:214|369:162,1,87.5,4|0,1:0|0:0,0:0:0:0:
390,143,99340,1,0,0:0:0:0:
390,143,99447,1,0,1:0:0:0:
311,233,99661,1,0,0:0:0:0:
472,103,99876,2,0,P|424:61|398:52,1,87.5,0|0,1:0|0:0,0:0:0:0:
235,189,100304,2,0,P|283:147|309:138,1,87.5,2|0,1:0|0:0,0:0:0:0:
374,343,100733,5,2,1:0:0:0:
232,275,100947,1,0,0:0:0:0:
188,282,101054,1,0,0:0:0:0:
145,290,101161,1,0,1:0:0:0:
248,359,101376,1,0,0:0:0:0:
129,206,101590,2,0,P|122:165|104:109,1,87.5,0|0,1:0|0:0,0:0:0:0:
77,113,101911,1,0,0:0:0:0:
77,113,102019,1,2,1:0:0:0:
247,134,102233,1,0,0:0:0:0:
192,286,102447,5,2,1:0:0:0:
192,286,102554,2,0,P|164:332|155:366,1,87.5,2|0,0:0|0:0,0:0:0:0:
178,382,102876,5,0,1:2:0:0:
254,338,103304,5,0,1:2:0:0:
334,382,103733,5,2,1:0:0:0:
296,263,103947,1,8,0:0:0:0:
411,189,104161,5,2,1:0:0:0:
424,342,104376,1,8,0:0:0:0:
424,342,104483,1,0,0:0:0:0:
424,342,104590,5,0,1:0:0:0:
296,263,104804,1,8,0:0:0:0:
141,345,105019,5,2,1:0:0:0:
254,338,105233,1,8,0:0:0:0:
287,113,105447,5,2,1:0:0:0:
210,264,105661,1,4,0:0:0:0:
429,356,105876,5,6,1:0:0:0:
481,237,106090,1,0,0:0:0:0:
473,193,106197,1,0,0:0:0:0:
465,150,106304,2,0,L|448:250,1,87.5,0|0,1:0|0:0,0:0:0:0:
287,113,106733,2,0,L|386:95,1,87.5,0|0,1:0|0:0,0:0:0:0:
223,271,107161,2,0,L|123:253,1,87.5,2|0,1:0|0:0,0:0:0:0:
355,375,107590,6,0,P|401:381|449:368,1,87.5,2|0,1:0|0:0,0:0:0:0:
451,341,107911,1,0,0:0:0:0:
451,341,108019,1,0,1:0:0:0:
339,292,108233,1,0,0:0:0:0:
185,375,108447,6,0,P|139:381|91:368,1,87.5,0|0,1:0|0:0,0:0:0:0:
89,341,108768,1,0,0:0:0:0:
89,341,108876,1,2,1:0:0:0:
189,191,109090,1,0,0:0:0:0:
339,292,109304,5,2,1:0:0:0:
382,284,109411,1,2,0:0:0:0:
425,276,109518,1,0,0:0:0:0:
472,273,109625,1,0,0:0:0:0:
472,273,109733,5,0,1:0:0:0:
419,374,110161,5,0,1:0:0:0:
339,292,110590,5,2,1:0:0:0:
439,194,110804,1,8,0:0:0:0:
419,374,111019,5,2,1:0:0:0:
347,200,111233,1,8,0:0:0:0:
347,200,111340,1,0,0:0:0:0:
347,200,111447,5,0,1:0:0:0:
275,26,111661,1,8,0:0:0:0:
82,68,111876,5,2,1:0:0:0:
148,230,112090,1,8,0:0:0:0:
329,106,112304,5,2,1:0:0:0:
151,134,112518,1,4,0:0:0:0:
126,311,112733,6,0,P|178:310|219:320,1,87.5,6|0,1:0|0:0,0:0:0:0:
224,346,113054,1,0,0:0:0:0:
224,346,113161,1,0,1:0:0:0:
148,230,113376,1,0,0:0:0:0:
39,315,113590,2,0,P|81:309|129:311,1,87.5,0|0,1:0|0:0,0:0:0:0:
87,169,114019,2,0,P|45:175|-3:173,1,87.5,2|0,1:0|0:0,0:0:0:0:
170,146,114447,5,2,1:0:0:0:
287,223,114661,1,0,0:0:0:0:
279,266,114768,1,0,0:0:0:0:
271,309,114875,1,0,1:0:0:0:
207,218,115090,1,0,0:0:0:0:
348,171,115304,2,0,P|396:173|441:179,1,87.5,0|0,1:0|0:0,0:0:0:0:
448,209,115626,1,0,0:0:0:0:
448,209,115733,1,2,1:0:0:0:
390,87,115947,1,0,0:0:0:0:
381,263,116161,5,2,1:0:0:0:
381,263,116269,2,0,P|403:324|416:348,1,87.5,2|0,0:0|0:0,0:0:0:0:
450,342,116590,5,0,1:0:0:0:
338,361,117019,5,0,1:0:0:0:
226,380,117447,5,2,1:0:0:0:
381,263,117661,1,8,0:0:0:0:
249,133,117876,5,2,1:0:0:0:
268,287,118090,1,8,0:0:0:0:
268,287,118197,1,0,0:0:0:0:
268,287,118304,5,0,1:0:0:0:
315,198,118519,1,8,0:0:0:0:
97,165,118733,5,2,1:0:0:0:
167,298,118948,1,8,0:0:0:0:
146,87,119161,5,2,1:0:0:0:
7,160,119376,1,4,0:0:0:0:
221,217,119590,5,6,1:0:0:0:
241,100,119804,1,0,0:0:0:0:
249,57,119911,1,0,0:0:0:0:
257,14,120019,2,0,L|275:118,1,87.5,0|0,1:0|0:0,0:0:0:0:
411,239,120447,2,0,P|358:214|318:208,1,87.5,0|0,1:0|0:0,0:0:0:0:
148,295,120876,2,0,P|201:320|241:326,1,87.5,2|0,1:0|0:0,0:0:0:0:
40,260,121304,6,0,P|45:308|56:352,1,87.5,2|0,1:0|0:0,0:0:0:0:
84,366,121626,1,0,0:0:0:0:
84,366,121733,1,0,1:0:0:0:
117,208,121947,1,0,0:0:0:0:
234,332,122161,6,0,P|282:327|326:315,1,87.5,0|0,1:0|0:0,0:0:0:0:
340,288,122483,1,0,0:0:0:0:
340,288,122590,1,2,1:0:0:0:
148,295,122804,1,0,0:0:0:0:
225,172,123019,5,2,1:0:0:0:
268,179,123126,1,2,0:0:0:0:
311,187,123233,1,0,0:0:0:0:
358,198,123340,1,0,0:0:0:0:
358,198,123447,5,0,1:0:0:0:
225,172,123876,5,0,1:0:0:0:
251,39,124304,5,2,1:0:0:0:
358,198,124519,1,8,0:0:0:0:
140,300,124733,5,2,1:0:0:0:
232,179,124948,1,8,0:0:0:0:
232,179,125054,1,0,0:0:0:0:
232,179,125161,5,0,1:0:0:0:
290,319,125376,1,8,0:0:0:0:
140,300,125590,5,2,1:0:0:0:
82,160,125805,1,8,0:0:0:0:
288,238,126019,5,2,1:0:0:0:
83,241,126233,1,4,0:0:0:0:
278,118,126447,6,0,P|335:104|406:93,1,131.25,4|0,1:0|0:0,0:0:0:0:
434,111,126876,1,0,1:0:0:0:
483,29,127304,5,0,1:0:0:0:
332,30,127519,1,0,0:0:0:0:
332,30,127626,1,0,0:0:0:0:
332,30,127733,1,0,1:0:0:0:
434,111,127947,1,0,0:0:0:0:
264,147,128161,6,0,P|310:159|346:179,1,87.5,0|0,1:0|0:0,0:0:0:0:
409,279,128590,1,0,1:0:0:0:
341,347,129019,5,0,1:0:0:0:
284,240,129233,1,0,0:0:0:0:
284,240,129340,1,0,0:0:0:0:
284,240,129447,1,0,1:0:0:0:
177,297,129661,1,0,0:0:0:0:
90,213,129876,5,0,1:0:0:0:
95,184,129983,1,2,0:0:0:0:
100,155,130090,1,0,0:0:0:0:
109,130,130197,1,0,0:0:0:0:
109,130,130304,5,0,1:0:0:0:
188,77,130733,5,0,1:0:0:0:
103,36,131161,5,0,1:0:0:0:
195,172,131376,1,2,2:0:0:0:
280,213,131590,5,0,1:0:0:0:
188,77,131805,1,2,2:0:0:0:
107,40,132018,5,0,1:0:0:0:
199,176,132233,1,2,2:0:0:0:
284,217,132447,5,0,1:0:0:0:
192,81,132662,1,2,2:0:0:0:
158,261,132876,5,0,1:0:0:0:
277,122,133090,1,4,2:0:0:0:
416,241,133304,5,4,1:0:0:0:
421,269,133411,1,0,3:0:0:0:
426,298,133518,1,0,3:0:0:0:
435,331,133625,1,0,3:0:0:0:
443,363,133733,1,0,1:2:0:0:
496,227,133947,5,0,1:0:0:0:
490,197,134054,1,0,3:0:0:0:
366,158,134269,1,0,3:0:0:0:
347,180,134376,1,0,3:0:0:0:
328,202,134483,1,0,3:0:0:0:
309,225,134590,6,0,P|288:272|283:311,1,87.5,0|0,1:0|1:0,0:0:0:0:
307,332,134911,1,0,3:0:0:0:
196,252,135126,1,0,3:0:0:0:
190,224,135233,1,0,3:0:0:0:
185,195,135340,1,0,3:0:0:0:
180,166,135447,6,0,P|185:114|200:78,1,87.5,0|0,1:0|1:0,0:0:0:0:
231,72,135768,1,0,3:0:0:0:
86,124,135983,1,0,3:0:0:0:
80,152,136090,2,0,L|70:205,1,43.75,0|0,1:0|0:0,0:0:0:0:
112,281,136304,1,0,1:0:0:0:
180,166,136519,1,2,3:0:0:0:
280,326,136733,6,2,P|365:334|426:351,1,146.999995513916,2|0,1:0|1:0,1:0:0:0:
508,306,138447,5,0,1:0:0:0:
502,271,138554,1,0,0:0:0:0:
482,243,138661,1,0,0:0:0:0:
452,225,138768,1,0,0:0:0:0:
417,221,138875,1,0,1:0:0:0:
382,217,138983,1,0,0:0:0:0:
352,199,139090,1,0,0:0:0:0:
332,171,139197,1,0,0:0:0:0:
326,136,139304,5,0,1:0:0:0:
299,168,139411,1,0,0:0:0:0:
272,200,139518,1,0,1:0:0:0:
245,232,139625,1,0,0:0:0:0:
218,264,139732,5,0,1:0:0:0:
211,216,139840,1,0,1:0:0:0:
185,175,139947,1,0,1:0:0:0:
143,149,140054,1,0,1:0:0:0:
95,144,140161,1,4,1:0:0:0:
103,73,153876,6,0,L|109:111,1,35
131,231,154304,5,4,3:0:0:0:
36,195,154519,2,0,P|9:159|-2:128,1,70
3,104,154840,1,2,0:0:0:0:
3,104,154947,1,0,0:0:0:0:
4,4,155161,1,4,3:0:0:0:
4,4,155269,2,0,L|51:12,1,35,2|0,0:0|0:0,0:0:0:0:
135,83,155590,2,0,L|182:74,1,35,2|0,0:0|0:0,0:0:0:0:
293,50,156019,5,4,3:0:0:0:
274,153,156233,2,0,P|269:187|278:246,1,70
301,247,156554,1,2,0:0:0:0:
301,247,156661,1,0,0:0:0:0:
198,285,156876,1,4,3:0:0:0:
198,285,156983,2,0,L|240:320,1,35,2|0,0:0|0:0,0:0:0:0:
353,344,157304,2,0,L|395:308,1,35,2|0,0:0|0:0,0:0:0:0:
475,238,157733,5,4,3:0:0:0:
377,198,157947,2,0,P|337:204|306:218,1,70
301,247,158269,1,2,0:0:0:0:
301,247,158376,1,0,0:0:0:0:
339,95,158590,1,4,3:0:0:0:
339,95,158697,2,0,L|382:102,1,35,2|0,0:0|0:0,0:0:0:0:
227,70,159019,2,0,L|183:122,1,35,2|0,0:0|0:0,0:0:0:0:
126,195,159447,5,4,3:0:0:0:
179,301,159661,1,0,0:0:0:0:
29,373,159983,1,2,0:0:0:0:
29,373,160090,1,0,0:0:0:0:
45,255,160304,1,4,3:0:0:0:
59,272,160411,1,0,0:0:0:0:
74,290,160518,1,2,0:0:0:0:
97,316,160625,1,2,0:0:0:0:
97,316,160733,1,2,0:0:0:0:
97,316,160840,1,0,0:0:0:0:
168,176,161161,5,4,3:0:0:0:
238,268,161376,2,0,P|277:283|306:288,1,70
328,269,161697,1,0,0:0:0:0:
328,269,161804,1,2,0:0:0:0:
248,367,162019,2,0,L|197:358,1,35,4|0,3:0|0:0,0:0:0:0:
135,343,162233,1,2,0:0:0:0:
174,210,162447,2,0,L|168:176,1,35,2|0,0:0|0:0,0:0:0:0:
144,52,162876,5,4,3:0:0:0:
30,72,163090,2,0,P|13:109|5:147,1,70
24,166,163411,1,0,0:0:0:0:
24,166,163518,1,2,0:0:0:0:
124,78,163733,2,0,L|189:66,1,35,4|0,3:0|0:0,0:0:0:0:
237,55,163947,1,2,0:0:0:0:
260,168,164161,2,0,L|325:179,1,35,2|0,0:0|0:0,0:0:0:0:
418,198,164590,5,4,3:0:0:0:
486,105,164804,2,0,P|493:67|492:18,1,70
476,17,165126,1,0,0:0:0:0:
476,17,165233,1,2,0:0:0:0:
368,94,165447,2,0,L|382:125,1,35,4|0,3:0|0:0,0:0:0:0:
418,198,165661,1,2,0:0:0:0:
301,236,165876,2,0,L|286:267,1,35,2|0,0:0|0:0,0:0:0:0:
232,381,166304,5,4,3:0:0:0:
349,343,166519,1,0,0:0:0:0:
199,280,166840,1,2,0:0:0:0:
199,280,166947,1,0,0:0:0:0:
123,361,167161,2,0,L|68:370,1,35,4|0,3:0|0:0,0:0:0:0:
9,382,167376,1,0,1:0:0:0:
15,347,167483,1,0,1:0:0:0:
21,313,167590,5,4,1:0:0:0:
184,151,168019,2,0,P|161:177|144:208,1,70,0|0,1:0|0:0,0:0:0:0:
39,70,168554,1,0,0:0:0:0:
39,70,168661,1,4,3:0:0:0:
185,120,168876,6,0,L|262:106,1,70,2|0,1:2|0:0,0:0:0:0:
340,7,169304,1,2,1:2:0:0:
340,7,169411,2,0,P|357:43|362:84,1,70,4|0,3:0|0:0,0:0:0:0:
340,92,169733,1,2,1:2:0:0:
440,173,169947,1,2,0:0:0:0:
455,55,170161,2,0,P|480:29|508:9,1,70,2|0,0:0|0:0,0:0:0:0:
340,92,170590,2,0,P|309:74|277:61,1,70,2|0,1:2|0:0,0:0:0:0:
194,183,171019,5,0,1:0:0:0:
194,183,171126,2,0,P|206:222|208:269,1,70,4|0,3:0|0:0,0:0:0:0:
182,272,171447,2,0,P|141:270|95:280,1,70,0|0,1:0|0:0,0:0:0:0:
207,349,171876,1,0,0:0:0:0:
289,223,172090,1,4,3:0:0:0:
388,354,172304,1,0,1:0:0:0:
470,228,172519,5,0,1:0:0:0:
449,199,172626,1,0,1:0:0:0:
433,174,172733,1,0,1:0:0:0:
433,174,172840,2,0,P|441:128|440:96,1,70,4|0,3:0|0:0,0:0:0:0:
415,86,173161,1,2,1:2:0:0:
301,142,173376,2,0,P|250:135|219:136,1,70,4|0,3:0|0:0,0:0:0:0:
208,159,173697,1,0,0:0:0:0:
208,159,173804,1,0,3:0:0:0:
284,47,174019,2,0,L|276:2,1,35,2|0,1:2|0:0,0:0:0:0:
294,176,174233,2,0,L|301:131,1,35,2|0,3:0|0:0,0:0:0:0:
258,299,174447,6,0,P|222:262|175:238,1,105,4|0,1:0|0:0,0:0:0:0:
148,256,174876,1,0,1:0:0:0:
208,363,175090,1,0,0:0:0:0:
41,316,175411,1,0,0:0:0:0:
41,316,175519,1,4,3:0:0:0:
175,238,175733,5,2,1:2:0:0:
235,345,175947,1,0,0:0:0:0:
246,195,176161,1,2,1:2:0:0:
246,195,176269,2,0,P|246:146|241:114,1,70,4|0,3:0|0:0,0:0:0:0:
216,113,176590,1,2,1:2:0:0:
320,231,176804,1,4,3:0:0:0:
339,53,177019,2,0,L|380:45,1,35,2|0,1:2|0:0,0:0:0:0:
452,30,177233,1,4,3:0:0:0:
454,228,177447,2,0,P|424:185|386:150,1,105,2|0,1:2|0:0,0:0:0:0:
360,158,177876,1,2,1:2:0:0:
360,158,177983,1,0,0:0:0:0:
512,162,178304,6,0,P|516:124|509:79,1,70,0|0,1:0|0:0,0:0:0:0:
420,12,178733,1,0,0:0:0:0:
338,139,178947,1,4,3:0:0:0:
228,22,179161,1,0,1:0:0:0:
204,206,179376,5,0,1:0:0:0:
235,190,179483,1,0,1:0:0:0:
266,175,179590,1,2,1:2:0:0:
132,167,179804,5,0,1:0:0:0:
101,183,179911,1,0,1:0:0:0:
70,198,180018,1,2,1:2:0:0:
208,210,180233,5,0,1:0:0:0:
239,194,180340,1,0,1:0:0:0:
270,179,180447,1,2,1:2:0:0:
136,171,180661,5,0,1:0:0:0:
105,187,180768,1,0,1:0:0:0:
74,202,180876,1,2,1:2:0:0:
80,236,180983,1,0,0:0:0:0:
86,270,181090,2,0,L|94:312,1,35,2|0,3:0|0:0,0:0:0:0:
164,384,181304,6,0,P|164:335|175:269,1,105,4|0,1:0|0:0,0:0:0:0:
201,263,181733,1,0,1:0:0:0:
74,202,181947,1,4,3:0:0:0:
167,98,182161,1,0,0:0:0:0:
173,132,182268,1,0,0:0:0:0:
179,166,182375,1,4,3:0:0:0:
73,79,182590,2,0,L|3:66,1,70,2|0,1:2|0:0,0:0:0:0:
190,8,183019,5,2,1:2:0:0:
190,8,183126,2,0,P|236:21|278:22,1,70,4|0,0:3|0:0,0:0:0:0:
280,0,183447,1,2,1:2:0:0:
167,98,183661,1,4,3:0:0:0:
308,103,183876,1,2,0:0:0:0:
342,109,183983,1,0,0:0:0:0:
376,115,184090,1,4,3:0:0:0:
470,258,184304,2,0,P|468:216|483:146,1,105,2|0,1:2|0:0,0:0:0:0:
507,143,184733,5,2,1:2:0:0:
389,195,184947,1,0,0:0:0:0:
271,247,185161,1,0,1:0:0:0:
308,103,185376,2,0,P|316:59|314:24,1,70,4|0,3:0|0:0,0:0:0:0:
294,16,185697,1,0,0:0:0:0:
294,16,185804,1,4,3:0:0:0:
158,75,186019,1,0,1:0:0:0:
198,216,186233,5,0,1:0:0:0:
212,184,186340,1,0,1:0:0:0:
227,152,186447,2,0,P|249:187|271:248,1,105,2|0,1:2|0:0,0:0:0:0:
259,274,186876,1,2,1:2:0:0:
303,124,187090,1,4,3:0:0:0:
432,229,187304,2,0,L|386:260,1,35,2|0,0:0|0:0,0:0:0:0:
338,293,187519,1,4,3:0:0:0:
385,132,187733,2,0,L|379:167,1,35,2|0,1:2|0:0,0:0:0:0:
283,96,187947,2,0,L|303:124,1,35,2|0,3:0|0:0,0:0:0:0:
186,142,188161,6,0,P|126:156|76:157,1,105,4|0,1:0|0:0,0:0:0:0:
63,133,188590,1,0,1:0:0:0:
180,243,188804,2,0,P|181:281|175:318,1,70,4|0,3:0|0:0,0:0:0:0:
147,327,189126,1,0,0:0:0:0:
147,327,189233,1,4,3:0:0:0:
247,196,189447,2,0,L|316:208,1,70,2|0,1:2|0:0,0:0:0:0:
420,315,189876,5,2,1:2:0:0:
420,315,189983,2,0,P|371:309|341:312,1,70,4|0,3:0|0:0,0:0:0:0:
328,335,190304,1,2,1:2:0:0:
421,230,190519,1,4,3:0:0:0:
455,69,190733,1,2,0:0:0:0:
362,174,190948,1,4,3:0:0:0:
512,250,191161,1,2,1:2:0:0:
512,250,191269,2,0,L|483:159,1,70,4|0,3:0|0:0,0:0:0:0:
462,167,191590,6,0,P|475:109|491:67,1,105,2|0,1:2|0:0,0:0:0:0:
512,46,192019,1,0,1:0:0:0:
378,95,192233,2,0,P|340:86|291:62,1,70,4|0,3:0|0:0,0:0:0:0:
307,46,192554,1,0,0:0:0:0:
307,46,192661,1,4,3:0:0:0:
382,176,192876,1,0,1:0:0:0:
241,115,193090,1,2,0:0:0:0:
241,115,193197,1,2,0:0:0:0:
241,115,193304,5,0,1:0:0:0:
244,132,193411,1,0,0:0:0:0:
247,149,193518,1,0,0:0:0:0:
250,166,193625,1,0,0:0:0:0:
253,183,193733,5,0,1:0:0:0:
218,182,193840,1,0,0:0:0:0:
184,191,193947,1,4,3:0:0:0:
153,208,194054,1,0,0:0:0:0:
128,232,194161,1,0,1:0:0:0:
97,247,194268,1,0,0:0:0:0:
62,250,194375,1,12,3:0:0:0:
29,240,194482,1,0,0:0:0:0:
2,218,194590,5,0,1:0:0:0:
20,257,194697,1,0,1:0:0:0:
38,297,194804,1,0,1:0:0:0:
57,337,194911,1,0,1:0:0:0:
75,376,195019,5,4,1:0:0:0:
224,258,195233,1,0,0:0:0:0:
188,233,195340,1,0,0:0:0:0:
153,208,195447,1,0,1:0:0:0:
185,361,195661,1,0,0:0:0:0:
292,213,195876,2,0,P|295:162|290:110,1,87.5,0|0,1:0|0:0,0:0:0:0:
89,44,196304,2,0,P|86:95|91:147,1,87.5,2|0,1:0|0:0,0:0:0:0:
212,31,196733,5,2,1:0:0:0:
368,102,196947,1,0,0:0:0:0:
361,59,197054,1,0,0:0:0:0:
353,15,197161,1,0,1:0:0:0:
292,125,197376,1,0,0:0:0:0:
438,37,197590,2,0,P|484:64|514:91,1,87.5,0|0,1:0|0:0,0:0:0:0:
511,117,197911,1,0,0:0:0:0:
511,117,198019,1,2,1:0:0:0:
361,59,198233,1,0,0:0:0:0:
432,195,198447,5,2,1:0:0:0:
432,195,198554,2,0,P|426:240|406:288,1,87.5,2|0,0:0|0:0,0:0:0:0:
380,285,198876,5,0,1:0:0:0:
304,313,199304,5,0,1:0:0:0:
228,341,199733,5,2,1:0:0:0:
380,285,199947,1,8,2:0:0:0:
241,261,200161,5,2,1:0:0:0:
96,324,200375,1,8,2:0:0:0:
96,324,200483,1,0,0:0:0:0:
96,324,200590,5,0,1:0:0:0:
228,341,200804,1,8,2:0:0:0:
254,181,201019,5,2,1:0:0:0:
155,377,201233,1,8,2:0:0:0:
349,194,201447,5,2,1:0:0:0:
166,45,201661,1,4,2:0:0:0:
241,261,201876,6,0,P|302:268|337:280,1,87.5,6|0,1:0|0:0,0:0:0:0:
336,306,202197,1,0,0:0:0:0:
336,306,202304,1,0,1:0:0:0:
254,181,202519,1,0,0:0:0:0:
168,338,202733,2,0,P|118:349|77:349,1,87.5,0|0,1:0|0:0,0:0:0:0:
62,334,203054,1,0,0:0:0:0:
62,334,203161,1,2,1:0:0:0:
241,261,203376,1,0,0:0:0:0:
96,190,203590,6,0,P|86:145|88:99,1,87.5,2|0,1:0|0:0,0:0:0:0:
113,87,203911,1,0,0:0:0:0:
113,87,204019,1,0,1:0:0:0:
21,220,204233,1,0,0:0:0:0:
182,146,204447,2,0,L|269:161,1,87.5,0|0,1:0|0:0,0:0:0:0:
478,206,204876,2,0,L|390:221,1,87.5,2|0,1:0|0:0,0:0:0:0:
212,256,205304,5,2,1:0:0:0:
193,295,205411,1,2,0:0:0:0:
175,335,205518,1,0,0:0:0:0:
160,378,205625,1,0,0:0:0:0:
160,378,205733,5,0,1:0:0:0:
193,295,206161,5,0,1:0:0:0:
226,212,206590,5,2,1:0:0:0:
248,365,206804,1,8,2:0:0:0:
138,225,207019,5,2,1:0:0:0:
167,79,207233,1,8,2:0:0:0:
167,79,207340,1,0,0:0:0:0:
167,79,207447,5,0,1:0:0:0:
314,199,207661,1,8,2:0:0:0:
388,20,207876,5,2,1:0:0:0:
241,140,208090,1,8,2:0:0:0:
473,219,208304,5,2,1:0:0:0:
315,80,208519,1,4,2:0:0:0:
313,318,208733,6,0,P|267:340|224:346,1,87.5,6|0,1:0|0:0,0:0:0:0:
213,326,209054,1,0,0:0:0:0:
213,326,209161,1,0,1:0:0:0:
314,199,209376,1,0,0:0:0:0:
423,357,209590,2,0,L|509:372,1,87.5,0|0,1:0|0:0,0:0:0:0:
338,220,210019,2,0,L|251:235,1,87.5,2|0,1:0|0:0,0:0:0:0:
151,378,210447,5,2,1:0:0:0:
71,248,210661,1,0,0:0:0:0:
106,222,210768,1,0,0:0:0:0:
142,197,210875,1,0,1:0:0:0:
75,336,211090,1,0,0:0:0:0:
40,166,211304,2,0,P|41:123|48:74,1,87.5,0|0,1:0|0:0,0:0:0:0:
75,68,211626,1,0,0:0:0:0:
75,68,211733,1,2,1:0:0:0:
71,248,211947,1,0,0:0:0:0:
182,100,212161,5,2,1:0:0:0:
182,100,212269,2,0,P|237:102|294:111,1,87.5,2|0,0:0|0:0,0:0:0:0:
294,129,212590,5,0,1:0:0:0:
384,148,213019,5,0,1:0:0:0:
474,167,213447,5,2,1:0:0:0:
356,61,213661,1,8,2:0:0:0:
204,110,213876,5,2,1:0:0:0:
329,223,214090,1,8,2:0:0:0:
329,223,214197,1,0,0:0:0:0:
329,223,214304,5,0,1:0:0:0:
356,61,214519,1,8,2:0:0:0:
239,204,214733,5,2,1:0:0:0:
266,366,214947,1,8,2:0:0:0:
294,129,215161,5,2,1:0:0:0:
114,91,215376,1,4,2:0:0:0:
76,271,215590,6,0,P|130:312|158:322,1,87.5,6|0,1:0|0:0,0:0:0:0:
172,300,215911,1,0,0:0:0:0:
172,300,216019,1,0,1:0:0:0:
95,181,216233,1,0,0:0:0:0:
261,127,216447,1,0,1:0:0:0:
315,293,216661,1,0,0:0:0:0:
358,300,216768,1,0,0:0:0:0:
401,308,216875,1,2,1:0:0:0:
252,222,217090,1,0,0:0:0:0:
147,319,217304,6,0,P|100:336|56:340,1,87.5,2|0,1:0|0:0,0:0:0:0:
49,323,217626,1,0,0:0:0:0:
49,323,217733,1,0,1:0:0:0:
194,384,217947,1,0,0:0:0:0:
174,202,218161,2,0,L|191:104,1,87.5,0|0,1:0|0:0,0:0:0:0:
9,7,218590,2,0,L|26:104,1,87.5,2|0,1:0|0:0,0:0:0:0:
169,233,219019,5,2,1:0:0:0:
202,204,219126,1,2,0:0:0:0:
236,176,219233,1,0,0:0:0:0:
273,152,219340,1,0,0:0:0:0:
273,152,219447,5,0,1:0:0:0:
349,221,219876,5,0,1:0:0:0:
418,145,220304,5,2,1:0:0:0:
280,297,220519,1,8,2:0:0:0:
449,242,220733,5,2,1:0:0:0:
304,111,220948,1,8,2:0:0:0:
304,111,221054,1,0,0:0:0:0:
304,111,221161,5,0,1:0:0:0:
381,319,221376,1,8,2:0:0:0:
199,183,221590,5,0,3:0:0:0:
159,201,221697,1,0,1:0:0:0:
304,111,221911,1,0,1:0:0:0:
343,129,222018,1,0,3:0:0:0:
190,57,222233,1,4,3:2:0:0:
208,309,222447,6,0,P|176:362|149:389,1,87.5,6|0,1:0|0:0,0:0:0:0:
128,383,222769,1,0,0:0:0:0:
128,383,222876,1,0,1:0:0:0:
283,338,223090,1,0,0:0:0:0:
122,298,223304,1,0,1:0:0:0:
251,165,223519,1,0,0:0:0:0:
258,208,223626,1,0,0:0:0:0:
266,251,223733,1,2,1:0:0:0:
120,166,223947,1,0,0:0:0:0:
224,27,224161,6,0,P|276:20|323:22,1,87.5,2|0,1:0|0:0,0:0:0:0:
333,47,224483,1,0,0:0:0:0:
333,47,224590,1,0,1:0:0:0:
185,106,224804,1,0,0:0:0:0:
65,0,225019,1,0,1:0:0:0:
187,137,225233,1,0,0:0:0:0:
42,288,225447,1,2,1:0:0:0:
105,88,225661,1,0,0:0:0:0:
227,259,225876,5,2,1:0:0:0:
227,259,225983,2,0,P|283:265|329:283,1,87.5,2|0,0:0|0:0,0:0:0:0:
336,301,226304,5,0,1:0:0:0:
355,210,226733,5,0,1:0:0:0:
442,181,227161,5,2,1:0:0:0:
286,149,227376,1,8,2:0:0:0:
112,272,227590,5,2,1:0:0:0:
275,247,227804,1,8,2:0:0:0:
275,247,227911,1,0,0:0:0:0:
275,247,228019,5,0,1:0:0:0:
152,358,228233,1,8,2:0:0:0:
199,179,228447,5,2,1:0:0:0:
310,327,228661,1,8,2:0:0:0:
217,88,228876,5,2,1:0:0:0:
112,272,229090,1,4,2:0:0:0:
57,68,229304,6,0,P|91:30|125:7,1,87.5,6|0,1:0|0:0,0:0:0:0:
154,17,229626,1,0,0:0:0:0:
154,17,229733,1,0,1:0:0:0:
85,171,229947,1,0,0:0:0:0:
0,0,230161,1,0,1:0:0:0:
159,110,230376,1,0,0:0:0:0:
202,102,230483,1,0,0:0:0:0:
245,94,230590,2,0,L|355:75,1,87.5,2|0,1:0|0:0,0:0:0:0:
477,0,231019,5,2,1:0:0:0:
402,152,231233,1,0,0:0:0:0:
410,109,231340,1,0,0:0:0:0:
417,66,231447,1,0,1:0:0:0:
458,223,231661,1,0,0:0:0:0:
331,79,231876,2,0,L|244:63,1,87.5,0|0,1:0|0:0,0:0:0:0:
181,305,232304,2,0,L|267:289,1,87.5,2|0,1:0|0:0,0:0:0:0:
174,101,232733,5,2,1:0:0:0:
166,144,232840,1,2,0:0:0:0:
158,187,232947,1,0,0:0:0:0:
154,234,233054,1,0,0:0:0:0:
154,234,233161,5,0,1:0:0:0:
71,269,233590,5,0,1:0:0:0:
83,179,234019,5,2,1:0:0:0:
59,359,234233,1,8,2:0:0:0:
0,214,234447,5,2,1:0:0:0:
161,241,234661,1,8,2:0:0:0:
161,241,234769,1,0,0:0:0:0:
161,241,234876,5,0,1:0:0:0:
137,61,235090,1,8,2:0:0:0:
244,206,235304,5,2,1:0:0:0:
71,269,235519,1,8,2:0:0:0:
228,106,235733,5,2,1:0:0:0:
401,169,235948,1,8,2:0:0:0:
260,306,236161,6,0,P|203:328|168:331,1,87.5,6|0,1:0|0:0,0:0:0:0:
152,323,236483,1,0,0:0:0:0:
152,323,236590,1,0,1:0:0:0:
244,206,236804,1,0,0:0:0:0:
348,358,237019,2,0,P|405:380|440:383,1,87.5,0|0,1:0|0:0,0:0:0:0:
456,375,237341,1,0,0:0:0:0:
456,375,237448,1,2,1:0:0:0:
338,242,237661,1,0,0:0:0:0:
272,384,237876,5,2,1:0:0:0:
165,240,238090,1,0,0:0:0:0:
122,248,238197,1,0,0:0:0:0:
79,256,238304,1,0,1:0:0:0:
230,304,238519,1,0,0:0:0:0:
127,158,238733,1,0,1:0:0:0:
116,339,238947,1,0,0:0:0:0:
240,188,239161,1,2,1:0:0:0:
14,128,239376,1,0,0:0:0:0:
221,40,239590,5,2,1:0:0:0:
221,40,239697,2,0,P|278:38|319:43,1,87.5,2|0,0:0|0:0,0:0:0:0:
335,61,240019,5,0,1:0:0:0:
425,80,240447,5,0,1:0:0:0:
406,170,240876,5,2,1:0:0:0:
491,17,241090,1,8,2:0:0:0:
510,233,241304,5,2,1:0:0:0:
432,87,241518,1,8,2:0:0:0:
432,87,241626,1,0,0:0:0:0:
432,87,241733,5,0,1:0:0:0:
387,260,241947,1,8,2:0:0:0:
239,361,242161,5,2,1:0:0:0:
284,188,242375,1,8,2:0:0:0:
490,332,242590,5,2,1:0:0:0:
295,282,242804,1,4,2:0:0:0:
471,160,243019,6,0,P|484:106|488:63,1,87.5,6|0,1:0|0:0,0:0:0:0:
469,54,243340,1,0,0:0:0:0:
469,54,243447,1,0,1:0:0:0:
378,174,243661,1,0,0:0:0:0:
258,83,243876,1,0,1:0:0:0:
200,248,244090,1,0,0:0:0:0:
156,255,244197,1,0,0:0:0:0:
113,263,244304,1,2,1:0:0:0:
277,182,244519,1,0,0:0:0:0:
359,346,244733,6,0,P|413:353|457:351,1,87.5,2|0,1:0|0:0,0:0:0:0:
469,330,245054,1,0,0:0:0:0:
469,330,245161,1,0,1:0:0:0:
318,264,245376,1,0,0:0:0:0:
197,384,245590,2,0,L|96:366,1,87.5,0|0,1:0|0:0,0:0:0:0:
277,182,246019,2,0,L|377:164,1,87.5,2|0,1:0|0:0,0:0:0:0:
190,262,246447,5,2,1:0:0:0:
164,226,246554,1,2,0:0:0:0:
139,190,246661,1,0,0:0:0:0:
118,158,246768,1,0,0:0:0:0:
118,158,246876,6,0,P|114:121|122:84,1,56,0|0,1:0|0:0,0:0:0:0:
194,124,247304,6,0,P|207:92|230:65,1,70,0|0,1:0|0:0,0:0:0:0:
276,134,247733,6,0,P|309:109|349:97,1,83.9999974365235,2|0,1:0|0:0,0:0:0:0:
443,185,248054,1,8,0:0:0:0:
443,185,248161,6,0,P|395:174|346:179,1,97.9999970092774,2|0,1:0|0:0,0:0:0:0:
290,304,248483,1,8,0:0:0:0:
290,304,248590,6,0,P|335:271|388:254,1,112,0|0,1:0|0:0,0:0:0:0:
472,341,248911,1,8,0:0:0:0:
467,362,249019,5,0,3:0:0:0:
467,362,249126,1,0,1:0:0:0:
347,180,249340,1,0,1:0:0:0:
347,180,249447,1,0,3:0:0:0:
262,384,249661,1,4,3:2:0:0:
198,178,249876,5,4,0:1:0:0:
191,171,250304,6,0,P|164:169|139:174,1,52.5000020027161
116,250,250733,2,0,P|142:251|167:246,1,52.5000020027161
184,164,251161,2,0,P|157:162|132:167,1,52.5000020027161,2|0,0:0|0:0,0:0:0:0:
109,243,251590,1,2,0:0:0:0:
304,218,252019,6,0,P|331:216|356:221,1,52.5000020027161
379,297,252448,2,0,P|353:298|328:293,1,52.5000020027161
311,211,252876,2,0,P|338:209|363:214,1,52.5000020027161,2|0,0:0|0:0,0:0:0:0:
386,290,253305,1,2,0:0:0:0:
191,265,253733,6,0,P|164:263|139:268,1,52.5000020027161
116,344,254161,2,0,P|142:345|167:340,1,52.5000020027161
67,277,254590,2,0,L|36:343,1,52.5000020027161,2|0,0:0|0:0,0:0:0:0:
191,265,255019,2,0,L|221:198,1,52.5000020027161,2|0,0:0|0:0,0:0:0:0:
101,171,255447,2,0,L|124:219,1,52.5000020027161
178,145,255876,1,2,0:0:0:0:
118,93,256090,1,0,0:0:0:0:
149,20,256304,1,2,0:0:0:0:
228,26,256519,1,0,0:0:0:0:
245,104,256733,1,2,0:0:0:0:
368,147,257161,6,0,P|342:142|316:142,1,52.5000020027161
335,221,257590,2,0,P|304:232|274:251,1,52.5000020027161
344,301,258019,2,0,P|323:326|306:357,1,52.5000020027161,2|0,0:0|0:0,0:0:0:0:
393,367,258447,1,2,0:0:0:0:
335,221,258876,6,0,P|352:201|365:178,1,52.5000020027161
287,155,259305,2,0,P|292:122|291:86,1,52.5000020027161
214,123,259734,2,0,P|202:92|183:62,1,52.5000020027161,2|0,0:0|0:0,0:0:0:0:
132,132,260162,1,2,0:0:0:0:
287,155,260590,6,0,P|295:179|308:202,1,52.5000020027161
368,146,261019,2,0,P|393:166|424:183,1,52.5000020027161
319,81,261447,2,0,P|310:56|297:33,1,52.5000020027161,2|0,0:0|0:0,0:0:0:0:
238,90,261876,2,0,P|212:69|181:52,1,52.5000020027161,2|0,0:0|0:0,0:0:0:0:
128,168,262304,2,0,P|148:151|171:138,1,52.5000020027161
194,215,262733,1,2,0:0:0:0:
121,249,262947,1,0,0:0:0:0:
155,323,263161,1,2,0:0:0:0:
229,290,263376,6,2,P|273:294|304:301,1,52.5000020027161,2|0,0:0|0:0,0:0:0:0:
