osu file format v14

[General]
AudioFilename: audio.mp3
AudioLeadIn: 0
PreviewTime: 109499
Countdown: 0
SampleSet: Soft
StackLeniency: 0.3
Mode: 0
LetterboxInBreaks: 0
WidescreenStoryboard: 0

[Editor]
Bookmarks: 15210,27210,39210,63210,68460,69210,73710,87210,99210,111210,135210,140460,141210,145710,147397,158647,170460,171210,183210,193710,195210,200460,201210,205710
DistanceSpacing: 1.6
BeatDivisor: 4
GridSize: 8
TimelineZoom: 2.799999

[Metadata]
Title:Dirty
TitleUnicode:Dirty
Artist:grandson
ArtistUnicode:grandson
Creator:Chills
Version:Thrilling
Source:
Tags:indie electronic english shuckles shucklings min moondoogy Li Syaoran MinNin death of an optimist rock pop
BeatmapID:3881475
BeatmapSetID:1885174

[Difficulty]
HPDrainRate:5
CircleSize:4
OverallDifficulty:8.5
ApproachRate:9.3
SliderMultiplier:2
SliderTickRate:1

[Events]
//Background and Video events
0,0,"dirtee.png",0,0
//Break Periods
2,147410,158656
//Storyboard Layer 0 (Background)
//Storyboard Layer 1 (Fail)
//Storyboard Layer 2 (Pass)
//Storyboard Layer 3 (Foreground)
//Storyboard Layer 4 (Overlay)
//Storyboard Sound Samples

[TimingPoints]
210,375,4,2,1,100,1,0
772,-100,4,2,1,5,0,0
960,-100,4,2,1,10,0,0
1147,-100,4,2,1,15,0,0
1335,-100,4,2,1,20,0,0
1522,-100,4,2,1,25,0,0
1710,-100,4,2,1,30,0,0
1897,-100,4,2,1,35,0,0
2085,-100,4,2,1,40,0,0
2272,-100,4,2,1,45,0,0
2460,-100,4,2,1,5,0,0
2553,-100,4,2,1,60,0,1
2772,-100,4,2,1,5,0,0
2803,-200,4,2,1,40,0,0
3210,375,4,2,1,40,1,0
3210,-133.333333333333,4,2,1,40,0,0
8741,-285.714285714286,4,2,1,5,0,0
8835,-400,4,2,1,60,0,0
9116,-80,4,2,1,5,0,0
9210,-133.333333333333,4,2,1,40,0,0
9960,-100,4,2,1,40,0,0
10991,-100,4,2,1,5,0,0
11085,-133.333333333333,4,2,1,40,0,0
11366,-133.333333333333,4,2,1,5,0,0
11460,-133.333333333333,4,2,1,40,0,0
11647,-200,4,2,1,40,0,0
12210,-133.333333333333,4,2,1,40,0,0
12585,-133.333333333333,4,2,1,40,0,0
14647,-133.333333333333,4,2,1,50,0,0
14835,-133.333333333333,4,2,1,60,0,0
15210,-90.9090909090909,4,2,1,70,0,0
17272,-90.9090909090909,4,2,3,70,0,0
17460,-90.9090909090909,4,2,1,70,0,0
20272,-90.9090909090909,4,2,3,70,0,0
20460,-90.9090909090909,4,2,1,70,0,0
20835,-66.6666666666667,4,2,3,85,0,0
21210,-90.9090909090909,4,2,1,70,0,0
21772,-90.9090909090909,4,2,3,70,0,0
21960,-90.9090909090909,4,2,1,70,0,0
24772,-90.9090909090909,4,2,3,70,0,0
24960,-90.9090909090909,4,2,1,70,0,0
26272,-90.9090909090909,4,2,3,70,0,0
26460,-90.9090909090909,4,2,1,70,0,0
26647,-90.9090909090909,4,2,1,80,0,0
26835,-66.6666666666667,4,2,3,85,0,0
27210,-111.111111111111,4,2,3,85,0,0
27585,-111.111111111111,4,2,3,60,0,0
33210,-111.111111111111,4,2,1,40,0,0
33960,-111.111111111111,4,2,1,45,0,0
34710,-111.111111111111,4,2,1,50,0,0
35085,-111.111111111111,4,2,3,50,0,0
35272,-111.111111111111,4,2,1,50,0,0
35460,-111.111111111111,4,2,1,55,0,0
35835,-111.111111111111,4,2,3,55,0,0
36022,-111.111111111111,4,2,1,55,0,0
36210,-111.111111111111,4,2,1,60,0,0
36585,-111.111111111111,4,2,3,65,0,0
36678,-111.111111111111,4,2,1,65,0,0
36960,-111.111111111111,4,2,1,70,0,0
37335,-111.111111111111,4,2,1,75,0,0
37522,-111.111111111111,4,2,1,75,0,0
38460,-111.111111111111,4,2,1,80,0,0
38835,-57.1428571428571,4,2,1,80,0,0
39210,-66.6666666666667,4,2,1,90,0,0
39585,-100,4,2,1,90,0,0
40335,-66.6666666666667,4,2,1,90,0,0
40710,-80,4,2,1,90,0,0
43335,-66.6666666666667,4,2,1,90,0,0
43897,-80,4,2,1,90,0,0
45210,-66.6666666666667,4,2,1,90,0,0
45585,-100,4,2,1,90,0,0
46147,-100,4,2,1,90,0,0
46335,-66.6666666666667,4,2,1,90,0,0
47085,-80,4,2,1,90,0,0
47835,-66.6666666666667,4,2,1,90,0,0
48210,-80,4,2,1,90,0,0
48772,-80,4,2,1,90,0,0
49335,-66.6666666666667,4,2,1,90,0,0
49897,-80,4,2,1,90,0,0
50085,-80,4,2,1,90,0,0
51210,-66.6666666666667,4,2,1,90,0,0
53085,-80,4,2,1,90,0,0
53460,-66.6666666666667,4,2,1,90,0,0
54585,-80,4,2,1,90,0,0
55710,-66.6666666666667,4,2,1,90,0,0
56085,-80,4,2,1,90,0,0
56835,-57.1428571428571,4,2,1,90,0,0
60210,-80,4,2,1,90,0,0
60585,-80,4,2,1,93,0,0
60960,-80,4,2,1,96,0,0
61335,-80,4,2,1,100,0,0
62460,-66.6666666666667,4,2,1,80,0,0
62835,-57.1428571428571,4,2,1,100,0,0
63210,-66.6666666666667,4,2,2,100,0,1
65460,-400,4,2,2,100,0,1
65741,-400,4,2,2,5,0,1
65835,-47.6190476190476,4,2,2,100,0,1
66210,-66.6666666666667,4,2,2,100,0,1
67288,-66.6666666666667,4,2,2,5,0,1
67335,-66.6666666666667,4,2,2,100,0,1
68460,-66.6666666666667,4,2,2,100,0,0
68491,-66.6666666666667,4,2,2,5,0,0
68647,-66.6666666666667,4,2,2,100,0,0
68678,-66.6666666666667,4,2,2,5,0,0
68835,-588.235294117647,4,2,2,100,0,0
68975,-588.235294117647,4,2,1,65,0,0
69116,-588.235294117647,4,2,2,5,0,0
69210,-66.6666666666667,4,2,2,100,0,1
71460,-400,4,2,2,100,0,1
71741,-400,4,2,2,5,0,1
71835,-50,4,2,2,100,0,1
72210,-66.6666666666667,4,2,2,100,0,1
73710,-80,4,2,1,80,0,0
74085,-100,4,2,1,80,0,0
74272,-100,4,2,1,80,0,0
74647,-90.9090909090909,4,2,1,85,0,0
74835,-83.3333333333333,4,2,1,90,0,0
75022,-76.9230769230769,4,2,1,95,0,0
75210,-133.333333333333,4,2,1,40,0,0
80835,-400,4,2,1,60,0,0
81116,-400,4,2,1,5,0,0
81210,-100,4,2,3,50,0,0
81866,-100,4,2,3,5,0,0
81960,-100,4,2,3,50,0,0
82616,-100,4,2,3,5,0,0
82710,-100,4,2,3,50,0,0
83178,-100,4,2,3,5,0,0
83272,-100,4,2,3,50,0,0
85616,-100,4,2,3,5,0,0
85710,-100,4,2,3,50,0,0
85991,-100,4,2,3,5,0,0
86085,-200,4,2,3,50,0,0
86647,-100,4,2,1,50,0,0
86835,-66.6666666666667,4,2,1,75,0,0
87210,-86.9565217391304,4,2,1,75,0,0
87772,-111.111111111111,4,2,1,75,0,0
88710,-86.9565217391304,4,2,1,75,0,0
89272,-111.111111111111,4,2,1,75,0,0
89460,-111.111111111111,4,2,1,75,0,0
90210,-86.9565217391304,4,2,1,75,0,0
90772,-111.111111111111,4,2,1,75,0,0
90960,-86.9565217391304,4,2,1,75,0,0
92272,-111.111111111111,4,2,1,75,0,0
92460,-100,4,2,1,75,0,0
92647,-83.3333333333333,4,2,1,75,0,0
92835,-71.4285714285714,4,2,3,75,0,0
93022,-62.5,4,2,3,75,0,0
93210,-86.9565217391304,4,2,1,75,0,0
93772,-111.111111111111,4,2,1,75,0,0
93960,-86.9565217391304,4,2,1,75,0,0
95272,-111.111111111111,4,2,1,75,0,0
96210,-86.9565217391304,4,2,1,75,0,0
96772,-111.111111111111,4,2,1,75,0,0
97710,-86.9565217391304,4,2,1,75,0,0
98272,-111.111111111111,4,2,1,75,0,0
98647,-111.111111111111,4,2,1,80,0,0
98835,-66.6666666666667,4,2,3,85,0,0
99210,-111.111111111111,4,2,3,85,0,0
99585,-111.111111111111,4,2,3,60,0,0
105210,-111.111111111111,4,2,1,40,0,0
105960,-111.111111111111,4,2,1,45,0,0
106710,-111.111111111111,4,2,1,50,0,0
107085,-111.111111111111,4,2,3,50,0,0
107272,-111.111111111111,4,2,1,50,0,0
107460,-111.111111111111,4,2,1,55,0,0
107835,-111.111111111111,4,2,3,55,0,0
108022,-111.111111111111,4,2,1,55,0,0
108210,-111.111111111111,4,2,1,60,0,0
108585,-111.111111111111,4,2,3,65,0,0
108678,-111.111111111111,4,2,1,65,0,0
108960,-111.111111111111,4,2,1,70,0,0
109335,-111.111111111111,4,2,1,75,0,0
109522,-111.111111111111,4,2,1,75,0,0
110460,-111.111111111111,4,2,1,80,0,0
110835,-57.1428571428571,4,2,1,80,0,0
111210,-66.6666666666667,4,2,1,90,0,0
111585,-100,4,2,1,90,0,0
112335,-66.6666666666667,4,2,1,90,0,0
112710,-80,4,2,1,90,0,0
115335,-66.6666666666667,4,2,1,90,0,0
115897,-80,4,2,1,90,0,0
117585,-100,4,2,1,90,0,0
118335,-66.6666666666667,4,2,1,90,0,0
119085,-80,4,2,1,90,0,0
119835,-66.6666666666667,4,2,1,90,0,0
120210,-80,4,2,1,90,0,0
121335,-66.6666666666667,4,2,1,90,0,0
121897,-80,4,2,1,90,0,0
123210,-66.6666666666667,4,2,1,90,0,0
125085,-80,4,2,1,90,0,0
126210,-66.6666666666667,4,2,1,90,0,0
126585,-80,4,2,1,90,0,0
127710,-80,4,2,1,90,0,0
128835,-57.1428571428571,4,2,1,90,0,0
132397,-66.6666666666667,4,2,1,90,0,0
132585,-66.6666666666667,4,2,1,93,0,0
132960,-66.6666666666667,4,2,1,96,0,0
133335,-66.6666666666667,4,2,1,100,0,0
134460,-66.6666666666667,4,2,1,80,0,0
134835,-57.1428571428571,4,2,1,100,0,0
135210,-66.6666666666667,4,2,2,100,0,1
137460,-400,4,2,2,100,0,1
137741,-400,4,2,2,5,0,1
137835,-50,4,2,2,100,0,1
138210,-66.6666666666667,4,2,2,100,0,1
140460,-66.6666666666667,4,2,2,100,0,0
140491,-66.6666666666667,4,2,2,5,0,0
140647,-66.6666666666667,4,2,2,100,0,0
140678,-66.6666666666667,4,2,2,5,0,0
140835,-588.235294117647,4,2,2,100,0,0
140975,-588.235294117647,4,2,1,65,0,0
141116,-588.235294117647,4,2,2,5,0,0
141210,-66.6666666666667,4,2,2,100,0,1
143460,-400,4,2,2,100,0,1
143741,-400,4,2,2,5,0,1
143835,-50,4,2,2,100,0,1
144210,-66.6666666666667,4,2,2,100,0,1
145710,-80,4,2,1,80,0,0
146460,-100,4,2,1,80,0,0
146647,-90.9090909090909,4,2,1,85,0,0
146835,-83.3333333333333,4,2,1,90,0,0
147022,-76.9230769230769,4,2,1,95,0,0
147210,-76.9230769230769,4,2,1,80,0,0
159210,-100,4,2,1,60,0,0
167085,-100,4,2,1,56,0,0
167460,-100,4,2,1,52,0,0
167835,-100,4,2,1,48,0,0
168210,-90.0900900900901,4,2,1,40,0,0
168585,-90.0900900900901,4,2,1,45,0,0
168960,-90.0900900900901,4,2,1,50,0,0
169335,-90.0900900900901,4,2,1,55,0,0
170460,-100,4,2,1,100,0,1
171022,-100,4,2,1,100,0,0
171210,-66.6666666666667,4,2,1,90,0,1
171585,-100,4,2,1,90,0,0
172335,-66.6666666666667,4,2,1,90,0,0
172710,-80,4,2,1,90,0,0
173647,-80,4,2,1,90,0,0
174772,-80,4,2,3,90,0,0
174960,-80,4,2,1,90,0,0
175147,-66.6666666666667,4,2,1,90,0,0
175335,-80,4,2,1,90,0,0
175710,-66.6666666666667,4,2,1,90,0,0
176272,-66.6666666666667,4,2,3,90,0,0
176460,-66.6666666666667,4,2,1,90,0,0
177585,-100,4,2,1,90,0,0
178335,-66.6666666666667,4,2,1,90,0,0
179085,-80,4,2,1,90,0,0
179835,-66.6666666666667,4,2,1,90,0,0
180210,-66.6666666666667,4,2,1,90,0,0
180585,-71.4285714285714,4,2,1,90,0,0
181147,-80,4,2,1,90,0,0
183210,-66.6666666666667,4,2,1,90,0,1
192210,-133.333333333333,4,2,1,90,0,1
192585,-133.333333333333,4,2,1,93,0,1
192960,-133.333333333333,4,2,1,96,0,1
193335,-133.333333333333,4,2,1,100,0,1
193710,-66.6666666666667,4,2,1,90,0,0
194460,-66.6666666666667,4,2,1,80,0,0
194835,-57.1428571428571,4,2,1,100,0,0
195210,-66.6666666666667,4,2,2,100,0,1
197460,-400,4,2,2,100,0,1
197741,-400,4,2,2,5,0,1
197835,-50,4,2,2,100,0,1
198210,-66.6666666666667,4,2,2,100,0,1
200460,-66.6666666666667,4,2,2,100,0,0
200491,-100,4,2,2,5,0,0
200647,-66.6666666666667,4,2,2,100,0,0
200678,-100,4,2,2,5,0,0
200835,-588.235294117647,4,2,2,100,0,0
200975,-588.235294117647,4,2,1,65,0,0
201116,-588.235294117647,4,2,1,5,0,0
201210,-66.6666666666667,4,2,2,100,0,1
203460,-400,4,2,2,100,0,1
203741,-400,4,2,2,5,0,1
203835,-50,4,2,2,100,0,1
204210,-66.6666666666667,4,2,2,100,0,1
205710,-80,4,2,1,70,0,0
206272,-100,4,2,1,70,0,0
206647,-100,4,2,1,78,0,0
206835,-100,4,2,1,86,0,0
207022,-100,4,2,1,94,0,0

[Colours]
Combo1 : 199,199,199
Combo2 : 198,221,209
Combo3 : 227,228,209
Combo4 : 222,190,211
Combo5 : 196,214,219
Combo6 : 255,157,157
Combo7 : 228,175,152

[HitObjects]
256,192,772,12,0,2460,0:0:0:0:
69,306,2553,70,0,L|75:281,6,16.6666666666667
100,381,2835,1,2,0:0:0:0:
100,381,3022,1,2,0:0:0:0:
0,346,3210,38,0,B|70:328|70:328|71:325|71:325|157:305,1,150.000005722046,0|0,3:0|0:0,0:0:0:0:
223,294,3772,1,0,3:0:0:0:
100,381,3960,2,0,P|51:331|92:255,1,150.000005722046,2|2,3:2|3:2,0:0:0:0:
0,14,4522,2,0,P|49:64|8:140,1,150.000005722046,2|2,0:0|0:0,0:0:0:0:
108,178,5085,1,2,0:2:0:0:
108,178,5272,1,2,3:2:0:0:
210,139,5460,2,0,L|376:91,1,150.000005722046,2|2,3:2|3:2,0:0:0:0:
264,32,6022,1,2,0:0:0:0:
361,174,6210,6,0,B|315:180|264:140|296:87|242:44|177:70,1,225.000008583069,0|0,3:0|3:2,0:0:0:0:
512,24,6960,2,0,P|448:56|455:136,1,150.000005722046,2|2,3:2|3:2,0:0:0:0:
379,376,7522,2,0,P|443:344|436:264,2,150.000005722046,2|2|2,0:2|0:0|3:2,0:0:0:0:
222,293,8460,2,0,L|188:185,1,112.500004291535,2|0,3:2|0:0,0:0:0:0:
154,79,8835,38,2,L|165:114,1,37.5,2|0,3:2|0:0,0:1:0:0:
166,115,9210,38,0,P|227:112|230:33,1,150.000005722046,2|2,3:2|0:0,0:0:0:0:
157,0,9772,1,2,3:2:0:0:
112,203,9960,2,0,P|93:164|43:132,1,100,2|2,3:2|0:0,0:0:0:0:
300,141,10335,2,0,P|310:91|345:51,1,100,2|2,3:2|0:0,0:0:0:0:
199,230,10710,6,0,P|218:208|265:275,1,150,2|0,3:2|0:0,0:0:0:0:
257,275,11085,2,0,P|201:285|202:334,1,112.500004291535,2|0,0:0|0:0,0:0:0:0:
261,380,11460,85,0,3:2:0:0:
197,135,11647,2,0,L|182:82,2,50,2|2|2,0:0|3:2|0:0,0:0:0:0:
180,301,12210,6,0,P|147:273|105:266,1,75.0000028610231,2|0,3:1|0:0,0:0:0:0:
288,270,12585,2,0,P|302:233|333:206,1,75.0000028610231,2|0,0:2|3:0,2:0:0:0:
502,362,12960,85,2,3:2:0:0:
418,384,13147,1,2,0:0:0:0:
372,312,13335,1,2,3:2:0:0:
426,245,13522,1,2,0:0:0:0:
505,276,13710,5,2,3:2:0:0:
10,22,14085,1,2,0:0:0:0:
94,0,14272,1,2,3:2:0:0:
140,72,14460,1,2,3:2:0:0:
28,234,14647,1,8,3:2:0:0:
190,346,14835,1,4,0:3:0:0:
302,184,15022,1,0,3:0:0:0:
101,344,15210,6,0,P|132:281|226:271,1,165.000005035401,0|0,3:0|0:0,0:0:0:0:
275,328,15585,1,8,0:0:0:0:
275,328,15772,2,0,L|342:306,1,55.0000016784668,8|0,0:1|0:0,0:0:0:0:
508,140,15960,2,0,L|384:180,1,110.000003356934,2|0,0:0|3:0,0:0:0:0:
281,23,16335,2,0,P|340:15|369:63,1,110.000003356934,10|2,0:0|0:0,0:0:0:0:
207,152,16710,5,0,3:0:0:0:
97,42,16897,1,2,0:0:0:0:
162,0,17085,2,0,L|131:123,1,110.000003356934,8|10,0:0|0:0,0:0:0:0:
71,384,17460,2,0,L|97:277,1,110.000003356934,2|0,0:0|3:0,0:0:0:0:
0,144,17835,1,10,0:0:0:0:
0,144,18022,2,0,L|69:122,1,55.0000016784668,2|0,0:0|0:0,0:0:0:0:
299,223,18210,86,0,P|239:203|225:289,1,165.000005035401,0|0,3:2|0:0,0:0:0:0:
277,332,18585,1,8,0:0:0:0:
277,332,18772,2,0,L|258:397,1,55.0000016784668,8|0,0:1|0:0,0:0:0:0:
438,125,18960,2,0,P|488:120|506:180,1,110.000003356934,2|0,0:0|3:0,0:0:0:0:
320,0,19335,2,0,L|346:111,1,110.000003356934,10|2,0:0|0:0,0:0:0:0:
457,240,19710,5,0,3:0:0:0:
457,240,19897,2,0,L|390:218,1,55.0000016784668,2|0,0:0|0:0,0:0:0:0:
336,264,20085,1,10,0:0:0:0:
236,128,20272,1,10,0:0:0:0:
161,172,20460,1,2,0:0:0:0:
161,172,20647,2,0,L|143:232,1,55.0000016784668,0|0,3:0|0:0,0:0:0:0:
202,329,20835,6,0,B|192:294|192:294|189:292|189:292|176:244,1,75.0000028610231,10|0,0:0|0:0,0:0:0:0:
22,159,21022,2,0,B|12:124|12:124|9:122|9:122|-4:74,1,75.0000028610231,10|0,0:0|0:0,0:0:0:0:
260,2,21210,70,0,P|232:77|150:59,1,165.000005035401,0|0,3:2|0:0,0:0:0:0:
130,3,21585,1,8,0:0:0:0:
245,196,21772,1,10,0:0:0:0:
322,147,21960,2,0,L|445:184,2,110.000003356934,2|2|10,0:0|3:2|0:0,0:0:0:0:
99,313,22522,1,2,0:0:0:0:
81,216,22710,6,0,P|109:291|191:273,1,165.000005035401,2|0,3:2|0:0,0:0:0:0:
230,350,23085,1,10,0:0:0:0:
230,350,23272,2,0,L|282:333,1,55.0000016784668,8|0,0:1|0:0,0:0:0:0:
478,277,23460,1,2,0:0:0:0:
358,380,23647,2,0,L|397:260,2,110.000003356934,2|8|2,3:2|0:0|0:0,0:0:0:0:
460,5,24210,86,0,L|520:192,1,165.000005035401,2|0,3:1|0:0,0:0:0:0:
452,206,24585,1,10,0:0:0:0:
242,100,24772,1,8,0:0:0:0:
302,41,24960,2,0,P|359:44|385:98,1,110.000003356934,0|0,0:0|3:2,0:0:0:0:
219,326,25335,2,0,L|171:168,1,165.000005035401,8|0,0:2|0:0,0:0:0:0:
242,100,25710,6,0,L|194:257,1,165.000005035401,0|0,3:2|0:0,0:0:0:0:
120,278,26085,1,10,0:0:0:0:
120,278,26272,2,0,L|60:296,1,55.0000016784668,10|0,0:0|0:0,0:0:0:0:
40,361,26460,1,2,0:0:0:0:
108,120,26647,1,2,3:2:0:0:
26,135,26835,6,0,B|58:144|58:144|61:141|61:141|123:162,1,75.0000028610231,10|0,1:2|0:0,0:0:0:0:
209,320,27022,2,0,B|244:329|244:329|248:326|248:326|306:347,1,75.0000028610231,10|0,1:2|0:0,0:0:0:0:
512,384,27210,22,0,P|483:310|382:311,2,179.999994506836,4|8|0,0:0|0:0|0:0,0:0:0:0:
374,203,28147,2,0,P|329:202|297:246,1,89.9999972534181,2|8,0:0|0:0,0:0:0:0:
300,233,28522,2,0,P|366:230|300:114,1,269.999991760254,2|8,0:0|0:0,0:0:0:0:
302,112,29272,1,8,0:0:0:0:
440,0,29460,1,0,0:0:0:0:
440,0,29647,2,0,L|346:34,1,89.9999972534181,2|8,0:0|0:0,0:0:0:0:
145,107,30022,2,0,L|89:126,1,44.999998626709,2|0,0:0|0:0,0:0:0:0:
56,55,30210,54,0,L|247:104,2,179.999994506836,2|10|2,0:0|0:0|0:0,0:0:0:0:
136,27,31147,1,2,0:0:0:0:
1,235,31335,1,8,0:0:0:0:
54,175,31522,2,0,P|117:152|137:302,1,269.999991760254,2|8,0:0|0:0,0:0:0:0:
144,298,32272,1,8,0:0:0:0:
1,235,32460,2,0,L|87:209,1,89.9999972534181,0|2,0:0|0:0,0:0:0:0:
209,347,32835,2,0,L|295:321,1,89.9999972534181,8|2,0:0|0:0,0:0:0:0:
480,284,33210,37,2,1:0:0:0:
410,259,33397,1,0,1:0:0:0:
385,328,33585,1,8,1:1:0:0:
455,353,33772,1,0,1:0:0:0:
380,99,33960,53,0,1:0:0:0:
287,142,34147,1,0,1:0:0:0:
329,233,34335,1,8,1:1:0:0:
329,233,34522,2,0,L|347:179,1,44.999998626709,2|0,1:2|0:0,0:0:0:0:
512,0,34710,37,2,1:2:0:0:
405,32,34897,1,0,1:0:0:0:
216,39,35085,53,10,1:2:0:0:
198,112,35272,1,0,1:0:0:0:
30,285,35460,37,2,1:2:0:0:
104,359,35647,1,2,1:2:0:0:
179,285,35835,1,10,1:2:0:0:
104,210,36022,1,2,1:2:0:0:
288,363,36210,53,2,1:2:0:0:
289,359,36303,1,0,1:0:0:0:
290,355,36397,2,0,L|307:281,1,44.999998626709,0|0,1:0|1:0,1:0:0:0:
202,271,36585,37,10,1:2:0:0:
201,267,36678,1,0,1:0:0:0:
200,263,36772,2,0,L|183:189,1,44.999998626709,0|0,1:0|1:0,1:0:0:0:
362,213,36960,53,0,1:0:0:0:
363,209,37053,1,0,1:0:0:0:
364,205,37147,2,0,L|381:131,1,44.999998626709,0|0,1:0|1:0,1:0:0:0:
121,119,37335,38,0,L|104:45,1,44.999998626709,8|0,1:0|1:0,1:0:0:0:
256,0,37522,85,4,1:3:0:0:
256,0,37616,1,0,1:0:0:0:
256,0,37710,1,0,1:0:0:0:
286,194,37897,5,8,0:2:0:0:
245,163,37991,1,8,0:2:0:0:
240,214,38084,1,8,1:2:0:0:
465,130,38272,1,0,3:2:0:0:
465,130,38460,2,0,L|443:202,1,44.999998626709,0|0,1:2|0:2,0:0:0:0:
389,383,38647,1,0,3:0:0:0:
469,354,38835,86,0,B|466:332|447:320|447:320|448:316|448:316|433:303|398:302,1,87.500000834465,0|0,1:0|0:0,0:0:0:0:
314,188,39022,2,0,B|293:179|273:190|273:190|270:187|270:187|251:193|233:223,1,87.500000834465,0|0,1:0|0:0,0:0:0:0:
159,384,39210,54,0,B|142:337|142:337|89:322|89:322|86:324|86:324|30:305|30:305|1:233,1,225.000008583069,4|0,1:2|0:0,0:0:0:0:
0,174,39585,2,0,L|50:188,1,50,8|0,0:0|0:0,0:0:0:0:
120,205,39772,1,8,1:0:0:0:
315,12,39960,1,0,0:0:0:0:
315,12,40147,2,0,L|256:30,1,50,2|0,3:2|0:0,0:0:0:0:
128,35,40335,2,0,P|212:-1|207:113,1,225.000008583069,10|0,1:2|0:0,1:0:0:0:
143,112,40710,6,0,B|188:102|230:131|197:174|242:212|295:199,1,187.5,4|0,1:3|0:0,0:0:0:0:
377,95,41085,1,8,0:2:0:0:
377,95,41272,2,0,P|342:98|316:124,1,62.5,8|0,1:0|0:0,0:0:0:0:
512,333,41460,1,0,0:0:0:0:
442,384,41647,2,0,L|477:259,2,125,2|10|2,3:2|1:2|0:0,0:0:0:0:
241,160,42210,70,0,P|286:87|387:104,1,187.5,4|0,1:3|0:0,0:0:0:0:
333,0,42585,2,0,B|306:23|306:23|305:64,1,62.5,8|0,0:0|0:0,0:0:0:0:
356,245,42772,2,0,P|413:180|365:89,1,187.5,8|0,1:0|2:0,2:0:0:0:
482,91,43147,2,0,B|474:123|474:123|435:141,1,62.5,2|0,3:2|0:0,0:0:0:0:
335,359,43335,2,0,B|268:339|268:339|249:356|249:356|185:341,1,150.000005722046,10|0,1:2|0:2,1:0:0:0:
56,249,43710,85,4,1:3:0:0:
0,303,43897,2,0,L|80:281,1,62.5,0|0,1:0|0:0,0:0:0:0:
113,153,44085,2,0,P|201:151|239:251,1,187.5,8|0,1:2|0:0,0:0:0:0:
275,13,44460,2,0,P|315:78|283:140,1,125,0|2,1:0|3:2,0:0:0:0:
470,26,44835,2,0,P|448:60|407:67,1,62.5,10|0,1:2|0:0,0:0:0:0:
353,46,45022,1,10,0:1:0:0:
489,264,45210,22,0,B|493:200|419:198|419:198|364:248|418:295,1,225.000008583069,4|0,1:3|0:0,0:0:0:0:
475,348,45585,2,0,L|406:326,1,50,8|0,0:0|0:0,0:0:0:0:
365,379,45772,1,0,1:2:0:0:
244,222,45960,1,0,0:0:0:0:
244,222,46147,2,0,L|291:208,1,50,2|0,3:2|0:0,0:0:0:0:
292,208,46335,2,0,L|76:141,1,225.000008583069,10|0,1:2|0:0,1:0:0:0:
200,97,46710,6,0,B|219:155|174:208|123:169|89:219|105:275,1,225.000008583069,4|0,1:3|0:0,0:0:0:0:
133,371,47085,2,0,P|96:298|-3:300,1,187.5,8|0,0:0|0:0,0:0:0:0:
187,267,47460,1,0,0:0:0:0:
187,267,47647,2,0,P|205:240|246:228,1,62.5,2|0,3:2|0:0,0:0:0:0:
479,357,47835,2,0,B|388:333|388:333|386:335|386:335|249:297,1,225.000008583069,10|0,1:2|0:0,0:0:0:0:
234,378,48210,70,0,P|320:365|345:268,1,187.5,4|0,1:3|0:0,0:0:0:0:
484,158,48585,2,0,B|450:167|450:167|434:189,1,62.5,8|0,0:0|0:0,0:0:0:0:
497,233,48772,2,0,P|411:220|383:124,1,187.5,0|0,1:3|0:0,0:0:0:0:
375,32,49147,2,0,B|405:36|405:36|424:63,1,62.5,2|0,3:2|0:0,0:0:0:0:
280,194,49335,2,0,B|233:184|233:184|208:135|208:135|157:121,1,150.000005722046,10|0,1:2|0:0,1:0:0:0:
75,319,49710,85,4,1:3:0:0:
2,264,49897,2,0,L|88:290,1,62.5,0|0,1:2|0:0,0:0:0:0:
308,384,50085,2,0,P|276:303|176:318,1,187.5,8|0,1:2|0:0,0:0:0:0:
445,228,50460,2,0,P|384:223|359:284,1,125,0|2,1:0|3:2,0:0:0:0:
427,71,50835,2,0,P|416:101|430:132,1,62.5,10|0,1:2|0:0,0:0:0:0:
494,161,51022,1,10,1:0:0:0:
273,58,51210,22,0,B|212:55|180:114|180:114|185:47|127:12,1,225.000008583069,4|0,1:2|0:0,0:0:0:0:
63,0,51585,2,0,P|25:22|17:63,1,75.0000028610231,8|0,1:2|0:0,0:0:0:0:
133,230,51772,1,8,0:1:0:0:
95,147,51960,1,2,0:0:0:0:
15,267,52147,1,2,3:2:0:0:
224,356,52335,1,10,1:2:0:0:
56,384,52522,1,2,0:0:0:0:
206,174,52710,6,0,B|254:202|249:269|249:269|280:210|341:213,1,225.000008583069,2|0,3:2|0:0,0:0:0:0:
407,112,53085,2,0,B|367:135|371:190|371:190|345:141|294:144,1,187.5,10|0,1:2|0:0,0:0:0:0:
262,80,53460,85,2,0:0:0:0:
470,171,53647,1,2,3:2:0:0:
379,379,53835,1,10,1:2:0:0:
486,322,54022,1,2,0:0:0:0:
280,225,54210,86,0,B|220:227|188:168|188:168|193:235|145:264,1,225.000008583069,2|0,3:2|0:0,0:0:0:0:
75,305,54585,2,0,B|107:323|103:382|103:382|131:330|184:333,1,187.5,10|0,1:2|0:0,0:0:0:0:
246,373,54960,5,2,0:0:0:0:
7,266,55147,1,2,3:2:0:0:
114,27,55335,1,10,1:2:0:0:
0,94,55522,1,2,0:2:0:0:
231,241,55710,70,0,B|311:244|353:165|353:165|347:255|411:293,2,300.000011444092,2|10|2,3:2|1:2|0:0,0:0:0:0:
303,344,56647,1,2,3:2:0:0:
440,140,56835,2,0,B|369:143|333:73|333:73|338:152|282:185,1,262.500002503395,14|0,1:2|0:0,0:0:0:0:
209,145,57210,21,10,1:2:0:0:
480,62,57397,1,0,3:0:0:0:
288,68,57585,5,10,1:2:0:0:
377,91,57772,1,0,3:0:0:0:
218,243,57960,85,10,1:2:0:0:
393,313,58147,1,2,3:2:0:0:
463,138,58335,1,10,1:2:0:0:
288,68,58522,1,2,3:2:0:0:
399,20,58710,85,10,1:2:0:0:
480,286,58897,1,0,3:0:0:0:
473,126,59085,85,10,1:2:0:0:
407,203,59272,1,0,3:2:0:0:
226,9,59460,21,10,1:2:0:0:
136,238,59647,1,2,3:2:0:0:
325,152,59835,1,8,1:2:0:0:
145,61,60022,1,2,3:2:0:0:
62,336,60210,5,8,3:2:0:0:
64,330,60303,1,0,1:0:0:0:
66,324,60397,2,0,P|47:299|2:293,1,62.5,0|0,1:2|1:0,0:0:0:0:
251,269,60585,1,8,3:2:0:0:
246,264,60678,1,0,1:0:0:0:
243,260,60772,2,0,P|249:229|287:204,1,62.5,0|0,1:2|1:0,0:0:0:0:
179,344,60960,69,8,3:2:0:0:
170,323,61053,1,0,1:2:0:0:
161,302,61147,1,2,1:2:0:0:
152,281,61241,1,0,1:2:0:0:
136,238,61335,1,10,3:2:0:0:
119,196,61428,1,0,1:2:0:0:
101,154,61522,1,2,1:2:0:0:
85,111,61616,69,0,1:2:0:0:
147,195,62460,2,0,B|159:164|159:164|131:195,1,75.0000028610231,8|0,0:0|0:0,0:0:0:0:
137,191,62647,2,0,B|149:160|149:160|121:191,1,75.0000028610231,0|0,1:0|0:0,0:0:0:0:
117,285,62835,2,0,B|40:389|40:389|71:259,1,262.500002503395,4|0,1:2|0:0,0:0:0:0:
72,260,63210,70,0,L|167:234,1,75.0000028610231,6|0,1:2|0:0,0:0:0:0:
197,132,63397,2,0,L|269:152,1,75.0000028610231,2|0,0:2|0:0,0:0:0:0:
246,328,63585,2,0,L|340:301,1,75.0000028610231,2|0,0:2|0:0,0:0:0:0:
498,282,63772,1,2,2:2:0:0:
497,266,63835,1,0,2:2:0:0:
512,255,63897,1,0,2:2:0:0:
510,242,63960,1,10,2:2:0:0:
378,384,64147,1,0,1:0:0:0:
80,250,64335,6,0,B|113:240|113:240|115:235|115:235|174:223,1,75.0000028610231,2|0,0:2|0:0,0:0:0:0:
203,144,64522,2,0,B|242:155|242:155|245:150|245:150|275:164,1,75.0000028610231,2|0,1:2|0:0,0:0:0:0:
253,318,64710,2,0,B|289:306|289:306|293:302|293:302|347:291,1,75.0000028610231,2|0,0:2|0:0,0:0:0:0:
424,250,64897,1,2,0:2:0:0:
428,240,64960,1,0,0:0:0:0:
470,119,65085,1,2,1:2:0:0:
269,101,65272,6,0,L|297:94,5,25.0000009536744
261,103,65460,2,0,L|221:114,1,37.5,10|0,0:0|0:0,0:0:0:0:
207,0,65835,70,4,B|189:56|189:56|252:102|252:102|251:110|251:110|254:102|254:102|333:159|333:159|305:239,1,314.999990386963,4|0,0:1|0:2,1:2:0:0:
216,368,66210,6,0,B|220:357|220:357|200:289,1,75.0000028610231,2|0,1:2|0:0,0:0:0:0:
307,236,66397,2,0,B|302:225|302:225|320:164,1,75.0000028610231,2|0,0:2|0:0,0:0:0:0:
130,135,66585,2,0,B|134:124|134:124|114:56,1,75.0000028610231,2|0,0:2|0:0,0:0:0:0:
0,254,66772,1,2,2:2:0:0:
16,253,66835,1,0,2:2:0:0:
27,268,66897,1,0,2:2:0:0:
40,266,66960,1,10,2:2:0:0:
210,202,67147,1,0,1:0:0:0:
211,374,67335,86,0,B|213:362|213:362|191:309|191:309|179:306,1,75.0000028610231,2|0,0:0|0:0,0:0:0:0:
313,241,67522,2,0,B|310:229|310:229|331:183|331:183|341:178,1,75.0000028610231,2|0,1:2|0:0,0:0:0:0:
124,139,67710,2,0,B|126:127|126:127|98:77|98:77|89:75,1,75.0000028610231,2|0,0:0|0:0,0:0:0:0:
376,14,67897,1,2,0:0:0:0:
379,3,67960,1,0,0:0:0:0:
312,52,68085,2,0,L|473:9,1,150.000005722046,2|0,1:2|0:0,0:0:0:0:
493,98,68335,5,0,0:0:0:0:
506,95,68397,1,0,0:0:0:0:
502,88,68460,86,0,L|520:50,1,25.0000009536744,8|0,0:0|0:0,0:0:0:0:
414,138,68647,2,0,L|372:139,1,25
495,187,68835,22,2,L|510:208,1,25.5000001556397,0|0,0:0|0:0,0:1:0:0:
509,207,69210,86,0,L|436:226,1,75.0000028610231,6|0,1:2|0:0,0:0:0:0:
392,323,69397,2,0,L|320:303,1,75.0000028610231,2|0,0:2|0:0,0:0:0:0:
267,166,69585,2,0,L|194:186,1,75.0000028610231,2|0,0:2|0:0,0:0:0:0:
133,355,69772,1,2,2:2:0:0:
149,354,69835,1,0,2:2:0:0:
160,369,69897,1,0,2:2:0:0:
173,367,69960,1,10,2:2:0:0:
70,221,70147,1,0,1:0:0:0:
499,215,70335,86,0,B|463:224|463:224|461:222|461:222|458:233|458:233|430:239,1,75.0000028610231,2|0,0:2|0:0,0:0:0:0:
379,336,70522,2,0,B|355:331|355:331|352:320|352:320|350:322|350:322|314:313,1,75.0000028610231,2|0,1:2|0:0,0:0:0:0:
257,180,70710,2,0,B|221:189|221:189|219:187|219:187|216:198|216:198|192:202,1,75.0000028610231,2|0,0:2|0:0,0:0:0:0:
22,376,70897,1,2,0:2:0:0:
35,381,70959,1,0,2:2:0:0:
139,273,71085,1,2,1:2:0:0:
89,73,71272,22,0,L|82:45,5,25.0000009536744
91,81,71460,2,0,L|102:121,1,37.5,10|0,0:0|0:0,0:0:0:0:
0,75,71835,70,0,B|113:102|113:102|161:59|161:59|204:70|204:70|200:72|200:72|276:93,1,300,4|0,0:1|0:0,1:0:0:0:
512,15,72210,6,0,B|471:17|471:17|436:71,1,75.0000028610231,2|0,1:2|0:0,0:0:0:0:
322,42,72397,2,0,B|304:80|304:80|324:119,1,75.0000028610231,2|0,0:2|0:0,0:0:0:0:
259,224,72585,2,0,B|282:252|282:252|344:261,1,75.0000028610231,2|0,0:2|0:0,0:0:0:0:
441,151,72772,1,2,2:2:0:0:
429,161,72835,1,0,2:2:0:0:
410,156,72897,1,0,2:2:0:0:
401,166,72960,1,10,2:2:0:0:
512,229,73147,1,0,1:0:0:0:
506,10,73335,86,0,B|464:17|464:17|466:20|466:20|442:56,1,75.0000028610231,2|0,0:2|0:0,0:0:0:0:
309,45,73522,2,0,B|294:84|294:84|298:84|298:84|317:123,1,75.0000028610231,2|0,1:2|0:0,0:0:0:0:
483,302,73710,86,0,P|392:292|348:374,1,187.5,2|0,0:0|0:0,0:0:0:0:
273,384,74085,1,2,0:0:0:0:
273,384,74272,2,0,P|263:363|230:347,1,50,2|0,0:0|0:0,0:0:0:0:
85,295,74460,86,0,L|137:280,1,50,8|0,0:1|0:0,0:0:0:0:
151,237,74647,2,0,L|213:254,1,55.0000016784668,8|0,0:1|0:0,0:0:0:0:
240,348,74835,2,0,L|299:330,1,59.9999981689454,8|0,0:1|0:0,0:0:0:0:
307,202,75022,2,0,L|372:220,1,64.9999970245363,8|0,0:1|0:0,0:0:0:0:
512,368,75210,54,0,P|442:371|404:300,3,150.000005722046,0|0|0|0,3:2|3:0|3:0|3:0,0:0:0:0:
323,280,76710,2,0,P|393:283|431:212,3,150.000005722046,0|0|0|0,3:0|3:0|3:0|3:0,0:0:0:0:
0,16,78210,2,0,P|70:13|108:84,3,150.000005722046,0|0|0|0,3:0|3:0|3:0|3:0,0:0:0:0:
32,83,79522,1,0,0:0:0:0:
189,104,79710,2,0,P|119:101|81:172,2,150.000005722046,0|0|0,3:0|3:0|3:0,0:0:0:0:
0,384,80835,70,2,L|12:336,1,37.5000014305115,0|0,3:0|0:0,0:1:0:0:
9,347,81210,86,0,P|56:352|92:305,1,100,0|0,3:2|0:0,0:0:0:0:
200,201,81585,2,0,P|123:212|77:142,1,150,8|0,3:2|0:0,0:0:0:0:
89,316,81960,2,0,P|69:272|11:265,1,100,0|0,3:2|0:0,0:0:0:0:
173,77,82335,2,0,P|221:138|183:213,1,150,8|0,3:2|0:0,0:0:0:0:
77,73,82710,69,0,3:2:0:0:
80,163,82897,2,0,P|108:90|192:85,1,150,0|0,0:2|0:0,0:0:0:0:
243,125,83272,1,0,0:0:0:0:
512,0,83460,2,0,P|460:83|370:70,2,200,0|8|0,3:2|3:2|3:0,0:0:0:0:
277,150,84585,22,0,P|301:188|360:190,2,100,8|0|0,3:2|0:0|3:2,0:0:0:0:
443,142,85147,1,0,0:0:0:0:
385,290,85335,2,0,P|456:281|489:217,1,150,8|0,3:2|0:0,0:0:0:0:
401,378,85710,70,0,P|367:314|296:305,1,150,0|0,3:2|0:0,0:0:0:0:
269,377,86085,2,0,L|254:322,2,50,8|0|0,3:2|0:0|0:0,0:0:0:0:
177,0,86647,1,8,0:1:0:0:
104,87,86835,38,0,P|123:115|179:130,1,75.0000028610231,8|0,0:1|0:0,0:0:0:0:
256,107,87022,2,0,P|281:84|290:26,1,75.0000028610231,8|0,0:1|0:0,0:0:0:0:
4,271,87210,70,0,P|27:218|138:217,1,172.500003290176,2|0,3:1|0:0,0:0:0:0:
250,370,87585,1,8,0:0:0:0:
254,357,87772,2,0,L|268:307,1,44.999998626709,8|0,1:0|0:0,0:0:0:0:
384,157,87960,85,2,0:0:0:0:
389,167,88147,1,2,3:2:0:0:
472,143,88335,1,10,0:0:0:0:
467,133,88522,1,2,0:0:0:0:
473,0,88710,6,0,L|419:174,1,172.500003290176,2|0,3:1|0:0,0:0:0:0:
281,56,89085,1,8,0:0:0:0:
268,61,89272,2,0,L|217:79,1,44.999998626709,8|0,1:0|0:0,0:0:0:0:
107,57,89460,86,0,P|124:26|180:21,2,89.9999972534181,2|2|10,0:0|3:2|0:0,0:0:0:0:
107,57,90022,1,2,0:0:0:0:
5,147,90210,6,0,P|12:231|96:262,1,172.500003290176,2|0,3:1|0:0,0:0:0:0:
209,160,90585,1,8,0:0:0:0:
222,155,90772,2,0,L|273:137,1,44.999998626709,0|0,1:0|0:0,0:0:0:0:
390,220,90960,85,2,0:0:0:0:
383,231,91147,1,2,3:2:0:0:
310,384,91335,1,10,0:0:0:0:
317,373,91522,1,2,0:0:0:0:
497,252,91710,6,0,B|417:273|417:273|403:268|403:268|312:296,1,172.500003290176,2|0,3:1|0:0,0:0:0:0:
438,366,92085,1,8,0:0:0:0:
441,356,92272,2,0,L|461:301,1,44.999998626709,8|0,1:0|0:0,0:0:0:0:
334,210,92460,38,0,L|285:222,1,50,2|0,0:0|0:0,0:0:0:0:
252,270,92647,2,0,L|190:253,1,59.9999981689454,2|0,3:2|0:0,0:0:0:0:
133,175,92835,86,0,L|94:185,3,23.3333326212565,10|0|0|0,0:0|0:0|0:0|0:0,0:0:0:0:
30,312,93022,2,0,L|2:304,3,26.6666666666667,10|0|0|0,0:0|0:0|0:0|0:0,0:0:0:0:
227,141,93210,70,0,P|193:77|101:90,1,172.500003290176,4|0,3:2|0:0,0:0:0:0:
17,288,93585,1,8,0:0:0:0:
30,284,93772,2,0,L|83:266,1,44.999998626709,8|0,1:0|0:0,0:0:0:0:
310,311,93960,85,2,0:0:0:0:
305,323,94147,1,2,3:2:0:0:
213,295,94335,1,10,0:0:0:0:
218,283,94522,1,2,0:0:0:0:
221,384,94710,6,0,L|170:209,1,172.500003290176,2|0,3:1|0:0,0:0:0:0:
302,98,95085,1,8,0:0:0:0:
306,114,95272,2,0,L|330:196,1,44.999998626709,8|0,1:0|0:0,0:0:0:0:
202,311,95460,85,2,0:0:0:0:
207,323,95647,1,2,3:2:0:0:
299,295,95835,1,10,0:0:0:0:
294,283,96022,1,2,0:0:0:0:
414,365,96210,6,0,P|486:368|509:277,1,172.500003290176,2|0,3:1|0:0,0:0:0:0:
410,172,96585,1,8,0:0:0:0:
406,156,96772,2,0,L|381:73,1,44.999998626709,8|0,1:0|0:0,0:0:0:0:
443,48,96960,86,0,P|487:49|509:97,2,89.9999972534181,2|2|10,0:0|3:2|0:0,0:0:0:0:
491,195,97522,1,2,0:0:0:0:
369,7,97710,6,0,B|309:19|309:19|275:73|275:73|211:86,1,172.500003290176,2|0,3:1|0:0,0:0:0:0:
164,12,98085,1,8,0:0:0:0:
160,27,98272,2,0,L|144:78,1,44.999998626709,8|0,1:0|0:0,0:0:0:0:
91,276,98460,1,2,0:0:0:0:
53,96,98647,1,2,3:2:0:0:
15,171,98835,22,0,B|18:150|32:139|32:139|35:140|35:140|49:124|69:125,1,75.0000028610231,10|0,1:2|0:0,0:0:0:0:
175,151,99022,2,0,B|194:158|202:174|202:174|200:177|200:177|213:193|209:213,1,75.0000028610231,10|0,1:2|0:0,0:0:0:0:
0,384,99210,22,0,P|29:310|130:311,2,179.999994506836,4|8|0,0:0|0:0|0:0,0:0:0:0:
230,247,100147,2,0,P|207:212|161:208,1,89.9999972534181,2|8,0:0|0:0,0:0:0:0:
162,208,100522,2,0,P|187:330|310:304,1,269.999991760254,2|8,0:0|0:0,0:0:0:0:
305,310,101272,1,8,0:0:0:0:
121,299,101460,2,0,L|93:384,2,89.9999972534181,0|2|8,0:0|0:0|0:0,0:0:0:0:
1,167,102022,2,0,L|22:98,1,44.999998626709,2|0,0:0|0:0,0:0:0:0:
128,107,102210,22,0,P|90:35|-18:48,2,179.999994506836,2|10|2,0:0|0:0|0:0,0:0:0:0:
52,233,103147,1,2,0:0:0:0:
213,94,103335,1,8,0:0:0:0:
250,176,103522,2,0,L|521:104,1,269.999991760254,2|8,0:0|0:0,0:0:0:0:
510,106,104272,1,8,0:0:0:0:
330,20,104460,2,0,P|374:28|401:64,1,89.9999972534181,0|2,0:0|0:0,0:0:0:0:
420,156,104835,2,0,P|408:200|371:224,1,89.9999972534181,8|2,0:0|0:0,0:0:0:0:
192,332,105210,69,2,1:0:0:0:
279,356,105397,1,0,1:0:0:0:
303,269,105585,1,8,1:0:0:0:
216,245,105772,1,0,1:0:0:0:
82,384,105960,21,0,1:0:0:0:
18,320,106147,1,0,1:0:0:0:
82,256,106335,1,8,1:0:0:0:
82,256,106522,2,0,L|144:279,1,44.999998626709,2|0,1:2|0:0,1:0:0:0:
158,123,106710,69,2,1:2:0:0:
37,171,106897,1,0,1:0:0:0:
321,67,107085,21,10,1:2:0:0:
259,17,107272,1,0,1:0:0:0:
471,330,107460,69,2,1:2:0:0:
502,203,107647,1,2,1:2:0:0:
375,172,107835,1,10,1:2:0:0:
344,298,108022,1,2,1:2:0:0:
497,152,108210,21,2,1:2:0:0:
493,151,108303,1,0,1:0:0:0:
489,150,108397,2,0,L|415:133,1,44.999998626709,0|0,1:0|1:0,0:0:0:0:
386,260,108585,69,10,1:2:0:0:
382,261,108678,1,0,1:0:0:0:
378,262,108772,2,0,L|304:279,1,44.999998626709,0|0,1:0|1:0,0:0:0:0:
282,178,108960,21,0,1:0:0:0:
278,177,109053,1,0,1:0:0:0:
274,176,109147,2,0,L|200:159,1,44.999998626709,0|0,1:0|1:0,0:0:0:0:
202,364,109335,70,0,L|128:381,1,44.999998626709,8|0,1:0|1:0,0:0:0:0:
6,233,109522,85,4,1:3:0:0:
6,233,109616,1,0,1:0:0:0:
6,233,109710,1,0,1:0:0:0:
192,33,109897,5,8,0:2:0:0:
197,84,109991,1,8,0:2:0:0:
151,64,110085,1,8,1:2:0:0:
360,21,110272,1,0,3:0:0:0:
360,21,110460,2,0,L|300:39,1,44.999998626709,8|0,1:0|0:0,0:0:0:0:
0,124,110647,1,0,3:0:0:0:
10,41,110835,86,0,B|50:52|50:52|48:57|48:57|71:92,1,87.500000834465,0|0,1:2|0:0,0:0:0:0:
215,163,111022,2,0,B|204:203|204:203|198:202|198:202|164:224,1,87.500000834465,0|0,1:2|0:0,0:0:0:0:
2,353,111210,54,0,B|54:364|54:364|93:325|93:325|133:336|133:336|136:335|136:335|210:355,1,225.000008583069,4|0,1:2|0:0,0:0:0:0:
336,332,111585,2,0,L|287:318,1,50,8|0,0:0|0:0,0:0:0:0:
238,248,111772,1,8,1:0:0:0:
429,120,111960,1,0,0:0:0:0:
429,120,112147,2,0,L|447:179,1,50,2|0,3:2|0:0,0:0:0:0:
503,239,112335,2,0,P|474:159|347:169,1,225.000008583069,10|0,1:2|0:0,1:0:0:0:
377,46,112710,6,0,P|351:115|242:106,1,187.5,4|0,1:3|0:0,0:0:0:0:
242,21,113085,1,8,0:2:0:0:
242,21,113272,2,0,P|275:25|297:55,1,62.5,8|0,1:0|0:0,0:0:0:0:
64,227,113460,1,0,0:0:0:0:
17,159,113647,2,0,P|51:110|121:119,2,125,2|10|2,3:2|1:2|0:0,0:0:0:0:
205,317,114210,70,0,L|7:370,1,187.5,4|0,1:3|0:0,0:0:0:0:
125,369,114585,2,0,P|105:347|116:307,1,62.5,8|0,0:0|0:0,0:0:0:0:
202,204,114772,2,0,L|383:252,1,187.5,8|0,1:0|0:0,0:0:0:0:
306,195,115147,2,0,P|309:225|289:247,1,62.5,2|0,3:2|0:0,0:0:0:0:
76,23,115335,2,0,B|88:64|88:64|49:118|49:118|66:169,1,150.000005722046,10|0,1:2|0:0,1:0:0:0:
299,12,115710,85,4,1:3:0:0:
234,65,115897,2,0,L|293:44,1,62.5,0|0,1:0|0:0,0:0:0:0:
382,252,116085,2,0,B|451:271|503:217|503:217|509:187|496:156,1,187.5,8|0,1:2|0:0,0:0:0:0:
297,325,116460,2,0,B|321:360|357:372|357:372|386:369|406:346,1,125,0|2,1:0|3:2,0:0:0:0:
198,302,116835,2,0,B|186:312|187:336|187:336|194:349|205:354,1,62.5,10|0,1:2|0:0,0:0:0:0:
246,236,117022,1,10,1:0:0:0:
512,42,117210,22,0,B|458:10|419:42|419:42|407:90|354:92,1,187.5,4|0,1:3|0:0,0:0:0:0:
290,149,117585,2,0,P|318:154|333:169,1,50,8|0,0:0|0:0,0:0:0:0:
372,229,117772,1,8,1:0:0:0:
149,0,117960,1,0,0:0:0:0:
149,0,118147,2,0,L|166:48,1,50,2|0,3:2|0:0,0:0:0:0:
165,47,118335,2,0,B|156:101|156:101|46:168|46:168|33:225,1,225.000008583069,8|0,1:2|0:0,1:0:0:0:
8,92,118710,6,0,B|54:54|122:107|77:156|138:200|183:175,1,225.000008583069,4|0,1:3|0:0,0:0:0:0:
286,205,119085,2,0,P|197:193|156:280,1,187.5,8|0,0:0|0:0,0:0:0:0:
80,315,119460,1,0,0:0:0:0:
80,315,119647,2,0,L|139:293,1,62.5,2|0,3:2|0:0,0:0:0:0:
396,286,119835,2,0,B|296:320|296:320|296:323|296:323|178:361,1,225.000008583069,10|0,1:2|0:0,0:0:0:0:
352,348,120210,70,0,P|446:362|479:278,1,187.5,4|0,1:3|0:0,0:0:0:0:
410,100,120585,2,0,L|436:169,1,62.5,8|0,0:0|0:0,0:0:0:0:
510,150,120772,2,0,P|416:136|383:220,1,187.5,8|0,1:0|0:0,0:0:0:0:
316,271,121147,2,0,L|293:212,1,62.5,2|0,3:2|0:0,0:0:0:0:
65,114,121335,2,0,B|109:95|109:95|128:107|128:107|217:75,1,150.000005722046,10|0,1:2|0:0,1:0:0:0:
372,0,121710,85,4,1:3:0:0:
451,4,121897,2,0,L|392:26,1,62.5,0|0,1:0|0:0,0:0:0:0:
136,172,122085,2,0,B|112:158|99:131|99:131|108:56|174:30,1,187.5,8|0,1:2|0:0,0:0:0:0:
81,269,122460,2,0,B|64:278|42:277|42:277|-1:244|5:193,1,125,0|2,1:0|3:2,0:0:0:0:
231,326,122835,2,0,B|231:338|222:350|222:350|190:364|164:343,1,62.5,10|0,1:2|0:0,0:0:0:0:
98,374,123022,1,10,1:0:0:0:
463,183,123210,22,0,B|529:156|493:90|493:90|423:68|405:130,1,225.000008583069,4|0,1:2|0:0,0:0:0:0:
329,115,123585,2,0,B|322:157|322:157|354:189,1,75.0000028610231,8|0,1:2|0:0,0:0:0:0:
499,322,123772,1,8,0:1:0:0:
438,384,123960,1,2,0:0:0:0:
267,222,124147,1,2,3:2:0:0:
419,303,124335,1,10,1:2:0:0:
291,384,124522,1,2,0:0:0:0:
344,180,124710,6,0,B|396:143|352:84|352:84|279:71|275:143,1,225.000008583069,2|0,3:2|0:0,0:0:0:0:
202,246,125085,2,0,B|168:209|203:164|203:164|266:167|267:226,1,187.5,10|0,1:2|0:0,0:0:0:0:
261,302,125460,85,2,0:0:0:0:
64,362,125647,1,2,3:2:0:0:
4,165,125835,1,10,1:2:0:0:
107,228,126022,1,2,0:0:0:0:
100,34,126210,86,0,B|63:-18|4:25|4:25|-8:98|63:102,1,225.000008583069,2|0,3:2|0:0,0:0:0:0:
232,10,126585,2,0,B|195:-24|150:11|150:11|153:74|212:75,1,187.5,10|0,1:2|0:0,0:0:0:0:
314,0,126960,5,2,0:0:0:0:
352,254,127147,1,2,3:2:0:0:
496,151,127335,1,10,1:2:0:0:
288,87,127522,1,2,0:0:0:0:
216,325,127710,70,0,B|257:384|324:335|324:335|338:252|257:247,2,250,2|10|2,3:2|1:2|0:0,0:0:0:0:
141,234,128647,1,2,3:2:0:0:
461,261,128835,2,0,B|418:322|349:271|349:271|334:186|418:181,1,262.500002503395,14|0,1:2|0:0,0:0:0:0:
497,190,129210,21,10,1:2:0:0:
189,44,129397,1,0,3:0:0:0:
372,176,129585,5,10,1:2:0:0:
333,60,129772,1,0,3:0:0:0:
441,0,129960,85,10,1:2:0:0:
364,196,130147,1,2,3:2:0:0:
168,119,130335,1,10,1:2:0:0:
91,315,130522,1,2,3:2:0:0:
250,178,130710,85,10,1:2:0:0:
9,264,130897,1,0,3:0:0:0:
96,189,131085,85,10,1:2:0:0:
174,247,131272,1,0,3:0:0:0:
153,34,131460,21,10,1:2:0:0:
342,161,131647,1,2,3:2:0:0:
264,30,131835,1,8,1:2:0:0:
77,99,132022,1,2,3:2:0:0:
253,375,132210,5,8,3:2:0:0:
256,379,132303,1,0,1:0:0:0:
260,384,132397,2,0,P|291:381|320:347,1,75.0000028610231,0|0,1:2|1:0,0:0:0:0:
254,179,132585,1,8,3:2:0:0:
251,175,132678,1,0,1:0:0:0:
247,170,132772,2,0,P|215:172|186:206,1,75.0000028610231,0|0,1:2|1:0,0:0:0:0:
144,331,132960,69,8,3:2:0:0:
166,335,133053,1,0,1:0:0:0:
187,329,133147,1,2,1:2:0:0:
205,317,133241,1,0,1:0:0:0:
231,288,133335,1,10,3:2:0:0:
271,257,133428,1,0,1:0:0:0:
322,253,133522,1,2,1:2:0:0:
371,272,133616,69,0,1:0:0:0:
498,213,134460,2,0,B|490:241|471:244|471:244|480:232|486:197,1,75.0000028610231,8|0,0:0|0:0,0:0:0:0:
486,227,134647,2,0,B|467:249|448:244|448:244|461:237|482:208,1,75.0000028610231,0|0,1:0|0:0,0:0:0:0:
473,116,134835,2,0,B|393:103|378:195|378:195|409:127|478:132,1,262.500002503395,4|0,1:2|0:0,0:0:0:0:
472,132,135210,70,0,L|386:105,1,75.0000028610231,6|0,1:2|0:0,0:0:0:0:
359,0,135397,2,0,L|288:25,1,75.0000028610231,2|0,0:2|0:0,0:0:0:0:
281,199,135585,2,0,L|208:219,1,75.0000028610231,2|0,0:2|0:0,0:0:0:0:
103,133,135772,1,2,2:2:0:0:
114,121,135835,1,0,2:2:0:0:
132,126,135897,1,0,2:2:0:0:
141,116,135960,1,10,2:2:0:0:
16,57,136147,1,0,1:0:0:0:
475,82,136335,6,0,B|469:100|469:100|412:118,1,75.0000028610231,2|0,0:2|0:0,0:0:0:0:
298,62,136522,2,0,B|292:44|292:44|235:26,1,75.0000028610231,2|0,1:2|0:0,0:0:0:0:
302,203,136710,2,0,B|296:221|296:221|239:239,1,75.0000028610231,2|0,0:2|0:0,0:0:0:0:
93,34,136897,1,2,0:0:0:0:
103,30,136960,1,0,0:2:0:0:
10,191,137085,1,2,1:2:0:0:
228,334,137272,6,0,L|256:327,5,25.0000009536744
220,336,137460,2,0,L|180:347,1,37.5,10|0,0:0|0:0,0:0:0:0:
351,351,137835,70,0,B|319:369|319:369|202:337|202:337|199:340|199:340|103:315|103:315|87:278,1,300,4|0,0:1|0:0,1:0:0:0:
249,229,138210,6,0,B|244:212|244:212|310:192,1,75.0000028610231,2|0,1:2|0:0,0:0:0:0:
417,360,138397,2,0,B|404:372|404:372|354:324,1,75.0000028610231,2|0,0:2|0:0,0:0:0:0:
452,154,138585,2,0,B|469:158|469:158|452:225,1,75.0000028610231,2|0,0:2|0:0,0:0:0:0:
392,58,138772,1,2,2:2:0:0:
380,69,138835,1,0,2:2:0:0:
385,87,138897,1,0,2:2:0:0:
375,96,138960,1,10,2:2:0:0:
271,20,139147,1,0,1:0:0:0:
252,181,139335,86,0,B|257:171|257:171|308:197|308:197|304:211,1,75.0000028610231,2|0,0:2|0:0,0:0:0:0:
365,382,139522,2,0,B|353:382|353:382|350:325|350:325|364:321,1,75.0000028610231,2|0,1:2|0:0,0:0:0:0:
494,186,139710,2,0,B|499:195|499:195|452:226|452:226|442:216,1,75.0000028610231,2|0,0:2|0:0,0:0:0:0:
180,318,139897,1,2,0:0:0:0:
168,312,139960,1,0,0:0:0:0:
256,326,140085,2,0,L|64:386,1,150.000005722046,2|0,1:2|0:0,0:0:0:0:
45,267,140335,5,0,0:0:0:0:
32,270,140397,1,0,0:0:0:0:
36,280,140460,86,0,L|18:318,1,25.0000009536744,8|0,0:0|0:0,0:0:0:0:
143,220,140647,2,0,L|185:219,1,25
42,167,140835,22,2,L|27:146,1,25.5000001556397,0|0,0:0|0:0,0:1:0:0:
27,146,141210,86,0,L|50:73,1,75.0000028610231,6|0,1:2|0:0,0:0:0:0:
203,0,141397,2,0,L|180:71,1,75.0000028610231,2|0,0:2|0:0,0:0:0:0:
259,220,141585,2,0,L|282:147,1,75.0000028610231,2|0,0:2|0:0,0:0:0:0:
418,69,141772,1,2,2:2:0:0:
417,85,141835,1,0,2:2:0:0:
402,94,141897,1,0,2:2:0:0:
403,108,141960,1,10,2:2:0:0:
319,5,142147,1,0,1:0:0:0:
44,150,142335,86,0,B|19:116|19:116|31:68,1,75.0000028610231,2|0,0:0|0:0,0:0:0:0:
210,11,142522,2,0,B|217:42|217:42|192:76,1,75.0000028610231,2|0,1:2|0:0,0:0:0:0:
279,225,142710,2,0,B|271:193|271:193|296:159,1,75.0000028610231,2|0,0:0|0:0,0:0:0:0:
512,41,142897,1,2,0:2:0:0:
507,53,142959,1,0,2:2:0:0:
465,200,143085,1,2,1:2:0:0:
420,373,143272,22,0,L|448:366,5,25.0000009536744
412,375,143460,2,0,L|372:386,1,37.5,10|0,0:0|0:0,0:0:0:0:
334,327,143835,70,0,B|388:344|388:344|346:267|346:267|279:306|279:306|281:301|281:301|279:306|279:306|216:345,1,300,4|0,0:1|0:0,1:0:0:0:
0,343,144210,6,0,B|32:361|32:361|33:366|33:366|71:386,1,75.0000028610231,2|0,1:2|2:2,2:2:0:0:
251,227,144397,2,0,B|218:245|218:245|218:250|218:250|180:270,1,75.0000028610231,2|0,2:2|2:2,2:2:0:0:
7,126,144585,2,0,B|39:144|39:144|40:149|40:149|78:169,1,75.0000028610231,2|0,2:2|2:2,2:2:0:0:
250,47,144772,1,2,2:2:0:0:
233,48,144835,1,0,2:2:0:0:
226,65,144897,1,0,2:2:0:0:
213,67,144960,1,10,2:2:0:0:
314,142,145147,1,0,1:0:0:0:
10,327,145335,86,0,B|33:335|33:335|45:362|45:362|74:375,1,75.0000028610231,2|0,0:2|2:2,2:2:0:0:
244,213,145522,2,0,B|221:221|221:221|209:248|209:248|180:261,1,75.0000028610231,2|0,1:2|2:2,2:2:0:0:
0,26,145710,54,0,P|86:11|138:101,1,187.5,2|0,0:2|0:0,0:0:0:0:
208,125,146085,1,2,0:0:0:0:
208,125,146272,2,0,P|243:111|261:76,1,62.5,2|0,0:0|0:0,0:0:0:0:
349,0,146460,6,0,L|363:55,1,50,8|0,0:1|0:0,0:0:0:0:
407,75,146647,2,0,L|393:130,1,55.0000016784668,8|0,0:1|0:0,0:0:0:0:
299,180,146835,2,0,L|315:247,1,59.9999981689454,8|0,0:1|0:0,0:0:0:0:
450,256,147022,2,0,L|434:319,1,64.9999970245363,8|0,0:1|0:0,0:0:0:0:
361,355,147210,53,0,3:0:0:0:
471,205,159210,38,0,P|406:201|396:284,1,150,0|0,1:0|0:0,0:0:0:0:
436,339,159585,1,8,0:1:0:0:
436,339,159772,2,0,L|371:319,1,50,8|0,1:0|0:0,0:0:0:0:
140,253,159960,2,0,L|236:283,2,100,0|0|8,0:0|3:0|1:2,0:0:0:0:
304,361,160522,69,8,0:0:0:0:
304,361,160710,2,0,P|256:328|295:240,1,150,0|0,1:0|0:0,0:0:0:0:
293,256,161085,1,8,0:1:0:0:
360,59,161272,2,0,P|408:92|369:180,1,150,0|0,1:0|0:0,0:0:0:0:
372,166,161647,1,0,3:0:0:0:
147,37,161835,2,0,L|259:8,1,100,8|8,1:2|0:0,0:0:0:0:
239,105,162116,21,8,0:0:0:0:
239,105,162210,2,0,L|82:144,1,150,8|0,1:2|0:0,0:0:0:0:
40,84,162585,1,8,0:1:0:0:
40,84,162772,2,0,P|16:94|0:119,1,50,0|0,1:0|0:0,0:0:0:0:
66,260,162960,2,0,P|119:254|142:203,1,100,0|0,3:0|3:0,0:0:0:0:
0,384,163335,1,8,1:2:0:0:
0,384,163522,1,8,0:0:0:0:
93,354,163710,70,0,L|244:312,1,150,0|0,1:0|0:0,0:0:0:0:
256,308,164085,1,8,0:1:0:0:
511,237,164272,2,0,L|360:279,1,150,0|0,1:0|0:0,0:0:0:0:
348,283,164647,1,0,3:0:0:0:
472,357,164835,1,8,1:2:0:0:
369,184,165022,21,8,0:0:0:0:
369,184,165116,1,8,0:0:0:0:
369,184,165210,2,0,P|366:114|439:87,1,150,0|0,1:0|0:0,0:0:0:0:
494,24,165585,1,8,0:1:0:0:
494,24,165772,2,0,L|431:3,1,50,8|0,1:2|0:0,0:0:0:0:
246,0,165960,2,0,P|292:20|291:71,2,100,8|8|8,0:0|3:2|1:2,0:0:0:0:
142,53,166522,1,8,0:0:0:0:
265,158,166710,69,8,1:2:0:0:
93,205,166897,1,8,0:0:0:0:
355,260,167085,21,8,0:0:0:0:
235,228,167272,1,8,1:2:0:0:
262,299,167460,69,8,0:0:0:0:
175,322,167647,1,8,0:0:0:0:
288,384,167835,21,8,1:2:0:0:
258,376,168022,1,8,1:2:0:0:
258,376,168116,1,8,1:2:0:0:
256,360,168210,53,8,1:2:0:0:
256,348,168303,1,0,1:0:0:0:
256,337,168397,1,0,1:0:0:0:
256,326,168491,1,0,1:0:0:0:
256,315,168585,1,0,1:0:0:0:
256,304,168678,1,0,1:0:0:0:
256,293,168772,1,8,1:2:0:0:
256,282,168866,1,0,1:0:0:0:
256,271,168960,1,0,1:0:0:0:
256,260,169053,1,0,1:0:0:0:
256,249,169147,1,0,1:0:0:0:
256,237,169241,1,0,1:0:0:0:
256,226,169335,1,8,1:2:0:0:
256,215,169428,1,0,1:0:0:0:
256,204,169522,1,0,1:0:0:0:
256,193,169616,1,0,1:0:0:0:
227,228,170460,69,12,1:2:0:0:
235,148,170553,1,8,1:2:0:0:
299,197,170647,1,8,1:2:0:0:
66,113,170835,1,8,1:2:0:0:
447,270,171022,1,8,1:2:0:0:
359,48,171210,70,0,B|371:-16|443:-1|443:-1|486:60|429:95,1,225.000008583069,4|0,1:2|0:0,0:0:0:0:
508,124,171585,2,0,L|437:149,1,50,8|0,0:0|0:0,0:0:0:0:
383,161,171772,1,8,1:0:0:0:
203,345,171960,1,0,0:0:0:0:
203,345,172147,2,0,L|250:328,1,50,2|0,3:2|0:0,0:0:0:0:
329,341,172335,2,0,P|246:355|288:256,1,225.000008583069,10|0,1:2|0:0,1:0:0:0:
365,246,172710,6,0,B|305:246|293:198|293:198|254:166|200:198,1,187.5,4|0,1:3|0:0,0:0:0:0:
344,81,173085,1,8,0:0:0:0:
344,81,173272,2,0,P|318:107|281:111,1,62.5,8|0,1:0|0:0,0:0:0:0:
63,14,173460,1,0,0:0:0:0:
129,68,173647,2,0,B|-3:33,2,125,2|10|2,3:2|1:2|0:0,0:0:0:0:
277,25,174210,21,4,1:3:0:0:
68,110,174397,1,2,0:0:0:0:
153,319,174585,1,10,0:2:0:0:
362,234,174772,1,10,1:2:0:0:
214,79,174960,37,2,0:0:0:0:
214,79,175147,2,0,B|204:112|204:112|196:117|196:117|184:157,1,75.0000028610231,0|0,3:2|0:0,0:0:0:0:
390,311,175335,2,0,B|407:252|407:252|412:251|412:251|431:189,1,125,10|0,1:2|0:0,0:0:0:0:
207,221,175710,86,0,P|136:214|110:148,1,150.000005722046,4|0,1:3|0:0,0:0:0:0:
300,240,176085,2,0,P|285:273|252:289,1,75.0000028610231,8|0,0:0|0:0,0:0:0:0:
235,0,176272,1,10,1:2:0:0:
143,4,176460,53,2,0:0:0:0:
394,109,176647,1,2,3:2:0:0:
288,362,176835,1,10,1:2:0:0:
36,255,177022,1,10,1:0:0:0:
313,72,177210,70,0,P|244:47|197:170,1,225.000008583069,4|0,1:3|0:0,0:0:0:0:
125,191,177585,2,0,L|180:209,1,50,8|0,0:0|0:0,0:0:0:0:
247,223,177772,1,8,1:0:0:0:
366,361,177960,1,0,0:0:0:0:
366,361,178147,2,0,L|421:379,1,50,2|0,3:2|0:0,0:0:0:0:
413,376,178335,2,0,B|397:320|431:270|482:309|527:256|508:198,1,225.000008583069,10|0,1:2|0:0,1:0:0:0:
357,162,178710,6,0,P|371:258|474:228,1,225.000008583069,4|0,1:3|0:0,0:0:0:0:
437,161,179085,2,0,B|450:113|421:70|378:104|340:59|356:9,1,187.5,8|0,0:2|0:0,0:0:0:0:
444,0,179460,1,0,0:0:0:0:
444,0,179647,2,0,P|448:34|426:67,1,62.5,2|0,3:2|0:0,0:0:0:0:
141,52,179835,2,0,B|196:65|241:14|241:14|231:77|297:119,1,225.000008583069,10|0,1:2|0:0,0:0:0:0:
362,88,180210,37,4,1:3:0:0:
139,177,180397,1,2,0:0:0:0:
415,275,180585,2,0,B|363:307|373:367|373:367|329:318|277:331,1,209.999993591309,10|0,0:0|0:0,0:0:0:0:
257,259,180960,1,2,0:0:0:0:
257,259,181147,2,0,P|225:249|209:222,1,62.5,2|0,3:2|0:0,0:0:0:0:
349,18,181335,2,0,B|296:34|296:34|294:37|294:37|231:56,1,125,10|0,1:2|0:0,1:0:0:0:
19,117,181710,21,4,1:3:0:0:
73,52,181897,2,0,L|52:125,1,62.5,0|0,1:0|0:0,0:0:0:0:
136,309,182085,2,0,B|131:360|87:376|87:376|89:382|89:382|43:394|-3:367,1,187.5,8|0,1:2|0:0,0:0:0:0:
229,240,182460,2,0,B|258:260|253:293|253:293|257:294|257:294|248:326|215:345,1,125,0|2,1:0|3:2,0:0:0:0:
278,154,182835,2,0,B|295:148|313:157|313:157|314:155|314:155|326:172|329:193,1,62.5,10|0,1:2|0:0,0:0:0:0:
328,257,183022,1,10,1:1:0:0:
63,338,183210,5,8,1:2:0:0:
404,230,183397,1,0,3:0:0:0:
199,148,183585,5,8,1:2:0:0:
140,384,183772,1,0,3:0:0:0:
55,230,183960,85,10,1:2:0:0:
313,361,184147,1,2,3:2:0:0:
444,103,184335,1,10,1:2:0:0:
339,50,184522,1,2,3:2:0:0:
458,302,184710,85,10,1:2:0:0:
142,198,184897,1,0,3:0:0:0:
337,252,185085,85,10,1:2:0:0:
251,290,185272,1,0,3:0:0:0:
224,56,185460,21,10,1:2:0:0:
0,142,185647,1,2,3:2:0:0:
86,366,185835,1,10,1:2:0:0:
173,327,186022,1,2,3:2:0:0:
58,203,186210,5,10,1:2:0:0:
351,299,186397,1,0,3:0:0:0:
100,288,186585,69,10,1:2:0:0:
206,251,186772,1,0,3:0:0:0:
87,19,186960,53,10,1:2:0:0:
23,321,187147,1,2,3:2:0:0:
329,382,187335,1,10,1:2:0:0:
374,217,187522,1,2,3:2:0:0:
212,330,187710,21,10,1:2:0:0:
488,257,187897,1,0,3:0:0:0:
239,178,188085,37,10,1:2:0:0:
377,131,188272,1,0,3:0:0:0:
256,0,188460,5,10,1:2:0:0:
0,192,188647,1,2,3:2:0:0:
256,384,188835,1,14,1:2:0:0:
512,192,189022,1,8,3:1:0:0:
390,291,189210,85,14,1:2:0:0:
132,93,189397,1,0,3:0:0:0:
312,172,189585,69,10,1:2:0:0:
205,216,189772,1,0,3:0:0:0:
349,13,189960,5,10,1:2:0:0:
433,220,190147,1,2,3:2:0:0:
229,133,190335,1,10,1:2:0:0:
468,55,190522,1,2,3:2:0:0:
285,255,190710,69,10,1:2:0:0:
512,366,190897,1,0,3:0:0:0:
353,316,191085,37,10,1:2:0:0:
439,313,191272,1,0,3:0:0:0:
74,322,191460,85,10,1:2:0:0:
348,198,191647,1,2,3:2:0:0:
263,384,191835,1,8,1:2:0:0:
150,127,192022,1,2,3:2:0:0:
12,183,192210,85,8,3:2:0:0:
24,190,192303,1,0,1:0:0:0:
39,191,192397,1,0,1:0:0:0:
52,204,192491,1,0,1:0:0:0:
67,206,192585,1,8,3:2:0:0:
83,220,192678,1,0,1:0:0:0:
113,227,192772,1,0,1:0:0:0:
138,243,192866,1,0,1:0:0:0:
171,245,192960,1,8,3:2:0:0:
201,274,193053,1,0,1:0:0:0:
247,274,193147,1,2,1:2:0:0:
285,316,193241,1,0,1:0:0:0:
340,307,193335,1,10,3:2:0:0:
379,356,193428,1,0,1:0:0:0:
431,326,193522,1,2,1:2:0:0:
480,384,193616,69,0,1:0:0:0:
14,221,194460,2,0,B|-18:230|-27:196|5:190|15:217,1,75.0000028610231,8|0,0:0|0:0,0:0:0:0:
15,218,194647,2,0,B|-17:227|-26:193|6:187|16:214,1,75.0000028610231,0|0,1:0|0:0,0:0:0:0:
94,246,194835,2,0,B|210:211|243:333|126:356|90:257,1,262.500002503395,4|0,1:2|0:0,0:0:0:0:
94,246,195210,70,0,L|183:216,1,75.0000028610231,6|0,1:2|0:0,0:0:0:0:
174,116,195397,2,0,L|245:92,1,75.0000028610231,2|0,0:2|0:0,0:0:0:0:
0,64,195585,2,0,L|71:40,1,75.0000028610231,2|0,0:2|0:0,0:0:0:0:
301,247,195772,1,2,2:2:0:0:
289,257,195835,1,0,2:2:0:0:
271,252,195897,1,0,2:2:0:0:
262,262,195960,1,10,2:2:0:0:
347,167,196147,1,0,1:0:0:0:
86,254,196335,6,0,B|103:248|103:248|107:250|107:250|144:237|144:237|147:239|147:239|182:225,1,75.0000028610231,2|0,0:2|0:0,0:0:0:0:
180,102,196522,2,0,B|197:96|197:96|201:98|201:98|238:85|238:85|241:87|241:87|276:73,1,75.0000028610231,2|0,1:2|0:0,0:0:0:0:
7,47,196710,2,0,B|24:41|24:41|28:43|28:43|65:30|65:30|68:32|68:32|103:18,1,75.0000028610231,2|0,0:2|0:0,0:0:0:0:
242,181,196897,1,2,0:2:0:0:
232,185,196960,1,0,0:0:0:0:
434,123,197085,1,2,1:2:0:0:
382,337,197272,6,0,L|389:365,5,25.0000009536744
380,329,197460,2,0,L|369:289,1,37.5,10|0,0:0|0:0,0:0:0:0:
512,301,197835,70,4,B|457:348|457:348|389:321|389:321|364:335|364:335|363:339|363:339|315:318|315:318|315:312|315:312|316:318|316:318|250:292,1,300,4|0,0:1|0:2,1:2:0:0:
461,193,198210,6,0,B|467:226|467:226|436:252,1,75.0000028610231,2|0,1:2|0:0,0:0:0:0:
471,55,198397,2,0,B|503:65|503:65|510:105,1,75.0000028610231,2|0,0:2|0:0,0:0:0:0:
292,31,198585,2,0,B|317:8|317:8|355:21,1,75.0000028610231,2|0,0:2|0:0,0:0:0:0:
270,209,198772,1,2,2:2:0:0:
258,219,198835,1,0,2:2:0:0:
240,214,198897,1,0,2:2:0:0:
231,224,198960,1,10,2:2:0:0:
281,373,199147,1,0,1:0:0:0:
474,196,199335,86,0,B|474:227|474:227|479:231|479:231|474:232|474:232|449:252,1,75.0000028610231,2|0,0:2|0:0,0:0:0:0:
460,41,199522,2,0,B|489:49|489:49|495:45|495:45|494:50|494:50|508:78,1,75.0000028610231,2|0,1:2|0:0,0:0:0:0:
283,37,199710,2,0,B|298:10|298:10|296:4|296:4|300:5|300:5|332:0,1,75.0000028610231,2|0,0:2|0:0,0:0:0:0:
275,293,199897,1,2,0:2:0:0:
265,297,199960,1,0,0:0:0:0:
236,368,200085,2,0,L|277:204,1,150.000005722046,2|0,1:2|0:0,0:0:0:0:
240,145,200335,5,0,0:0:0:0:
227,142,200397,1,0,0:0:0:0:
231,135,200460,86,0,L|213:97,1,25,8|0,0:0|0:0,0:0:0:0:
98,163,200647,2,0,L|112:123,1,25
18,64,200835,22,2,L|41:52,1,25.5000001556397,0|0,0:0|0:0,0:1:0:0:
41,53,201210,86,0,L|19:128,1,75.0000028610231,6|0,1:2|0:0,0:0:0:0:
175,190,201397,2,0,L|197:262,1,75.0000028610231,2|0,0:2|0:0,0:0:0:0:
19,312,201585,2,0,L|-1:385,1,75.0000028610231,2|0,0:2|0:0,0:0:0:0:
279,217,201772,1,2,2:2:0:0:
295,218,201835,1,0,2:2:0:0:
306,203,201897,1,0,2:2:0:0:
319,205,201960,1,10,2:2:0:0:
102,267,202147,1,0,1:0:0:0:
51,68,202335,86,0,B|48:55|48:55|29:122,1,75.0000028610231,2|0,0:2|0:0,0:0:0:0:
164,205,202522,2,0,B|166:192|166:192|186:259,1,75.0000028610231,2|0,1:2|0:0,0:0:0:0:
32,327,202710,2,0,B|29:314|29:314|10:381,1,75.0000028610231,2|0,0:2|0:0,0:0:0:0:
298,318,202897,1,2,0:2:0:0:
311,313,202959,1,0,2:2:0:0:
170,366,203085,1,2,1:2:0:0:
455,260,203272,22,0,L|427:269,5,25.0000009536744
462,257,203460,2,0,L|500:241,1,37.5,10|0,0:0|0:0,0:0:0:0:
447,136,203835,70,0,B|491:160|491:160|460:252|460:252|403:226|403:226|400:227|400:227|360:206|360:206|377:153,1,300,4|0,0:1|0:0,1:0:0:0:
504,61,204210,6,0,B|499:51|499:51|469:42|469:42|467:41|467:41|431:31,1,75.0000028610231,2|0,1:2|0:0,0:0:0:0:
296,144,204397,2,0,B|291:154|291:154|261:162|261:162|259:164|259:164|223:175,1,75.0000028610231,2|0,0:2|0:0,0:0:0:0:
176,60,204585,2,0,B|171:50|171:50|141:41|141:41|139:40|139:40|103:30,1,75.0000028610231,2|0,0:2|0:0,0:0:0:0:
236,255,204772,1,2,2:2:0:0:
252,254,204835,1,0,2:2:0:0:
263,269,204897,1,0,2:2:0:0:
276,267,204960,1,10,2:2:0:0:
123,225,205147,1,0,1:2:0:0:
480,64,205335,86,0,L|403:64,1,75.0000028610231
296,144,205522,2,0,L|219:144,1,75.0000028610231,0|0,1:2|0:0,0:0:0:0:
0,64,205710,38,0,L|195:64,1,187.5,2|0,0:2|0:0,0:0:0:0:
375,64,206085,1,2,0:0:0:0:
375,64,206272,2,0,L|306:64,1,50,2|0,0:0|0:0,0:0:0:0:
256,16,206460,85,8,0:1:0:0:
256,8,206647,1,8,0:1:0:0:
256,4,206835,1,8,0:1:0:0:
256,0,207022,1,8,0:1:0:0:
