osu file format v14

[General]
AudioFilename: audio.mp3
AudioLeadIn: 0
PreviewTime: 109499
Countdown: 0
SampleSet: Soft
StackLeniency: 0.3
Mode: 0
LetterboxInBreaks: 0
WidescreenStoryboard: 1

[Editor]
Bookmarks: 15210,27210,39210,63210,68460,69210,73710,87210,99210,111210,135210,140460,141210,145710,147397,159210,170460,171210,172147,183210,193710,195210,200460,201210,205710
DistanceSpacing: 2.1
BeatDivisor: 4
GridSize: 16
TimelineZoom: 2.799999

[Metadata]
Title:Dirty
TitleUnicode:Dirty
Artist:grandson
ArtistUnicode:grandson
Creator:Chills
Version:Shuckles' Insane
Source:
Tags:indie electronic english shuckles shucklings min moondoogy Li Syaoran MinNin death of an optimist rock pop
BeatmapID:3899905
BeatmapSetID:1885174

[Difficulty]
HPDrainRate:4.7
CircleSize:3.7
OverallDifficulty:7.5
ApproachRate:8.8
SliderMultiplier:1.8
SliderTickRate:1

[Events]
//Background and Video events
0,0,"dirtee.png",0,0
//Break Periods
2,147315,158581
//Storyboard Layer 0 (Background)
//Storyboard Layer 1 (Fail)
//Storyboard Layer 2 (Pass)
//Storyboard Layer 3 (Foreground)
//Storyboard Layer 4 (Overlay)
//Storyboard Sound Samples

[TimingPoints]
210,375,4,2,1,100,1,0
772,-100,4,2,1,5,0,0
960,-100,4,2,1,10,0,0
1147,-100,4,2,1,15,0,0
1335,-100,4,2,1,20,0,0
1522,-100,4,2,1,25,0,0
1710,-100,4,2,1,30,0,0
1897,-100,4,2,1,35,0,0
2085,-100,4,2,1,40,0,0
2272,-100,4,2,1,45,0,0
2460,-100,4,2,1,5,0,0
2553,-100,4,2,1,60,0,1
2803,-200,4,2,1,40,0,0
3210,375,4,2,1,40,1,0
3210,-200,4,2,1,40,0,0
8741,-200,4,2,1,5,0,0
8835,-100,4,2,1,60,0,0
9116,-100,4,2,1,5,0,0
9210,-200,4,2,1,40,0,0
10710,-133.333333333333,4,2,1,40,0,0
10991,-133.333333333333,4,2,1,5,0,0
11085,-133.333333333333,4,2,1,40,0,0
11366,-133.333333333333,4,2,1,5,0,0
11460,-133.333333333333,4,2,1,40,0,0
14647,-133.333333333333,4,2,1,50,0,0
14835,-133.333333333333,4,2,1,60,0,0
15210,-100,4,2,1,70,0,0
17272,-100,4,2,3,70,0,0
17460,-100,4,2,1,70,0,0
20178,-100,4,2,1,5,0,0
20272,-100,4,2,3,70,0,0
20366,-100,4,2,3,5,0,0
20460,-100,4,2,1,70,0,0
20835,-80,4,2,3,85,0,0
21210,-80,4,2,1,70,0,0
21772,-80,4,2,3,70,0,0
21960,-100,4,2,1,70,0,0
24772,-100,4,2,3,70,0,0
24960,-100,4,2,1,70,0,0
26272,-100,4,2,3,70,0,0
26460,-100,4,2,1,70,0,0
26647,-100,4,2,1,80,0,0
26835,-100,4,2,3,85,0,0
27210,-133.333333333333,4,2,3,85,0,0
27585,-133.333333333333,4,2,3,60,0,0
33210,-133.333333333333,4,2,1,40,0,0
33960,-133.333333333333,4,2,1,45,0,0
34710,-133.333333333333,4,2,1,50,0,0
35085,-133.333333333333,4,2,3,50,0,0
35272,-133.333333333333,4,2,1,50,0,0
35460,-133.333333333333,4,2,1,55,0,0
35835,-133.333333333333,4,2,3,55,0,0
36022,-133.333333333333,4,2,1,55,0,0
36210,-133.333333333333,4,2,1,60,0,0
36585,-133.333333333333,4,2,3,65,0,0
36678,-133.333333333333,4,2,1,65,0,0
36960,-133.333333333333,4,2,1,70,0,0
37335,-133.333333333333,4,2,1,75,0,0
38460,-133.333333333333,4,2,1,80,0,0
38835,-66.6666666666667,4,2,1,80,0,0
39210,-66.6666666666667,4,2,1,90,0,0
39772,-80,4,2,1,90,0,0
60585,-80,4,2,1,93,0,0
60960,-80,4,2,1,96,0,0
61335,-80,4,2,1,100,0,0
62460,-80,4,2,1,80,0,0
62835,-80,4,2,1,100,0,1
63210,-74.0740740740741,4,2,2,100,0,1
65741,-74.0740740740741,4,2,2,5,0,1
65835,-66.6666666666667,4,2,2,100,0,1
67288,-66.6666666666667,4,2,2,5,0,1
67335,-66.6666666666667,4,2,2,100,0,1
67522,-74.0740740740741,4,2,2,100,0,1
67710,-86.9565217391304,4,2,2,100,0,1
68460,-133.333333333333,4,2,2,100,0,0
68491,-133.333333333333,4,2,2,5,0,0
68506,-133.333333333333,4,2,2,5,0,0
68647,-133.333333333333,4,2,2,100,0,0
68678,-133.333333333333,4,2,2,5,0,0
68694,-133.333333333333,4,2,2,5,0,0
68835,-200,4,2,2,100,0,0
68975,-200,4,2,1,65,0,0
69116,-200,4,2,2,5,0,0
69210,-74.0740740740741,4,2,2,100,0,1
71741,-74.0740740740741,4,2,2,5,0,1
71835,-66.6666666666667,4,2,2,100,0,1
73710,-86.9565217391304,4,2,1,80,0,0
74647,-86.9565217391304,4,2,1,85,0,0
74835,-86.9565217391304,4,2,1,90,0,0
75022,-86.9565217391304,4,2,1,95,0,0
75210,-133.333333333333,4,2,1,40,0,0
80835,-200,4,2,1,60,0,0
81116,-200,4,2,1,5,0,0
81210,-100,4,2,3,50,0,0
85616,-100,4,2,3,5,0,0
85710,-100,4,2,3,50,0,0
85991,-100,4,2,3,5,0,0
86085,-100,4,2,3,50,0,0
86647,-100,4,2,1,50,0,0
86835,-100,4,2,1,75,0,0
92835,-100,4,2,3,75,0,0
93210,-100,4,2,1,75,0,0
98647,-100,4,2,1,80,0,0
98835,-100,4,2,3,85,0,0
99210,-133.333333333333,4,2,3,85,0,0
99585,-133.333333333333,4,2,3,60,0,0
105210,-133.333333333333,4,2,1,40,0,0
105960,-133.333333333333,4,2,1,45,0,0
106710,-133.333333333333,4,2,1,50,0,0
107085,-133.333333333333,4,2,3,50,0,0
107272,-133.333333333333,4,2,1,50,0,0
107460,-133.333333333333,4,2,1,55,0,0
107835,-133.333333333333,4,2,3,55,0,0
108022,-133.333333333333,4,2,1,55,0,0
108210,-133.333333333333,4,2,1,60,0,0
108585,-133.333333333333,4,2,3,65,0,0
108678,-133.333333333333,4,2,1,65,0,0
108960,-133.333333333333,4,2,1,70,0,0
109335,-133.333333333333,4,2,1,75,0,0
110460,-133.333333333333,4,2,1,80,0,0
110835,-66.6666666666667,4,2,1,80,0,0
111210,-66.6666666666667,4,2,1,90,0,0
111772,-80,4,2,1,90,0,0
132585,-80,4,2,1,93,0,0
132960,-80,4,2,1,96,0,0
133335,-80,4,2,1,100,0,0
134460,-80,4,2,1,80,0,0
134835,-80,4,2,1,100,0,0
135210,-74.0740740740741,4,2,2,100,0,1
137741,-74.0740740740741,4,2,2,5,0,1
137835,-66.6666666666667,4,2,2,100,0,1
139522,-74.0740740740741,4,2,2,100,0,1
139710,-86.9565217391304,4,2,2,100,0,1
140460,-133.333333333333,4,2,2,100,0,0
140491,-133.333333333333,4,2,2,5,0,0
140506,-133.333333333333,4,2,2,5,0,0
140647,-133.333333333333,4,2,2,100,0,0
140678,-133.333333333333,4,2,2,5,0,0
140694,-133.333333333333,4,2,2,5,0,0
140835,-200,4,2,2,100,0,0
140975,-200,4,2,1,65,0,0
141116,-200,4,2,2,5,0,0
141210,-74.0740740740741,4,2,2,100,0,1
143741,-74.0740740740741,4,2,2,5,0,1
143835,-66.6666666666667,4,2,2,100,0,1
145710,-86.9565217391304,4,2,1,80,0,0
146647,-86.9565217391304,4,2,1,85,0,0
146835,-86.9565217391304,4,2,1,90,0,0
147022,-86.9565217391304,4,2,1,95,0,0
147210,-86.9565217391304,4,2,1,80,0,0
159210,-86.9565217391304,4,2,1,60,0,0
159397,-133.333333333333,4,2,1,60,0,0
167085,-133.333333333333,4,2,1,56,0,0
167460,-153.846153846153,4,2,1,52,0,0
167835,-181.818181818181,4,2,1,48,0,0
168210,-181.818181818181,4,2,1,40,0,0
168585,-181.818181818181,4,2,1,45,0,0
168960,-181.818181818181,4,2,1,50,0,0
169335,-181.818181818181,4,2,1,55,0,0
170460,-181.818181818181,4,2,1,100,0,0
171210,-66.6666666666667,4,2,1,90,0,0
171772,-80,4,2,1,90,0,0
174772,-80,4,2,3,90,0,0
174960,-80,4,2,1,90,0,0
176272,-80,4,2,3,90,0,0
176460,-80,4,2,1,90,0,0
192585,-80,4,2,1,93,0,0
192960,-80,4,2,1,96,0,0
193335,-80,4,2,1,100,0,0
193710,-80,4,2,1,90,0,0
194460,-80,4,2,1,80,0,0
194835,-80,4,2,1,100,0,0
195210,-74.0740740740741,4,2,2,100,0,1
197741,-74.0740740740741,4,2,2,5,0,1
197835,-66.6666666666667,4,2,2,100,0,1
199522,-74.0740740740741,4,2,2,100,0,1
199710,-86.9565217391304,4,2,2,100,0,1
200460,-133.333333333333,4,2,2,100,0,0
200491,-133.333333333333,4,2,2,5,0,0
200506,-133.333333333333,4,2,2,5,0,0
200647,-133.333333333333,4,2,2,100,0,0
200678,-133.333333333333,4,2,2,5,0,0
200694,-133.333333333333,4,2,2,5,0,0
200835,-200,4,2,2,100,0,0
200975,-200,4,2,1,65,0,0
201116,-200,4,2,1,5,0,0
201210,-74.0740740740741,4,2,2,100,0,1
203741,-74.0740740740741,4,2,2,5,0,1
203835,-66.6666666666667,4,2,2,100,0,1
205710,-86.9565217391304,4,2,1,70,0,0
206647,-86.9565217391304,4,2,1,78,0,0
206835,-86.9565217391304,4,2,1,86,0,0
207022,-86.9565217391304,4,2,1,94,0,0

[Colours]
Combo1 : 199,199,199
Combo2 : 198,221,209
Combo3 : 227,228,209
Combo4 : 222,190,211
Combo5 : 196,214,219
Combo6 : 255,157,157
Combo7 : 228,175,152

[HitObjects]
256,192,772,12,0,2460,0:0:0:0:
256,368,2553,70,0,L|260:391,7,15
256,368,3210,38,0,P|289:339|347:338,1,90,0|0,3:0|0:0,0:0:0:0:
333,334,3772,1,0,3:0:0:0:
454,273,3960,2,0,P|447:300|445:366,1,90,2|2,3:2|3:2,0:0:0:0:
381,212,4710,6,0,P|444:189|512:188,1,135,2|2,3:2|3:2,0:0:0:0:
406,112,5460,2,0,P|361:112|318:103,1,90,2|2,3:2|3:2,0:0:0:0:
174,0,6210,86,0,P|205:73|198:131,1,135,0|0,3:0|3:2,0:0:0:0:
120,190,6960,1,2,3:2:0:0:
120,190,7335,2,0,P|97:190|76:185,1,45,2|2,3:2|0:2,0:0:0:0:
210,183,7710,6,0,P|179:256|186:314,1,135,2|2,3:2|3:2,0:0:0:0:
256,384,8460,2,0,L|260:358,2,22.5,2|0|0,3:2|0:0|0:0,0:0:0:0:
371,289,8835,38,2,B|365:247|365:247|362:245|362:245|355:199,1,90,2|0,3:2|0:0,0:1:0:0:
461,81,9210,38,0,L|445:170,1,90,2|2,3:2|0:0,0:0:0:0:
426,269,9772,1,2,3:2:0:0:
345,150,9960,1,2,3:2:0:0:
363,11,10148,1,2,0:0:0:0:
329,131,10335,1,2,3:2:0:0:
265,62,10522,1,2,0:0:0:0:
196,126,10710,6,0,B|165:137|123:114|148:98|105:72|62:92,1,135.000005149842,2|2,3:2|0:0,0:0:0:0:
265,62,11272,1,0,3:0:0:0:
196,126,11459,1,2,3:2:0:0:
67,73,11647,2,0,P|77:112|83:186,1,101.250003862381,2|0,0:0|0:0,0:0:0:0:
76,188,12022,1,2,0:0:0:0:
228,236,12210,86,0,P|196:224|164:232,1,67.5000025749208,2|0,3:1|0:0,0:0:0:0:
57,321,12585,2,0,P|119:343|184:328,1,135.000005149842,2|2,0:2|3:2,2:0:0:0:
260,267,13147,1,2,0:0:0:0:
259,384,13335,2,0,P|276:356|294:343,1,33.7500012874604,2|0,3:2|0:0,0:0:0:0:
396,262,13710,5,2,3:2:0:0:
276,355,14085,2,0,P|266:368|259:384,1,33.7500012874604,2|0,0:0|0:0,0:0:0:0:
396,262,14460,1,2,3:2:0:0:
473,311,14647,85,8,3:2:0:0:
341,192,14835,1,4,0:3:0:0:
481,305,15022,21,0,3:0:0:0:
423,384,15210,2,0,P|407:322|401:244,1,135.000005149842,0|0,3:0|0:0,0:0:0:0:
450,193,15585,2,0,L|451:122,1,45,8|0,0:0|0:0,0:0:0:0:
375,173,15772,1,8,0:1:0:0:
502,48,15960,2,0,L|407:69,1,90,2|0,0:0|3:0,0:0:0:0:
272,102,16335,2,0,P|326:103|282:126,1,135,10|0,0:0|0:0,0:0:0:0:
215,150,16710,6,0,P|116:162|93:171,1,90,0|2,3:0|0:0,0:0:0:0:
2,70,17085,1,8,0:0:0:0:
145,16,17272,1,10,0:0:0:0:
53,185,17460,2,0,L|54:114,1,45,2|0,0:0|0:0,0:0:0:0:
2,70,17647,1,0,3:0:0:0:
108,239,17835,2,0,B|139:250|181:227|156:211|199:185|242:205,1,135.000005149842,10|0,0:0|0:0,0:0:0:0:
109,246,18210,86,0,P|81:300|77:364,1,90,0|0,3:2|0:0,0:0:0:0:
183,382,18585,6,0,P|169:355|167:323,1,45,8|0,0:0|0:0,0:0:0:0:
201,260,18772,1,8,0:1:0:0:
376,254,18960,2,0,P|295:268|275:276,1,90,2|0,0:0|3:0,0:0:0:0:
431,356,19335,1,10,0:0:0:0:
348,339,19522,1,2,0:0:0:0:
496,242,19710,2,0,L|479:154,1,90,0|2,3:0|0:0,0:0:0:0:
284,116,20085,86,0,P|306:118|327:124,1,45,10|0,0:0|0:0,0:0:0:0:
271,191,20272,2,0,P|293:193|314:199,1,45,10|0,0:0|0:0,0:0:0:0:
367,59,20460,2,0,P|323:46|279:42,1,90,2|0,0:0|3:0,0:0:0:0:
24,12,20835,22,0,P|54:14|83:23,1,56.25,10|0,0:0|0:0,0:0:0:0:
178,192,21022,2,0,B|180:144|180:144|177:139|177:139|179:80,1,112.5,10|0,0:0|3:2,0:0:0:0:
75,244,21585,86,0,L|76:173,1,56.25,8|0,0:0|0:0,0:0:0:0:
0,224,21772,1,10,0:0:0:0:
134,294,21960,2,0,P|126:339|125:384,1,90,2|2,0:0|3:2,0:0:0:0:
245,264,22335,1,10,0:0:0:0:
214,365,22522,1,2,0:0:0:0:
355,339,22710,86,0,P|411:342|465:355,1,90,2|0,3:2|0:0,0:0:0:0:
398,374,23085,1,10,0:0:0:0:
512,261,23272,2,0,P|497:221|455:216,1,90,8|2,0:1|0:0,0:0:0:0:
320,246,23647,5,2,3:2:0:0:
391,147,23835,1,8,0:0:0:0:
455,215,24022,1,2,0:0:0:0:
297,143,24210,2,0,P|251:126|159:155,1,135,2|0,3:1|0:0,0:0:0:0:
177,226,24585,2,0,P|157:162|104:121,1,135,10|0,0:0|0:0,0:0:0:0:
31,103,24960,1,0,0:0:0:0:
31,103,25147,1,0,3:2:0:0:
139,35,25335,2,0,B|209:26|209:26|276:66,1,135,8|0,0:2|0:0,0:0:0:0:
331,107,25710,86,0,B|401:116|401:116|468:76,1,135,0|0,3:2|0:0,0:0:0:0:
510,25,26085,1,10,0:0:0:0:
382,24,26272,1,10,0:0:0:0:
512,32,26460,1,2,0:0:0:0:
352,192,26647,1,2,3:2:0:0:
140,142,26835,1,10,1:2:0:0:
246,319,27022,1,10,1:2:0:0:
0,384,27210,54,0,P|51:340|117:314,2,135.000005149842,4|8|0,0:0|0:0|0:0,0:0:0:0:
114,329,28147,2,0,P|147:331|180:345,1,67.5000025749208,2|8,0:0|0:0,0:0:0:0:
303,336,28522,2,0,B|333:320|376:346|351:362|393:385|424:374,1,135.000005149842,2|0,0:0|0:0,0:0:0:0:
512,336,29085,1,8,0:0:0:0:
512,336,29272,1,8,0:0:0:0:
460,165,29647,1,2,0:0:0:0:
460,165,29835,1,8,0:0:0:0:
415,334,30022,1,2,0:0:0:0:
358,169,30210,54,0,L|326:49,1,101.250003862381,2|0,0:0|0:0,0:0:0:0:
396,0,30585,2,0,L|364:120,1,101.250003862381,10|0,0:0|0:0,0:0:0:0:
369,97,30960,1,2,0:0:0:0:
266,18,31147,1,2,0:0:0:0:
203,72,31335,1,8,0:0:0:0:
257,135,31522,38,0,P|206:146|57:209,1,202.500007724762,2|8,0:0|0:0,0:0:0:0:
67,202,32272,1,8,0:0:0:0:
134,65,32460,2,0,P|116:17|93:-19,1,67.5000025749208,0|2,0:0|0:0,0:0:0:0:
178,221,32835,2,0,P|195:173|219:137,1,67.5000025749208,8|2,0:0|0:0,0:0:0:0:
83,342,33210,54,0,P|66:294|0:345,2,135.000005149842,2|8|0,1:0|1:1|1:0,0:0:0:0:
0,315,34147,1,0,1:0:0:0:
168,384,34335,2,0,P|185:336|209:300,1,67.5000025749208,8|2,1:1|1:2,0:0:0:0:
323,211,34710,2,0,P|290:237|318:328,1,135.000005149842,2|10,1:2|1:2,0:0:0:0:
394,370,35272,1,0,1:0:0:0:
512,190,35460,37,2,1:2:0:0:
493,240,35647,1,2,1:2:0:0:
501,185,35835,1,10,1:2:0:0:
505,239,36022,1,2,1:2:0:0:
353,129,36210,53,2,1:2:0:0:
353,129,36303,1,0,1:0:0:0:
353,129,36397,2,0,L|319:122,1,33.7500012874604,0|0,1:0|1:0,1:0:0:0:
257,219,36585,37,10,1:2:0:0:
257,219,36678,1,0,1:0:0:0:
257,219,36772,2,0,L|223:225,1,33.7500012874604,0|0,1:0|1:0,1:0:0:0:
144,94,36960,53,0,1:0:0:0:
144,94,37053,1,0,1:0:0:0:
144,94,37147,2,0,L|110:87,1,33.7500012874604,0|0,1:0|1:0,1:0:0:0:
0,215,37335,37,8,1:0:0:0:
33,208,37428,1,0,1:0:0:0:
66,201,37522,1,4,1:3:0:0:
99,194,37616,1,0,1:0:0:0:
132,187,37710,1,0,1:0:0:0:
82,335,37897,85,8,0:2:0:0:
100,348,37990,1,8,0:2:0:0:
105,326,38084,1,8,1:2:0:0:
66,201,38272,1,0,3:2:0:0:
108,371,38460,1,0,1:2:0:0:
57,197,38647,5,0,3:0:0:0:
212,353,38835,86,0,B|229:342|246:341|246:341|248:322|261:305,1,67.5000025749208,0|0,1:0|0:0,0:0:0:0:
350,297,39022,2,0,B|348:276|355:261|355:261|340:249|332:230,1,67.5000025749208,0|0,1:0|0:0,0:0:0:0:
391,89,39210,54,0,B|363:100|330:93|330:93|319:126|288:153,1,135.000005149842,4|0,1:2|0:0,0:0:0:0:
436,190,39585,1,8,0:0:0:0:
461,384,39772,2,0,P|487:310|518:291,1,112.5,8|0,1:0|0:0,0:0:0:0:
327,196,40147,2,0,P|316:250|275:287,1,112.5,2|10,3:2|1:2,0:0:0:0:
351,384,40522,1,0,0:0:0:0:
212,240,40710,6,0,P|141:254|49:300,1,168.75,4|0,1:3|0:0,0:0:0:0:
8,358,41085,1,8,0:2:0:0:
0,122,41272,2,0,B|69:129|69:129|80:146|102:154,1,112.5,8|0,1:0|0:0,0:0:0:0:
250,0,41647,1,2,3:2:0:0:
132,83,41835,2,0,P|131:111|136:138,1,56.25,10|0,1:2|0:0,0:0:0:0:
97,229,42022,2,0,P|120:244|146:254,1,56.25,2|0,0:0|0:0,0:0:0:0:
236,161,42210,70,0,B|281:141|334:157|305:188|356:199|396:177,1,168.75,4|0,1:3|0:0,0:0:0:0:
453,129,42585,1,8,0:0:0:0:
317,0,42772,1,8,1:0:0:0:
317,0,42960,2,0,L|329:68,1,56.25,0|0,0:0|2:0,0:0:0:0:
344,138,43147,1,2,3:2:0:0:
481,22,43335,1,10,1:2:0:0:
343,130,43522,1,0,0:2:0:0:
480,240,43710,86,0,P|474:182|480:111,1,112.5,4|0,1:3|1:0,0:0:0:0:
493,338,44085,2,0,B|440:342|396:285|396:285|369:341|309:344,1,225,8|0,1:2|1:0,0:0:0:0:
220,232,44647,1,2,3:2:0:0:
107,384,44835,2,0,L|118:320,1,56.25,10|0,1:2|0:0,0:0:0:0:
137,177,45022,1,10,0:1:0:0:
28,349,45210,22,0,L|0:182,1,168.75,4|0,1:3|0:0,0:0:0:0:
26,111,45585,2,0,P|76:75|128:79,1,112.5,8|0,0:0|1:2,0:0:0:0:
296,180,45960,1,0,0:0:0:0:
195,194,46147,2,0,L|206:130,1,56.25,2|0,3:2|0:0,0:0:0:0:
228,0,46335,1,10,1:2:0:0:
338,88,46522,1,0,0:0:0:0:
469,0,46710,6,0,P|437:53|429:109,1,112.5,4|0,1:3|0:0,0:0:0:0:
296,180,47085,2,0,P|328:233|336:289,1,112.5,8|0,0:0|1:0,0:0:0:0:
481,174,47460,1,0,0:0:0:0:
406,338,47647,1,2,3:2:0:0:
151,344,47835,2,0,P|252:347|332:364,1,168.75,10|0,1:2|0:0,0:0:0:0:
281,227,48210,70,0,P|212:231|178:269,1,112.5,4|0,1:3|0:0,0:0:0:0:
131,380,48585,1,8,0:0:0:0:
14,310,48772,2,0,P|2:244|0:192,1,112.5,0|0,1:3|0:0,0:0:0:0:
98,265,49147,1,2,3:2:0:0:
89,102,49335,2,0,P|90:130|85:157,1,56.25,10|0,1:2|0:0,1:0:0:0:
10,55,49522,2,0,P|5:28|6:0,1,56.25
174,0,49710,86,0,P|184:55|182:111,1,112.5,4|0,1:3|1:2,0:0:0:0:
307,56,50085,2,0,P|363:1|508:10,1,225,8|0,1:2|1:0,0:0:0:0:
307,56,50647,1,2,3:2:0:0:
474,91,50835,2,0,B|477:113|483:121|483:121|477:128|470:146,1,56.25,10|0,1:2|0:0,0:0:0:0:
512,230,51022,2,0,B|494:243|490:252|490:252|481:251|462:254,1,56.25,10|0,1:0|0:0,0:0:0:0:
331,212,51210,22,0,B|304:223|273:222|273:222|264:250|239:273,1,112.5,4|0,1:2|0:0,0:0:0:0:
270,378,51585,1,8,1:2:0:0:
371,328,51772,1,8,0:1:0:0:
182,218,51960,2,0,P|203:278|199:345,1,112.5,2|2,0:0|3:2,0:0:0:0:
38,366,52335,2,0,P|17:306|21:239,1,112.5,10|2,1:2|0:0,0:0:0:0:
205,86,52710,2,0,B|165:72|117:104|140:117|108:151|55:145,1,168.75,2|0,3:2|0:0,0:0:0:0:
7,81,53085,2,0,P|47:28|94:21,1,112.5,10|8,1:2|0:1,0:0:0:0:
205,86,53460,5,2,0:0:0:0:
308,0,53647,1,2,3:2:0:0:
317,178,53835,53,10,1:2:0:0:
388,0,54022,1,2,0:0:0:0:
500,42,54210,22,0,L|512:153,1,112.5,2|0,3:2|0:0,0:0:0:0:
402,254,54585,2,0,B|403:229|379:206|379:206|352:247|386:324,1,168.75,10|0,1:2|0:0,0:0:0:0:
433,384,54960,2,0,P|398:345|333:328,1,112.5,2|2,0:0|3:2,0:0:0:0:
206,384,55335,1,10,1:2:0:0:
206,384,55522,1,2,0:2:0:0:
8,293,55710,86,0,L|230:251,2,225,2|10|2,3:2|1:2|0:0,0:0:0:0:
135,312,56647,1,2,3:2:0:0:
0,150,56835,2,0,L|111:171,1,112.5,14|0,1:2|0:0,0:0:0:0:
46,14,57210,6,0,L|141:75,1,112.5,10|0,1:2|3:0,0:0:0:0:
309,0,57585,2,0,L|374:92,1,112.5,10|0,1:2|3:0,0:0:0:0:
312,318,57960,2,0,L|286:208,1,112.5,10|2,1:2|3:2,0:0:0:0:
109,384,58335,2,0,L|134:274,1,112.5,10|2,1:2|3:2,0:0:0:0:
109,44,58710,5,10,1:2:0:0:
135,169,58897,1,0,3:0:0:0:
283,93,59085,85,10,1:2:0:0:
257,202,59272,1,0,3:2:0:0:
393,153,59460,69,10,1:2:0:0:
429,260,59647,1,2,3:2:0:0:
332,31,59835,5,8,1:2:0:0:
380,179,60022,1,2,3:2:0:0:
442,353,60210,86,0,L|386:341,1,56.25,8|0,3:2|1:0,0:0:0:0:
316,327,60397,2,0,L|371:338,1,56.25,0|0,1:2|1:0,0:0:0:0:
464,266,60585,6,0,L|395:257,1,56.25,8|0,3:2|1:0,0:0:0:0:
310,248,60772,2,0,L|376:255,1,56.25,0|0,1:2|1:0,0:0:0:0:
476,176,60960,22,0,L|393:172,1,56.25,8|0,3:2|1:2,0:0:0:0:
290,170,61147,2,0,L|370:171,1,56.25,2|0,1:2|1:2,0:0:0:0:
479,78,61335,70,0,L|380:83,1,56.25,10|0,3:2|1:2,0:0:0:0:
256,91,61522,2,0,L|352:84,1,56.25,2|0,1:2|1:2,0:0:0:0:
368,359,62460,70,0,B|383:344|382:324|382:324|378:337|368:344,1,56.25,8|0,0:0|0:0,0:0:0:0:
359,350,62647,2,0,B|374:335|373:315|373:315|369:328|359:335,1,56.25,0|0,1:0|0:0,0:0:0:0:
217,384,62835,2,0,B|136:368|136:368|137:363|137:363|50:347,1,168.75,4|0,1:2|0:0,0:0:0:0:
71,380,63210,70,0,P|83:355|71:320,1,60.7500002317429,6|0,1:2|0:0,0:0:0:0:
144,239,63397,2,0,P|128:216|92:209,1,60.7500002317429,2|0,0:2|0:0,0:0:0:0:
57,105,63585,2,0,P|29:107|5:134,1,60.7500002317429,2|0,0:2|0:0,0:0:0:0:
143,259,63772,2,0,P|125:234|96:227,1,60.7500002317429,2|0,2:2|0:0,0:0:0:0:
146,84,63960,2,0,P|181:133|239:147,1,121.500000463486,10|0,2:2|1:0,0:0:0:0:
439,147,64335,6,0,L|447:82,1,60.7500002317429,2|0,0:2|0:0,0:0:0:0:
388,2,64522,2,0,L|410:182,1,182.250000695229,2|0,1:2|0:0,0:0:0:0:
510,246,64897,86,0,L|470:238,1,40.5000001544952,2|0,0:2|0:0,0:0:0:0:
265,205,65085,2,0,P|321:245|253:342,1,202.500000772476,2|0,1:2|0:0,0:0:0:0:
184,351,65460,22,0,P|240:353|325:382,1,121.500000463486,10|0,0:0|0:0,0:0:0:0:
31,292,65835,70,4,B|39:250|21:214|21:214|24:182|24:182|-17:219|0:265,1,202.500007724762,4|0,0:1|0:2,1:2:0:0:
88,384,66210,6,0,L|108:319,1,67.5000025749208,2|0,1:2|0:0,0:0:0:0:
160,182,66397,2,0,L|180:246,1,67.5000025749208,2|0,0:2|0:0,0:0:0:0:
5,201,66585,86,0,L|25:136,1,67.5000025749208,2|0,0:2|0:0,0:0:0:0:
77,0,66772,2,0,L|97:64,1,67.5000025749208,2|0,2:2|0:0,0:0:0:0:
213,112,66960,2,0,L|367:162,1,135.000005149842,10|0,2:2|1:0,0:0:0:0:
492,145,67335,6,0,B|506:98|506:98|496:112|487:119,1,67.5000025749208,2|0,0:0|0:0,0:0:0:0:
441,0,67522,2,0,P|458:81|463:180,1,182.250000695229,2|0,1:2|0:0,0:0:0:0:
320,233,67897,102,0,P|341:232|365:237,1,34.5000006580353,2|0,0:0|0:0,0:0:0:0:
248,323,68085,2,0,P|295:357|299:390,1,51.7500009870529,2|0,1:2|0:0,0:0:0:0:
512,384,68272,102,0,P|490:384|470:376,2,34.5000006580353
429,324,68460,2,0,L|424:307,1,16.8750006437302,8|0,0:0|0:0,0:0:0:0:
429,300,68647,2,0,L|434:317,1,16.8750006437302
291,350,68835,6,2,P|312:367|296:367,1,67.5,0|0,0:0|0:0,0:1:0:0:
214,383,69210,70,0,B|200:283|253:314|248:207,1,182.250000695229,6|0,1:2|0:0,0:0:0:0:
216,126,69585,1,2,0:2:0:0:
138,299,69772,2,0,P|135:323|128:345,2,40.5000001544952,2|0|0,2:2|2:2|2:2,0:0:0:0:
51,348,69960,2,0,P|56:285|75:229,1,121.500000463486,10|0,2:2|1:0,0:0:0:0:
0,87,70335,6,0,P|25:75|60:87,1,60.7500002317429,2|0,0:2|0:0,0:0:0:0:
141,14,70522,2,0,P|164:30|171:66,1,60.7500002317429,2|0,1:2|0:0,0:0:0:0:
275,101,70710,2,0,P|272:128|244:152,1,60.7500002317429,2|0,0:2|0:0,0:0:0:0:
266,260,70898,2,0,P|240:272|206:260,1,60.7500002317429,2|0,0:2|0:0,0:0:0:0:
131,173,71085,2,0,B|158:186|171:214|171:214|145:350,1,182.250000695229,2|0,1:2|0:0,0:0:0:0:
230,381,71460,6,0,P|171:353|112:358,1,121.500000463486,10|0,0:0|0:0,0:0:0:0:
326,267,71835,70,0,B|354:244|388:236|388:236|440:276|513:274,1,202.500007724762,4|0,0:1|0:0,1:0:0:0:
243,278,72210,6,0,P|246:210|272:149,1,135.000005149842,2|0,1:2|0:0,0:0:0:0:
400,28,72585,1,2,0:2:0:0:
512,179,72772,85,2,2:2:0:0:
507,186,72835,2,0,L|458:180,2,45.0000017166138,0|0|10,2:2|2:2|2:2,0:0:0:0:
228,185,73147,1,0,1:0:0:0:
228,185,73335,2,0,L|248:120,1,67.5000025749208,2|0,0:2|0:0,0:0:0:0:
282,0,73522,1,2,1:2:0:0:
123,171,73710,85,2,0:0:0:0:
78,41,73897,2,0,L|98:105,1,51.7500009870529
133,282,74085,2,0,B|94:282|72:242|72:242|37:270|-1:262,1,155.250002961159,2|0,0:0|0:0,0:0:0:0:
0,262,74460,1,8,0:1:0:0:
224,347,74647,86,0,L|286:324,1,51.7500009870529,8|0,0:1|0:0,0:0:0:0:
224,311,74835,2,0,L|272:328,1,51.7500009870529,8|0,0:1|0:0,0:0:0:0:
245,283,75022,2,0,L|271:327,1,51.7500009870529,8|0,0:1|0:0,0:0:0:0:
367,351,75210,54,0,P|415:306|483:295,3,135.000005149842,0|0|0|0,3:2|3:0|3:0|3:0,0:0:0:0:
367,238,76710,2,0,P|414:283|483:294,3,135.000005149842,0|0|0|0,3:0|3:0|3:0|3:0,0:0:0:0:
399,0,78210,2,0,P|444:48|455:116,3,135.000005149842,0|0|0|0,3:0|3:0|3:0|3:0,0:0:0:0:
368,88,79522,1,0,0:0:0:0:
512,0,79710,2,0,P|467:47|456:116,2,135.000005149842,0|0|0,3:0|3:0|3:0,0:0:0:0:
367,238,80835,70,2,B|366:202|366:202|346:233,1,67.5,0|0,3:0|0:0,0:1:0:0:
350,239,81210,86,0,P|329:273|311:338,1,90,0|0,3:2|0:0,0:0:0:0:
264,156,81585,1,8,3:2:0:0:
245,254,81772,1,0,0:0:0:0:
359,256,81960,54,0,P|336:294|323:337,1,90,0|0,3:2|0:0,0:0:0:0:
274,173,82335,1,8,3:2:0:0:
255,271,82522,1,0,0:0:0:0:
132,243,82710,2,0,P|155:281|168:324,1,90,0|0,3:2|0:2,0:0:0:0:
61,220,83085,1,8,3:2:0:0:
131,143,83272,1,0,0:0:0:0:
19,76,83460,6,0,P|30:13|94:24,1,135,0|0,3:2|0:0,0:0:0:0:
189,79,83835,22,0,P|251:67|240:3,1,135,8|0,3:2|0:0,0:0:0:0:
237,11,84210,2,0,P|225:61|225:151,1,135,0|0,3:0|0:0,0:0:0:0:
233,160,84585,1,8,3:2:0:0:
318,57,84772,1,0,0:0:0:0:
374,129,84960,1,0,3:2:0:0:
374,129,85147,1,0,0:0:0:0:
429,201,85335,2,0,P|363:256|281:230,1,180,8|0,3:2|3:2,0:0:0:0:
280,229,86085,54,0,L|286:329,1,90,8|0,3:2|0:0,0:0:0:0:
434,311,86460,1,0,0:0:0:0:
434,311,86647,2,0,P|410:303|384:306,1,45,8|0,0:1|0:0,0:0:0:0:
251,262,86835,54,0,P|262:243|280:229,1,45,8|0,0:1|0:0,0:0:0:0:
146,361,87022,2,0,P|134:341|130:320,1,45,8|0,0:1|0:0,0:0:0:0:
18,265,87210,70,0,P|92:241|97:145,1,180,2|8,3:1|0:0,0:0:0:0:
0,62,87772,1,8,1:0:0:0:
123,2,87960,1,2,0:0:0:0:
194,108,88147,2,0,L|240:98,1,45,2|0,3:2|0:0,0:0:0:0:
423,57,88335,2,0,P|387:26|404:80,1,135,10|0,0:0|0:0,0:0:0:0:
456,131,88710,86,0,P|479:178|469:229,1,90,2|0,3:1|0:0,0:0:0:0:
376,361,89085,1,8,0:0:0:0:
376,361,89272,2,0,L|420:357,1,45,8|0,1:0|0:0,0:0:0:0:
512,311,89460,1,2,0:0:0:0:
369,232,89647,1,2,3:2:0:0:
287,364,89835,2,0,P|239:324|160:317,1,135,10|0,0:0|0:0,0:0:0:0:
103,370,90210,5,2,3:1:0:0:
103,370,90397,1,0,0:0:0:0:
24,238,90585,1,8,0:0:0:0:
24,238,90772,1,0,1:0:0:0:
177,235,90960,2,0,L|279:231,1,90,2|2,0:0|3:2,0:0:0:0:
89,132,91335,2,0,L|-13:128,1,90,10|2,0:0|0:0,0:0:0:0:
188,3,91710,86,0,B|206:89|167:69|186:138,1,135,2|0,3:1|0:0,0:0:0:0:
213,210,92085,1,8,0:0:0:0:
285,97,92272,2,0,P|283:50|272:-7,1,90,8|2,1:0|0:0,0:0:0:0:
287,178,92647,1,2,3:2:0:0:
443,0,92835,38,0,P|438:26|437:52,1,45,10|0,0:0|0:0,0:0:0:0:
406,223,93022,2,0,P|401:197|400:171,1,45,10|0,0:0|0:0,0:0:0:0:
512,256,93210,70,0,P|464:240|352:304,1,180,4|8,3:2|0:0,0:0:0:0:
456,360,93772,1,8,1:0:0:0:
279,344,93960,1,2,0:0:0:0:
279,344,94147,1,2,3:2:0:0:
133,334,94335,2,0,L|0:354,1,135,10|0,0:0|0:0,0:0:0:0:
5,361,94710,86,0,L|37:277,1,90,2|0,3:1|0:0,0:0:0:0:
134,49,95085,1,8,0:0:0:0:
134,49,95272,2,0,L|90:45,1,45,8|0,1:0|0:0,0:0:0:0:
0,91,95460,1,2,0:0:0:0:
179,135,95647,1,2,3:2:0:0:
319,44,95835,2,0,B|279:-6|279:-6|300:67,1,135,10|0,0:0|0:0,0:0:0:0:
362,108,96210,5,2,3:1:0:0:
362,108,96397,1,0,0:0:0:0:
512,27,96585,1,8,0:0:0:0:
512,27,96772,1,8,1:0:0:0:
422,179,96960,2,0,L|511:175,1,90,2|2,0:0|3:2,0:0:0:0:
512,335,97335,2,0,L|422:331,1,90,10|2,0:0|0:0,0:0:0:0:
235,261,97710,86,0,P|295:242|300:303,1,135,2|0,3:1|0:0,0:0:0:0:
304,297,98085,1,8,0:0:0:0:
185,384,98272,1,8,1:0:0:0:
125,247,98460,1,2,0:0:0:0:
194,378,98647,1,2,3:2:0:0:
81,170,98835,1,10,1:2:0:0:
0,0,99022,1,10,1:2:0:0:
84,69,99210,70,0,P|135:25|201:-1,2,135.000005149842,4|8|0,0:0|0:0|0:0,0:0:0:0:
223,75,100147,2,0,P|254:87|279:109,1,67.5000025749208,2|8,0:0|0:0,0:0:0:0:
409,0,100522,2,0,P|404:67|375:132,1,135.000005149842,2|0,0:0|0:0,0:0:0:0:
315,210,101085,1,8,0:0:0:0:
315,210,101272,1,8,0:0:0:0:
487,155,101647,1,2,0:0:0:0:
487,155,101834,1,8,0:0:0:0:
329,103,102022,1,2,0:0:0:0:
445,0,102210,22,0,L|413:120,1,101.250003862381,2|0,0:0|0:0,0:0:0:0:
483,169,102585,2,0,L|451:49,1,101.250003862381,10|0,0:0|0:0,0:0:0:0:
456,71,102960,1,2,0:0:0:0:
387,219,103147,1,2,0:0:0:0:
466,252,103335,1,8,0:0:0:0:
397,303,103522,70,0,P|346:314|197:377,1,202.500007724762,2|8,0:0|0:0,0:0:0:0:
207,370,104272,1,8,0:0:0:0:
92,322,104460,2,0,P|81:354|66:384,1,67.5000025749208,0|2,0:0|0:0,0:0:0:0:
237,261,104835,2,0,P|221:230|211:198,1,67.5000025749208,8|2,0:0|0:0,0:0:0:0:
50,64,105210,22,0,P|30:128|0:189,2,135.000005149842,2|8|0,1:0|1:0|1:0,0:0:0:0:
50,64,106147,1,0,1:0:0:0:
173,0,106335,2,0,L|266:9,1,67.5000025749208,8|2,1:0|1:2,0:0:0:0:
400,73,106710,2,0,P|340:49|291:91,1,135.000005149842,2|10,1:2|1:2,0:0:0:0:
303,182,107272,1,0,1:0:0:0:
505,239,107460,69,2,1:2:0:0:
501,185,107647,1,2,1:2:0:0:
493,240,107835,1,10,1:2:0:0:
512,190,108022,1,2,1:2:0:0:
317,384,108210,21,2,1:2:0:0:
317,384,108303,1,0,1:0:0:0:
317,384,108397,2,0,L|324:350,1,33.7500012874604,0|0,1:0|1:0,0:0:0:0:
227,288,108585,69,10,1:2:0:0:
227,288,108678,1,0,1:0:0:0:
227,288,108772,2,0,L|221:254,1,33.7500012874604,0|0,1:0|1:0,0:0:0:0:
352,175,108960,21,0,1:0:0:0:
352,175,109053,1,0,1:0:0:0:
352,175,109147,2,0,L|359:141,1,33.7500012874604,0|0,1:0|1:0,0:0:0:0:
195,59,109335,69,8,1:0:0:0:
228,52,109428,1,0,1:0:0:0:
261,45,109522,1,4,1:3:0:0:
294,38,109616,1,0,1:0:0:0:
327,31,109710,1,0,1:0:0:0:
277,179,109897,85,8,0:2:0:0:
295,192,109990,1,8,0:2:0:0:
300,170,110084,1,8,1:2:0:0:
261,45,110272,1,0,3:0:0:0:
303,215,110460,1,8,1:0:0:0:
252,41,110647,5,0,3:0:0:0:
174,192,110835,86,0,B|168:223|168:223|171:227|171:227|165:258,1,67.5000025749208,0|0,1:2|0:0,0:0:0:0:
253,318,111022,2,0,B|258:348|258:348|256:352|256:352|261:384,1,67.5000025749208,0|0,1:2|0:0,0:0:0:0:
424,384,111210,54,0,B|435:323|435:323|431:314|431:314|441:251,1,135.000005149842,4|0,1:2|0:0,0:0:0:0:
274,161,111585,1,8,0:0:0:0:
342,337,111772,2,0,B|361:226,1,112.5,8|0,1:0|0:0,0:0:0:0:
512,94,112147,2,0,B|400:109,1,112.5,2|10,3:2|1:2,0:0:0:0:
263,255,112522,1,0,0:0:0:0:
280,7,112710,6,0,P|356:38|399:109,1,168.75,4|0,1:3|0:0,0:0:0:0:
398,189,113085,1,8,0:2:0:0:
214,78,113272,2,0,B|148:68|165:100|100:90,1,112.5,8|0,1:0|0:0,0:0:0:0:
60,5,113647,1,2,3:2:0:0:
1,176,113835,2,0,P|0:204|5:231,1,56.25,10|0,1:2|0:0,0:0:0:0:
164,223,114022,2,0,P|137:214|114:198,1,56.25,2|0,0:0|0:0,0:0:0:0:
0,334,114210,70,0,B|45:314|98:330|69:361|120:372|158:350,1,168.75,4|0,1:3|0:0,0:0:0:0:
228,315,114585,1,8,0:0:0:0:
419,246,114772,1,8,1:0:0:0:
419,246,114960,2,0,L|431:314,1,56.25
446,384,115147,1,2,3:2:0:0:
296,240,115335,1,10,1:2:0:0:
323,378,115522,1,0,0:0:0:0:
473,171,115710,86,0,P|479:113|473:42,1,112.5,4|0,1:3|1:0,0:0:0:0:
306,1,116085,2,0,B|305:41|281:76|281:76|300:117|302:161,1,168.75,8|0,1:2|0:0,0:0:0:0:
296,240,116460,1,0,1:0:0:0:
114,384,116647,1,2,3:2:0:0:
114,384,116835,2,0,P|104:354|103:320,1,56.25,10|0,1:2|0:0,0:0:0:0:
246,170,117022,1,10,1:0:0:0:
190,341,117210,22,0,L|162:174,1,168.75,4|0,1:3|0:0,0:0:0:0:
140,99,117585,2,0,P|84:98|41:132,1,112.5,8|8,0:0|1:0,0:0:0:0:
208,237,117960,1,0,0:0:0:0:
107,251,118147,2,0,L|118:187,1,56.25,2|0,3:2|0:0,0:0:0:0:
141,0,118335,1,8,1:2:0:0:
0,75,118522,1,0,0:0:0:0:
242,58,118710,6,0,P|295:26|351:18,1,112.5,4|0,1:3|0:0,0:0:0:0:
251,196,119085,2,0,P|190:181|145:147,1,112.5,8|0,0:0|1:0,0:0:0:0:
329,128,119460,1,0,0:0:0:0:
511,210,119647,1,2,3:2:0:0:
295,277,119835,2,0,P|396:280|476:297,1,168.75,10|0,1:2|0:0,0:0:0:0:
330,384,120210,70,0,P|319:338|285:257,1,112.5,4|0,1:3|0:0,0:0:0:0:
228,174,120585,1,8,0:0:0:0:
154,384,120772,2,0,P|165:338|199:257,1,112.5,8|0,1:0|0:0,0:0:0:0:
63,384,121147,1,2,3:2:0:0:
128,188,121335,2,0,P|113:212|115:241,1,56.25,10|0,1:2|0:0,1:0:0:0:
55,112,121522,2,0,P|28:112|4:126,1,56.25
213,75,121710,86,0,P|184:24|132:-1,1,112.5,4|0,1:3|1:0,0:0:0:0:
305,145,122085,2,0,B|362:129|411:164|411:164|417:148|417:148|465:172|512:153,1,225,8|0,1:2|1:0,0:0:0:0:
305,145,122647,1,2,3:2:0:0:
473,18,122835,2,0,B|470:74,1,56.25,10|0,1:2|0:0,0:0:0:0:
364,75,123022,2,0,B|361:18,1,56.25,10|0,1:0|0:0,0:0:0:0:
421,202,123210,22,0,B|415:314,1,112.5,4|0,1:2|0:0,0:0:0:0:
512,232,123585,1,8,1:2:0:0:
339,384,123772,2,0,B|333:271,1,112.5,8|2,0:1|0:0,0:0:0:0:
333,271,124147,1,2,3:2:0:0:
140,325,124335,1,10,1:2:0:0:
140,325,124522,2,0,P|114:317|84:318,1,56.25,2|0,0:0|0:0,0:0:0:0:
197,384,124710,6,0,P|185:318|185:159,1,225,2|10,3:2|1:2,0:0:0:0:
225,45,125272,2,0,P|170:49|139:94,1,112.5,8|2,0:1|0:0,0:0:0:0:
40,0,125647,1,2,3:2:0:0:
179,191,125835,1,10,1:2:0:0:
303,66,126022,1,2,0:0:0:0:
348,133,126210,86,0,B|450:148|421:102|511:111,1,168.75,2|0,3:2|0:0,0:0:0:0:
507,132,126585,2,0,L|471:25,1,112.5,10|8,1:2|0:1,0:0:0:0:
350,268,126960,85,2,0:0:0:0:
440,216,127147,1,2,3:2:0:0:
483,280,127335,85,10,1:2:0:0:
307,204,127522,1,2,0:0:0:0:
367,384,127710,21,2,3:2:0:0:
408,283,127897,1,0,0:0:0:0:
223,311,128085,2,0,P|129:296|-20:282,1,225,10|2,1:2|0:0,0:0:0:0:
223,311,128647,5,2,3:2:0:0:
29,145,128835,2,0,P|78:170|127:199,1,112.5,14|0,1:2|0:0,0:0:0:0:
99,0,129210,86,0,P|135:42|169:87,1,112.5,10|0,1:2|3:0,0:0:0:0:
376,0,129585,2,0,P|393:53|408:107,1,112.5,10|0,1:2|3:0,0:0:0:0:
387,302,129960,6,0,L|361:192,1,112.5,10|2,1:2|3:2,0:0:0:0:
195,275,130335,2,0,L|170:385,1,112.5,10|2,1:2|3:2,0:0:0:0:
122,227,130710,85,10,1:2:0:0:
149,78,130897,1,0,3:0:0:0:
0,180,131085,85,10,1:2:0:0:
102,304,131272,1,0,3:0:0:0:
75,162,131460,5,10,1:2:0:0:
42,55,131647,1,2,3:2:0:0:
198,0,131835,69,8,1:2:0:0:
112,93,132022,1,2,3:2:0:0:
284,26,132210,38,0,P|314:35|339:53,1,56.25,8|0,3:2|1:0,0:0:0:0:
413,22,132397,2,0,P|437:7|464:0,1,56.25,0|0,1:2|1:0,0:0:0:0:
290,113,132585,54,0,P|316:129|336:153,1,56.25,8|0,3:2|1:0,0:0:0:0:
438,108,132772,2,0,P|457:87|482:74,1,56.25,0|0,1:2|1:0,0:0:0:0:
269,192,132960,6,0,P|290:214|303:243,1,56.25,8|0,3:2|1:0,0:0:0:0:
457,210,133147,2,0,P|470:185|491:166,1,56.25,2|0,1:2|1:0,0:0:0:0:
239,278,133335,22,0,P|253:305|258:336,1,56.25,10|0,3:2|1:0,0:0:0:0:
478,324,133522,2,0,P|483:297|498:273,1,56.25,2|0,1:2|1:0,0:0:0:0:
376,264,134460,38,0,B|380:299|380:299|369:269,1,56.25,8|0,0:0|0:0,0:0:0:0:
374,286,134647,2,0,B|378:321|378:321|367:291,1,56.25,0|0,1:0|0:0,0:0:0:0:
451,237,134835,2,0,B|461:139|461:139|431:222,1,168.75,4|0,1:2|0:0,0:0:0:0:
384,292,135210,70,0,L|439:316,1,60.7500002317429,6|0,1:2|0:0,0:0:0:0:
256,384,135397,2,0,L|313:364,1,60.7500002317429,2|0,0:2|0:0,0:0:0:0:
156,284,135585,2,0,L|211:308,1,60.7500002317429,2|0,0:2|0:0,0:0:0:0:
53,373,135772,2,0,L|110:353,1,60.7500002317429,2|0,2:2|0:0,0:0:0:0:
0,217,135960,2,0,L|111:265,1,121.500000463486,10|0,2:2|1:0,0:0:0:0:
153,31,136335,6,0,P|120:28|95:46,1,60.7500002317429,2|0,0:2|0:0,0:0:0:0:
0,81,136522,2,0,L|193:65,1,182.250000695229,2|0,1:2|0:0,0:0:0:0:
282,7,136897,86,0,L|242:-1,1,40.5000001544952,2|0,0:0|0:2,0:0:0:0:
385,212,137085,2,0,B|353:63|353:63|367:36,1,182.250000695229,2|0,1:2|0:0,0:0:0:0:
443,19,137460,22,0,P|387:17|302:-12,1,121.500000463486,10|0,0:0|0:0,0:0:0:0:
512,262,137835,70,0,B|492:215|494:148|494:148|483:182|466:204|466:204|474:215|479:235,1,202.500007724762,4|0,0:1|0:0,1:0:0:0:
392,320,138210,6,0,P|366:307|330:320,1,67.5000025749208,2|0,1:2|0:0,0:0:0:0:
231,223,138397,2,0,P|206:240|198:279,1,67.5000025749208,2|0,0:2|0:0,0:0:0:0:
141,384,138585,2,0,P|115:363|112:331,1,67.5000025749208,2|0,0:2|0:0,0:0:0:0:
0,352,138772,2,0,P|5:319|32:300,1,67.5000025749208,2|0,2:2|0:0,0:0:0:0:
172,138,138960,2,0,P|117:177|102:241,1,135.000005149842,10|0,2:2|1:0,0:0:0:0:
296,108,139335,86,0,B|316:86|281:64|247:93|276:115,1,67.5000025749208,2|0,0:2|0:0,0:0:0:0:
302,0,139522,2,0,P|283:89|280:180,1,182.250000695229,2|0,1:2|0:0,0:0:0:0:
189,266,139897,102,0,P|210:265|234:270,1,34.5000006580353,2|0,0:0|0:0,0:0:0:0:
351,311,140085,2,0,P|398:277|402:244,1,51.7500009870529,2|0,1:2|0:0,0:0:0:0:
415,116,140272,102,0,P|393:116|373:108,2,34.5000006580353
490,23,140460,2,0,L|485:6,1,16.8750006437302,8|0,0:0|0:0,0:0:0:0:
490,0,140647,2,0,L|495:16,1,16.8750006437302
330,36,140835,22,2,B|330:15|342:7|342:7|338:26|343:44,1,67.5,0|0,0:0|0:0,0:1:0:0:
260,0,141210,70,0,P|312:65|294:176,1,182.250000695229,6|0,1:2|0:0,0:0:0:0:
241,231,141585,1,2,0:2:0:0:
414,316,141772,2,0,P|417:292|424:270,2,40.5000001544952,2|0|0,2:2|2:2|2:2,0:0:0:0:
501,267,141960,2,0,P|496:330|477:386,1,121.500000463486,10|0,2:2|1:0,0:0:0:0:
233,375,142335,6,0,P|258:363|293:375,1,60.7500002317429,2|0,0:0|0:0,0:0:0:0:
148,262,142522,2,0,P|171:278|178:314,1,60.7500002317429,2|0,1:2|0:0,0:0:0:0:
225,133,142710,2,0,P|222:160|194:184,1,60.7500002317429,2|0,0:0|0:0,0:0:0:0:
322,249,142898,2,0,P|296:261|262:249,1,60.7500002317429,2|0,0:2|0:0,0:0:0:0:
64,218,143085,2,0,B|41:341|41:341|81:382,1,182.250000695229,2|0,1:2|0:0,0:0:0:0:
194,357,143460,6,0,P|135:385|76:380,1,121.500000463486,10|0,0:0|0:0,0:0:0:0:
152,120,143835,70,0,B|241:208|175:247|100:222|166:82,1,202.500007724762,4|0,0:1|0:0,1:0:0:0:
118,51,144210,6,0,B|118:-36|66:-23|41:26|143:62,1,135.000005149842,2|2,1:2|2:2,2:2:0:0:
280,49,144585,1,2,2:2:0:0:
68,121,144772,85,2,2:2:0:0:
63,128,144835,2,0,L|14:122,2,45.0000017166138,0|0|10,2:2|2:2|2:2,0:0:0:0:
260,182,145147,1,0,1:0:0:0:
300,0,145335,2,0,L|320:65,1,67.5000025749208,2|0,0:2|2:2,2:2:0:0:
354,185,145522,1,2,1:2:0:0:
408,0,145710,53,2,0:2:0:0:
453,130,145897,2,0,L|433:66,1,51.7500009870529
354,185,146085,2,0,L|324:284,1,103.500001974106,2|2,0:0|0:0,0:0:0:0:
425,384,146460,1,8,0:1:0:0:
220,339,146647,6,0,P|204:359|197:384,1,51.7500009870529,8|0,0:1|0:0,0:0:0:0:
182,336,146835,2,0,P|185:361|196:384,1,51.7500009870529,8|0,0:1|0:0,0:0:0:0:
152,360,147022,2,0,P|172:376|196:384,1,51.7500009870529,8|0,0:1|0:0,0:0:0:0:
196,384,159210,69,0,1:0:0:0:
196,384,159397,2,0,L|251:334,1,67.5000025749208,0|8,3:0|0:1,0:0:0:0:
148,297,159772,1,8,1:0:0:0:
202,219,160147,1,0,3:0:0:0:
148,297,160335,21,8,1:2:0:0:
54,321,160522,69,8,0:0:0:0:
30,227,160710,21,0,1:0:0:0:
30,227,160897,2,0,L|45:292,1,67.5000025749208,0|8,3:0|0:1,0:0:0:0:
78,140,161272,1,0,1:0:0:0:
24,62,161647,1,0,3:0:0:0:
78,140,161835,69,8,1:2:0:0:
119,55,162022,1,8,0:0:0:0:
119,55,162116,1,8,0:0:0:0:
119,55,162210,21,8,1:2:0:0:
78,140,162397,2,0,L|145:132,1,67.5000025749208,0|8,3:0|0:1,0:0:0:0:
214,48,162772,1,0,1:0:0:0:
221,143,163147,1,0,3:0:0:0:
214,48,163335,1,8,1:2:0:0:
299,89,163522,1,8,0:0:0:0:
299,89,163616,1,8,0:0:0:0:
299,89,163710,69,0,1:0:0:0:
384,130,163897,2,0,L|369:195,1,67.5000025749208,0|8,3:0|0:1,0:0:0:0:
461,46,164272,1,0,1:0:0:0:
461,46,164647,1,0,3:0:0:0:
436,145,164835,1,8,1:2:0:0:
411,244,165023,1,8,0:0:0:0:
411,244,165116,1,8,0:0:0:0:
411,244,165210,21,0,1:0:0:0:
411,244,165585,69,8,0:1:0:0:
386,343,165772,1,8,1:2:0:0:
287,318,165960,1,8,0:0:0:0:
199,370,166147,1,8,3:2:0:0:
100,344,166334,1,8,1:2:0:0:
192,359,166522,21,8,0:0:0:0:
192,343,166616,1,8,0:0:0:0:
202,324,166710,2,0,P|209:278|202:211,1,101.250003862381,8|0,1:2|0:0,0:0:0:0:
256,141,167085,2,0,P|219:111|158:84,1,101.250003862381,8|0,0:0|0:0,0:0:0:0:
135,14,167460,2,0,P|91:30|37:70,1,87.749995983124,8|0,0:0|0:0,0:0:0:0:
1,105,167835,2,0,P|-4:137|1:186,1,74.2500022659302,8|0,1:2|0:2,0:0:0:0:
0,178,168210,54,0,P|14:178|25:182,3,24.7500007553101,8|0|0|0,1:2|1:0|1:0|1:0,0:0:0:0:
77,237,168585,2,0,P|91:237|102:233,3,24.7500007553101,0|0|8|0,1:0|1:0|1:2|1:0,0:0:0:0:
168,186,168960,101,0,1:0:0:0:
171,201,169053,1,0,1:0:0:0:
174,218,169147,1,0,1:0:0:0:
178,235,169240,1,0,1:0:0:0:
182,253,169335,1,8,1:2:0:0:
209,291,169428,5,0,1:0:0:0:
202,315,169521,1,0,1:0:0:0:
199,343,169615,1,0,1:0:0:0:
176,352,170460,53,12,1:2:0:0:
194,365,170553,1,8,1:2:0:0:
199,343,170647,1,8,1:2:0:0:
140,134,170835,5,8,1:2:0:0:
200,384,171022,1,8,1:2:0:0:
0,241,171210,54,0,P|59:207|123:214,1,135.000005149842,4|0,1:2|0:0,0:0:0:0:
220,321,171585,1,8,0:0:0:0:
217,121,171772,2,0,L|217:247,1,112.5,8|0,1:0|0:0,0:0:0:0:
336,384,172147,1,2,3:2:0:0:
309,227,172335,1,10,1:2:0:0:
326,382,172522,1,0,0:0:0:0:
474,290,172710,6,0,P|489:224|486:158,1,112.5,4|0,1:3|0:0,0:0:0:0:
454,59,173085,1,8,0:0:0:0:
237,149,173272,2,0,P|148:128|60:132,1,168.75,8|0,1:0|0:0,0:0:0:0:
6,175,173647,1,2,3:2:0:0:
160,34,173835,2,0,P|131:34|104:27,1,56.25,10|0,1:2|0:0,0:0:0:0:
210,102,174022,2,0,P|238:102|265:95,1,56.25,2|0,0:0|0:0,0:0:0:0:
88,177,174210,22,0,P|185:192|179:276,1,168.75,4|0,1:3|0:0,0:0:0:0:
176,327,174585,1,10,0:2:0:0:
176,327,174772,1,10,1:2:0:0:
0,384,174960,2,0,L|61:368,1,56.25,2|0,0:0|0:0,0:0:0:0:
195,324,175147,1,0,3:2:0:0:
325,384,175335,1,10,1:2:0:0:
240,209,175522,1,0,0:0:0:0:
317,361,175710,38,0,P|332:295|329:229,1,112.5,4|0,1:3|0:0,0:0:0:0:
512,160,176085,2,0,B|459:156|415:213|415:213|388:157|328:154,1,225,8|2,0:0|0:0,0:0:0:0:
428,55,176647,37,2,3:2:0:0:
177,0,176835,2,0,L|188:64,1,56.25,10|0,1:2|0:0,0:0:0:0:
218,206,177022,1,10,1:0:0:0:
254,5,177210,38,0,L|226:172,1,168.75,4|0,1:3|0:0,0:0:0:0:
208,244,177585,2,0,P|152:244|109:210,1,112.5,8|8,0:0|1:0,0:0:0:0:
177,0,177960,1,0,0:0:0:0:
177,0,178147,2,0,L|188:64,1,56.25,2|0,3:2|0:0,0:0:0:0:
0,121,178335,1,10,1:2:0:0:
74,27,178522,1,0,0:0:0:0:
109,210,178710,22,0,L|127:320,1,112.5,4|0,1:3|0:0,0:0:0:0:
269,274,179085,2,0,L|250:384,1,112.5,8|0,0:2|1:0,0:0:0:0:
213,184,179460,1,0,0:0:0:0:
351,320,179647,1,2,3:2:0:0:
512,223,179835,2,0,P|411:226|331:243,1,168.75,10|0,1:2|0:0,0:0:0:0:
382,106,180210,6,0,P|451:110|485:148,1,112.5,4|2,1:3|0:0,0:0:0:0:
344,239,180585,1,10,0:0:0:0:
344,33,180772,2,0,P|275:37|241:75,1,112.5,0|2,1:0|0:0,0:0:0:0:
154,21,181147,2,0,P|122:82|138:131,1,112.5,2|10,3:2|1:2,0:0:0:0:
227,252,181522,1,0,0:0:0:0:
48,179,181710,69,4,1:3:0:0:
128,381,181897,1,0,1:0:0:0:
130,159,182085,2,0,P|114:219|105:287,1,112.5,8|0,1:2|0:0,0:0:0:0:
328,350,182460,2,0,P|268:366|204:392,1,112.5,0|2,1:0|3:2,0:0:0:0:
297,162,182835,1,10,1:2:0:0:
151,340,183022,1,10,1:1:0:0:
308,169,183210,6,0,P|364:172|430:180,1,112.5,8|0,1:2|3:0,0:0:0:0:
486,358,183585,2,0,P|430:361|363:369,1,112.5,8|0,1:2|3:0,0:0:0:0:
226,209,183960,5,10,1:2:0:0:
255,284,184147,1,2,3:2:0:0:
58,248,184335,1,10,1:2:0:0:
29,323,184522,1,2,3:2:0:0:
174,112,184710,69,10,1:2:0:0:
226,209,184897,1,0,3:0:0:0:
95,122,185085,85,10,1:2:0:0:
147,25,185272,1,0,3:0:0:0:
312,153,185460,21,10,1:2:0:0:
258,31,185647,1,2,3:2:0:0:
392,0,185835,1,10,1:2:0:0:
446,122,186022,1,2,3:2:0:0:
302,268,186210,5,10,1:2:0:0:
302,268,186397,1,0,3:0:0:0:
445,324,186585,69,10,1:2:0:0:
436,242,186772,1,0,3:0:0:0:
218,384,186960,53,10,1:2:0:0:
227,292,187147,1,2,3:2:0:0:
41,383,187335,1,10,1:2:0:0:
32,292,187522,1,2,3:2:0:0:
125,63,187710,21,10,1:2:0:0:
109,208,187897,1,0,3:0:0:0:
251,46,188085,37,10,1:2:0:0:
267,191,188272,1,0,3:0:0:0:
409,47,188460,5,10,1:2:0:0:
409,47,188647,1,2,3:2:0:0:
512,232,188835,2,0,P|451:232|340:264,1,168.75,14|0,1:2|0:0,0:0:0:0:
285,324,189210,85,14,1:2:0:0:
437,383,189397,1,0,3:0:0:0:
268,245,189585,69,10,1:2:0:0:
185,284,189772,1,0,3:0:0:0:
17,364,189960,5,10,1:2:0:0:
17,364,190147,1,2,3:2:0:0:
147,180,190335,1,10,1:2:0:0:
147,180,190522,1,2,3:2:0:0:
15,86,190710,70,0,P|38:5|90:60,1,168.75,10|0,1:2|0:0,0:0:0:0:
147,119,191085,37,10,1:2:0:0:
243,0,191272,1,0,3:0:0:0:
310,187,191460,85,10,1:2:0:0:
338,0,191647,1,2,3:2:0:0:
469,238,191835,69,8,1:2:0:0:
473,12,192022,1,2,3:2:0:0:
473,12,192116,1,0,0:0:0:0:
473,12,192210,6,0,L|418:0,1,56.25,8|0,3:2|1:0,0:0:0:0:
334,10,192397,2,0,L|279:22,1,56.25,0|0,1:0|1:0,0:0:0:0:
485,100,192585,22,0,L|431:82,1,56.25,8|0,3:2|1:0,0:0:0:0:
331,89,192772,2,0,L|277:106,1,56.25,0|0,1:0|1:0,0:0:0:0:
499,187,192960,54,0,L|447:165,1,56.25,8|0,3:2|1:0,0:0:0:0:
304,179,193147,2,0,L|252:200,1,56.25,2|0,1:2|1:0,0:0:0:0:
504,278,193335,6,0,L|454:251,1,56.25,10|0,3:2|1:0,0:0:0:0:
268,277,193522,2,0,L|218:303,1,56.25,2|0,1:2|1:0,0:0:0:0:
360,239,194460,70,0,B|346:224|371:206|394:221|380:242,1,56.25,8|0,0:0|0:0,0:0:0:0:
390,221,194647,2,0,B|402:206|379:191|354:209|368:224,1,56.25,0|0,1:0|0:0,0:0:0:0:
453,375,194835,2,0,B|490:328|418:272|347:319|391:384,1,168.75,4|0,1:2|0:0,0:0:0:0:
378,372,195210,70,0,P|376:339|371:311,1,60.7500002317429,6|0,1:2|0:0,0:0:0:0:
249,384,195397,2,0,P|243:354|242:323,1,60.7500002317429,2|0,0:2|0:0,0:0:0:0:
311,182,195585,2,0,P|306:212|305:243,1,60.7500002317429,2|0,0:2|0:0,0:0:0:0:
169,197,195772,2,0,P|174:227|176:258,1,60.7500002317429,2|0,2:2|0:0,0:0:0:0:
53,384,195960,6,0,P|53:323|63:263,1,121.500000463486,10|0,2:2|1:0,0:0:0:0:
135,71,196335,86,0,B|105:88|105:88|78:86,1,60.7500002317429,2|0,0:2|0:0,0:0:0:0:
0,90,196522,2,0,B|88:61|88:61|179:73,1,182.250000695229,2|0,1:2|0:0,0:0:0:0:
311,102,196897,6,0,P|304:84|318:90,1,40.5000001544952,2|0,0:2|0:0,0:0:0:0:
512,101,197085,2,0,B|316:96,1,182.250000695229,2|0,1:2|0:0,0:0:0:0:
232,212,197460,6,0,B|369:216,1,121.500000463486,10|0,0:0|0:0,0:0:0:0:
55,311,197835,70,4,B|59:253|36:198|36:198|34:247|-1:278,1,202.500007724762,4|0,0:1|0:2,1:2:0:0:
93,384,198210,6,0,L|159:366,1,67.5000025749208,2|0,1:2|0:0,0:0:0:0:
177,239,198397,2,0,L|242:256,1,67.5000025749208,2|0,0:2|0:0,0:0:0:0:
298,381,198585,2,0,L|363:363,1,67.5000025749208,2|0,0:2|0:0,0:0:0:0:
420,294,198772,2,0,L|485:311,1,67.5000025749208,2|0,2:2|0:0,0:0:0:0:
325,278,198960,2,0,L|360:147,1,135.000005149842,10|0,2:2|1:0,0:0:0:0:
139,145,199335,86,0,B|140:126|125:98|125:98|139:104|144:119,1,67.5000025749208,2|0,0:2|0:0,0:0:0:0:
190,0,199522,2,0,P|173:81|168:180,1,182.250000695229,2|0,1:2|0:0,0:0:0:0:
83,32,199897,6,0,P|66:30|49:32,1,34.5000006580353,2|0,0:2|0:0,0:0:0:0:
0,158,200085,2,0,P|47:192|51:225,1,51.7500009870529,2|0,1:2|0:0,0:0:0:0:
192,279,200272,86,0,P|170:282|149:278,2,34.5000006580353
264,189,200460,2,0,L|259:172,1,16.8750006437302,8|0,0:0|0:0,0:0:0:0:
264,165,200647,2,0,L|269:182,1,16.8750006437302
55,234,200835,22,2,P|76:251|60:251,1,67.5,0|0,0:0|0:0,0:1:0:0:
0,301,201210,70,0,B|117:293|69:340|176:335,1,182.250000695229,6|0,1:2|0:0,0:0:0:0:
264,300,201585,1,2,0:2:0:0:
468,316,201772,2,0,P|465:292|458:270,2,40.5000001544952,2|0|0,2:2|2:2|2:2,0:0:0:0:
381,267,201960,2,0,P|386:330|405:386,1,121.500000463486,10|0,2:2|1:0,0:0:0:0:
348,187,202335,6,0,P|373:175|408:187,1,60.7500002317429,2|0,0:2|0:0,0:0:0:0:
432,68,202522,2,0,P|455:84|462:120,1,60.7500002317429,2|0,1:2|0:0,0:0:0:0:
356,0,202710,2,0,P|353:27|325:51,1,60.7500002317429,2|0,0:2|0:0,0:0:0:0:
225,9,202898,2,0,P|199:-3|165:9,1,60.7500002317429,2|0,0:2|0:0,0:0:0:0:
248,142,203085,2,0,B|206:110|206:110|128:112|128:112|90:148,1,182.250000695229,2|0,1:2|0:0,0:0:0:0:
0,191,203460,6,0,B|65:180|65:180|105:217,1,121.500000463486,10|0,0:0|0:0,0:0:0:0:
407,245,203835,70,0,B|354:252|309:217|309:217|291:274|242:282,1,202.500007724762,4|0,0:1|0:0,1:0:0:0:
110,342,204210,6,0,B|88:341|77:313|77:313|120:288|172:320,1,135.000005149842,2|2,1:2|0:2,0:0:0:0:
287,384,204585,1,2,0:2:0:0:
379,162,204772,85,2,2:2:0:0:
386,157,204835,2,0,L|380:108,2,45.0000017166138,0|0|10,2:2|2:2|2:2,0:0:0:0:
343,326,205147,1,0,1:2:0:0:
474,165,205335,2,0,L|465:98,1,67.5000025749208
363,0,205522,1,0,1:2:0:0:
363,0,205710,37,2,0:2:0:0:
295,120,205897,2,0,L|303:186,1,51.7500009870529
208,217,206085,2,0,P|190:263|190:315,1,51.7500009870529,2|0,0:0|0:0,0:0:0:0:
275,348,206272,1,2,0:0:0:0:
207,130,206460,1,8,0:1:0:0:
47,322,206647,86,0,P|49:347|62:370,1,51.7500009870529,8|0,0:1|0:0,0:0:0:0:
18,346,206835,2,0,P|37:361|61:370,1,51.7500009870529,8|0,0:1|0:0,0:0:0:0:
13,384,207022,2,0,P|38:381|61:369,1,51.7500009870529,8|0,0:1|0:0,0:0:0:0:
