osu file format v14

[General]
AudioFilename: audio.mp3
AudioLeadIn: 0
PreviewTime: 109499
Countdown: 0
SampleSet: Soft
StackLeniency: 0.6
Mode: 0
LetterboxInBreaks: 0
WidescreenStoryboard: 1

[Editor]
Bookmarks: 39210,63210,75210,81210,87210,99210,147210,159210,171210,200460
DistanceSpacing: 1.5
BeatDivisor: 8
GridSize: 8
TimelineZoom: 2.799999

[Metadata]
Title:Dirty
TitleUnicode:Dirty
Artist:grandson
ArtistUnicode:grandson
Creator:Chills
Version:Min's Expert
Source:
Tags:indie electronic english shuckles shucklings min moondoogy Li Syaoran MinNin death of an optimist rock pop
BeatmapID:3955047
BeatmapSetID:1885174

[Difficulty]
HPDrainRate:5
CircleSize:3.7
OverallDifficulty:8
ApproachRate:9
SliderMultiplier:1.6
SliderTickRate:1

[Events]
//Background and Video events
0,0,"dirtee.png",0,0
//Break Periods
2,147410,158610
//Storyboard Layer 0 (Background)
//Storyboard Layer 1 (Fail)
//Storyboard Layer 2 (Pass)
//Storyboard Layer 3 (Foreground)
//Storyboard Layer 4 (Overlay)
//Storyboard Sound Samples

[TimingPoints]
210,375,4,2,1,100,1,0
2835,-100,4,2,1,40,0,0
3210,375,4,2,1,40,1,0
8741,-100,4,2,1,5,0,0
8835,-66.6666666666667,4,2,1,60,0,0
9116,-66.6666666666667,4,2,1,5,0,0
9210,-100,4,2,1,40,0,0
14647,-100,4,2,1,50,0,0
14835,-100,4,2,1,60,0,0
15210,-100,4,2,1,70,0,0
17272,-100,4,2,3,70,0,0
17460,-100,4,2,1,70,0,0
20272,-100,4,2,3,70,0,0
20460,-100,4,2,1,70,0,0
20835,-100,4,2,3,85,0,0
21210,-100,4,2,1,70,0,0
21585,-100,4,2,1,70,0,0
21772,-100,4,2,3,70,0,0
21960,-100,4,2,1,70,0,0
24772,-100,4,2,3,70,0,0
24960,-100,4,2,1,70,0,0
25710,-100,4,2,1,70,0,0
26272,-100,4,2,3,70,0,0
26460,-100,4,2,1,70,0,0
26647,-100,4,2,1,80,0,0
26835,-100,4,2,3,85,0,0
27210,-117.647058823529,4,2,3,85,0,0
27585,-117.647058823529,4,2,3,60,0,0
33210,-117.647058823529,4,2,1,40,0,0
33960,-117.647058823529,4,2,1,45,0,0
34710,-117.647058823529,4,2,1,50,0,0
35085,-117.647058823529,4,2,3,50,0,0
35272,-117.647058823529,4,2,1,50,0,0
35460,-117.647058823529,4,2,1,55,0,0
35835,-117.647058823529,4,2,3,55,0,0
36022,-117.647058823529,4,2,1,55,0,0
36210,-117.647058823529,4,2,1,60,0,0
36585,-117.647058823529,4,2,3,65,0,0
36678,-117.647058823529,4,2,1,65,0,0
36960,-117.647058823529,4,2,1,70,0,0
37335,-117.647058823529,4,2,1,75,0,0
38460,-117.647058823529,4,2,1,80,0,0
39210,-74.0740740740741,4,2,1,90,0,0
57210,-74.0740740740741,4,2,1,90,0,1
60585,-74.0740740740741,4,2,1,93,0,1
60960,-74.0740740740741,4,2,1,96,0,1
61335,-74.0740740740741,4,2,1,100,0,1
61710,-74.0740740740741,4,2,1,100,0,0
62460,-74.0740740740741,4,2,1,80,0,0
62835,-74.0740740740741,4,2,1,100,0,0
63210,-74.0740740740741,4,2,2,100,0,0
65835,-66.6666666666667,4,2,2,100,0,0
68506,-66.6666666666667,4,2,1,5,0,0
68647,-66.6666666666667,4,2,2,100,0,0
68693,-66.6666666666667,4,2,1,5,0,0
68835,-66.6666666666667,4,2,2,100,0,0
68975,-66.6666666666667,4,2,1,65,0,0
69116,-66.6666666666667,4,2,2,5,0,0
69210,-66.6666666666667,4,2,2,100,0,0
71835,-66.6666666666667,4,2,2,100,0,0
73710,-66.6666666666667,4,2,1,80,0,0
74085,-66.6666666666667,4,2,1,80,0,0
74647,-66.6666666666667,4,2,1,85,0,0
74835,-66.6666666666667,4,2,1,90,0,0
75022,-66.6666666666667,4,2,1,95,0,0
75210,-133.333333333333,4,2,1,40,0,0
80835,-66.6666666666667,4,2,1,60,0,0
81116,-66.6666666666667,4,2,1,5,0,0
81210,-100,4,2,3,50,0,0
83272,-100,4,2,3,50,0,0
84210,-100,4,2,3,50,0,0
85991,-100,4,2,3,5,0,0
86085,-100,4,2,3,50,0,0
86647,-100,4,2,1,50,0,0
86835,-100,4,2,1,75,0,0
87585,-100,4,2,1,75,0,0
92835,-100,4,2,3,75,0,0
93209,-100,4,2,1,75,0,0
98647,-100,4,2,1,80,0,0
98835,-100,4,2,3,85,0,0
99210,-117.647058823529,4,2,3,85,0,0
99585,-117.647058823529,4,2,3,60,0,0
105210,-117.647058823529,4,2,1,40,0,0
105960,-117.647058823529,4,2,1,45,0,0
106710,-117.647058823529,4,2,1,50,0,0
107085,-117.647058823529,4,2,3,50,0,0
107272,-117.647058823529,4,2,1,50,0,0
107460,-117.647058823529,4,2,1,55,0,0
107835,-117.647058823529,4,2,3,55,0,0
108022,-117.647058823529,4,2,1,55,0,0
108210,-117.647058823529,4,2,1,60,0,0
108585,-117.647058823529,4,2,3,65,0,0
108678,-117.647058823529,4,2,1,65,0,0
108960,-117.647058823529,4,2,1,70,0,0
109335,-117.647058823529,4,2,1,75,0,0
110460,-117.647058823529,4,2,1,80,0,0
110835,-117.647058823529,4,2,1,80,0,0
111210,-74.0740740740741,4,2,1,90,0,0
129210,-74.0740740740741,4,2,1,90,0,1
132585,-74.0740740740741,4,2,1,93,0,1
132960,-74.0740740740741,4,2,1,96,0,1
133335,-74.0740740740741,4,2,1,100,0,1
133710,-74.0740740740741,4,2,1,100,0,0
134460,-74.0740740740741,4,2,1,80,0,0
134835,-74.0740740740741,4,2,1,100,0,0
135210,-66.6666666666667,4,2,2,100,0,0
137835,-40,4,2,2,100,0,0
138210,-66.6666666666667,4,2,2,100,0,0
140553,-66.6666666666667,4,2,1,5,0,0
140647,-66.6666666666667,4,2,2,100,0,0
140740,-66.6666666666667,4,2,1,5,0,0
140835,-285.714285714284,4,2,2,100,0,0
140975,-285.714285714284,4,2,1,65,0,0
141116,-285.714285714284,4,2,2,5,0,0
141210,-66.6666666666667,4,2,2,100,0,0
143835,-66.6666666666667,4,2,2,100,0,0
145710,-66.6666666666667,4,2,1,80,0,0
145803,-66.6666666666667,4,2,1,100,0,0
145990,-66.6666666666667,4,2,1,80,0,0
146647,-66.6666666666667,4,2,1,85,0,0
146835,-66.6666666666667,4,2,1,90,0,0
147022,-66.6666666666667,4,2,1,95,0,0
147210,-66.6666666666667,4,2,1,80,0,0
159210,-100,4,2,1,60,0,0
164459,-100,4,2,1,100,0,0
164647,-100,4,2,1,60,0,0
166710,-100,4,2,1,60,0,0
167085,-100,4,2,1,56,0,0
167647,-100,4,2,1,52,0,0
167835,-100,4,2,1,48,0,0
168210,-100,4,2,1,40,0,0
168585,-100,4,2,1,45,0,0
168960,-100,4,2,1,50,0,0
169335,-100,4,2,1,55,0,0
170460,-100,4,2,1,100,0,0
171210,-74.0740740740741,4,2,1,90,0,0
174772,-74.0740740740741,4,2,3,90,0,0
174960,-74.0740740740741,4,2,1,90,0,0
176272,-74.0740740740741,4,2,3,90,0,0
176460,-74.0740740740741,4,2,1,90,0,0
183210,-74.0740740740741,4,2,1,90,0,1
192585,-74.0740740740741,4,2,1,93,0,1
192960,-74.0740740740741,4,2,1,96,0,1
193335,-74.0740740740741,4,2,1,100,0,1
193710,-74.0740740740741,4,2,1,100,0,0
194460,-74.0740740740741,4,2,1,80,0,0
194835,-74.0740740740741,4,2,1,100,0,0
195210,-66.6666666666667,4,2,2,100,0,0
197647,-66.6666666666667,4,2,1,100,0,0
197835,-40,4,2,2,100,0,0
198210,-66.6666666666667,4,2,2,100,0,0
200506,-66.6666666666667,4,2,1,5,0,0
200647,-66.6666666666667,4,2,2,100,0,0
200693,-66.6666666666667,4,2,1,5,0,0
200835,-66.6666666666667,4,2,2,100,0,0
200975,-66.6666666666667,4,2,1,65,0,0
201116,-66.6666666666667,4,2,1,5,0,0
201210,-66.6666666666667,4,2,2,100,0,0
203835,-40,4,2,2,100,0,0
204210,-66.6666666666667,4,2,2,100,0,0
205710,-66.6666666666667,4,2,1,70,0,0
206647,-100,4,2,1,78,0,0
206835,-100,4,2,1,86,0,0
207022,-100,4,2,1,94,0,0

[Colours]
Combo1 : 199,199,199
Combo2 : 198,221,209
Combo3 : 227,228,209
Combo4 : 222,190,211
Combo5 : 196,214,219
Combo6 : 255,157,157
Combo7 : 228,175,152

[HitObjects]
350,318,2835,69,2,0:0:0:0:
402,255,3022,1,2,0:0:0:0:
312,128,3210,38,0,P|299:61|397:53,1,160,0|0,3:0|0:0,0:0:0:0:
449,8,3772,1,0,3:0:0:0:
502,131,3960,2,0,L|420:113,1,80,2|0,3:2|0:0,0:0:0:0:
502,131,4335,1,2,3:2:0:0:
402,255,4522,2,0,L|484:237,1,80,2|0,0:0|3:0,0:0:0:0:
359,357,4897,5,2,0:0:0:0:
307,288,5085,1,2,0:2:0:0:
220,300,5272,1,2,3:2:0:0:
67,162,5460,86,0,L|247:201,1,160,2|2,3:2|3:2,0:0:0:0:
166,91,6022,1,2,0:0:0:0:
12,249,6210,1,0,3:0:0:0:
48,326,6772,5,0,3:2:0:0:
126,292,6960,2,0,L|204:309,1,80,2|0,3:2|0:0,0:0:0:0:
126,292,7335,1,2,3:2:0:0:
250,216,7522,2,0,L|328:198,1,80,2|0,0:2|3:0,0:0:0:0:
167,175,7897,2,0,P|145:124|171:80,1,80,2|0,0:0|0:0,0:0:0:0:
200,41,8272,1,2,3:2:0:0:
392,11,8460,86,0,P|383:56|305:86,1,120,2|0,3:2|0:0,0:0:0:0:
309,95,8835,54,2,B|395:117|395:117|395:130|395:130|491:157,1,180.000006866455,2|0,3:2|0:0,0:1:0:0:
470,151,9210,53,2,3:2:0:0:
339,342,9585,1,2,0:0:0:0:
381,251,9772,1,2,3:2:0:0:
430,328,9960,85,2,3:2:0:0:
291,261,10147,1,2,0:0:0:0:
339,342,10335,1,2,3:2:0:0:
387,157,10522,1,2,0:0:0:0:
387,157,10710,6,0,P|374:71|372:-4,1,160,2|2,3:2|0:0,0:0:0:0:
456,40,11272,1,0,3:2:0:0:
456,40,11460,1,0,3:2:0:0:
285,89,11647,2,0,L|181:68,1,80,2|2,0:0|3:2,0:0:0:0:
285,89,12022,1,2,0:0:0:0:
57,198,12210,86,0,P|129:177|202:166,1,120,2|0,3:1|0:0,0:0:0:0:
186,182,12585,1,2,0:2:0:0:
159,267,12772,1,0,3:0:0:0:
283,356,12960,5,2,3:2:0:0:
263,255,13147,1,2,0:0:0:0:
336,178,13335,1,2,3:2:0:0:
445,192,13522,1,2,0:0:0:0:
478,271,13710,86,0,P|468:187|467:104,1,160,2|2,3:2|0:0,0:0:0:0:
485,28,14272,1,2,3:2:0:0:
485,28,14460,1,2,3:2:0:0:
343,233,14647,5,8,3:2:0:0:
121,156,14835,1,4,0:3:0:0:
239,328,15022,1,0,3:0:0:0:
255,101,15210,6,0,P|196:81|131:161,1,160,0|8,3:0|0:0,0:0:0:0:
241,227,15772,1,8,0:1:0:0:
56,353,15960,2,0,L|69:250,1,80,2|0,0:0|3:0,0:0:0:0:
172,377,16335,1,10,0:0:0:0:
252,237,16522,2,0,L|265:340,1,80,2|0,0:0|3:0,0:0:0:0:
149,217,16897,1,2,0:0:0:0:
314,158,17085,1,8,0:0:0:0:
99,72,17272,1,10,0:0:0:0:
99,72,17460,5,2,0:0:0:0:
161,128,17647,1,0,3:0:0:0:
254,9,17835,2,0,P|328:24|368:40,1,80,10|2,0:0|0:0,0:0:0:0:
490,129,18210,86,0,P|432:147|444:217,1,120,0|0,3:2|0:0,0:0:0:0:
443,209,18585,1,8,0:0:0:0:
511,251,18772,1,8,0:1:0:0:
325,173,18960,6,0,P|337:220|341:264,1,80,2|0,0:0|3:0,0:0:0:0:
371,96,19335,1,10,0:0:0:0:
251,239,19522,1,2,0:0:0:0:
251,239,19710,1,0,3:0:0:0:
189,171,19897,85,2,0:0:0:0:
206,91,20085,1,10,0:0:0:0:
65,222,20272,1,10,0:0:0:0:
130,282,20460,5,2,0:0:0:0:
14,127,20647,1,0,3:0:0:0:
326,13,20835,6,0,L|221:-4,1,80,10|10,0:0|0:0,0:0:0:0:
329,116,21210,69,0,3:2:0:0:
408,89,21397,1,0,0:0:0:0:
487,62,21585,1,8,0:0:0:0:
326,138,21772,1,10,0:0:0:0:
496,240,21960,5,2,0:0:0:0:
435,169,22147,1,2,3:2:0:0:
383,290,22335,1,10,0:0:0:0:
481,255,22522,1,2,0:0:0:0:
291,255,22710,2,0,P|234:268|151:308,1,120,2|0,3:2|0:0,0:0:0:0:
171,308,23085,85,10,0:0:0:0:
205,125,23272,1,8,0:1:0:0:
213,138,23647,1,2,3:2:0:0:
83,89,23835,1,8,0:0:0:0:
154,42,24022,1,2,0:0:0:0:
321,138,24210,6,0,P|349:181|436:162,1,120,2|0,3:1|0:0,0:0:0:0:
427,173,24585,1,10,0:0:0:0:
401,29,24772,1,8,0:0:0:0:
508,199,24960,85,0,0:0:0:0:
468,271,25147,1,0,3:2:0:0:
391,309,25335,1,8,0:2:0:0:
307,290,25522,1,0,0:0:0:0:
183,363,25710,6,0,L|37:335,1,120,0|0,3:2|0:0,0:0:0:0:
51,357,26085,1,10,0:0:0:0:
175,265,26272,1,10,0:0:0:0:
3,78,26460,85,2,0:0:0:0:
209,173,26647,1,2,3:2:0:0:
5,278,26835,21,10,1:2:0:0:
127,28,27022,1,10,1:2:0:0:
325,138,27210,22,0,B|409:123|366:84|460:74,2,136.000002593994,4|8|0,0:0|0:0|0:0,0:0:0:0:
323,50,28147,1,2,0:0:0:0:
323,50,28335,1,8,0:0:0:0:
458,167,28522,2,0,L|434:320,1,136.000002593994,2|0,0:0|0:0,0:0:0:0:
332,338,29085,53,8,0:0:0:0:
196,275,29272,1,8,0:0:0:0:
121,328,29460,37,0,0:0:0:0:
50,367,29647,1,2,0:0:0:0:
49,272,29835,53,8,0:0:0:0:
49,272,30022,1,2,0:0:0:0:
2,138,30210,38,0,P|43:152|91:94,1,102.000001945496,2|0,0:0|0:0,0:0:0:0:
92,104,30585,2,0,L|78:34,1,68.0000012969971,10|0,0:0|0:0,0:0:0:0:
154,196,30960,1,2,0:0:0:0:
247,74,31147,2,0,L|233:140,1,68.0000012969971,2|8,0:0|0:0,0:0:0:0:
346,60,31522,54,0,P|404:29|478:48,1,136.000002593994,2|0,0:0|0:0,0:0:0:0:
499,115,32085,1,8,0:0:0:0:
348,67,32272,1,8,0:0:0:0:
395,221,32460,37,0,0:0:0:0:
414,138,32647,1,2,0:0:0:0:
328,166,32835,1,8,0:0:0:0:
482,230,33022,1,2,0:0:0:0:
308,350,33210,53,2,1:0:0:0:
286,345,33397,1,0,1:0:0:0:
262,341,33585,1,8,1:1:0:0:
237,335,33772,1,0,1:0:0:0:
161,243,33960,37,0,1:0:0:0:
139,248,34147,1,0,1:0:0:0:
115,252,34335,1,8,1:1:0:0:
196,136,34522,1,2,1:2:0:0:
64,27,34710,54,0,L|130:40,1,68.0000012969971,2|0,1:2|1:0,0:0:0:0:
212,149,35085,2,0,L|278:135,1,68.0000012969971,10|0,1:2|1:0,0:0:0:0:
469,12,35460,1,2,1:2:0:0:
386,14,35647,1,2,1:2:0:0:
353,86,35835,1,10,1:2:0:0:
395,153,36022,1,2,1:2:0:0:
464,254,36210,37,2,1:2:0:0:
455,257,36303,1,0,1:0:0:0:
446,260,36397,1,0,1:0:0:0:
438,263,36491,1,0,1:0:0:0:
427,266,36585,2,0,L|394:259,1,34.0000006484985,10|0,1:2|1:0,0:0:0:0:
331,305,36772,1,0,1:0:0:0:
327,312,36866,1,0,1:0:0:0:
322,318,36960,53,0,1:0:0:0:
271,341,37053,1,0,1:0:0:0:
219,330,37147,1,0,1:0:0:0:
189,289,37241,1,0,1:0:0:0:
188,235,37335,1,8,1:0:0:0:
195,231,37428,1,0,1:0:0:0:
206,225,37522,22,0,L|225:124,1,102.000001945496,4|0,1:3|0:0,0:0:0:0:
225,124,37897,1,8,0:2:0:0:
147,92,38085,1,8,1:2:0:0:
290,20,38272,1,0,3:2:0:0:
327,169,38460,1,0,1:2:0:0:
186,7,38647,1,0,3:0:0:0:
376,78,38835,1,0,1:0:0:0:
376,78,39022,1,0,1:0:0:0:
195,221,39210,54,0,P|93:250|-12:315,1,216.000000823975,4|8,1:2|0:0,0:0:0:0:
59,133,39772,1,8,1:0:0:0:
222,365,39960,5,0,0:0:0:0:
312,232,40147,1,2,3:2:0:0:
179,125,40335,1,10,1:2:0:0:
205,48,40522,1,0,0:0:0:0:
392,173,40710,70,0,P|479:137|468:72,1,162.000000617981,4|0,1:3|0:0,0:0:0:0:
465,75,41085,2,0,P|401:62|339:44,1,108.000000411987,8|8,0:2|1:0,0:0:0:0:
225,212,41460,1,0,0:0:0:0:
349,311,41647,2,0,P|401:297|454:286,1,108.000000411987,2|10,3:2|1:2,0:0:0:0:
349,311,42022,1,2,0:0:0:0:
131,210,42210,86,0,P|69:222|49:362,1,216.000000823975,4|8,1:3|0:0,0:0:0:0:
156,99,42772,1,8,1:0:0:0:
156,99,43147,1,2,3:2:0:0:
43,65,43334,1,10,1:2:0:0:
143,0,43522,1,2,0:2:0:0:
240,220,43710,21,4,1:3:0:0:
281,25,43897,1,0,1:0:0:0:
442,130,44085,2,0,P|389:140|336:154,1,108.000000411987,8|0,1:2|0:0,0:0:0:0:
258,117,44460,1,0,1:0:0:0:
383,300,44647,5,2,3:2:0:0:
503,55,44835,1,10,1:2:0:0:
336,154,45022,1,10,0:1:0:0:
464,255,45210,70,0,B|322:238|394:348|230:313,1,216.000000823975,4|8,1:3|0:0,0:0:0:0:
185,263,45772,1,0,1:2:0:0:
63,358,45960,85,0,0:0:0:0:
3,260,46147,1,2,3:2:0:0:
74,174,46335,1,10,1:2:0:0:
74,174,46522,1,0,0:0:0:0:
12,13,46710,22,0,P|44:67|150:61,1,162.000000617981,4|0,1:3|0:0,0:0:0:0:
153,64,47085,2,0,L|258:89,1,108.000000411987,8|0,0:0|1:0,0:0:0:0:
461,16,47460,1,0,0:0:0:0:
375,204,47647,1,2,3:2:0:0:
358,0,47835,2,0,P|370:66|409:107,1,108.000000411987,10|0,1:2|0:0,0:0:0:0:
456,306,48210,6,0,P|362:310|322:373,1,162.000000617981,4|0,1:3|0:0,0:0:0:0:
332,373,48585,1,8,0:0:0:0:
206,227,48772,2,0,P|218:161|257:120,1,108.000000411987,0|0,1:3|0:0,0:0:0:0:
177,326,49147,1,2,3:2:0:0:
49,273,49335,1,10,1:2:0:0:
189,319,49522,1,0,0:0:0:0:
8,189,49710,69,4,1:3:0:0:
152,103,49897,1,0,1:2:0:0:
35,0,50085,2,0,L|60:105,1,108.000000411987,8|0,1:2|0:0,0:0:0:0:
131,12,50460,1,0,1:0:0:0:
134,229,50647,85,2,3:2:0:0:
252,20,50835,1,10,1:2:0:0:
305,255,51022,1,10,1:0:0:0:
504,81,51210,22,0,B|470:99|411:95|411:95|401:110|401:110|345:102|263:152,1,216.000000823975,4|8,1:2|1:2,0:0:0:0:
383,3,51772,1,8,0:1:0:0:
455,218,51960,1,2,0:0:0:0:
301,130,52147,1,2,3:2:0:0:
463,237,52335,1,10,1:2:0:0:
341,358,52522,1,2,0:0:0:0:
214,259,52710,6,0,P|150:233|92:336,1,162.000000617981,2|0,3:2|0:0,0:0:0:0:
94,298,53085,2,0,L|115:184,1,108.000000411987,10|8,1:2|0:1,0:0:0:0:
189,19,53460,1,2,0:0:0:0:
42,95,53647,1,2,3:2:0:0:
210,115,53835,1,10,1:2:0:0:
90,5,54022,1,2,0:0:0:0:
273,184,54210,86,0,P|328:195|395:111,1,162.000000617981,2|0,3:2|0:0,0:0:0:0:
400,109,54585,2,0,L|507:128,1,108.000000411987,10|8,1:2|0:1,0:0:0:0:
328,52,54960,1,2,0:0:0:0:
484,10,55147,1,2,3:2:0:0:
456,224,55335,1,10,1:2:0:0:
456,224,55522,1,2,0:2:0:0:
372,278,55710,86,0,P|286:295|195:337,1,162.000000617981,2|0,3:2|0:0,0:0:0:0:
217,336,56085,2,0,P|274:302|258:247,1,108.000000411987,10|8,1:2|0:1,0:0:0:0:
182,109,56460,1,2,0:0:0:0:
105,307,56647,1,2,3:2:0:0:
46,109,56835,2,0,L|64:-1,1,108.000000411987,14|8,1:2|0:1,0:0:0:0:
104,201,57210,5,10,1:2:0:0:
279,65,57397,1,0,3:0:0:0:
238,188,57585,5,10,1:2:0:0:
154,6,57772,1,0,3:0:0:0:
363,149,57960,85,10,1:2:0:0:
506,46,58147,1,2,3:2:0:0:
408,277,58335,85,10,1:2:0:0:
378,44,58522,1,2,3:2:0:0:
505,239,58710,85,10,1:2:0:0:
432,373,58897,1,0,3:0:0:0:
288,277,59085,37,10,1:2:0:0:
230,159,59272,1,0,3:2:0:0:
190,354,59460,85,10,1:2:0:0:
375,184,59647,1,2,3:2:0:0:
129,205,59835,85,8,1:2:0:0:
329,373,60022,1,2,3:2:0:0:
43,243,60210,85,8,3:2:0:0:
35,224,60303,1,0,1:0:0:0:
29,208,60397,1,0,1:2:0:0:
21,192,60491,1,0,1:0:0:0:
14,174,60585,2,0,P|27:124|38:103,1,54.0000002059937,8|0,3:2|1:0,0:0:0:0:
97,0,60772,2,0,P|110:50|121:71,1,54.0000002059937,0|0,1:2|1:0,0:0:0:0:
204,123,60960,101,8,3:2:0:0:
232,84,61053,1,0,1:2:0:0:
282,67,61147,1,2,1:2:0:0:
334,71,61241,1,0,1:2:0:0:
378,96,61335,2,0,L|310:82,1,54.0000002059937,10|0,3:2|1:2,0:0:0:0:
235,238,61522,2,0,L|303:224,1,54.0000002059937,2|0,1:2|1:2,0:0:0:0:
352,182,61710,1,0,0:0:0:0:
352,182,62460,86,0,P|371:226|392:253,1,54.0000002059937,8|0,0:0|0:0,0:0:0:0:
257,384,62648,2,0,P|276:340|297:313,1,54.0000002059937,0|0,1:0|0:0,0:0:0:0:
182,168,62835,2,0,B|103:139|103:139|44:213,1,162.000000617981,4|0,1:2|0:0,0:0:0:0:
13,98,63210,70,0,P|27:46|41:24,1,54.0000002059937,6|0,1:2|0:0,0:0:0:0:
118,51,63397,2,0,P|164:23|189:17,1,54.0000002059937,2|0,0:2|0:0,0:0:0:0:
273,11,63585,6,0,P|287:63|301:85,1,54.0000002059937,2|0,0:2|0:0,0:0:0:0:
364,79,63772,2,0,P|379:59|364:28,3,36.0000001373291,2|0|0|10,2:2|2:2|2:2|2:2,0:0:0:0:
488,3,64147,1,0,1:0:0:0:
480,136,64335,86,0,P|453:149|413:149,1,54.0000002059937,2|0,0:2|0:0,0:0:0:0:
414,235,64522,2,0,P|385:225|357:196,1,54.0000002059937,2|0,1:2|0:0,0:0:0:0:
414,235,64710,5,2,0:2:0:0:
322,318,64897,2,0,P|332:357|344:375,3,36.0000001373291,2|0|0|2,0:2|0:0|0:0|1:2,0:0:0:0:
239,212,65272,2,0,P|249:173|261:155,2,36.0000001373291
239,212,65460,5,10,0:0:0:0:
318,45,65835,70,4,B|296:55|263:51|263:51|241:84|214:100|214:100|179:95|110:110,1,180.000006866455,4|0,0:1|0:2,1:2:0:0:
160,101,66210,6,0,P|143:71|139:28,1,60.0000022888184,2|0,1:2|0:0,0:0:0:0:
45,83,66397,2,0,P|42:48|56:7,1,60.0000022888184,2|0,0:2|0:0,0:0:0:0:
150,198,66585,86,0,P|135:229|102:257,1,60.0000022888184,2|0,0:2|0:0,0:0:0:0:
201,302,66772,2,0,P|174:323|132:335,3,40.000001525879,2|0|0|10,2:2|2:2|2:2|2:2,0:0:0:0:
273,224,67147,1,0,1:0:0:0:
369,346,67335,6,0,P|369:308|384:248,1,60.0000022888184,2|0,0:0|0:0,0:0:0:0:
396,205,67522,2,0,P|417:173|464:133,1,60.0000022888184,2|0,1:2|0:0,0:0:0:0:
243,0,67710,86,0,P|243:38|228:98,1,60.0000022888184,2|0,0:0|0:0,0:0:0:0:
216,141,67897,2,0,P|194:172|147:212,1,60.0000022888184,2|0,0:0|0:0,0:0:0:0:
124,104,68085,101,2,1:2:0:0:
393,4,68460,6,0,L|444:14,1,30.0000011444092,8|0,0:0|0:0,0:0:0:0:
307,80,68647,2,0,L|277:74,1,30.0000011444092
396,205,68835,6,2,B|443:258|443:258|409:378,1,180.000006866455,0|0,0:0|0:0,0:1:0:0:
328,319,69210,70,0,P|312:262|320:239,1,60.0000022888184,6|0,1:2|0:0,0:0:0:0:
243,222,69397,2,0,P|271:170|293:159,1,60.0000022888184,2|0,0:2|0:0,0:0:0:0:
158,0,69585,6,0,P|142:57|150:80,1,60.0000022888184,2|0,0:2|0:0,0:0:0:0:
91,115,69772,2,0,P|119:166|129:170,3,40.000001525879,2|0|0|10,2:2|2:2|2:2|2:2,0:0:0:0:
243,92,70147,1,0,1:0:0:0:
162,262,70335,86,0,P|145:246|87:235,1,60.0000022888184,2|0,0:2|0:0,0:0:0:0:
93,384,70522,2,0,P|95:361|72:307,1,60.0000022888184,2|0,1:2|0:0,0:0:0:0:
276,324,70709,6,0,P|279:301|316:255,1,60.0000022888184,2|0,0:2|0:0,0:0:0:0:
241,189,70897,2,0,P|261:178|320:182,1,60.0000022888184,2|0,0:2|0:0,0:0:0:0:
374,221,71085,1,2,1:2:0:0:
329,53,71272,2,0,L|341:9,3,40.000001525879,0|0|0|10,0:0|0:0|0:0|0:0,0:0:0:0:
426,50,71647,5,0,0:0:0:0:
171,0,71835,70,0,B|123:26|123:26|162:173,1,180.000006866455,4|0,0:1|0:0,1:0:0:0:
155,147,72210,6,0,P|137:204|103:228,1,60.0000022888184,2|0,1:2|0:0,0:0:0:0:
210,264,72397,2,0,P|157:291|115:284,1,60.0000022888184,2|0,0:2|0:0,0:0:0:0:
361,378,72585,86,0,P|379:321|413:297,1,60.0000022888184,2|0,0:2|0:0,0:0:0:0:
306,261,72772,2,0,P|332:247|353:250,3,40.000001525879,2|0|0|10,2:2|2:2|2:2|2:2,0:0:0:0:
300,161,73147,1,0,1:0:0:0:
447,209,73335,5,2,0:2:0:0:
238,62,73522,1,2,1:2:0:0:
496,141,73710,53,2,0:0:0:0:
437,196,73897,1,0,0:0:0:0:
417,274,74085,1,2,0:0:0:0:
439,351,74272,1,2,0:0:0:0:
312,256,74460,5,8,0:1:0:0:
351,143,74647,1,8,0:1:0:0:
307,245,74835,1,8,0:1:0:0:
209,207,75022,1,8,0:1:0:0:
304,48,75210,38,0,P|365:36|441:29,7,120.000004577637,0|0|0|0|0|0|0|0,3:2|3:0|3:0|3:0|3:0|3:0|3:0|3:0,0:0:0:0:
504,169,78210,2,0,P|497:220|426:245,6,120.000004577637,0|0|0|0|0|0|0,3:0|3:0|3:0|3:0|3:0|3:0|3:0,0:0:0:0:
301,174,80835,70,2,B|314:259|314:259|323:267|331:267|331:267|347:370,1,180.000006866455,0|0,3:0|0:0,0:1:0:0:
332,351,81210,85,0,3:2:0:0:
226,274,81397,1,0,0:0:0:0:
171,337,81585,2,0,L|66:320,1,80,8|0,3:2|0:0,0:0:0:0:
44,190,81960,69,0,3:2:0:0:
150,113,82147,1,0,0:0:0:0:
205,176,82335,2,0,L|310:159,1,80,8|0,3:2|0:0,0:0:0:0:
410,111,82710,86,0,P|436:75|392:4,1,120,0|0,3:2|0:0,0:0:0:0:
393,15,83085,1,8,3:2:0:0:
296,0,83272,1,0,0:0:0:0:
302,172,83460,2,0,L|314:250,1,80,0|0,3:2|0:0,0:0:0:0:
418,287,83835,2,0,L|405:208,1,80,8|0,3:2|0:0,0:0:0:0:
205,332,84210,37,0,3:0:0:0:
194,324,84585,1,8,3:2:0:0:
157,238,84772,1,0,0:0:0:0:
69,273,84960,1,0,3:2:0:0:
146,152,85147,1,0,0:0:0:0:
59,97,85335,2,0,P|51:136|46:175,1,80,8|0,3:2|0:0,0:0:0:0:
154,27,85710,70,0,P|222:11|266:63,1,120,0|0,3:2|0:0,0:0:0:0:
268,52,86085,1,8,3:2:0:0:
357,17,86272,1,0,0:0:0:0:
432,113,86460,1,0,0:0:0:0:
336,131,86647,37,8,0:1:0:0:
501,20,86835,1,8,0:1:0:0:
342,142,87022,1,8,0:1:0:0:
471,296,87210,69,2,3:1:0:0:
414,211,87397,1,2,0:0:0:0:
303,270,87585,1,10,0:0:0:0:
488,311,87772,1,10,1:2:0:0:
316,373,87960,85,2,0:0:0:0:
316,373,88147,1,2,3:2:0:0:
196,318,88335,2,0,L|211:219,1,80,10|2,0:0|0:0,0:0:0:0:
49,129,88710,5,2,3:1:0:0:
97,251,88897,1,2,0:0:0:0:
150,149,89085,1,10,0:0:0:0:
1,216,89272,1,10,1:2:0:0:
117,53,89460,85,2,0:0:0:0:
117,53,89647,1,2,3:2:0:0:
243,124,89835,2,0,L|322:135,1,80,10|2,0:0|0:0,0:0:0:0:
494,29,90210,5,2,3:1:0:0:
344,62,90397,1,2,0:0:0:0:
443,157,90585,1,10,0:0:0:0:
411,9,90772,1,2,1:2:0:0:
335,191,90960,85,2,0:0:0:0:
502,255,91147,1,2,3:2:0:0:
418,338,91335,1,10,0:0:0:0:
387,267,91522,1,2,0:0:0:0:
176,368,91710,5,2,3:1:0:0:
234,181,91897,1,2,0:0:0:0:
101,241,92085,1,10,0:0:0:0:
212,278,92272,1,10,1:2:0:0:
113,254,92460,37,2,0:0:0:0:
324,138,92647,1,2,3:2:0:0:
83,62,92835,85,10,0:0:0:0:
325,3,93022,2,0,P|376:40|370:77,1,80,10|4,0:0|3:2,0:0:0:0:
351,231,93397,69,2,0:0:0:0:
421,184,93585,1,10,0:0:0:0:
504,200,93772,1,10,1:2:0:0:
366,365,93960,85,2,0:0:0:0:
459,293,94147,1,2,3:2:0:0:
255,206,94335,2,0,L|266:285,1,80,10|2,0:0|0:0,0:0:0:0:
331,131,94710,5,2,3:1:0:0:
233,54,94897,1,2,0:0:0:0:
356,2,95085,1,10,0:0:0:0:
244,68,95272,1,10,1:2:0:0:
420,185,95460,86,0,L|431:106,1,80,2|2,0:0|3:2,0:0:0:0:
410,283,95835,1,10,0:0:0:0:
410,283,96022,1,2,0:0:0:0:
209,198,96210,5,2,3:1:0:0:
50,250,96397,1,2,0:0:0:0:
146,320,96585,1,10,0:0:0:0:
155,293,96772,1,10,1:2:0:0:
314,266,96960,85,2,0:0:0:0:
331,372,97147,1,2,3:2:0:0:
430,192,97335,2,0,P|378:156|347:164,1,80,10|2,0:0|0:0,0:0:0:0:
208,85,97710,6,0,P|258:81|299:11,1,120,2|0,3:1|0:0,0:0:0:0:
293,15,98085,1,8,0:0:0:0:
458,55,98272,1,8,1:0:0:0:
337,177,98460,85,2,0:0:0:0:
383,7,98647,1,2,3:2:0:0:
507,144,98835,37,10,1:2:0:0:
507,144,99022,1,10,1:2:0:0:
309,264,99210,22,0,P|251:267|149:298,2,136.000002593994,4|8|0,0:0|0:0|0:0,0:0:0:0:
371,173,100147,1,2,0:0:0:0:
371,173,100335,1,8,0:0:0:0:
202,127,100522,2,0,P|144:101|161:22,1,136.000002593994,2|0,0:0|0:0,0:0:0:0:
227,9,101085,21,8,0:0:0:0:
282,78,101272,1,8,0:0:0:0:
371,173,101460,69,0,0:0:0:0:
482,91,101647,1,2,0:0:0:0:
381,37,101835,21,8,0:0:0:0:
381,37,102022,1,2,0:0:0:0:
478,187,102210,70,0,L|456:318,1,102.000001945496,2|0,0:0|0:0,0:0:0:0:
451,301,102585,2,0,P|406:322|375:306,1,68.0000012969971,10|0,0:0|0:0,0:0:0:0:
312,229,102960,1,2,0:0:0:0:
189,282,103147,2,0,P|234:303|265:287,1,68.0000012969971,2|8,0:0|0:0,0:0:0:0:
311,123,103522,2,0,P|260:72|186:93,1,136.000002593994,2|0,0:0|0:0,0:0:0:0:
130,41,104085,1,8,0:0:0:0:
95,133,104272,1,8,0:0:0:0:
216,175,104460,21,0,0:0:0:0:
219,184,104647,1,2,0:0:0:0:
221,193,104835,1,8,0:0:0:0:
225,203,105022,1,2,0:0:0:0:
139,320,105210,69,2,1:0:0:0:
152,304,105397,1,0,1:0:0:0:
171,295,105585,1,8,1:0:0:0:
195,295,105772,1,0,1:0:0:0:
296,332,105960,21,0,1:0:0:0:
309,348,106147,1,0,1:0:0:0:
328,357,106335,1,8,1:0:0:0:
330,248,106522,1,2,1:2:0:0:
436,254,106710,70,0,L|449:168,1,68.0000012969971,2|0,1:2|1:0,0:0:0:0:
327,70,107085,2,0,L|314:-16,1,68.0000012969971,10|0,1:2|1:0,0:0:0:0:
379,152,107460,1,2,1:2:0:0:
414,75,107647,1,2,1:2:0:0:
494,110,107835,1,10,1:2:0:0:
414,75,108022,1,2,1:2:0:0:
279,154,108210,21,2,1:2:0:0:
275,161,108303,1,0,1:0:0:0:
269,166,108397,1,0,1:0:0:0:
260,169,108491,1,0,1:0:0:0:
247,165,108585,2,0,P|252:122|258:105,1,34.0000006484985,10|0,1:2|1:0,0:0:0:0:
225,45,108772,2,0,P|247:8|260:-4,1,34.0000006484985,0|0,1:0|1:0,0:0:0:0:
128,40,108960,69,0,1:0:0:0:
134,61,109053,1,0,1:0:0:0:
136,81,109147,1,0,1:0:0:0:
135,102,109241,1,0,1:0:0:0:
129,121,109335,1,8,1:0:0:0:
123,142,109428,1,0,1:0:0:0:
121,162,109522,1,4,1:3:0:0:
122,183,109616,1,0,1:0:0:0:
129,202,109710,85,0,1:0:0:0:
321,274,109897,1,8,0:2:0:0:
218,274,110085,5,8,1:2:0:0:
148,339,110272,1,0,3:0:0:0:
233,195,110460,85,8,1:0:0:0:
298,356,110647,1,0,3:0:0:0:
289,353,110741,1,0,3:0:0:0:
282,351,110835,1,0,1:2:0:0:
461,272,111022,1,0,1:2:0:0:
257,347,111210,54,0,P|248:253|239:121,1,216.000000823975,4|8,1:2|0:0,0:0:0:0:
317,20,111772,1,8,1:0:0:0:
468,160,111960,5,0,0:0:0:0:
366,120,112147,1,2,3:2:0:0:
348,317,112335,1,10,1:2:0:0:
436,251,112522,1,0,0:0:0:0:
230,201,112710,70,0,P|155:223|147:329,1,162.000000617981,4|0,1:3|0:0,0:0:0:0:
141,310,113085,2,0,P|156:256|106:226,1,108.000000411987,8|8,0:2|1:0,0:0:0:0:
21,56,113460,1,0,0:0:0:0:
86,131,113647,2,0,P|103:62|112:-3,1,108.000000411987,2|10,3:2|1:2,0:0:0:0:
86,131,114022,1,2,0:0:0:0:
255,18,114210,86,0,L|496:61,1,216.000000823975,4|8,1:3|0:0,0:0:0:0:
197,124,114772,1,8,1:0:0:0:
443,186,115147,1,2,3:2:0:0:
308,126,115335,1,10,1:2:0:0:
245,282,115522,1,0,0:0:0:0:
330,249,115710,21,4,1:3:0:0:
159,322,115897,1,0,1:0:0:0:
368,368,116085,2,0,P|436:348|506:344,1,108.000000411987,8|0,1:2|0:0,0:0:0:0:
265,376,116460,5,0,1:0:0:0:
212,98,116647,1,2,3:2:0:0:
278,368,116835,1,10,1:2:0:0:
314,137,117022,1,10,1:0:0:0:
79,252,117210,70,0,P|55:126|51:22,1,216.000000823975,4|8,1:3|0:0,0:0:0:0:
147,135,117772,1,8,1:0:0:0:
15,325,117960,85,0,0:0:0:0:
186,221,118147,1,2,3:2:0:0:
87,259,118335,1,8,1:2:0:0:
142,356,118522,1,0,0:0:0:0:
285,188,118710,22,0,P|341:135|435:149,1,162.000000617981,4|0,1:3|0:0,0:0:0:0:
427,149,119085,2,0,P|370:121|393:57,1,108.000000411987,8|0,0:0|1:0,0:0:0:0:
424,26,119460,1,0,0:0:0:0:
496,236,119647,1,2,3:2:0:0:
433,285,119835,2,0,L|302:314,1,108.000000411987,10|0,1:2|0:0,0:0:0:0:
118,194,120210,6,0,P|182:249|174:328,1,162.000000617981,4|0,1:3|0:0,0:0:0:0:
163,332,120585,1,8,0:0:0:0:
15,156,120772,2,0,L|44:25,1,108.000000411987,8|0,1:0|0:0,0:0:0:0:
24,273,121147,1,2,3:2:0:0:
146,91,121335,1,10,1:2:0:0:
20,167,121522,1,0,0:0:0:0:
252,215,121710,69,4,1:3:0:0:
307,27,121897,1,0,1:0:0:0:
241,109,122085,2,0,L|372:138,1,108.000000411987,8|0,1:2|0:0,0:0:0:0:
421,97,122460,1,0,1:0:0:0:
294,358,122647,85,2,3:2:0:0:
150,99,122835,1,10,1:2:0:0:
421,283,123022,1,10,1:0:0:0:
175,334,123210,22,0,P|144:257|9:267,1,216.000000823975,4|8,1:2|1:2,0:0:0:0:
82,318,123772,1,8,0:1:0:0:
246,199,123960,1,2,0:0:0:0:
175,334,124147,1,2,3:2:0:0:
254,211,124335,1,10,1:2:0:0:
77,146,124522,1,2,0:0:0:0:
322,300,124710,6,0,P|435:268|501:261,1,162.000000617981,2|0,3:2|0:0,0:0:0:0:
491,277,125085,2,0,P|430:247|444:201,1,108.000000411987,10|8,1:2|0:1,0:0:0:0:
487,43,125460,1,2,0:0:0:0:
380,135,125647,1,2,3:2:0:0:
304,10,125835,1,10,1:2:0:0:
200,111,126022,1,2,0:0:0:0:
151,38,126210,86,0,L|178:244,1,162.000000617981,2|0,3:2|0:0,0:0:0:0:
176,211,126585,2,0,P|236:216|271:166,1,108.000000411987,10|8,1:2|0:1,0:0:0:0:
59,149,126960,1,2,0:0:0:0:
99,338,127147,1,2,3:2:0:0:
55,160,127335,1,10,1:2:0:0:
14,267,127522,1,2,0:0:0:0:
196,366,127710,86,0,P|275:335|378:327,1,162.000000617981,2|0,3:2|0:0,0:0:0:0:
365,340,128085,2,0,P|319:312|332:246,1,108.000000411987,10|8,1:2|0:1,0:0:0:0:
456,137,128460,1,2,0:0:0:0:
414,249,128647,1,2,3:2:0:0:
285,131,128835,1,14,1:2:0:0:
471,41,129022,1,8,0:1:0:0:
279,236,129210,5,10,1:2:0:0:
203,45,129397,1,0,3:0:0:0:
130,171,129585,5,10,1:2:0:0:
94,279,129772,1,0,3:0:0:0:
51,104,129960,85,10,1:2:0:0:
232,138,130147,1,2,3:2:0:0:
17,215,130335,85,10,1:2:0:0:
223,151,130522,1,2,3:2:0:0:
243,363,130710,85,10,1:2:0:0:
101,290,130897,1,0,3:0:0:0:
289,244,131085,37,10,1:2:0:0:
342,368,131272,1,0,3:0:0:0:
197,269,131460,85,10,1:2:0:0:
406,195,131647,1,2,3:2:0:0:
143,127,131835,85,8,1:2:0:0:
421,211,132022,1,2,3:2:0:0:
301,30,132210,5,8,3:2:0:0:
284,22,132303,1,0,1:0:0:0:
269,14,132397,1,0,1:2:0:0:
255,8,132491,1,0,1:0:0:0:
239,4,132585,2,0,P|224:47|224:72,1,54.0000002059937,8|0,3:2|1:0,0:0:0:0:
245,164,132772,2,0,P|257:207|271:228,1,54.0000002059937,0|0,1:2|1:0,0:0:0:0:
445,308,132960,101,8,3:2:0:0:
406,283,133053,1,0,1:0:0:0:
355,285,133147,1,2,1:2:0:0:
313,314,133241,1,0,1:0:0:0:
303,361,133335,2,0,L|372:376,1,54.0000002059937,10|0,3:2|1:0,0:0:0:0:
175,289,133522,2,0,L|122:277,1,54.0000002059937,2|0,1:2|1:0,0:0:0:0:
338,191,133710,1,0,0:0:0:0:
151,75,134460,54,0,L|139:22,1,54.0000002059937,8|0,0:0|0:0,0:0:0:0:
206,223,134647,2,0,L|194:275,1,54.0000002059937,0|0,1:0|0:0,0:0:0:0:
306,52,134835,2,0,B|389:21|389:21|447:89,1,162.000000617981,4|0,1:2|0:0,0:0:0:0:
460,150,135210,70,0,P|449:181|448:234,1,60.0000022888184,6|0,1:2|0:0,0:0:0:0:
385,275,135397,2,0,P|393:306|423:350,1,60.0000022888184,2|0,0:2|0:0,0:0:0:0:
221,215,135585,6,0,P|234:188|242:159,1,60.0000022888184,2|0,0:2|0:0,0:0:0:0:
181,92,135772,2,0,P|177:62|166:34,3,40.000001525879,2|0|0|10,2:2|2:2|2:2|2:2,0:0:0:0:
94,7,136147,1,0,1:0:0:0:
3,219,136335,86,0,P|52:191|81:192,1,60.0000022888184,2|0,0:2|0:0,0:0:0:0:
111,274,136522,2,0,P|162:298|177:322,1,60.0000022888184,2|0,1:2|0:0,0:0:0:0:
284,313,136710,6,0,P|333:341|362:340,1,60.0000022888184,2|0,0:2|0:0,0:0:0:0:
392,258,136897,2,0,P|424:242|434:227,3,40.000001525879,2|0|0|2,0:0|0:2|0:0|1:2,0:0:0:0:
353,157,137272,1,0,0:0:0:0:
270,216,137460,5,10,0:0:0:0:
407,4,137835,70,0,B|430:208|511:102|514:330,1,300,4|0,0:1|0:0,1:0:0:0:
497,286,138210,6,0,P|485:234|485:190,1,60.0000022888184,2|0,1:2|0:0,0:0:0:0:
479,145,138397,2,0,P|490:92|508:52,1,60.0000022888184,2|0,0:2|0:0,0:0:0:0:
365,171,138585,86,0,P|365:200|362:230,1,60.0000022888184,2|0,0:2|0:0,0:0:0:0:
336,309,138772,2,0,P|324:336|308:362,3,40.000001525879,2|0|0|10,2:2|2:2|2:2|2:2,0:0:0:0:
261,222,139147,1,0,1:0:0:0:
182,337,139335,6,0,P|131:309|104:309,1,60.0000022888184,2|0,0:2|0:0,0:0:0:0:
63,260,139522,2,0,P|5:266|-16:281,1,60.0000022888184,2|0,1:2|0:0,0:0:0:0:
75,121,139710,86,0,P|132:114|154:99,1,60.0000022888184,2|0,0:2|0:0,0:0:0:0:
212,149,139897,2,0,P|233:129|238:117,3,40.000001525879,2|0|0|2,0:0|0:0|0:0|1:2,0:0:0:0:
339,65,140272,2,0,P|340:35|335:23,2,40.000001525879
319,20,140460,6,0,L|400:33,1,60.0000022888184,8|0,0:0|0:0,0:0:0:0:
499,127,140647,2,0,L|439:136,1,60.0000022888184
409,220,140835,6,2,L|455:227,1,41.9999987182618,0|0,0:0|0:0,0:1:0:0:
470,307,141210,70,0,P|443:340|437:375,1,60.0000022888184,6|0,1:2|0:0,0:0:0:0:
340,310,141397,2,0,P|336:352|351:384,1,60.0000022888184,2|0,0:2|0:0,0:0:0:0:
204,280,141585,6,0,P|214:238|205:204,1,60.0000022888184,2|0,0:2|0:0,0:0:0:0:
311,180,141772,2,0,P|303:160|289:148,3,40.000001525879,2|0|0|10,2:2|2:2|2:2|2:2,0:0:0:0:
193,27,142147,1,0,1:0:0:0:
87,119,142335,86,0,P|98:173|98:214,1,60.0000022888184,2|0,0:0|0:0,0:0:0:0:
36,248,142522,2,0,P|23:301|5:338,1,60.0000022888184,2|0,1:2|0:0,0:0:0:0:
170,329,142710,6,0,P|200:283|229:254,1,60.0000022888184,2|0,0:0|0:0,0:0:0:0:
304,305,142897,2,0,P|350:276|389:262,1,60.0000022888184,2|0,0:2|0:0,0:0:0:0:
437,306,143085,1,2,1:2:0:0:
324,111,143272,2,0,P|332:72|342:52,3,40.000001525879,0|0|0|10,0:0|0:0|0:0|0:0,0:0:0:0:
452,19,143647,5,0,0:0:0:0:
512,159,143835,70,0,P|338:207|301:225,1,180.000006866455,4|0,0:1|0:0,1:0:0:0:
339,206,144210,6,0,P|329:253|310:290,1,60.0000022888184,2|0,1:2|2:2,2:2:0:0:
395,335,144397,2,0,P|360:367|323:386,1,60.0000022888184,2|0,2:2|2:2,2:2:0:0:
228,241,144585,86,0,P|192:208|156:188,1,60.0000022888184,2|0,2:2|2:2,2:2:0:0:
144,125,144772,2,0,P|117:121|93:124,3,40.000001525879,2|0|0|10,2:2|2:2|2:2|2:2,0:0:0:0:
232,8,145147,1,0,1:0:0:0:
348,150,145335,5,2,0:2:0:0:
395,3,145522,1,2,1:2:0:0:
335,162,145710,54,0,L|342:232,1,60.0000022888184,2|0,0:2|0:0,0:0:0:0:
370,306,145897,2,0,L|377:376,1,60.0000022888184
443,214,146085,1,2,0:0:0:0:
275,292,146272,1,2,0:0:0:0:
286,309,146460,85,8,0:1:0:0:
204,166,146647,1,8,0:1:0:0:
131,376,146835,1,8,0:1:0:0:
49,233,147022,1,8,0:1:0:0:
170,272,147210,69,0,3:0:0:0:
334,56,159210,38,0,P|417:69|506:97,1,160,0|8,1:0|0:1,0:0:0:0:
334,56,159772,1,8,1:0:0:0:
458,161,159960,1,0,0:0:0:0:
376,184,160147,1,0,3:0:0:0:
318,274,160335,1,8,1:2:0:0:
329,356,160522,1,8,0:0:0:0:
176,274,160710,70,0,L|198:184,1,80,0|0,1:0|0:0,0:0:0:0:
182,371,161085,1,8,0:1:0:0:
87,213,161272,2,0,L|47:52,1,160,0|0,1:0|3:0,0:0:0:0:
159,104,161835,21,8,1:2:0:0:
296,10,162022,1,8,0:0:0:0:
296,10,162116,1,8,0:0:0:0:
296,10,162210,69,8,1:2:0:0:
271,108,162397,1,0,0:0:0:0:
345,183,162585,1,8,0:1:0:0:
478,100,162772,2,0,L|438:261,1,160,0|0,1:0|3:0,0:0:0:0:
353,364,163335,2,0,P|332:321|283:317,1,80,8|8,1:2|0:0,0:0:0:0:
288,319,163616,1,8,0:0:0:0:
272,311,163710,21,8,1:2:0:0:
177,281,163897,1,0,0:0:0:0:
79,254,164085,1,8,0:1:0:0:
264,216,164272,70,0,L|350:201,1,80,0|0,1:0|0:0,0:0:0:0:
160,130,164647,1,0,3:0:0:0:
160,130,164835,1,8,1:2:0:0:
234,23,165022,1,8,0:0:0:0:
242,27,165116,1,8,0:0:0:0:
246,37,165210,22,0,L|137:11,1,80,0|0,1:0|0:0,0:0:0:0:
326,122,165585,1,8,0:1:0:0:
407,10,165772,1,8,1:2:0:0:
508,104,165960,1,8,0:0:0:0:
440,150,166147,1,8,3:2:0:0:
417,230,166335,1,8,1:2:0:0:
457,315,166522,1,8,0:0:0:0:
457,315,166616,1,8,0:0:0:0:
457,315,166710,69,8,1:2:0:0:
300,244,166897,1,8,0:0:0:0:
357,359,167085,1,8,0:0:0:0:
202,256,167272,2,0,P|218:151|236:68,1,160,8|8,1:2|0:0,0:0:0:0:
293,28,167835,1,8,1:2:0:0:
140,70,168022,1,8,1:2:0:0:
140,70,168116,1,8,1:2:0:0:
140,70,168210,85,8,1:2:0:0:
176,57,168303,1,0,1:0:0:0:
215,70,168397,1,0,1:0:0:0:
235,102,168491,1,0,1:0:0:0:
274,123,168585,1,0,1:0:0:0:
324,125,168678,1,0,1:0:0:0:
363,102,168772,1,8,1:2:0:0:
390,62,168866,1,0,1:0:0:0:
406,17,168960,102,0,P|439:32|462:44,1,40,0|0,1:0|1:0,0:0:0:0:
494,127,169147,2,0,P|461:142|438:154,1,40,0|0,1:0|1:0,0:0:0:0:
382,221,169335,2,0,P|414:237|436:250,1,40,8|0,1:2|1:0,0:0:0:0:
464,335,169522,2,0,P|430:348|406:359,1,40,0|0,1:0|1:0,0:0:0:0:
146,306,170460,69,12,1:2:0:0:
146,306,170553,1,8,1:2:0:0:
146,306,170647,1,8,1:2:0:0:
312,83,170835,1,8,1:2:0:0:
72,118,171022,1,8,1:2:0:0:
272,293,171210,70,0,P|394:328|504:366,1,216.000000823975,4|8,1:2|0:0,0:0:0:0:
472,266,171772,1,8,1:0:0:0:
241,380,171960,5,0,0:0:0:0:
179,155,172147,1,2,3:2:0:0:
351,230,172335,1,10,1:2:0:0:
78,381,172522,1,0,0:0:0:0:
274,159,172710,70,0,P|291:83|217:42,1,162.000000617981,4|0,1:3|0:0,0:0:0:0:
215,55,173085,2,0,P|154:37|148:-2,1,108.000000411987,8|8,0:0|1:0,0:0:0:0:
406,38,173460,1,0,0:0:0:0:
390,116,173647,2,0,P|452:134|511:140,1,108.000000411987,2|10,3:2|1:2,0:0:0:0:
324,369,174022,1,2,0:0:0:0:
128,261,174210,53,4,1:3:0:0:
118,246,174397,1,2,0:0:0:0:
122,227,174585,1,10,0:2:0:0:
139,214,174772,1,10,1:2:0:0:
331,262,174960,22,0,P|392:280|469:308,1,108.000000411987,2|0,0:0|3:2,0:0:0:0:
209,371,175335,1,10,1:2:0:0:
242,147,175522,1,0,0:0:0:0:
223,275,175710,21,4,1:3:0:0:
350,116,175897,1,0,0:0:0:0:
110,13,176085,2,0,P|89:100|85:139,1,108.000000411987,8|10,0:0|1:2,0:0:0:0:
161,159,176460,1,2,0:0:0:0:
354,15,176647,21,2,3:2:0:0:
17,179,176835,1,10,1:2:0:0:
347,30,177022,1,10,1:0:0:0:
492,243,177210,86,0,P|422:224|391:367,1,216.000000823975,4|8,1:3|0:0,0:0:0:0:
479,363,177772,1,8,1:0:0:0:
288,202,177960,69,0,0:0:0:0:
370,335,178147,1,2,3:2:0:0:
391,210,178335,1,10,1:2:0:0:
194,362,178522,1,0,0:0:0:0:
124,310,178710,86,0,P|144:211|167:127,1,162.000000617981,4|0,1:3|0:0,0:0:0:0:
169,147,179085,2,0,P|216:107|199:53,1,108.000000411987,8|0,0:2|1:0,0:0:0:0:
144,19,179460,1,0,0:0:0:0:
58,135,179647,1,2,3:2:0:0:
314,29,179835,2,0,P|374:46|431:70,1,108.000000411987,10|0,1:2|0:0,0:0:0:0:
296,261,180210,85,4,1:3:0:0:
325,188,180397,1,2,0:0:0:0:
402,164,180585,1,10,0:0:0:0:
479,183,180772,1,0,1:0:0:0:
324,363,180960,1,2,0:0:0:0:
469,298,181147,37,2,3:2:0:0:
216,162,181335,1,10,1:2:0:0:
455,313,181522,1,0,0:0:0:0:
144,237,181710,5,4,1:3:0:0:
402,164,181897,1,0,1:0:0:0:
184,343,182085,2,0,P|102:325|53:324,1,108.000000411987,8|0,1:2|0:0,0:0:0:0:
17,278,182460,1,0,1:0:0:0:
0,370,182647,69,2,3:2:0:0:
114,45,182835,1,10,1:2:0:0:
347,349,183022,1,10,1:1:0:0:
142,242,183210,5,8,1:2:0:0:
383,158,183397,1,0,3:0:0:0:
140,146,183585,5,8,1:2:0:0:
369,257,183772,1,0,3:0:0:0:
206,77,183960,85,10,1:2:0:0:
295,355,184147,1,2,3:2:0:0:
301,76,184335,85,10,1:2:0:0:
180,374,184522,1,2,3:2:0:0:
63,210,184710,85,10,1:2:0:0:
63,210,184897,1,0,3:0:0:0:
299,166,185085,37,10,1:2:0:0:
299,166,185272,1,0,3:0:0:0:
84,30,185460,85,10,1:2:0:0:
159,159,185647,1,2,3:2:0:0:
380,124,185835,85,10,1:2:0:0:
317,259,186022,1,2,3:2:0:0:
268,48,186210,85,10,1:2:0:0:
270,57,186397,1,0,3:0:0:0:
493,189,186585,37,10,1:2:0:0:
495,180,186772,1,0,3:0:0:0:
419,309,186960,21,10,1:2:0:0:
235,182,187147,1,2,3:2:0:0:
328,376,187335,37,10,1:2:0:0:
380,124,187522,1,2,3:2:0:0:
225,307,187710,85,10,1:2:0:0:
152,353,187897,1,0,3:0:0:0:
85,172,188085,37,10,1:2:0:0:
12,126,188272,1,0,3:0:0:0:
75,273,188460,21,10,1:2:0:0:
137,37,188647,1,2,3:2:0:0:
84,284,188835,85,14,1:2:0:0:
50,4,189022,1,8,3:1:0:0:
198,237,189210,53,14,1:2:0:0:
234,161,189397,1,0,3:0:0:0:
359,249,189585,85,10,1:2:0:0:
379,368,189772,1,0,3:0:0:0:
447,136,189960,21,10,1:2:0:0:
276,309,190147,1,2,3:2:0:0:
495,231,190335,5,10,1:2:0:0:
286,60,190522,1,2,3:2:0:0:
426,8,190710,85,10,1:2:0:0:
359,249,190897,1,0,3:2:0:0:
229,232,191085,85,10,1:2:0:0:
210,10,191272,1,0,3:0:0:0:
103,42,191460,5,10,1:2:0:0:
37,187,191647,1,0,3:2:0:0:
177,145,191835,69,8,1:2:0:0:
0,52,192022,1,2,3:2:0:0:
43,295,192210,5,8,3:2:0:0:
58,286,192303,1,0,1:0:0:0:
72,278,192397,1,0,1:0:0:0:
85,271,192491,1,0,1:0:0:0:
101,264,192585,2,0,P|152:286|169:300,1,54.0000002059937,8|0,3:2|1:0,0:0:0:0:
230,288,192772,2,0,P|241:342|239:364,1,54.0000002059937,0|0,1:0|1:0,0:0:0:0:
338,275,192960,101,8,3:2:0:0:
330,238,193053,1,0,1:0:0:0:
341,201,193147,1,2,1:2:0:0:
373,179,193241,1,0,1:0:0:0:
413,171,193335,2,0,P|426:115|426:94,1,54.0000002059937,10|0,3:2|1:0,0:0:0:0:
360,71,193522,2,0,P|321:28|304:16,1,54.0000002059937,2|0,1:2|1:0,0:0:0:0:
256,72,193710,1,0,0:0:0:0:
256,72,194460,70,0,L|192:49,1,54.0000002059937,8|0,0:0|0:0,0:0:0:0:
51,138,194647,2,0,L|115:115,1,54.0000002059937,0|0,1:0|0:0,0:0:0:0:
193,215,194835,2,0,B|184:277|184:277|198:304|198:304|184:389,1,162.000000617981,4|0,1:2|0:0,0:0:0:0:
186,372,195210,70,0,P|157:321|126:312,1,60.0000022888184,6|0,1:2|0:0,0:0:0:0:
62,266,195397,2,0,P|3:261|-22:281,1,60.0000022888184,2|0,0:2|0:0,0:0:0:0:
202,206,195585,6,0,P|206:147|186:121,1,60.0000022888184,2|0,0:2|0:0,0:0:0:0:
161,48,195772,2,0,P|138:29|115:29,2,40.000001525879,2|0|0,2:2|2:2|2:2,0:0:0:0:
153,60,195960,85,10,2:2:0:0:
410,14,196147,1,0,1:0:0:0:
303,13,196335,6,0,L|315:86,1,60.0000022888184,2|0,0:2|0:0,0:0:0:0:
376,129,196522,2,0,L|388:202,1,60.0000022888184,2|0,1:2|0:0,0:0:0:0:
266,331,196710,86,0,L|254:258,1,60.0000022888184,2|0,0:2|0:0,0:0:0:0:
193,215,196897,2,0,L|181:142,1,60.0000022888184,2|0,0:2|0:0,0:0:0:0:
352,367,197085,6,0,P|403:308|501:324,1,180.000006866455,2|0,1:2|0:0,0:0:0:0:
501,329,197460,6,0,L|357:283,1,120.000004577637,10|0,0:0|0:0,0:0:0:0:
142,307,197835,70,4,B|103:112|246:218|198:3,1,300,4|0,0:1|0:2,1:2:0:0:
203,29,198210,6,0,L|130:17,1,60.0000022888184,2|0,1:2|0:0,0:0:0:0:
86,74,198397,2,0,L|13:62,1,60.0000022888184,2|0,0:2|0:0,0:0:0:0:
305,153,198585,86,0,L|378:141,1,60.0000022888184,2|0,0:2|0:0,0:0:0:0:
422,198,198772,2,0,L|471:188,3,40.000001525879,2|0|0|10,2:2|2:2|2:2|2:2,0:0:0:0:
377,264,199147,1,0,1:0:0:0:
447,64,199335,5,2,0:2:0:0:
324,12,199522,1,2,1:2:0:0:
201,102,199710,85,2,0:2:0:0:
69,177,199897,1,2,0:2:0:0:
181,0,200085,5,2,1:2:0:0:
258,286,200460,86,0,L|254:329,1,30.0000011444092,8|0,0:0|0:0,0:0:0:0:
340,136,200647,2,0,L|342:106,1,30.0000011444092
487,381,200835,22,2,B|489:354|476:327|476:327|483:313|483:313|471:283|468:252|468:252|468:226|460:191,1,180.000006866455,0|0,0:0|0:0,0:1:0:0:
245,23,201210,70,0,P|211:14|159:10,1,60.0000022888184,6|0,1:2|0:0,0:0:0:0:
130,73,201397,2,0,P|95:79|46:97,1,60.0000022888184,2|0,0:2|0:0,0:0:0:0:
210,108,201585,6,0,P|236:130|269:170,1,60.0000022888184,2|0,0:2|0:0,0:0:0:0:
262,275,201772,2,0,P|257:260|248:234,2,40.000001525879,2|0|0,2:2|2:2|2:2,0:0:0:0:
255,287,201960,1,10,2:2:0:0:
166,264,202147,1,0,1:0:0:0:
367,374,202335,86,0,P|358:340|354:288,1,60.0000022888184,2|0,0:2|0:0,0:0:0:0:
409,260,202522,2,0,P|415:225|433:176,1,60.0000022888184,2|0,1:2|0:0,0:0:0:0:
499,173,202710,6,0,P|508:139|512:87,1,60.0000022888184,2|0,0:2|0:0,0:0:0:0:
457,38,202897,2,0,P|453:17|442:-12,2,40.000001525879,2|0|0,0:2|2:2|0:0,0:0:0:0:
380,97,203085,86,0,P|260:122|177:150,1,180.000006866455,2|0,1:2|0:0,0:0:0:0:
198,156,203460,22,0,P|150:104|187:58,1,120.000004577637,10|0,0:0|0:0,0:0:0:0:
486,313,203835,70,0,B|358:295|358:295|330:310|330:310|191:291,1,300,4|0,0:1|0:0,1:0:0:0:
178,305,204210,6,0,P|137:319|109:338,1,60.0000022888184,2|0,1:2|0:0,0:0:0:0:
51,280,204397,2,0,P|38:321|38:355,1,60.0000022888184,2|0,0:2|0:0,0:0:0:0:
69,190,204585,86,0,P|110:204|138:223,1,60.0000022888184,2|0,0:2|0:0,0:0:0:0:
198,156,204772,2,0,P|210:197|210:231,1,60.0000022888184,2|0,2:2|0:0,0:0:0:0:
211,214,204960,1,10,2:2:0:0:
100,38,205147,5,0,1:2:0:0:
345,107,205335,1,0,0:0:0:0:
106,56,205522,1,0,1:2:0:0:
272,27,205710,21,2,0:2:0:0:
272,27,205897,1,0,0:0:0:0:
373,192,206085,2,0,P|422:206|506:237,1,120,2|2,0:0|0:0,0:0:0:0:
491,234,206460,85,8,0:1:0:0:
383,359,206647,1,8,0:1:0:0:
240,151,206835,1,8,0:1:0:0:
132,276,207022,1,8,0:1:0:0:
