osu file format v14

[General]
AudioFilename: audio.mp3
AudioLeadIn: 0
PreviewTime: 109499
Countdown: 0
SampleSet: Soft
StackLeniency: 0.3
Mode: 0
LetterboxInBreaks: 0
WidescreenStoryboard: 1

[Editor]
Bookmarks: 15210,27210,39210,63210,68460,69210,73710,87210,99210,111210,135210,140460,141210,145710,147397,158647,159210,170460,171210,183210,193710,195210,200460,201210,205710
DistanceSpacing: 1.6
BeatDivisor: 6
GridSize: 8
TimelineZoom: 4.499998

[Metadata]
Title:Dirty
TitleUnicode:Dirty
Artist:grandson
ArtistUnicode:grandson
Creator:Chills
Version:Hard
Source:
Tags:indie electronic english shuckles shucklings min moondoogy Li Syaoran MinNin death of an optimist rock pop
BeatmapID:3894633
BeatmapSetID:1885174

[Difficulty]
HPDrainRate:3.8
CircleSize:3.5
OverallDifficulty:6
ApproachRate:7.8
SliderMultiplier:1.5
SliderTickRate:1

[Events]
//Background and Video events
0,0,"dirtee.png",0,0
//Break Periods
2,147410,158431
//Storyboard Layer 0 (Background)
//Storyboard Layer 1 (Fail)
//Storyboard Layer 2 (Pass)
//Storyboard Layer 3 (Foreground)
//Storyboard Layer 4 (Overlay)
//Storyboard Sound Samples

[TimingPoints]
210,375,4,2,1,100,1,0
772,-100,4,2,1,5,0,0
960,-100,4,2,1,10,0,0
1147,-100,4,2,1,15,0,0
1335,-100,4,2,1,20,0,0
1522,-100,4,2,1,25,0,0
1710,-100,4,2,1,30,0,0
1897,-100,4,2,1,35,0,0
2085,-100,4,2,1,40,0,0
2272,-100,4,2,1,45,0,0
2553,-100,4,2,1,60,0,1
3210,375,4,2,1,40,1,0
3210,-133.333333333333,4,2,1,40,0,0
8835,-133.333333333333,4,2,1,60,0,0
9116,-133.333333333333,4,2,1,5,0,0
9210,-133.333333333333,4,2,1,40,0,0
14647,-133.333333333333,4,2,1,50,0,0
14835,-133.333333333333,4,2,1,60,0,0
15210,-111.111111111111,4,2,1,70,0,0
17272,-111.111111111111,4,2,3,70,0,0
17460,-111.111111111111,4,2,1,70,0,0
20272,-111.111111111111,4,2,3,70,0,0
20647,-111.111111111111,4,2,1,70,0,0
20835,-111.111111111111,4,2,3,85,0,0
21210,-111.111111111111,4,2,1,70,0,0
21772,-111.111111111111,4,2,3,70,0,0
21960,-111.111111111111,4,2,1,70,0,0
26272,-111.111111111111,4,2,3,70,0,0
26460,-111.111111111111,4,2,1,70,0,0
26647,-111.111111111111,4,2,1,80,0,0
26835,-111.111111111111,4,2,3,85,0,0
27210,-133.333333333333,4,2,3,85,0,0
27585,-133.333333333333,4,2,3,60,0,0
28147,-133.333333333333,4,2,3,60,0,0
33210,-133.333333333333,4,2,1,40,0,0
33960,-133.333333333333,4,2,1,45,0,0
34710,-133.333333333333,4,2,1,50,0,0
35085,-133.333333333333,4,2,3,50,0,0
35460,-133.333333333333,4,2,1,55,0,0
35835,-133.333333333333,4,2,3,55,0,0
36022,-133.333333333333,4,2,1,55,0,0
36210,-111.111111111111,4,2,1,60,0,0
36585,-111.111111111111,4,2,3,65,0,0
36678,-111.111111111111,4,2,1,65,0,0
36960,-111.111111111111,4,2,1,70,0,0
37335,-111.111111111111,4,2,1,75,0,0
38459,-111.111111111111,4,2,1,80,0,0
39210,-100,4,2,1,90,0,0
53272,-100,4,2,1,100,0,0
53460,-100,4,2,1,90,0,0
54772,-100,4,2,1,100,0,0
54960,-100,4,2,1,90,0,0
60585,-100,4,2,1,93,0,0
60960,-100,4,2,1,96,0,0
61335,-100,4,2,1,100,0,0
62460,-100,4,2,1,80,0,0
62835,-80,4,2,1,100,0,0
63210,-90.9090909090909,4,2,2,100,0,1
65835,-80,4,2,2,100,0,1
68460,-90.9090909090909,4,2,2,100,0,0
68835,-100,4,2,2,100,0,0
68975,-100,4,2,1,65,0,0
69116,-100,4,2,2,5,0,0
69210,-90.9090909090909,4,2,2,100,0,1
71835,-80,4,2,2,100,0,1
73710,-100,4,2,1,80,0,0
74647,-100,4,2,1,85,0,0
74835,-100,4,2,1,90,0,0
75022,-100,4,2,1,95,0,0
75210,-133.333333333333,4,2,1,40,0,0
80835,-133.333333333333,4,2,1,60,0,0
81116,-133.333333333333,4,2,1,5,0,0
81210,-111.111111111111,4,2,3,50,0,0
82616,-111.111111111111,4,2,3,5,0,0
82710,-111.111111111111,4,2,3,50,0,0
86647,-111.111111111111,4,2,1,50,0,0
86834,-111.111111111111,4,2,1,75,0,0
92835,-90.9090909090909,4,2,3,75,0,0
93210,-111.111111111111,4,2,1,75,0,0
98647,-111.111111111111,4,2,1,80,0,0
98835,-111.111111111111,4,2,3,85,0,0
99210,-133.333333333333,4,2,3,85,0,0
99585,-133.333333333333,4,2,3,60,0,0
100147,-133.333333333333,4,2,3,60,0,0
105210,-133.333333333333,4,2,1,40,0,0
105960,-133.333333333333,4,2,1,45,0,0
106710,-133.333333333333,4,2,1,50,0,0
107085,-133.333333333333,4,2,3,50,0,0
107460,-133.333333333333,4,2,1,55,0,0
107835,-133.333333333333,4,2,3,55,0,0
108022,-133.333333333333,4,2,1,55,0,0
108210,-111.111111111111,4,2,1,60,0,0
108585,-111.111111111111,4,2,3,65,0,0
108678,-111.111111111111,4,2,1,65,0,0
108960,-111.111111111111,4,2,1,70,0,0
109335,-111.111111111111,4,2,1,75,0,0
110459,-111.111111111111,4,2,1,80,0,0
111210,-100,4,2,1,90,0,0
132585,-100,4,2,1,93,0,0
132960,-100,4,2,1,96,0,0
133335,-100,4,2,1,100,0,0
134460,-100,4,2,1,80,0,0
134835,-80,4,2,1,100,0,0
135210,-90.9090909090909,4,2,2,100,0,1
137835,-80,4,2,2,100,0,1
140460,-80,4,2,2,100,0,0
140835,-100,4,2,2,100,0,0
140975,-100,4,2,1,65,0,0
141116,-100,4,2,2,5,0,0
141210,-90.9090909090909,4,2,2,100,0,1
143835,-80,4,2,2,100,0,1
145710,-100,4,2,1,80,0,0
146647,-100,4,2,1,85,0,0
146835,-100,4,2,1,90,0,0
147022,-100,4,2,1,95,0,0
147210,-100,4,2,1,80,0,0
159210,-111.111111111111,4,2,1,60,0,0
167085,-111.111111111111,4,2,1,56,0,0
167460,-111.111111111111,4,2,1,52,0,0
167835,-111.111111111111,4,2,1,48,0,0
168210,-111.111111111111,4,2,1,40,0,0
168585,-111.111111111111,4,2,1,45,0,0
168960,-111.111111111111,4,2,1,50,0,0
169335,-111.111111111111,4,2,1,55,0,0
170460,-111.111111111111,4,2,1,100,0,0
171210,-100,4,2,1,90,0,0
172522,-100,4,2,1,100,0,0
172710,-100,4,2,1,90,0,0
174772,-100,4,2,3,90,0,0
174960,-100,4,2,1,90,0,0
176272,-100,4,2,3,90,0,0
176460,-100,4,2,1,90,0,0
177116,-100,4,2,1,100,0,0
177210,-100,4,2,1,90,0,0
183210,-90.9090909090909,4,2,1,90,0,1
192585,-90.9090909090909,4,2,1,93,0,1
192960,-90.9090909090909,4,2,1,96,0,1
193335,-90.9090909090909,4,2,1,100,0,1
193710,-90.9090909090909,4,2,1,100,0,0
194460,-90.9090909090909,4,2,1,80,0,0
194647,-100,4,2,1,80,0,0
194835,-80,4,2,1,100,0,0
195210,-90.9090909090909,4,2,2,100,0,1
197835,-80,4,2,2,100,0,1
200460,-80,4,2,2,100,0,0
200835,-100,4,2,2,100,0,0
200975,-100,4,2,1,65,0,0
201116,-100,4,2,2,5,0,0
201210,-90.9090909090909,4,2,2,100,0,1
203835,-80,4,2,2,100,0,1
205710,-100,4,2,1,70,0,0
206647,-100,4,2,1,78,0,0
206835,-100,4,2,1,86,0,0
207022,-100,4,2,1,94,0,0

[Colours]
Combo1 : 199,199,199
Combo2 : 198,221,209
Combo3 : 227,228,209
Combo4 : 222,190,211
Combo5 : 196,214,219
Combo6 : 255,157,157
Combo7 : 228,175,152

[HitObjects]
256,192,772,12,0,2553,0:0:0:0:
472,15,3210,6,0,L|441:139,1,112.500004291535,0|0,3:0|0:0,0:0:0:0:
503,211,3772,1,0,3:0:0:0:
503,211,3960,2,0,P|472:256|409:251,1,112.500004291535,2|2,3:2|3:2,0:0:0:0:
389,309,4522,2,0,L|265:338,1,112.500004291535,2|2,0:0|0:0,0:0:0:0:
211,266,5085,1,2,0:2:0:0:
211,266,5272,1,2,3:2:0:0:
211,266,5460,2,0,P|177:228|113:232,2,112.500004291535,2|2|0,3:2|3:2|3:0,0:0:0:0:
303,138,6585,5,0,0:0:0:0:
303,138,6772,1,0,3:2:0:0:
303,138,6960,2,0,P|337:100|401:104,1,112.500004291535,2|2,3:2|3:2,0:0:0:0:
466,27,7522,2,0,L|351:-5,1,112.500004291535,2|2,0:2|0:0,0:0:0:0:
224,93,8272,1,2,3:2:0:0:
224,93,8460,2,0,L|147:118,1,56.2500021457673,2|0,3:2|0:0,0:0:0:0:
93,51,8835,38,2,B|60:80|60:80|64:129,1,84.3750032186509,2|0,3:2|0:0,0:1:0:0:
85,173,9210,38,0,L|55:284,1,112.500004291535,2|2,3:2|0:0,0:0:0:0:
111,367,9772,1,2,3:2:0:0:
111,367,9960,2,0,L|51:386,2,56.2500021457673,2|2|2,3:2|0:0|3:2,0:0:0:0:
179,302,10522,1,2,0:0:0:0:
179,302,10710,2,0,P|209:346|272:352,1,112.500004291535,2|2,3:2|0:0,0:0:0:0:
389,212,11460,1,0,3:2:0:0:
389,212,11647,2,0,P|369:238|331:242,2,56.2500021457673,2|2|2,0:0|3:2|0:0,0:0:0:0:
477,202,12210,6,0,L|508:79,2,112.500004291535,2|2|2,3:1|0:2|3:2,0:0:0:0:
447,302,13147,1,2,0:0:0:0:
447,302,13335,2,0,L|507:278,2,56.2500021457673,2|2|2,3:2|0:0|3:2,0:0:0:0:
287,361,14085,2,0,L|227:385,1,56.2500021457673,2|2,0:0|3:2,0:0:0:0:
93,314,14647,1,8,3:2:0:0:
37,237,14835,1,4,0:3:0:0:
126,184,15022,1,0,3:0:0:0:
126,184,15210,6,0,L|86:35,1,134.999995880127,0|8,3:0|0:0,0:0:0:0:
181,0,15772,1,8,0:1:0:0:
239,80,15960,2,0,P|268:105|310:108,1,67.4999979400635,2|0,0:0|3:0,0:0:0:0:
364,35,16335,2,0,P|400:22|423:-12,1,67.4999979400635,10|2,0:0|0:0,0:0:0:0:
499,78,16710,6,0,L|458:220,1,134.999995880127,0|8,3:0|0:0,0:0:0:0:
385,266,17272,1,10,0:0:0:0:
449,339,17460,2,0,P|426:363|394:373,1,67.4999979400635,2|0,0:0|3:0,0:0:0:0:
300,339,17835,1,10,0:0:0:0:
101,384,18210,86,0,P|63:353|81:263,1,134.999995880127,0|8,3:2|0:0,0:0:0:0:
0,206,18772,1,8,0:1:0:0:
49,126,18960,2,0,L|29:61,2,67.4999979400635,2|0|10,0:0|3:0|0:0,0:0:0:0:
155,155,19522,1,2,0:0:0:0:
155,155,19710,6,0,P|188:103|271:103,1,134.999995880127,0|10,3:0|0:0,0:0:0:0:
313,26,20272,1,10,0:0:0:0:
495,97,20647,5,0,3:0:0:0:
415,145,20835,1,10,0:0:0:0:
459,232,21022,1,10,0:0:0:0:
459,232,21210,70,0,B|482:297|482:297|428:342,1,134.999995880127,0|8,3:2|0:0,0:0:0:0:
347,293,21772,1,10,0:0:0:0:
286,363,21960,2,0,L|216:340,1,67.4999979400635,2|2,0:0|3:2,0:0:0:0:
179,265,22335,2,0,L|114:286,1,67.4999979400635,10|2,0:0|0:0,0:0:0:0:
30,237,22710,6,0,P|23:179|86:133,1,134.999995880127,2|10,3:2|0:0,0:0:0:0:
42,46,23272,1,8,0:1:0:0:
131,5,23460,1,2,0:0:0:0:
131,5,23647,2,0,L|206:29,1,67.4999979400635,2|8,3:2|0:0,0:0:0:0:
241,118,24022,1,2,0:0:0:0:
330,90,24210,86,0,L|471:49,2,134.999995880127,2|10|0,3:1|0:0|0:0,0:0:0:0:
165,147,25147,1,0,3:2:0:0:
165,147,25335,2,0,L|294:184,1,134.999995880127,8|0,0:2|3:2,0:0:0:0:
449,145,26085,2,0,P|470:173|468:211,1,67.4999979400635,10|10,0:0|0:0,0:0:0:0:
425,292,26460,2,0,P|397:313|359:311,1,67.4999979400635,2|2,0:0|3:2,0:0:0:0:
289,384,26835,21,10,1:2:0:0:
289,384,27022,1,10,1:2:0:0:
289,384,27210,22,0,P|221:292|63:314,1,281.250010728836,4|2,0:0|0:0,0:0:0:0:
56,204,28335,1,8,0:0:0:0:
56,204,28522,2,0,P|107:194|150:236,1,112.500004291535,2|0,0:0|0:0,0:0:0:0:
230,185,29085,1,8,0:0:0:0:
230,185,29272,1,8,0:0:0:0:
421,122,29647,2,0,L|476:103,2,56.2500021457673,2|8|2,0:0|0:0|0:0,0:0:0:0:
360,53,30210,54,0,P|321:14|248:24,1,112.500004291535,2|10,0:0|0:0,0:0:0:0:
117,0,30960,2,0,P|89:12|76:41,1,56.2500021457673,2|2,0:0|0:0,0:0:0:0:
126,114,31335,1,8,0:0:0:0:
126,114,31522,2,0,L|92:229,1,112.500004291535,2|0,0:0|0:0,0:0:0:0:
18,270,32085,1,8,0:0:0:0:
18,270,32272,1,8,0:0:0:0:
157,376,32647,2,0,L|219:357,1,56.2500021457673,2|8,0:0|0:0,0:0:0:0:
286,296,33022,1,2,0:0:0:0:
286,296,33210,38,0,P|349:297|385:341,2,112.500004291535,2|8|0,1:0|1:1|1:0,0:0:0:0:
212,243,34147,1,0,1:0:0:0:
212,243,34335,2,0,L|231:178,1,56.2500021457673,8|2,1:1|1:2,0:0:0:0:
166,118,34710,54,0,L|286:77,1,112.500004291535,2|10,1:2|1:2,0:0:0:0:
459,18,35460,2,0,L|525:-4,2,56.2500021457673,2|2|10,1:2|1:2|1:2,0:0:0:0:
411,100,36022,1,2,1:2:0:0:
476,163,36210,38,0,L|460:214,3,33.7499989700318,2|0|0|0,1:2|1:0|1:0|1:0,0:0:0:0:
467,252,36585,2,0,L|503:291,3,33.7499989700318,10|0|0|0,1:2|1:0|1:0|1:0,0:0:0:0:
466,334,36960,2,0,L|413:345,3,33.7499989700318,0|0|0|0,1:0|1:0|1:0|1:0,0:0:0:0:
385,382,37335,2,0,L|348:342,1,33.7499989700318,8|0,1:0|1:0,1:0:0:0:
310,379,37522,85,4,1:3:0:0:
138,316,37897,1,8,0:2:0:0:
138,316,37991,1,8,0:2:0:0:
138,316,38085,2,0,L|156:383,2,67.4999979400635,8|0|0,1:2|3:2|1:2,0:0:0:0:
106,229,38647,1,0,3:0:0:0:
15,193,38835,2,0,L|41:126,1,67.4999979400635,0|0,1:0|1:0,0:0:0:0:
1,42,39210,54,0,B|69:22|69:22|92:32|92:32|160:9,1,150,4|8,1:2|0:0,0:0:0:0:
209,101,39772,1,8,1:0:0:0:
306,48,39960,2,0,P|343:36|388:49,1,75,0|2,0:0|3:2,0:0:0:0:
454,114,40335,2,0,P|466:151|453:196,1,75,10|0,1:2|0:0,1:0:0:0:
512,276,40710,6,0,L|389:310,1,112.5,4|0,1:3|0:0,0:0:0:0:
376,353,41085,1,8,0:2:0:0:
301,265,41272,2,0,L|222:286,1,75,8|0,1:0|0:0,0:0:0:0:
142,339,41647,2,0,P|165:367|214:376,2,75,2|10|2,3:2|1:2|0:0,0:0:0:0:
53,290,42210,70,0,P|48:232|-4:190,1,112.5,4|0,1:3|0:0,0:0:0:0:
27,141,42585,1,8,0:0:0:0:
16,39,42772,2,0,P|74:44|116:96,1,112.5,8|0,1:0|2:0,2:0:0:0:
162,59,43147,1,2,3:2:0:0:
282,28,43335,2,0,L|259:112,1,75,10|0,1:2|0:2,1:0:0:0:
192,178,43710,85,4,1:3:0:0:
192,178,43897,2,0,L|206:229,1,37.5,0|0,1:0|0:0,0:0:0:0:
172,258,44085,2,0,P|203:305|266:306,1,112.5,8|0,1:2|0:0,0:0:0:0:
297,277,44460,1,0,1:0:0:0:
412,313,44647,2,0,L|388:387,2,75,2|10|10,3:2|1:2|0:1,0:0:0:0:
506,277,45210,22,0,L|467:112,1,150,4|8,1:3|0:0,0:0:0:0:
475,29,45772,1,0,1:2:0:0:
370,61,45960,2,0,P|344:37|300:38,1,75,0|2,0:0|3:2,0:0:0:0:
248,123,46335,2,0,P|210:161|138:151,1,112.5,10|0,1:2|0:0,1:0:0:0:
104,184,46710,6,0,B|92:140|92:140|42:105|42:105|29:47,2,150,4|8|0,1:3|0:0|0:0,0:0:0:0:
21,254,47647,1,2,3:2:0:0:
99,330,47835,2,0,P|134:288|210:290,1,112.5,10|0,1:2|0:0,0:0:0:0:
230,320,48210,69,4,1:3:0:0:
428,254,48585,1,8,0:0:0:0:
383,173,48772,2,0,P|389:118|436:79,1,112.5,0|0,1:3|0:0,0:0:0:0:
402,34,49147,1,2,3:2:0:0:
304,0,49335,2,0,L|228:26,1,75,10|0,1:2|0:0,1:0:0:0:
137,58,49710,85,4,1:3:0:0:
137,58,49897,2,0,L|122:107,1,37.5,0|0,1:2|0:0,0:0:0:0:
150,145,50085,2,0,P|124:202|71:203,1,112.5,8|0,1:2|0:0,0:0:0:0:
34,242,50460,1,0,1:0:0:0:
101,331,50647,2,0,L|22:358,2,75,2|10|10,3:2|1:2|1:0,0:0:0:0:
197,384,51210,22,0,B|274:394|249:311|344:336,1,150,4|8,1:2|1:2,0:0:0:0:
424,376,51772,1,8,0:1:0:0:
490,298,51960,2,0,P|489:263|459:233,1,75,2|2,0:0|3:2,0:0:0:0:
512,142,52335,1,10,1:2:0:0:
512,142,52522,1,2,0:0:0:0:
450,64,52710,6,0,B|408:56|375:87|375:87|376:45|329:22,1,150,2|10,3:2|1:2,0:0:0:0:
262,103,53272,1,8,0:1:0:0:
167,69,53460,2,0,P|141:40|141:-7,2,75,2|2|10,0:0|3:2|1:2,0:0:0:0:
91,138,54022,1,2,0:0:0:0:
91,138,54210,86,0,P|40:144|9:204,1,112.5,2|0,3:2|0:0,0:0:0:0:
43,233,54585,1,10,1:2:0:0:
0,324,54772,1,8,0:1:0:0:
81,378,54960,2,0,P|119:380|152:352,1,75,2|2,0:0|3:2,0:0:0:0:
199,274,55335,2,0,P|231:251|275:249,1,75,10|2,1:2|0:2,0:0:0:0:
382,292,55710,70,0,B|359:325|312:317|312:317|341:359|325:405,2,150,2|10|2,3:2|1:2|0:0,0:0:0:0:
472,250,56647,1,2,3:2:0:0:
401,168,56835,2,0,P|430:118|443:55,1,112.5,14|0,1:2|0:0,0:0:0:0:
401,25,57210,22,0,P|367:25|334:51,1,75,10|0,1:2|3:0,0:0:0:0:
236,23,57585,2,0,P|219:52|225:94,1,75,10|0,1:2|3:0,0:0:0:0:
296,177,57960,1,10,1:2:0:0:
296,177,58147,1,2,3:2:0:0:
220,259,58335,1,10,1:2:0:0:
220,259,58522,1,2,3:2:0:0:
131,194,58710,6,0,L|106:111,1,75,10|0,1:2|3:0,0:0:0:0:
21,185,59085,2,0,L|0:256,1,75,10|0,1:2|3:2,0:0:0:0:
44,353,59460,1,10,1:2:0:0:
143,316,59647,2,0,P|173:293|216:293,1,75,2|8,3:2|1:2,0:0:0:0:
281,366,60022,1,2,3:2:0:0:
378,317,60210,70,0,L|394:271,3,37.5,8|0|0|0,3:2|1:0|1:2|1:0,0:0:0:0:
439,247,60585,2,0,L|423:201,3,37.5,8|0|0|0,3:2|1:0|1:2|1:0,0:0:0:0:
402,165,60960,2,0,L|438:127,3,37.5,8|0|2|0,3:2|1:2|1:2|1:2,0:0:0:0:
450,89,61335,1,10,3:2:0:0:
429,73,61428,1,0,1:2:0:0:
405,61,61522,1,2,1:2:0:0:
381,49,61616,1,0,1:2:0:0:
24,99,62460,69,8,0:0:0:0:
28,103,62647,2,0,L|13:56,1,37.5,0|0,1:0|0:0,0:0:0:0:
0,51,62835,2,0,B|58:29|58:29|84:22|115:29|127:67,1,140.625,4|0,1:2|0:0,0:0:0:0:
137,102,63210,69,6,1:2:0:0:
233,62,63397,1,2,0:2:0:0:
287,148,63585,1,2,0:2:0:0:
190,191,63772,2,0,L|179:221,3,27.5000008392334,2|0|0|10,2:2|2:2|2:2|2:2,0:0:0:0:
79,190,64147,2,0,L|-1:212,1,82.5000025177003,0|2,1:0|0:2,0:0:0:0:
71,317,64522,6,0,B|127:369|127:369|172:357,1,123.75000377655,2|0,1:2|0:0,0:0:0:0:
228,381,64897,2,0,L|236:354,1,27.5000008392334,2|0,0:2|0:0,0:0:0:0:
263,281,65085,1,2,1:2:0:0:
297,175,65272,6,0,L|288:203,3,27.5000008392334,0|0|0|10,0:0|0:0|0:0|0:0,0:0:0:0:
512,0,65835,70,4,B|460:13|460:13|444:36|444:36|440:33|440:33|380:52,1,140.625,4|0,0:1|0:2,1:2:0:0:
366,86,66210,5,2,1:2:0:0:
455,141,66397,1,2,0:2:0:0:
385,219,66585,1,2,0:2:0:0:
478,270,66772,2,0,L|488:305,3,31.25,2|0|0|10,2:2|2:2|2:2|2:2,0:0:0:0:
409,373,67147,2,0,L|318:348,1,93.75,0|2,1:0|0:0,0:0:0:0:
210,384,67522,86,0,B|188:312|188:312|245:259,1,140.625,2|0,1:2|0:0,0:0:0:0:
211,223,67897,2,0,L|220:193,1,31.25,2|0,0:0|0:0,0:0:0:0:
288,149,68085,1,2,1:2:0:0:
261,42,68272,2,0,L|270:12,3,31.25,0|0|0|8,0:0|0:0|0:0|0:0,0:0:0:0:
178,22,68647,21,0,0:0:0:0:
178,22,68835,2,2,P|107:10|70:69,1,150,0|6,0:0|1:2,0:1:0:0:
9,147,69397,69,2,0:2:0:0:
92,221,69585,1,2,0:2:0:0:
9,305,69772,2,0,L|48:318,3,27.5000008392334,2|0|0|10,2:2|2:2|2:2|2:2,0:0:0:0:
125,373,70147,2,0,L|203:348,1,82.5000025177003,0|2,1:0|0:2,0:0:0:0:
307,322,70522,6,0,B|368:338|368:338|407:292,1,123.75000377655,2|0,1:2|0:0,0:0:0:0:
462,289,70897,2,0,L|469:262,1,27.5000008392334,2|0,0:2|2:2,0:0:0:0:
497,183,71085,1,2,1:2:0:0:
458,80,71272,6,0,L|469:111,3,27.5000008392334,0|0|0|10,0:0|0:0|0:0|0:0,0:0:0:0:
218,173,71835,70,0,B|228:134|228:134|255:120|255:120|258:121|258:121|288:102|288:102|306:50,1,140.625,4|0,0:1|0:0,1:0:0:0:
274,29,72210,5,2,1:2:0:0:
177,0,72397,1,2,0:2:0:0:
117,83,72585,1,2,0:2:0:0:
10,82,72772,2,0,L|0:52,3,31.25,2|0|0|10,2:2|2:2|2:2|2:2,0:0:0:0:
46,176,73147,2,0,L|135:202,2,93.75,0|2|2,1:0|0:2|1:2,0:0:0:0:
0,265,73710,70,0,P|30:332|100:336,1,150,2|2,0:0|0:0,0:0:0:0:
188,384,74272,1,2,0:0:0:0:
188,384,74460,2,0,P|206:351|248:336,1,75,8|8,0:1|0:1,0:0:0:0:
297,266,74835,1,8,0:1:0:0:
297,266,75022,1,8,0:1:0:0:
388,296,75210,38,0,P|419:259|443:186,3,112.500004291535,0|0|0|0,3:2|3:0|3:0|3:0,0:0:0:0:
311,169,76710,2,0,P|294:123|243:66,3,112.500004291535,0|0|0|0,3:0|3:0|3:0|3:0,0:0:0:0:
67,7,78210,2,0,P|36:44|12:117,3,112.500004291535,0|0|0|0,3:0|3:0|3:0|3:0,0:0:0:0:
148,138,79710,2,0,P|164:183|215:240,2,112.500004291535,0|0|0,3:0|3:0|3:0,0:0:0:0:
18,330,80835,70,2,B|47:359|47:359|107:348,1,84.3750032186509,0|0,3:0|0:0,0:1:0:0:
128,376,81210,86,0,L|211:354,1,67.4999979400635,0|0,3:2|0:0,0:0:0:0:
248,281,81585,2,0,L|391:322,1,134.999995880127,8|0,3:2|3:2,0:0:0:0:
481,356,82147,1,0,0:0:0:0:
481,356,82335,2,0,P|510:319|497:259,1,101.249996910095,8|0,3:2|0:0,0:0:0:0:
467,243,82710,69,0,3:2:0:0:
394,168,82897,2,0,P|393:107|454:62,1,134.999995880127,0|0,0:2|0:0,0:0:0:0:
351,2,83460,2,0,L|206:49,1,134.999995880127,0|8,3:2|3:2,0:0:0:0:
84,0,84210,85,0,3:0:0:0:
4,119,84585,2,0,L|26:190,1,67.4999979400635,8|0,3:2|0:0,0:0:0:0:
0,264,84960,2,0,L|71:290,1,67.4999979400635,0|0,3:2|0:0,0:0:0:0:
143,314,85335,1,8,3:2:0:0:
304,365,85710,38,0,L|273:224,1,134.999995880127,0|8,3:2|3:2,0:0:0:0:
275,233,86647,2,0,L|255:152,2,67.4999979400635,8|8|8,0:1|0:1|0:1,0:0:0:0:
362,282,87210,86,0,P|407:234|487:236,1,134.999995880127,2|8,3:1|0:0,0:0:0:0:
512,147,87772,1,8,1:0:0:0:
512,147,87960,2,0,P|484:117|438:116,1,67.4999979400635,2|2,0:0|3:2,0:0:0:0:
429,29,88335,1,10,0:0:0:0:
429,29,88522,1,2,0:0:0:0:
332,50,88710,86,0,L|174:101,1,134.999995880127,2|8,3:1|0:0,0:0:0:0:
133,24,89272,1,8,1:0:0:0:
40,71,89460,1,2,0:0:0:0:
40,71,89647,2,0,P|28:36|-8:9,2,67.4999979400635,2|10|2,3:2|0:0|0:0,0:0:0:0:
108,140,90210,6,0,P|60:188|51:257,1,134.999995880127,2|8,3:1|0:0,0:0:0:0:
0,344,90772,1,0,1:0:0:0:
99,384,90960,1,2,0:0:0:0:
99,384,91147,2,0,L|178:357,1,67.4999979400635,2|10,3:2|0:0,0:0:0:0:
209,280,91522,1,2,0:0:0:0:
304,310,91710,86,0,B|358:326|358:326|366:342|366:342|440:361,1,134.999995880127,2|8,3:1|0:0,0:0:0:0:
512,297,92272,1,8,1:0:0:0:
444,232,92460,1,2,0:0:0:0:
444,232,92647,1,2,3:2:0:0:
480,148,92835,38,0,B|508:115|508:115|498:60,2,82.5000025177003,10|10|4,0:0|0:0|3:2,0:0:0:0:
399,79,93397,69,0,0:0:0:0:
399,79,93585,2,0,P|373:50|330:40,1,67.4999979400635,8|8,0:0|1:0,0:0:0:0:
254,60,93960,1,2,0:0:0:0:
254,60,94147,1,2,3:2:0:0:
173,5,94335,2,0,L|95:27,1,67.4999979400635,10|2,0:0|0:0,0:0:0:0:
15,85,94710,86,0,P|62:108|77:196,1,134.999995880127,2|8,3:1|0:0,0:0:0:0:
23,257,95272,1,8,1:0:0:0:
99,314,95460,2,0,P|121:286|155:275,1,67.4999979400635,2|2,0:0|3:2,0:0:0:0:
238,304,95835,2,0,P|261:330|265:366,1,67.4999979400635,10|2,0:0|0:0,0:0:0:0:
360,384,96210,6,0,L|402:240,1,134.999995880127,2|8,3:1|0:0,0:0:0:0:
486,223,96772,1,8,1:0:0:0:
463,131,96960,2,0,L|441:48,1,67.4999979400635,2|2,0:0|3:2,0:0:0:0:
370,8,97335,1,10,0:0:0:0:
370,8,97522,1,2,0:0:0:0:
334,92,97710,86,0,B|318:126|318:126|241:148,1,101.249996910095,2|0,3:1|0:0,0:0:0:0:
207,127,98085,2,0,P|195:163|165:187,1,67.4999979400635,8|8,0:0|1:0,0:0:0:0:
84,221,98460,2,0,P|49:205|28:172,1,67.4999979400635,2|2,0:0|3:2,0:0:0:0:
19,91,98835,1,10,1:2:0:0:
19,91,99022,1,10,1:2:0:0:
19,91,99210,70,0,P|48:47|206:138,1,281.250010728836,4|2,0:0|0:0,0:0:0:0:
299,211,100335,1,8,0:0:0:0:
299,211,100522,2,0,P|245:211|211:262,1,112.500004291535,2|0,0:0|0:0,0:0:0:0:
240,348,101085,1,8,0:0:0:0:
240,348,101272,1,8,0:0:0:0:
53,295,101647,2,0,L|-2:276,2,56.2500021457673,2|8|2,0:0|0:0|0:0,0:0:0:0:
48,382,102210,22,0,P|82:339|146:348,1,112.500004291535,2|10,0:0|0:0,0:0:0:0:
299,212,102960,2,0,P|323:231|328:266,1,56.2500021457673,2|2,0:0|0:0,0:0:0:0:
313,345,103335,1,8,0:0:0:0:
313,345,103522,2,0,L|433:379,1,112.500004291535,2|0,0:0|0:0,0:0:0:0:
507,335,104085,1,8,0:0:0:0:
507,335,104272,1,8,0:0:0:0:
352,195,104647,2,0,L|298:211,1,56.2500021457673,2|8,0:0|0:0,0:0:0:0:
227,154,105022,1,2,0:0:0:0:
227,154,105210,70,0,P|220:103|169:74,2,112.500004291535,2|8|0,1:0|1:0|1:0,0:0:0:0:
321,110,106147,1,0,1:0:0:0:
321,110,106335,2,0,L|376:91,1,56.2500021457673,8|2,1:0|1:2,0:0:0:0:
500,152,106710,22,0,L|393:188,1,112.500004291535,2|10,1:2|1:2,0:0:0:0:
343,361,107460,2,0,L|409:339,2,56.2500021457673,2|2|10,1:2|1:2|1:2,0:0:0:0:
278,284,108022,1,2,1:2:0:0:
195,329,108210,70,0,L|162:318,3,33.7499989700318,2|0|0|0,1:2|1:0|1:0|1:0,0:0:0:0:
112,334,108585,2,0,L|104:301,3,33.7499989700318,10|0|0|0,1:2|1:0|1:0|1:0,0:0:0:0:
61,270,108960,2,0,L|68:237,3,33.7499989700318,0|0|0|0,1:0|1:0|1:0|1:0,0:0:0:0:
41,185,109335,2,0,L|73:174,1,33.7499989700318,8|0,1:0|1:0,0:0:0:0:
104,138,109522,85,4,1:3:0:0:
238,17,109897,1,8,0:2:0:0:
238,17,109991,1,8,0:2:0:0:
238,17,110085,2,0,L|305:-1,2,67.4999979400635,8|0|8,1:2|3:0|1:0,0:0:0:0:
186,99,110647,1,0,3:0:0:0:
272,143,110835,2,0,L|293:213,1,67.4999979400635,0|0,1:2|1:2,0:0:0:0:
216,276,111210,54,0,B|258:332|258:332|338:309,1,150,4|8,1:2|0:0,0:0:0:0:
408,376,111772,1,8,1:0:0:0:
485,310,111960,2,0,L|508:227,1,75,0|2,0:0|3:2,0:0:0:0:
406,201,112335,2,0,L|383:118,1,75,10|0,1:2|0:0,1:0:0:0:
466,54,112710,6,0,P|434:9|380:0,1,112.5,4|0,1:3|0:0,0:0:0:0:
337,31,113085,1,8,0:2:0:0:
267,117,113272,2,0,L|188:138,1,75,8|0,1:0|0:0,0:0:0:0:
109,56,113647,2,0,P|86:28|37:19,2,75,2|10|2,3:2|1:2|0:0,0:0:0:0:
29,128,114210,70,0,P|-7:172|2:229,1,112.5,4|0,1:3|0:0,0:0:0:0:
34,244,114585,1,8,0:0:0:0:
40,366,114772,2,0,P|94:371|136:336,1,112.5,8|0,1:0|0:0,0:0:0:0:
132,295,115147,1,2,3:2:0:0:
238,324,115335,2,0,L|310:343,1,75,10|0,1:2|0:0,1:0:0:0:
399,277,115710,85,4,1:3:0:0:
399,277,115897,2,0,L|440:266,1,37.5,0|0,1:0|0:0,0:0:0:0:
435,267,116085,2,0,L|469:141,1,112.5,8|0,1:2|0:0,0:0:0:0:
506,132,116460,1,0,1:0:0:0:
432,55,116647,2,0,P|458:30|495:24,2,75,2|10|10,3:2|1:2|1:0,0:0:0:0:
337,7,117210,22,0,B|301:-3|263:22|285:59|249:78|203:68,1,150,4|8,1:3|0:0,0:0:0:0:
136,0,117772,1,8,1:0:0:0:
42,49,117960,2,0,P|18:75|19:119,1,75,0|2,0:0|3:2,0:0:0:0:
32,255,118335,2,0,P|61:211|142:212,1,112.5,8|0,1:2|0:0,1:0:0:0:
143,234,118710,6,0,P|166:301|255:310,2,150,4|8|0,1:3|0:0|0:0,0:0:0:0:
202,147,119647,1,2,3:2:0:0:
281,208,119835,2,0,L|403:175,1,112.5,10|0,1:2|0:0,0:0:0:0:
431,167,120210,69,4,1:3:0:0:
260,48,120585,1,8,0:0:0:0:
187,0,120772,2,0,P|137:6|105:75,1,112.5,8|0,1:0|0:0,0:0:0:0:
140,93,121147,1,2,3:2:0:0:
47,145,121335,2,0,L|73:221,1,75,10|0,1:2|0:0,1:0:0:0:
11,317,121710,85,4,1:3:0:0:
11,317,121897,2,0,L|60:332,1,37.5,0|0,1:0|0:0,0:0:0:0:
46,327,122085,2,0,B|91:312|91:312|109:322|109:322|167:304,1,112.5,8|0,1:2|0:0,0:0:0:0:
179,336,122460,1,0,1:0:0:0:
218,234,122647,2,0,L|245:155,2,75,2|10|10,3:2|1:2|1:0,0:0:0:0:
308,297,123210,22,0,P|349:353|433:335,1,150,4|8,1:2|1:2,0:0:0:0:
496,278,123772,1,8,0:1:0:0:
416,213,123960,2,0,P|423:176|453:149,1,75,2|2,0:0|3:2,0:0:0:0:
509,86,124335,1,10,1:2:0:0:
509,86,124522,1,2,0:0:0:0:
440,10,124710,6,0,B|408:-14|370:-12|370:-12|331:14|335:67,1,150,2|10,3:2|1:2,0:0:0:0:
246,90,125272,1,8,0:1:0:0:
294,183,125460,2,0,P|322:157|371:160,2,75,2|2|10,0:0|3:2|1:2,0:0:0:0:
353,280,126022,1,2,0:0:0:0:
353,280,126210,86,0,L|226:320,1,112.5,2|0,3:2|0:0,0:0:0:0:
207,288,126585,1,10,1:2:0:0:
126,370,126772,1,8,0:1:0:0:
37,307,126960,2,0,B|32:272|32:272|67:236,1,75,2|2,0:0|3:2,0:0:0:0:
64,121,127335,2,0,B|92:148|92:148|127:143,1,75,10|2,1:2|0:0,0:0:0:0:
177,63,127710,70,0,B|181:27|142:0|142:0|104:-1|73:23,2,150,2|10|2,3:2|1:2|0:0,0:0:0:0:
269,21,128647,1,2,3:2:0:0:
344,98,128835,2,0,P|400:95|423:152,1,112.5,14|0,1:2|0:0,0:0:0:0:
467,159,129210,22,0,L|442:232,1,75,10|0,1:2|3:0,0:0:0:0:
486,317,129585,2,0,L|413:342,1,75,10|0,1:2|3:0,0:0:0:0:
325,384,129960,1,10,1:2:0:0:
325,384,130147,1,2,3:2:0:0:
239,290,130335,1,10,1:2:0:0:
239,290,130522,1,2,3:2:0:0:
327,224,130710,6,0,P|349:193|339:145,1,75,10|0,1:2|3:0,0:0:0:0:
297,76,131085,2,0,P|266:54|218:64,1,75,10|0,1:2|3:0,0:0:0:0:
141,9,131460,1,10,1:2:0:0:
102,103,131647,2,0,P|71:123|61:159,1,75,2|8,3:2|1:2,0:0:0:0:
0,233,132022,1,2,3:2:0:0:
65,311,132210,70,0,L|104:289,3,37.5,8|0|0|0,3:2|1:0|1:2|1:0,0:0:0:0:
139,259,132585,2,0,L|174:271,3,37.5,8|0|0|0,3:2|1:0|1:2|1:0,0:0:0:0:
215,236,132960,2,0,L|250:224,3,37.5,8|0|2|0,3:2|1:0|1:2|1:0,0:0:0:0:
245,182,133335,1,10,3:2:0:0:
255,157,133428,1,0,1:0:0:0:
262,131,133522,1,2,1:2:0:0:
271,106,133616,1,0,1:0:0:0:
509,281,134460,69,8,0:0:0:0:
509,281,134647,2,0,L|491:329,1,37.5,0|0,1:0|0:0,0:0:0:0:
495,316,134835,2,0,B|486:344|455:351|429:344|429:344|371:322,1,140.625,4|0,1:2|0:0,0:0:0:0:
321,334,135210,69,6,1:2:0:0:
274,241,135397,1,2,0:2:0:0:
174,286,135585,1,2,0:2:0:0:
87,353,135772,2,0,L|57:342,3,27.5000008392334,2|0|0|10,2:2|2:2|2:2|2:2,0:0:0:0:
68,230,136147,2,0,L|42:150,1,82.5000025177003,0|2,1:0|0:2,0:0:0:0:
25,40,136522,6,0,B|88:28|88:28|126:80,1,123.75000377655,2|0,1:2|0:0,0:0:0:0:
173,48,136897,2,0,L|201:60,1,27.5000008392334,2|0,0:0|0:2,0:0:0:0:
278,83,137085,1,2,1:2:0:0:
350,26,137272,6,0,L|385:36,3,27.5000008392334,0|0|0|10,0:0|0:0|0:0|0:0,0:0:0:0:
482,172,137835,70,0,B|501:238|501:238|505:240|505:240|445:281,1,140.625,4|0,0:1|0:0,1:0:0:0:
431,327,138210,5,2,1:2:0:0:
329,365,138397,1,2,0:2:0:0:
259,274,138585,1,2,0:2:0:0:
198,176,138772,2,0,L|163:166,3,31.25,2|0|0|10,2:2|2:2|2:2|2:2,0:0:0:0:
294,113,139147,2,0,L|263:2,1,93.75,0|2,1:0|0:2,0:0:0:0:
152,59,139522,86,0,B|64:34|64:34|21:76,1,140.625,2|0,1:2|0:0,0:0:0:0:
46,120,139897,2,0,L|37:150,1,31.25,2|0,0:0|0:0,0:0:0:0:
9,221,140085,1,2,1:2:0:0:
67,328,140272,2,0,L|58:358,3,31.25,0|0|0|8,0:0|0:0|0:0|0:0,0:0:0:0:
152,300,140647,21,0,0:0:0:0:
152,300,140835,2,2,P|186:359|268:347,1,150,0|6,0:0|1:2,0:1:0:0:
360,307,141397,85,2,0:2:0:0:
461,364,141585,1,2,0:2:0:0:
512,263,141772,2,0,L|501:233,3,27.5000008392334,2|0|0|10,2:2|2:2|2:2|2:2,0:0:0:0:
413,181,142147,2,0,L|438:103,1,82.5000025177003,0|2,1:0|0:0,0:0:0:0:
380,0,142522,86,0,B|341:46|341:46|280:30,1,123.75000377655,2|0,1:2|0:0,0:0:0:0:
245,45,142897,2,0,L|238:72,1,27.5000008392334,2|0,0:2|2:2,0:0:0:0:
172,137,143085,1,2,1:2:0:0:
240,201,143272,22,0,L|283:185,3,27.5000008392334,0|0|0|10,0:0|0:0|0:0|0:0,0:0:0:0:
22,375,143835,70,0,B|37:341|37:341|42:343|42:343|104:323|104:323|139:345,1,140.625,4|0,0:1|0:0,1:0:0:0:
173,370,144210,5,2,1:2:0:0:
235,287,144397,1,2,2:2:0:0:
336,332,144585,1,2,2:2:0:0:
445,267,144772,2,0,L|435:297,3,31.25,2|0|0|10,2:2|2:2|2:2|2:2,0:0:0:0:
390,174,145147,2,0,L|479:147,2,93.75,0|2|2,1:0|0:2|1:2,0:0:0:0:
378,79,145710,38,0,P|306:73|278:7,1,150,2|2,0:2|0:0,0:0:0:0:
187,0,146272,1,2,0:0:0:0:
187,0,146460,2,0,P|147:14|128:57,1,75,8|8,0:1|0:1,0:0:0:0:
38,78,146835,1,8,0:1:0:0:
38,78,147022,1,8,0:1:0:0:
91,159,147210,69,0,3:0:0:0:
512,382,159210,38,0,L|357:343,1,134.999995880127,0|8,1:0|0:1,0:0:0:0:
381,349,159772,2,0,L|420:194,1,134.999995880127,8|0,1:0|3:0,0:0:0:0:
378,93,160335,1,8,1:2:0:0:
378,93,160522,1,8,0:0:0:0:
454,127,160710,70,0,P|406:117|329:181,1,134.999995880127,0|8,1:0|0:1,0:0:0:0:
256,74,161272,2,0,P|207:76|148:4,1,134.999995880127,0|0,1:0|3:0,0:0:0:0:
47,0,161835,1,8,1:2:0:0:
7,93,162022,21,8,0:0:0:0:
7,93,162116,1,8,0:0:0:0:
7,93,162210,2,0,L|44:242,1,134.999995880127,8|8,1:2|0:1,0:0:0:0:
39,224,162772,2,0,L|188:261,1,134.999995880127,0|0,1:0|3:0,0:0:0:0:
174,359,163335,70,0,P|239:351|281:291,1,134.999995880127,8|0,1:2|1:0,0:0:0:0:
440,84,164085,1,8,0:1:0:0:
440,84,164272,2,0,P|374:91|333:152,1,134.999995880127,0|0,1:0|3:0,0:0:0:0:
253,207,164835,1,8,1:2:0:0:
371,246,165022,21,8,0:0:0:0:
371,246,165116,1,8,0:0:0:0:
371,246,165210,2,0,L|509:216,1,134.999995880127,0|8,1:0|0:1,0:0:0:0:
493,318,165772,1,8,1:2:0:0:
493,318,165960,2,0,L|398:338,1,67.4999979400635,8|8,0:0|3:2,0:0:0:0:
344,377,166335,2,0,L|278:362,1,67.4999979400635,8|8,1:2|0:0,0:0:0:0:
179,360,166710,70,0,P|168:314|118:263,1,101.249996910095,8|0,1:2|0:0,0:0:0:0:
83,262,167085,2,0,P|57:235|60:192,1,67.4999979400635,8|8,0:0|1:2,0:0:0:0:
2,121,167460,2,0,P|29:95|72:98,1,67.4999979400635,8|8,0:0|0:0,0:0:0:0:
147,25,167835,2,0,P|173:52|170:95,1,67.4999979400635,8|8,1:2|1:2,0:0:0:0:
167,105,168116,85,8,1:2:0:0:
155,122,168210,2,0,L|177:179,3,33.7499989700318,8|0|0|0,1:2|1:0|1:0|1:0,0:0:0:0:
158,210,168585,2,0,L|213:234,3,33.7499989700318,0|0|8|0,1:0|1:0|1:2|1:0,0:0:0:0:
224,269,168960,2,0,L|281:247,3,33.7499989700318,0|0|0|0,1:0|1:0|1:0|1:0,0:0:0:0:
312,267,169335,2,0,L|336:211,3,33.7499989700318,8|0|0|0,1:2|1:0|1:0|1:0,0:0:0:0:
412,8,170460,69,12,1:2:0:0:
412,8,170553,1,8,1:2:0:0:
412,8,170647,1,8,1:2:0:0:
478,109,170835,1,8,1:2:0:0:
359,149,171022,1,8,1:2:0:0:
296,44,171210,70,0,B|237:59|237:59|216:41|216:41|149:60,1,150,4|8,1:2|0:0,0:0:0:0:
52,3,171772,1,8,1:0:0:0:
0,95,171960,2,0,B|-9:134|-9:134|24:175,1,75,0|2,0:0|3:2,0:0:0:0:
130,156,172335,2,0,B|151:183|151:183|142:222,1,75,10|0,1:2|0:0,1:0:0:0:
64,372,172710,6,0,P|94:327|163:324,1,112.5,4|0,1:3|0:0,0:0:0:0:
180,349,173085,1,8,0:0:0:0:
232,258,173272,2,0,P|267:262|297:297,1,75,8|0,1:0|0:0,0:0:0:0:
402,294,173647,2,0,L|377:364,2,75,2|10|2,3:2|1:2|0:0,0:0:0:0:
495,239,174210,21,4,1:3:0:0:
452,144,174397,1,2,0:0:0:0:
359,192,174585,1,10,0:2:0:0:
313,98,174772,1,10,1:2:0:0:
313,98,174960,2,0,L|218:126,1,75,2|0,0:0|3:2,0:0:0:0:
163,33,175335,2,0,L|36:-1,1,112.5,10|0,1:2|0:0,0:0:0:0:
13,48,175710,37,4,1:3:0:0:
13,48,175897,2,0,L|50:168,1,112.5,2|0,0:0|0:0,0:0:0:0:
19,195,176272,1,10,1:2:0:0:
61,300,176460,37,2,0:0:0:0:
163,259,176647,1,2,3:2:0:0:
163,259,176835,2,0,P|188:308|257:322,1,112.5,10|0,1:2|0:0,0:0:0:0:
271,362,177210,38,0,P|329:354|368:271,1,150,4|8,1:3|0:0,0:0:0:0:
453,229,177772,1,8,1:0:0:0:
487,143,177960,2,0,L|516:62,1,75,0|2,0:0|3:2,0:0:0:0:
356,8,178335,2,0,L|397:135,1,112.5,10|0,1:2|0:0,1:0:0:0:
352,149,178710,22,0,P|308:95|235:105,2,150,4|8|0,1:3|0:2|0:0,0:0:0:0:
284,227,179647,1,2,3:2:0:0:
355,312,179835,2,0,L|233:349,1,112.5,10|0,1:2|0:0,0:0:0:0:
208,324,180210,53,4,1:3:0:0:
110,285,180397,1,2,0:0:0:0:
14,235,180585,2,0,P|58:181|131:191,1,150,10|2,0:0|0:0,0:0:0:0:
101,87,181147,1,2,3:2:0:0:
189,32,181335,2,0,P|211:60|248:71,1,75,10|0,1:2|0:0,1:0:0:0:
330,144,181710,53,4,1:3:0:0:
330,144,181897,2,0,L|315:193,1,37.5,0|0,1:0|0:0,0:0:0:0:
319,179,182085,2,0,L|452:144,1,112.5,8|0,1:2|0:0,0:0:0:0:
451,110,182460,1,0,1:0:0:0:
440,257,182647,2,0,L|514:236,2,75,2|10|10,3:2|1:2|1:1,0:0:0:0:
387,361,183210,86,0,P|365:327|324:315,1,82.5000025177003,8|0,1:2|3:0,0:0:0:0:
250,247,183585,2,0,P|211:259|189:293,1,82.5000025177003,8|0,1:2|3:0,0:0:0:0:
92,341,183960,1,10,1:2:0:0:
92,341,184147,1,2,3:2:0:0:
31,255,184335,1,10,1:2:0:0:
31,255,184522,1,2,3:2:0:0:
123,213,184710,6,0,L|147:128,1,82.5000025177003,10|0,1:2|3:0,0:0:0:0:
64,48,185085,2,0,L|159:17,1,82.5000025177003,10|0,1:2|3:0,0:0:0:0:
247,81,185460,85,10,1:2:0:0:
247,81,185647,1,2,3:2:0:0:
334,16,185835,1,10,1:2:0:0:
334,16,186022,1,2,3:2:0:0:
394,99,186210,86,0,P|420:140|469:156,1,82.5000025177003,10|0,1:2|3:0,0:0:0:0:
512,234,186585,2,0,P|486:275|437:291,1,82.5000025177003,10|0,1:2|3:0,0:0:0:0:
371,359,186960,53,10,1:2:0:0:
371,359,187147,1,2,3:2:0:0:
330,264,187335,1,10,1:2:0:0:
330,264,187522,1,2,3:2:0:0:
233,310,187710,22,0,L|141:333,1,82.5000025177003,10|0,1:2|3:0,0:0:0:0:
55,383,188085,2,0,B|28:346|28:346|42:291,1,82.5000025177003,10|0,1:2|3:0,0:0:0:0:
0,210,188460,53,10,1:2:0:0:
46,116,188647,1,2,3:2:0:0:
135,176,188835,2,0,B|185:161|185:161|200:166|200:166|269:144,1,123.75000377655,14|0,1:2|0:0,0:0:0:0:
275,119,189210,86,0,P|289:79|331:56,1,82.5000025177003,14|0,1:2|3:0,0:0:0:0:
422,0,189585,2,0,P|449:32|448:79,1,82.5000025177003,10|0,1:2|3:0,0:0:0:0:
410,165,189960,85,10,1:2:0:0:
410,165,190147,1,2,3:2:0:0:
503,240,190335,1,10,1:2:0:0:
503,240,190522,1,2,3:2:0:0:
444,328,190710,86,0,P|411:353|362:349,1,82.5000025177003,10|0,1:2|3:0,0:0:0:0:
296,279,191085,2,0,P|255:279|223:303,1,82.5000025177003,10|0,1:2|3:0,0:0:0:0:
163,379,191460,1,10,1:2:0:0:
78,316,191647,2,0,L|102:225,1,82.5000025177003,2|8,3:2|1:2,0:0:0:0:
29,161,192022,1,2,3:2:0:0:
107,87,192210,86,0,L|146:100,3,41.2500012588501,8|0|0|0,3:2|1:0|1:0|1:0,0:0:0:0:
194,83,192585,1,8,3:2:0:0:
212,73,192678,1,0,1:0:0:0:
228,60,192772,1,0,1:0:0:0:
245,49,192866,1,0,1:0:0:0:
265,55,192960,38,0,L|304:68,3,41.2500012588501,8|0|2|0,3:2|1:0|1:2|1:0,0:0:0:0:
342,103,193335,1,10,3:2:0:0:
364,90,193428,1,0,1:0:0:0:
385,73,193522,1,2,1:2:0:0:
406,59,193616,1,0,1:0:0:0:
341,368,194460,37,8,0:0:0:0:
341,368,194647,2,0,L|326:321,1,37.5,0|0,1:0|0:0,0:0:0:0:
330,333,194835,2,0,B|350:295|311:277|253:283|227:327,1,140.625,4|0,1:2|0:0,0:0:0:0:
205,350,195210,69,6,1:2:0:0:
92,379,195397,1,2,0:2:0:0:
29,284,195585,1,2,0:2:0:0:
142,246,195772,2,0,L|151:220,3,27.5000008392334,2|0|0|10,2:2|2:2|2:2|2:2,0:0:0:0:
83,127,196147,2,0,L|2:153,1,82.5000025177003,0|2,1:0|0:2,0:0:0:0:
96,28,196522,6,0,B|141:16|141:16|197:68,1,123.75000377655,2|0,1:2|0:0,0:0:0:0:
242,91,196897,2,0,L|267:81,1,27.5000008392334,2|0,0:2|0:0,0:0:0:0:
350,50,197085,1,2,1:2:0:0:
458,6,197272,6,0,L|430:15,3,27.5000008392334,0|0|0|10,0:0|0:0|0:0|0:0,0:0:0:0:
512,219,197835,70,4,B|477:282|477:282|476:277|476:277|411:245,1,140.625,4|0,0:1|0:2,1:2:0:0:
376,227,198210,5,2,1:2:0:0:
325,326,198397,1,2,0:2:0:0:
235,271,198585,1,2,0:2:0:0:
180,362,198772,2,0,L|146:374,3,31.25,2|0|0|10,2:2|2:2|2:2|2:2,0:0:0:0:
34,371,199147,2,0,B|25:323|25:323|60:280,1,93.75,0|2,1:0|0:2,0:0:0:0:
156,199,199522,86,0,B|88:215|88:215|43:149,1,140.625,2|0,1:2|0:0,0:0:0:0:
4,139,199897,2,0,L|13:109,1,31.25,2|0,0:2|0:0,0:0:0:0:
34,34,200085,1,2,1:2:0:0:
152,6,200272,2,0,L|143:36,3,31.25,0|0|0|8,0:0|0:0|0:0|0:0,0:0:0:0:
203,99,200647,21,0,0:0:0:0:
203,99,200835,2,2,P|274:87|311:146,1,150,0|6,0:0|1:2,0:1:0:0:
422,112,201397,69,2,0:2:0:0:
500,202,201585,1,2,0:2:0:0:
390,228,201772,2,0,L|403:267,3,27.5000008392334,2|0|0|10,2:2|2:2|2:2|2:2,0:0:0:0:
511,376,202147,2,0,L|433:351,1,82.5000025177003,0|2,1:0|0:2,0:0:0:0:
330,327,202522,6,0,B|296:293|296:293|222:315,1,123.75000377655,2|0,1:2|0:0,0:0:0:0:
186,355,202897,2,0,L|155:346,1,27.5000008392334,2|0,0:2|2:2,0:0:0:0:
75,384,203085,1,2,1:2:0:0:
0,299,203272,6,0,L|46:310,3,27.5000008392334,0|0|0|10,0:0|0:0|0:0|0:0,0:0:0:0:
224,63,203835,70,0,B|192:70|192:70|175:122|175:122|172:119|172:119|123:133,1,140.625,4|0,0:1|0:0,1:0:0:0:
89,106,204210,5,2,1:2:0:0:
12,190,204397,1,2,0:2:0:0:
99,270,204585,1,2,0:2:0:0:
202,238,204772,2,0,L|237:225,3,31.25,2|0|0|10,2:2|2:2|2:2|2:2,0:0:0:0:
316,286,205147,2,0,L|290:375,2,93.75,0|0|0,1:2|0:0|1:2,0:0:0:0:
408,243,205710,22,0,P|413:182|335:136,1,150,2|2,0:2|0:0,0:0:0:0:
455,79,206272,1,2,0:0:0:0:
455,79,206460,2,0,P|473:46|515:31,2,75,8|8|8,0:1|0:1|0:1,0:0:0:0:
364,21,207022,1,8,0:1:0:0:
