osu file format v14

[General]
AudioFilename: audio.mp3
AudioLeadIn: 0
PreviewTime: 1070
Countdown: 1
SampleSet: Soft
StackLeniency: 0.7
Mode: 0
LetterboxInBreaks: 0
WidescreenStoryboard: 0

[Editor]
Bookmarks: 52270
DistanceSpacing: 3.5
BeatDivisor: 4
GridSize: 4
TimelineZoom: 1

[Metadata]
Title:Despacito (Note block Cover)
TitleUnicode:Despacito (Note block Cover)
Artist:grande1899
ArtistUnicode:grande1899
Creator:TheDustOfTimes
Version:Emerald
Source:Minecraft
Tags:Minecraft Note block 8 bit video game despacito 13
BeatmapID:1667523
BeatmapSetID:793929

[Difficulty]
HPDrainRate:6
CircleSize:4.2
OverallDifficulty:9
ApproachRate:9.2
SliderMultiplier:1.8
SliderTickRate:1

[Events]
//Background and Video events
0,0,"maxresdefault.jpg",0,0
//Break Periods
//Storyboard Layer 0 (Background)
//Storyboard Layer 1 (Fail)
//Storyboard Layer 2 (Pass)
//Storyboard Layer 3 (Foreground)
//Storyboard Sound Samples

[TimingPoints]
2670,800,4,2,0,48,1,0
5670,-100,4,2,0,48,0,0
12870,-66.6666666666667,4,2,0,48,0,0
18470,-100,4,2,0,48,0,0
25670,-66.6666666666667,4,2,0,48,0,0
28270,-100,4,2,0,48,0,1
36670,-40,4,2,0,48,0,1
37670,-66.6666666666667,4,2,0,48,0,1
40270,-66.6666666666667,4,2,0,48,0,0
41070,-66.6666666666667,4,2,0,48,0,1
50870,-66.6666666666667,4,2,0,48,0,0
51870,-133.333333333333,4,2,0,48,0,0

[HitObjects]
269,196,1070,6,0,B|371:239|349:156|466:219,2,180
128,124,3070,1,0,0:0:0:0:
400,301,3470,5,0,0:0:0:0:
127,79,3670,1,0,0:0:0:0:
395,179,3870,1,0,0:0:0:0:
106,198,4070,1,0,0:0:0:0:
391,118,4270,5,0,0:0:0:0:
145,252,4470,1,0,0:0:0:0:
299,15,4670,1,0,0:0:0:0:
265,359,4870,1,0,0:0:0:0:
177,83,5070,1,0,0:0:0:0:
297,342,5470,5,0,0:0:0:0:
313,57,5670,1,0,0:0:0:0:
433,199,5870,1,0,0:0:0:0:
191,188,6070,1,0,0:0:0:0:
80,92,6670,5,0,0:0:0:0:
208,304,6870,1,0,0:0:0:0:
160,112,7070,1,0,0:0:0:0:
116,320,7270,1,0,0:0:0:0:
0,127,7470,5,0,0:0:0:0:
292,342,7670,1,0,0:0:0:0:
257,97,7870,1,0,0:0:0:0:
87,263,8070,1,0,0:0:0:0:
402,194,8270,1,0,0:0:0:0:
92,56,8670,5,0,0:0:0:0:
222,239,8870,1,0,0:0:0:0:
200,69,9070,1,0,0:0:0:0:
145,216,9270,1,0,0:0:0:0:
185,44,9870,5,0,0:0:0:0:
327,340,10070,1,0,0:0:0:0:
404,121,10270,1,0,0:0:0:0:
108,263,10470,1,0,0:0:0:0:
257,57,10670,5,0,0:0:0:0:
378,340,10870,1,0,0:0:0:0:
97,148,11070,1,0,0:0:0:0:
415,148,11270,1,0,0:0:0:0:
134,340,11470,1,0,0:0:0:0:
227,167,11870,5,0,0:0:0:0:
410,297,12070,1,0,0:0:0:0:
240,275,12270,1,0,0:0:0:0:
387,220,12470,1,0,0:0:0:0:
216,82,12870,2,0,P|241:111|274:136,1,67.5000025749208
343,106,13270,2,0,P|370:132|393:166,1,67.5000025749208
394,280,13870,2,0,P|298:361|195:289,2,270.000010299683
388,66,15870,1,0,0:0:0:0:
124,143,16270,5,0,0:0:0:0:
388,224,16470,1,0,0:0:0:0:
124,66,16670,1,0,0:0:0:0:
388,143,16870,1,0,0:0:0:0:
124,224,17070,5,0,0:0:0:0:
297,359,17270,1,0,0:0:0:0:
331,201,17470,1,0,0:0:0:0:
83,365,17670,1,0,0:0:0:0:
45,105,17870,1,0,0:0:0:0:
427,105,18270,5,0,0:0:0:0:
479,254,18470,1,0,0:0:0:0:
345,189,18670,1,0,0:0:0:0:
293,338,18870,1,0,0:0:0:0:
77,55,19470,5,0,0:0:0:0:
407,165,19670,1,0,0:0:0:0:
64,135,19870,1,0,0:0:0:0:
420,85,20070,1,0,0:0:0:0:
172,8,20270,5,0,0:0:0:0:
274,366,20470,1,0,0:0:0:0:
304,23,20670,1,0,0:0:0:0:
142,351,20870,1,0,0:0:0:0:
0,106,21070,1,0,0:0:0:0:
217,335,21470,5,0,0:0:0:0:
332,249,21670,2,0,P|352:214|356:174,1,45
333,69,22070,1,0,0:0:0:0:
103,42,22670,5,0,0:0:0:0:
382,117,22870,1,0,0:0:0:0:
99,137,23070,5,0,0:0:0:0:
363,85,23270,1,0,0:0:0:0:
104,214,23470,5,0,0:0:0:0:
368,165,23670,1,0,0:0:0:0:
25,139,23870,5,0,0:0:0:0:
345,253,24070,1,0,0:0:0:0:
106,321,24270,1,0,0:0:0:0:
407,123,24670,1,0,0:0:0:0:
265,43,24870,2,0,B|243:66|243:66|200:82,1,45
32,91,25270,1,0,0:0:0:0:
287,33,25670,6,0,B|257:49|257:49|237:96,1,67.5000025749208
310,179,26070,2,0,B|296:209|296:209|266:225,1,67.5000025749208
143,142,26670,1,0,0:0:0:0:
143,142,27470,5,0,0:0:0:0:
112,324,28270,5,0,0:0:0:0:
299,44,28470,1,0,0:0:0:0:
426,321,28670,5,0,0:0:0:0:
98,103,28870,1,0,0:0:0:0:
178,355,29070,5,0,0:0:0:0:
236,26,29270,1,0,0:0:0:0:
236,26,29370,1,0,0:0:0:0:
236,26,29470,1,0,0:0:0:0:
469,253,29670,2,0,L|408:224,1,45
91,275,30070,5,0,0:0:0:0:
420,108,30270,1,0,0:0:0:0:
339,356,30470,1,0,0:3:0:0:
172,27,30670,1,0,0:0:0:0:
352,222,30970,5,0,0:0:0:0:
366,211,31070,2,0,P|376:184|360:128,1,45
283,85,31470,1,0,0:0:0:0:
220,319,31670,1,0,0:0:0:0:
63,23,32070,6,0,B|72:55|72:55|97:76,1,45
271,69,32470,1,0,0:0:0:0:
325,332,32670,1,0,0:0:0:0:
50,297,33070,5,0,0:0:0:0:
284,98,33270,1,0,0:0:0:0:
325,332,33470,1,0,0:0:0:0:
167,40,33670,2,0,L|120:112,1,45
107,240,34070,5,0,0:0:0:0:
294,138,34270,1,0,0:0:0:0:
403,299,34470,2,0,P|424:274|423:236,1,45
358,24,34870,1,0,0:0:0:0:
34,353,35270,5,0,0:0:0:0:
168,34,35470,1,0,0:0:0:0:
29,186,35670,1,0,0:0:0:0:
225,135,35870,1,0,0:0:0:0:
393,59,36270,5,0,0:0:0:0:
330,258,36470,1,0,0:0:0:0:
502,182,36670,2,0,B|450:194|441:145|347:168,1,112.5
162,45,37070,5,0,0:0:0:0:
34,162,37270,1,0,0:0:0:0:
147,234,37470,1,0,0:0:0:0:
95,314,37670,2,0,P|131:323|190:306,1,67.5000025749208
259,247,38070,6,0,B|216:196|216:196|251:123,1,135.000005149842
453,88,38670,5,0,0:0:0:0:
423,300,38870,1,0,0:0:0:0:
333,120,39070,1,0,0:0:0:0:
289,309,39270,1,0,0:0:0:0:
477,71,39470,5,0,0:0:0:0:
406,318,39670,1,0,0:0:0:0:
343,88,39870,1,0,0:0:0:0:
251,329,40070,1,0,0:0:0:0:
7,167,40270,1,0,0:0:0:0:
157,36,40670,5,0,0:0:0:0:
171,37,41070,5,0,0:0:0:0:
349,205,41270,1,0,0:0:0:0:
173,324,41470,1,0,0:0:0:0:
412,55,41670,2,0,B|389:83|389:83|348:98,1,67.5000025749208
35,158,42070,1,0,0:0:0:0:
35,158,42170,1,0,0:0:0:0:
35,158,42270,1,0,0:0:0:0:
133,333,42470,2,0,P|179:308|235:305,1,67.5000025749208
400,312,42870,5,0,0:0:0:0:
261,4,43070,1,0,0:0:0:0:
279,340,43270,1,0,0:0:0:0:
224,212,43470,2,0,P|205:258|172:297,1,101.250003862381
164,304,43870,1,0,0:0:0:0:
45,166,44070,2,0,L|93:102,1,67.5000025749208
246,47,44470,6,0,P|318:27|390:27,1,135.000005149842
460,312,45070,1,0,0:0:0:0:
323,100,45270,1,0,0:0:0:0:
347,384,45470,1,0,0:0:0:0:
74,46,45870,5,0,0:0:0:0:
295,360,46070,1,0,0:0:0:0:
473,26,46270,1,0,0:0:0:0:
35,274,46470,5,0,0:0:0:0:
320,19,46670,1,0,0:0:0:0:
418,383,46870,1,0,0:0:0:0:
136,83,47070,5,0,0:0:0:0:
475,156,47270,1,0,0:0:0:0:
228,354,47470,1,0,0:0:0:0:
320,19,47670,1,0,0:0:0:0:
380,56,48070,6,0,L|416:124,1,67.5000025749208
356,176,48470,2,0,L|320:244,1,67.5000025749208
8,352,49070,5,0,0:0:0:0:
252,48,49270,1,0,0:0:0:0:
392,364,49470,5,0,0:0:0:0:
76,152,49670,2,0,P|78:120|100:80,1,67.5000025749208
316,4,50070,1,0,0:0:0:0:
400,232,50270,1,0,0:0:0:0:
472,96,50470,2,0,L|508:164,1,67.5000025749208
424,332,50870,5,0,0:0:0:0:
156,316,51270,6,0,L|228:280,1,67.5000025749208
300,192,51670,1,0,0:0:0:0:
183,149,51870,2,0,L|123:180,1,67.5000025749208
