osu file format v14

[General]
AudioFilename: audio.ogg
AudioLeadIn: 0
PreviewTime: 9924
Countdown: 0
SampleSet: Normal
StackLeniency: 0.7
Mode: 1
LetterboxInBreaks: 0
WidescreenStoryboard: 1

[Editor]
Bookmarks: 21540,64638,86186
DistanceSpacing: 0.2
BeatDivisor: 4
GridSize: 32
TimelineZoom: 1.1

[Metadata]
Title:Help
TitleUnicode:Help
Artist:goshkins
ArtistUnicode:goshkins
Creator:Ryxliee
Version:Muzukashii
Source:
Tags:hip-hop hip hop hiphop russian hyperpop hyper pop glitch глитч хайпер поп хайперпоп хип-хоп хип хоп хипхоп русский tired EP
BeatmapID:3894907
BeatmapSetID:1890568

[Difficulty]
HPDrainRate:7
CircleSize:2
OverallDifficulty:5
ApproachRate:9
SliderMultiplier:1.4
SliderTickRate:1

[Events]
//Background and Video events
0,0,"bg.jpg",0,50
//Break Periods
2,75612,84240
//Storyboard Layer 0 (Background)
//Storyboard Layer 1 (Fail)
//Storyboard Layer 2 (Pass)
//Storyboard Layer 3 (Foreground)
//Storyboard Layer 4 (Overlay)
//Storyboard Sound Samples

[TimingPoints]
10766,336.700336700337,4,1,0,90,1,0
10766,-100,4,1,0,90,0,1
32314,-100,4,1,0,60,0,0
43089,-100,4,1,0,70,0,0
53863,-100,4,1,0,90,0,1
75412,-100,4,1,0,40,0,0
86186,-100,4,1,0,60,0,0

[HitObjects]
256,192,5378,8,0,10092,0:0:0:0:
256,192,10766,5,4,0:0:0:0:
256,192,11271,1,0,0:0:0:0:
256,192,11439,1,8,0:0:0:0:
256,192,11523,1,8,0:0:0:0:
256,192,11607,1,8,0:0:0:0:
256,192,11776,1,0,0:0:0:0:
256,192,11944,1,8,0:0:0:0:
256,192,12112,1,0,0:0:0:0:
256,192,12281,1,0,0:0:0:0:
256,192,12617,1,8,0:0:0:0:
256,192,12786,1,8,0:0:0:0:
256,192,12954,1,0,0:0:0:0:
256,192,13122,1,0,0:0:0:0:
256,192,13459,1,8,0:0:0:0:
256,192,13627,1,8,0:0:0:0:
256,192,13712,1,8,0:0:0:0:
256,192,13796,1,8,0:0:0:0:
256,192,13964,1,0,0:0:0:0:
256,192,14133,1,8,0:0:0:0:
256,192,14469,1,0,0:0:0:0:
256,192,14638,1,0,0:0:0:0:
256,192,14806,1,8,0:0:0:0:
256,192,15143,1,0,0:0:0:0:
256,192,15227,1,0,0:0:0:0:
256,192,15311,1,0,0:0:0:0:
256,192,15479,1,8,0:0:0:0:
256,192,15648,1,0,0:0:0:0:
256,192,15816,1,0,0:0:0:0:
256,192,16153,1,8,0:0:0:0:
256,192,16658,1,0,0:0:0:0:
256,192,16826,1,8,0:0:0:0:
256,192,16994,1,0,0:0:0:0:
256,192,17079,1,0,0:0:0:0:
256,192,17163,1,0,0:0:0:0:
256,192,17331,1,0,0:0:0:0:
256,192,17500,1,8,0:0:0:0:
256,192,17668,1,0,0:0:0:0:
256,192,17836,1,0,0:0:0:0:
256,192,18005,1,0,0:0:0:0:
256,192,18173,1,8,0:0:0:0:
256,192,18341,1,8,0:0:0:0:
256,192,18510,1,0,0:0:0:0:
256,192,18846,1,0,0:0:0:0:
256,192,19015,1,8,0:0:0:0:
256,192,19099,1,8,0:0:0:0:
256,192,19183,1,8,0:0:0:0:
256,192,19351,1,0,0:0:0:0:
256,192,19520,1,8,0:0:0:0:
256,192,19856,1,8,0:0:0:0:
256,192,20025,1,8,0:0:0:0:
256,192,20193,1,0,0:0:0:0:
256,192,20530,1,0,0:0:0:0:
256,192,20698,1,0,0:0:0:0:
256,192,20867,1,8,0:0:0:0:
256,192,21035,1,0,0:0:0:0:
256,192,21203,1,8,0:0:0:0:
256,192,21287,1,8,0:0:0:0:
256,192,21372,1,8,0:0:0:0:
256,192,21540,1,4,0:0:0:0:
256,192,22045,1,0,0:0:0:0:
256,192,22213,1,8,0:0:0:0:
256,192,22297,1,8,0:0:0:0:
256,192,22381,1,8,0:0:0:0:
256,192,22550,1,0,0:0:0:0:
256,192,22718,1,0,0:0:0:0:
256,192,22886,1,8,0:0:0:0:
256,192,23055,1,8,0:0:0:0:
256,192,23223,1,0,0:0:0:0:
256,192,23308,1,0,0:0:0:0:
256,192,23392,1,0,0:0:0:0:
256,192,23560,1,8,0:0:0:0:
256,192,23728,1,0,0:0:0:0:
256,192,23897,1,0,0:0:0:0:
256,192,24233,1,8,0:0:0:0:
256,192,24401,1,8,0:0:0:0:
256,192,24486,1,8,0:0:0:0:
256,192,24570,1,8,0:0:0:0:
256,192,24738,1,0,0:0:0:0:
256,192,24907,1,8,0:0:0:0:
256,192,25243,1,0,0:0:0:0:
256,192,25412,1,8,0:0:0:0:
256,192,25580,1,0,0:0:0:0:
256,192,25917,1,8,0:0:0:0:
256,192,26085,1,0,0:0:0:0:
256,192,26253,1,8,0:0:0:0:
256,192,26422,1,0,0:0:0:0:
256,192,26590,1,0,0:0:0:0:
256,192,26927,1,8,0:0:0:0:
256,192,27432,1,0,0:0:0:0:
256,192,27600,1,8,0:0:0:0:
256,192,27769,1,0,0:0:0:0:
256,192,27853,1,0,0:0:0:0:
256,192,27937,1,0,0:0:0:0:
256,192,28105,1,0,0:0:0:0:
256,192,28274,1,8,0:0:0:0:
256,192,28610,1,0,0:0:0:0:
256,192,28779,1,0,0:0:0:0:
256,192,28863,1,0,0:0:0:0:
256,192,28947,1,0,0:0:0:0:
256,192,29115,1,8,0:0:0:0:
256,192,29284,1,0,0:0:0:0:
256,192,29620,1,0,0:0:0:0:
256,192,29789,1,8,0:0:0:0:
256,192,29873,1,8,0:0:0:0:
256,192,29957,1,8,0:0:0:0:
256,192,30125,1,0,0:0:0:0:
256,192,30294,1,8,0:0:0:0:
256,192,30630,1,0,0:0:0:0:
256,192,30799,1,0,0:0:0:0:
256,192,30968,1,8,0:0:0:0:
256,192,31136,1,8,0:0:0:0:
256,192,31220,1,8,0:0:0:0:
256,192,31304,1,8,0:0:0:0:
256,192,31472,1,0,0:0:0:0:
256,192,31641,1,8,0:0:0:0:
256,192,31809,1,0,0:0:0:0:
256,192,31978,1,8,0:0:0:0:
256,192,32314,1,0,0:0:0:0:
256,192,32651,1,8,0:0:0:0:
256,192,32988,1,8,0:0:0:0:
256,192,33324,1,0,0:0:0:0:
256,192,33661,1,8,0:0:0:0:
256,192,34335,1,8,0:0:0:0:
256,192,34671,1,8,0:0:0:0:
256,192,35008,1,8,0:0:0:0:
256,192,35345,1,0,0:0:0:0:
256,192,35681,1,0,0:0:0:0:
256,192,36018,1,0,0:0:0:0:
256,192,36355,1,8,0:0:0:0:
256,192,37028,1,8,0:0:0:0:
256,192,37365,1,8,0:0:0:0:
256,192,37702,1,0,0:0:0:0:
256,192,38038,1,8,0:0:0:0:
256,192,38375,1,8,0:0:0:0:
256,192,38712,1,0,0:0:0:0:
256,192,39048,1,8,0:0:0:0:
256,192,39722,1,0,0:0:0:0:
256,192,40058,1,0,0:0:0:0:
256,192,40395,1,8,0:0:0:0:
256,192,40732,1,8,0:0:0:0:
256,192,41069,1,8,0:0:0:0:
256,192,41405,1,0,0:0:0:0:
256,192,41742,1,8,0:0:0:0:
256,192,42415,1,8,0:0:0:0:
256,192,42752,1,8,0:0:0:0:
256,192,43089,1,4,0:0:0:0:
256,192,43425,1,8,0:0:0:0:
256,192,43594,1,0,0:0:0:0:
256,192,43762,1,8,0:0:0:0:
256,192,44099,1,8,0:0:0:0:
256,192,44267,1,8,0:0:0:0:
256,192,44436,1,0,0:0:0:0:
256,192,44772,1,0,0:0:0:0:
256,192,45109,1,8,0:0:0:0:
256,192,45277,1,0,0:0:0:0:
256,192,45446,1,0,0:0:0:0:
256,192,45782,1,8,0:0:0:0:
256,192,46119,1,0,0:0:0:0:
256,192,46287,1,0,0:0:0:0:
256,192,46456,1,8,0:0:0:0:
256,192,46792,1,8,0:0:0:0:
256,192,46961,1,8,0:0:0:0:
256,192,47129,1,0,0:0:0:0:
256,192,47466,1,0,0:0:0:0:
256,192,47803,1,8,0:0:0:0:
256,192,47971,1,0,0:0:0:0:
256,192,48139,1,8,0:0:0:0:
256,192,48476,1,0,0:0:0:0:
256,192,48813,1,0,0:0:0:0:
256,192,48981,1,0,0:0:0:0:
256,192,49149,1,8,0:0:0:0:
256,192,49486,1,0,0:0:0:0:
256,192,49823,1,0,0:0:0:0:
256,192,50496,1,8,0:0:0:0:
256,192,50664,1,0,0:0:0:0:
256,192,50833,1,8,0:0:0:0:
256,192,51170,1,0,0:0:0:0:
256,192,51338,1,0,0:0:0:0:
256,192,51675,1,0,0:0:0:0:
256,192,51843,1,8,0:0:0:0:
256,192,52348,1,8,0:0:0:0:
256,192,52685,1,0,0:0:0:0:
256,192,52853,1,0,0:0:0:0:
256,192,53863,1,4,0:0:0:0:
256,192,54368,1,0,0:0:0:0:
256,192,54536,1,8,0:0:0:0:
256,192,54620,1,8,0:0:0:0:
256,192,54704,1,8,0:0:0:0:
256,192,54873,1,0,0:0:0:0:
256,192,55041,1,8,0:0:0:0:
256,192,55209,1,0,0:0:0:0:
256,192,55378,1,0,0:0:0:0:
256,192,55715,1,8,0:0:0:0:
256,192,55883,1,8,0:0:0:0:
256,192,56051,1,0,0:0:0:0:
256,192,56220,1,0,0:0:0:0:
256,192,56556,1,8,0:0:0:0:
256,192,56724,1,8,0:0:0:0:
256,192,56809,1,8,0:0:0:0:
256,192,56893,1,8,0:0:0:0:
256,192,57061,1,0,0:0:0:0:
256,192,57230,1,8,0:0:0:0:
256,192,57566,1,0,0:0:0:0:
256,192,57735,1,8,0:0:0:0:
256,192,57903,1,0,0:0:0:0:
256,192,58240,1,0,0:0:0:0:
256,192,58324,1,0,0:0:0:0:
256,192,58408,1,0,0:0:0:0:
256,192,58576,1,8,0:0:0:0:
256,192,58745,1,0,0:0:0:0:
256,192,58913,1,0,0:0:0:0:
256,192,59250,1,8,0:0:0:0:
256,192,59755,1,0,0:0:0:0:
256,192,59923,1,8,0:0:0:0:
256,192,60092,1,0,0:0:0:0:
256,192,60176,1,0,0:0:0:0:
256,192,60260,1,0,0:0:0:0:
256,192,60428,1,0,0:0:0:0:
256,192,60597,1,8,0:0:0:0:
256,192,60766,1,0,0:0:0:0:
256,192,60933,1,0,0:0:0:0:
256,192,61102,1,0,0:0:0:0:
256,192,61270,1,8,0:0:0:0:
256,192,61438,1,8,0:0:0:0:
256,192,61607,1,0,0:0:0:0:
256,192,61943,1,0,0:0:0:0:
256,192,62112,1,8,0:0:0:0:
256,192,62196,1,8,0:0:0:0:
256,192,62281,1,8,0:0:0:0:
256,192,62448,1,0,0:0:0:0:
256,192,62617,1,8,0:0:0:0:
256,192,62953,1,8,0:0:0:0:
256,192,63122,1,8,0:0:0:0:
256,192,63290,1,0,0:0:0:0:
256,192,63627,1,0,0:0:0:0:
256,192,63795,1,0,0:0:0:0:
256,192,63964,1,8,0:0:0:0:
256,192,64132,1,0,0:0:0:0:
256,192,64301,1,8,0:0:0:0:
256,192,64385,1,8,0:0:0:0:
256,192,64469,1,8,0:0:0:0:
256,192,64638,1,4,0:0:0:0:
256,192,65143,1,0,0:0:0:0:
256,192,65311,1,8,0:0:0:0:
256,192,65395,1,8,0:0:0:0:
256,192,65479,1,8,0:0:0:0:
256,192,65648,1,0,0:0:0:0:
256,192,65816,1,0,0:0:0:0:
256,192,65984,1,8,0:0:0:0:
256,192,66153,1,8,0:0:0:0:
256,192,66321,1,0,0:0:0:0:
256,192,66405,1,0,0:0:0:0:
256,192,66489,1,0,0:0:0:0:
256,192,66658,1,8,0:0:0:0:
256,192,66826,1,0,0:0:0:0:
256,192,66994,1,0,0:0:0:0:
256,192,67331,1,8,0:0:0:0:
256,192,67499,1,0,0:0:0:0:
256,192,67584,1,0,0:0:0:0:
256,192,67668,1,0,0:0:0:0:
256,192,67836,1,0,0:0:0:0:
256,192,68005,1,8,0:0:0:0:
256,192,68341,1,0,0:0:0:0:
256,192,68510,1,0,0:0:0:0:
256,192,68678,1,8,0:0:0:0:
256,192,69015,1,8,0:0:0:0:
256,192,69183,1,0,0:0:0:0:
256,192,69351,1,8,0:0:0:0:
256,192,69520,1,0,0:0:0:0:
256,192,69688,1,0,0:0:0:0:
256,192,70025,1,8,0:0:0:0:
256,192,70530,1,0,0:0:0:0:
256,192,70698,1,8,0:0:0:0:
256,192,70866,1,0,0:0:0:0:
256,192,70951,1,0,0:0:0:0:
256,192,71035,1,0,0:0:0:0:
256,192,71203,1,0,0:0:0:0:
256,192,71372,1,8,0:0:0:0:
256,192,71708,1,0,0:0:0:0:
256,192,71877,1,8,0:0:0:0:
256,192,71961,1,8,0:0:0:0:
256,192,72045,1,8,0:0:0:0:
256,192,72213,1,8,0:0:0:0:
256,192,72382,1,0,0:0:0:0:
256,192,72718,1,0,0:0:0:0:
256,192,72887,1,8,0:0:0:0:
256,192,72971,1,8,0:0:0:0:
256,192,73055,1,8,0:0:0:0:
256,192,73223,1,0,0:0:0:0:
256,192,73392,1,8,0:0:0:0:
256,192,73728,1,0,0:0:0:0:
256,192,73897,1,0,0:0:0:0:
256,192,74065,1,8,0:0:0:0:
256,192,74234,1,8,0:0:0:0:
256,192,74402,1,0,0:0:0:0:
256,192,74739,1,8,0:0:0:0:
256,192,74907,1,0,0:0:0:0:
256,192,75075,1,8,0:0:0:0:
256,192,75412,1,0,0:0:0:0:
256,192,84840,12,0,86018,0:0:0:0:
256,192,86186,5,0,0:0:0:0:
256,192,86523,1,0,0:0:0:0:
256,192,86860,1,8,0:0:0:0:
256,192,87196,1,8,0:0:0:0:
256,192,87533,1,0,0:0:0:0:
256,192,88207,1,8,0:0:0:0:
256,192,88880,1,0,0:0:0:0:
256,192,89553,1,8,0:0:0:0:
256,192,89890,1,8,0:0:0:0:
256,192,90227,1,0,0:0:0:0:
256,192,90900,1,8,0:0:0:0:
256,192,91574,1,0,0:0:0:0:
256,192,91910,1,0,0:0:0:0:
256,192,92247,1,8,0:0:0:0:
256,192,92584,1,8,0:0:0:0:
256,192,92920,1,0,0:0:0:0:
256,192,93594,1,8,0:0:0:0:
256,192,94267,1,0,0:0:0:0:
256,192,94941,1,8,0:0:0:0:
256,192,95277,1,8,0:0:0:0:
256,192,95614,1,0,0:0:0:0:
256,192,96287,1,8,0:0:0:0:
256,192,96961,1,0,0:0:0:0:
