osu file format v14

[General]
AudioFilename: audio.ogg
AudioLeadIn: 0
PreviewTime: 9924
Countdown: 0
SampleSet: Normal
StackLeniency: 0.7
Mode: 1
LetterboxInBreaks: 0
WidescreenStoryboard: 0

[Editor]
Bookmarks: 21540,64638,86186
DistanceSpacing: 0.2
BeatDivisor: 4
GridSize: 32
TimelineZoom: 1

[Metadata]
Title:Help
TitleUnicode:Help
Artist:goshkins
ArtistUnicode:goshkins
Creator:Ryxliee
Version:Kantan
Source:
Tags:hip-hop hip hop hiphop russian hyperpop hyper pop glitch глитч хайпер поп хайперпоп хип-хоп хип хоп хипхоп русский tired EP
BeatmapID:3894865
BeatmapSetID:1890568

[Difficulty]
HPDrainRate:9
CircleSize:2
OverallDifficulty:3
ApproachRate:9
SliderMultiplier:1.4
SliderTickRate:1

[Events]
//Background and Video events
0,0,"bg.jpg",0,50
//Break Periods
2,75612,84240
//Storyboard Layer 0 (Background)
//Storyboard Layer 1 (Fail)
//Storyboard Layer 2 (Pass)
//Storyboard Layer 3 (Foreground)
//Storyboard Layer 4 (Overlay)
//Storyboard Sound Samples

[TimingPoints]
10766,336.700336700337,4,1,0,90,1,0
10766,-100,4,1,0,90,0,1
32314,-100,4,1,0,60,0,0
43089,-100,4,1,0,70,0,0
53863,-100,4,1,0,90,0,1
75412,-100,4,1,0,40,0,0
86186,-100,4,1,0,60,0,0

[HitObjects]
256,192,5378,8,0,10092,0:0:0:0:
256,192,10766,5,4,0:0:0:0:
256,192,11271,1,8,0:0:0:0:
256,192,11776,1,8,0:0:0:0:
256,192,12112,1,0,0:0:0:0:
256,192,12786,1,8,0:0:0:0:
256,192,13122,1,8,0:0:0:0:
256,192,13459,1,0,0:0:0:0:
256,192,13964,1,0,0:0:0:0:
256,192,14469,1,8,0:0:0:0:
256,192,15479,1,8,0:0:0:0:
256,192,15816,1,0,0:0:0:0:
256,192,16153,1,8,0:0:0:0:
256,192,16658,1,8,0:0:0:0:
256,192,17163,1,0,0:0:0:0:
256,192,17500,1,8,0:0:0:0:
256,192,18173,1,0,0:0:0:0:
256,192,18510,1,8,0:0:0:0:
256,192,18846,1,0,0:0:0:0:
256,192,19351,1,8,0:0:0:0:
256,192,19856,1,8,0:0:0:0:
256,192,20530,1,0,0:0:0:0:
256,192,21540,1,4,0:0:0:0:
256,192,22045,1,8,0:0:0:0:
256,192,22550,1,8,0:0:0:0:
256,192,22886,1,0,0:0:0:0:
256,192,23560,1,8,0:0:0:0:
256,192,23896,1,0,0:0:0:0:
256,192,24233,1,8,0:0:0:0:
256,192,24738,1,8,0:0:0:0:
256,192,25243,1,0,0:0:0:0:
256,192,26253,1,0,0:0:0:0:
256,192,26590,1,8,0:0:0:0:
256,192,26927,1,0,0:0:0:0:
256,192,27432,1,0,0:0:0:0:
256,192,27937,1,8,0:0:0:0:
256,192,28274,1,0,0:0:0:0:
256,192,28947,1,8,0:0:0:0:
256,192,29284,1,8,0:0:0:0:
256,192,29620,1,0,0:0:0:0:
256,192,30125,1,8,0:0:0:0:
256,192,30630,1,0,0:0:0:0:
256,192,30968,1,8,0:0:0:0:
256,192,31304,1,8,0:0:0:0:
256,192,32314,1,0,0:0:0:0:
256,192,33661,1,0,0:0:0:0:
256,192,34335,1,0,0:0:0:0:
256,192,35008,1,0,0:0:0:0:
256,192,36355,1,0,0:0:0:0:
256,192,37702,1,0,0:0:0:0:
256,192,39048,1,0,0:0:0:0:
256,192,39722,1,0,0:0:0:0:
256,192,40395,1,0,0:0:0:0:
256,192,41742,1,0,0:0:0:0:
256,192,43089,1,12,0:0:0:0:
256,192,44099,1,0,0:0:0:0:
256,192,44436,1,0,0:0:0:0:
256,192,45109,1,8,0:0:0:0:
256,192,45782,1,0,0:0:0:0:
256,192,46792,1,8,0:0:0:0:
256,192,47129,1,0,0:0:0:0:
256,192,47803,1,8,0:0:0:0:
256,192,48476,1,0,0:0:0:0:
256,192,49149,1,8,0:0:0:0:
256,192,49486,1,0,0:0:0:0:
256,192,49823,1,0,0:0:0:0:
256,192,50496,1,8,0:0:0:0:
256,192,51170,1,0,0:0:0:0:
256,192,52853,1,0,0:0:0:0:
256,192,53863,1,4,0:0:0:0:
256,192,54368,1,8,0:0:0:0:
256,192,54873,1,8,0:0:0:0:
256,192,55209,1,0,0:0:0:0:
256,192,55883,1,8,0:0:0:0:
256,192,56219,1,0,0:0:0:0:
256,192,56556,1,8,0:0:0:0:
256,192,57061,1,8,0:0:0:0:
256,192,57566,1,0,0:0:0:0:
256,192,58576,1,0,0:0:0:0:
256,192,58913,1,8,0:0:0:0:
256,192,59250,1,0,0:0:0:0:
256,192,59755,1,0,0:0:0:0:
256,192,60260,1,8,0:0:0:0:
256,192,60597,1,0,0:0:0:0:
256,192,61270,1,8,0:0:0:0:
256,192,61607,1,8,0:0:0:0:
256,192,61943,1,0,0:0:0:0:
256,192,62448,1,8,0:0:0:0:
256,192,62953,1,8,0:0:0:0:
256,192,63627,1,0,0:0:0:0:
256,192,64638,1,4,0:0:0:0:
256,192,65143,1,8,0:0:0:0:
256,192,65648,1,8,0:0:0:0:
256,192,65984,1,0,0:0:0:0:
256,192,66658,1,8,0:0:0:0:
256,192,66994,1,8,0:0:0:0:
256,192,67331,1,0,0:0:0:0:
256,192,67836,1,0,0:0:0:0:
256,192,68341,1,8,0:0:0:0:
256,192,69351,1,8,0:0:0:0:
256,192,69688,1,0,0:0:0:0:
256,192,70025,1,8,0:0:0:0:
256,192,70530,1,8,0:0:0:0:
256,192,71035,1,0,0:0:0:0:
256,192,71372,1,8,0:0:0:0:
256,192,72045,1,0,0:0:0:0:
256,192,72382,1,8,0:0:0:0:
256,192,72718,1,0,0:0:0:0:
256,192,73223,1,8,0:0:0:0:
256,192,73728,1,0,0:0:0:0:
256,192,74065,1,8,0:0:0:0:
256,192,75412,1,0,0:0:0:0:
256,192,84840,12,0,86018,0:0:0:0:
256,192,86186,5,0,0:0:0:0:
256,192,87533,1,0,0:0:0:0:
256,192,88880,1,0,0:0:0:0:
256,192,89553,1,8,0:0:0:0:
256,192,90227,1,0,0:0:0:0:
256,192,90900,1,8,0:0:0:0:
256,192,91574,1,0,0:0:0:0:
256,192,92920,1,0,0:0:0:0:
256,192,94267,1,0,0:0:0:0:
256,192,94941,1,8,0:0:0:0:
256,192,95614,1,0,0:0:0:0:
256,192,96287,1,8,0:0:0:0:
256,192,96961,1,0,0:0:0:0:
