osu file format v14

[General]
AudioFilename: audio.mp3
AudioLeadIn: 0
PreviewTime: 56737
Countdown: 0
SampleSet: Soft
StackLeniency: 0.7
Mode: 0
LetterboxInBreaks: 0
WidescreenStoryboard: 0

[Editor]
Bookmarks: 28363,37821,56737,94570,94865,104028,113486,132402,146589,151319,160777,171417,189151,236442
DistanceSpacing: 1
BeatDivisor: 4
GridSize: 32
TimelineZoom: 1.9

[Metadata]
Title:when the cicadas cry
TitleUnicode:when the cicadas cry
Artist:goreshit
ArtistUnicode:goreshit
Creator:riot1133
Version:obsessed
Source:
Tags:with all my heart higurashi no naku koro ni heart. electronic instrumental breakcore
BeatmapID:3778551
BeatmapSetID:1839749

[Difficulty]
HPDrainRate:5
CircleSize:5
OverallDifficulty:9.4
ApproachRate:9.8
SliderMultiplier:1.4
SliderTickRate:1

[Events]
//Background and Video events
0,0,"artem-chebokha-11regular-magic-1385.jpg",0,0
//Break Periods
//Storyboard Layer 0 (Background)
//Storyboard Layer 1 (Fail)
//Storyboard Layer 2 (Pass)
//Storyboard Layer 3 (Foreground)
//Storyboard Layer 4 (Overlay)
//Storyboard Sound Samples

[TimingPoints]
100,295.566502463054,4,2,0,100,1,0
100,-133.333333333333,4,2,0,60,0,0
28474,-100,4,2,0,70,0,0
37932,-200,4,2,0,40,0,0
38228,-200,4,2,0,5,0,0
38819,-200,4,2,0,40,0,0
39114,-250,4,2,0,40,0,0
39410,-250,4,2,0,5,0,0
40001,-250,4,2,0,40,0,0
40297,-166.666666666667,4,2,0,40,0,0
40592,-166.666666666667,4,2,0,5,0,0
41479,-166.666666666667,4,2,0,40,0,0
42661,-200,4,2,0,40,0,0
42957,-200,4,2,0,5,0,0
43548,-200,4,2,0,40,0,0
43843,-250,4,2,0,40,0,0
44139,-250,4,2,0,5,0,0
44730,-250,4,2,0,40,0,0
45026,-200,4,2,0,40,0,0
45321,-200,4,2,0,5,0,0
45912,-200,4,2,0,40,0,0
46208,-166.666666666667,4,2,0,40,0,0
46799,-142.857142857143,4,2,0,40,0,0
47390,-166.666666666667,4,2,0,45,0,0
54484,-125,4,2,0,50,0,0
56848,-100,4,2,0,70,0,0
94090,-133.333333333333,4,2,0,70,0,0
94681,-100,4,2,0,70,0,0
113597,-83.3333333333333,4,2,0,70,0,0
132513,-71.4285714285714,4,2,0,80,0,0
146700,-62.5,4,2,0,90,0,0
151430,-100,4,2,0,60,0,0
160888,-83.3333333333333,4,2,0,60,0,0
171528,-100,4,2,0,60,0,0
172119,-125,4,2,0,50,0,0
189262,-250,4,2,0,40,0,0
189558,-250,4,2,0,5,0,0
192809,-250,4,2,0,40,0,0
194287,-250,4,2,0,5,0,0
197538,-250,4,2,0,40,0,0
199016,-250,4,2,0,5,0,0
202267,-250,4,2,0,40,0,0
203745,-250,4,2,0,5,0,0
206996,-250,4,2,0,40,0,0
208474,-250,4,2,0,5,0,0
211725,-250,4,2,0,40,0,0
213203,-250,4,2,0,5,0,0
216454,-250,4,2,0,40,0,0
217932,-250,4,2,0,5,0,0
221183,-250,4,2,0,40,0,0
222661,-250,4,2,0,5,0,0
225912,-250,4,2,0,40,0,0
227390,-250,4,2,0,5,0,0
230641,-250,4,2,0,40,0,0
232119,-250,4,2,0,5,0,0
235370,-250,4,2,0,40,0,0
236848,-250,4,2,0,5,0,0
240099,-250,4,2,0,40,0,0

[Colours]
Combo1 : 100,141,99
Combo2 : 149,96,159
Combo3 : 182,179,133
Combo4 : 106,117,145

[HitObjects]
48,232,100,6,0,P|67:265|130:250,1,105.000004005432,2|0,0:0|0:0,0:0:0:0:
174,331,543,2,0,P|193:298|256:313,1,105.000004005432,2|0,0:0|0:0,0:0:0:0:
231,384,986,1,2,0:0:0:0:
397,129,1282,6,0,P|375:171|353:241,1,105.000004005432,2|0,0:0|0:0,0:0:0:0:
292,146,1725,2,0,P|241:146|217:190,1,105.000004005432,2|0,0:0|0:0,0:0:0:0:
275,243,2169,1,2,0:0:0:0:
275,243,2316,1,2,0:0:0:0:
71,71,2464,6,0,P|83:100|89:129,1,52.5000020027161,2|0,0:0|0:0,0:0:0:0:
88,205,2760,1,2,0:0:0:0:
84,191,2908,2,0,P|134:132|171:103,1,105.000004005432,2|0,0:0|0:0,0:0:0:0:
143,37,3351,1,2,0:0:0:0:
426,376,3647,6,0,P|405:318|388:318,1,78.7500030040742,2|0,0:0|0:0,0:0:0:0:
390,310,3942,1,0,0:0:0:0:
310,265,4090,2,0,P|354:244|423:216,1,105.000004005432,2|0,0:0|0:0,0:0:0:0:
475,265,4533,1,2,0:0:0:0:
136,92,4829,6,0,B|193:72|157:55|227:35,1,105.000004005432,2|0,0:0|0:0,0:0:0:0:
326,10,5272,2,0,P|290:79|281:116,1,105.000004005432,2|0,0:0|0:0,0:0:0:0:
215,139,5715,1,2,0:0:0:0:
473,28,6011,5,2,0:0:0:0:
468,38,6307,1,0,0:0:0:0:
397,70,6454,2,0,P|424:115|450:181,1,105.000004005432,2|0,0:0|0:0,0:0:0:0:
510,202,6898,1,2,0:0:0:0:
473,264,7046,1,2,0:0:0:0:
212,381,7193,6,0,P|200:348|186:325,1,52.5000020027161,2|0,0:0|0:0,0:0:0:0:
119,320,7489,1,2,0:0:0:0:
266,306,7637,2,0,P|249:264|180:261,1,105.000004005432,2|0,0:0|0:0,0:0:0:0:
132,204,8080,2,0,P|102:198|78:196,1,52.5000020027161,2|2,0:0|0:0,0:0:0:0:
259,32,8376,5,2,0:0:0:0:
259,32,8523,1,2,0:0:0:0:
311,80,8671,2,0,P|343:62|408:33,1,105.000004005432,2|2,0:0|0:0,0:0:0:0:
469,101,9114,1,2,0:0:0:0:
424,188,9262,1,2,0:0:0:0:
329,165,9410,1,2,0:0:0:0:
318,382,9558,6,0,P|332:341|341:323,1,52.5000020027161,2|0,0:0|0:0,0:0:0:0:
413,306,9853,1,2,0:0:0:0:
285,264,10001,2,0,P|267:220|234:168,1,105.000004005432,2|0,0:0|0:0,0:0:0:0:
165,164,10445,1,2,0:0:0:0:
3,69,10740,6,0,P|31:28|99:26,1,105.000004005432,2|0,0:0|0:0,0:0:0:0:
198,17,11183,2,0,P|136:76|110:107,1,105.000004005432,2|0,0:0|0:0,0:0:0:0:
56,132,11627,1,2,0:0:0:0:
49,210,11775,1,2,0:0:0:0:
257,71,11922,6,0,P|294:58|320:54,1,52.5000020027161,2|0,0:0|0:0,0:0:0:0:
368,1,12218,1,2,0:0:0:0:
353,137,12366,2,0,P|388:100|447:106,1,105.000004005432,2|0,0:0|0:0,0:0:0:0:
502,57,12809,1,2,0:0:0:0:
475,371,13105,6,0,P|443:362|395:355,1,78.7500030040742,2|0,0:0|0:0,0:0:0:0:
389,346,13400,1,0,0:0:0:0:
244,344,13548,2,0,P|286:345|310:281,1,105.000004005432,2|0,0:0|0:0,0:0:0:0:
379,254,13991,1,2,0:0:0:0:
63,378,14287,6,0,P|37:307|14:261,1,105.000004005432,2|0,0:0|0:0,0:0:0:0:
3,151,14730,2,0,B|52:165|34:196|85:216,1,105.000004005432,2|0,0:0|0:0,0:0:0:0:
161,240,15174,1,2,0:0:0:0:
239,4,15469,5,2,0:0:0:0:
233,14,15765,1,0,0:0:0:0:
163,48,15913,2,0,P|184:114|196:161,1,105.000004005432,2|0,0:0|0:0,0:0:0:0:
237,223,16356,2,0,P|252:195|277:173,1,52.5000020027161,2|2,0:0|0:0,0:0:0:0:
391,16,16651,5,2,0:0:0:0:
367,88,16799,1,0,0:0:0:0:
401,22,16947,1,2,0:0:0:0:
439,95,17095,2,0,P|392:125|356:162,1,105.000004005432,2|0,0:0|0:0,0:0:0:0:
408,225,17538,1,2,0:0:0:0:
376,288,17686,1,0,0:0:0:0:
235,368,17834,6,0,P|227:332|218:302,1,52.5000020027161,2|0,0:0|0:0,0:0:0:0:
98,289,18129,2,0,P|129:296|145:315,1,52.5000020027161,2|0,0:0|0:0,0:0:0:0:
255,245,18425,1,2,0:0:0:0:
255,245,18499,1,0,0:0:0:0:
255,245,18573,1,8,0:0:0:0:
177,222,18720,1,8,0:0:0:0:
209,146,18868,2,0,L|205:128,2,13.125000500679,8|0|0,0:0|0:0|0:0,0:0:0:0:
183,30,19016,6,0,P|216:55|238:68,1,52.5000020027161,2|0,0:0|0:0,0:0:0:0:
290,12,19312,1,2,0:0:0:0:
394,33,19459,2,0,P|346:67|306:118,1,105.000004005432,2|0,0:0|0:0,0:0:0:0:
389,216,19903,2,0,B|379:241|379:241|396:263,1,52.5000020027161,10|0,0:0|0:0,0:0:0:0:
418,330,20124,1,0,0:0:0:0:
418,330,20198,6,0,P|347:343|308:354,1,105.000004005432,2|0,0:0|0:0,0:0:0:0:
200,361,20642,2,0,P|227:346|234:324,1,52.5000020027161,2|0,0:0|0:0,0:0:0:0:
192,255,20937,1,8,0:0:0:0:
192,255,21085,1,2,0:0:0:0:
131,314,21233,1,2,0:0:0:0:
20,347,21381,6,0,P|31:314|46:305,1,52.5000020027161,2|0,0:0|0:0,0:0:0:0:
9,237,21676,2,0,P|35:213|52:213,1,52.5000020027161,2|2,0:0|0:0,0:0:0:0:
109,107,21972,1,0,3:0:0:0:
32,138,22119,1,0,3:0:0:0:
1,64,22267,1,0,3:0:0:0:
1,64,22341,1,0,0:0:0:0:
1,64,22415,2,0,L|4:45,2,13.125000500679,8|0|0,0:0|0:0|0:0,0:0:0:0:
63,19,22563,5,2,3:2:0:0:
63,19,22637,1,8,0:0:0:0:
63,19,22711,1,0,3:0:0:0:
101,94,22858,1,8,0:0:0:0:
179,52,23006,2,0,B|201:36|201:36|225:43,1,52.5000020027161,2|0,3:2|0:0,0:0:0:0:
241,37,23228,1,0,0:0:0:0:
241,37,23302,2,0,L|258:34,2,13.125000500679,8|0|0,0:0|0:0|0:0,0:0:0:0:
338,17,23449,2,0,L|330:71,1,52.5000020027161,8|0,0:0|3:0,0:0:0:0:
404,131,23671,1,0,3:0:0:0:
404,131,23745,6,0,B|378:131|378:131|363:153,1,52.5000020027161,10|0,0:0|0:0,0:0:0:0:
260,177,23967,1,8,0:0:0:0:
260,177,24041,2,0,B|285:183|285:183|293:208,1,52.5000020027161,8|2,0:0|0:0,0:0:0:0:
306,217,24262,1,8,0:0:0:0:
306,217,24336,1,8,0:0:0:0:
371,258,24484,2,0,L|368:274,2,13.125000500679,8|0|0,0:0|0:0|0:0,0:0:0:0:
384,247,24632,1,2,0:0:0:0:
289,328,24780,2,0,L|292:344,2,13.125000500679,8|0|0,0:0|0:0|0:0,0:0:0:0:
276,317,24927,5,2,3:2:0:0:
205,348,25075,1,0,0:0:0:0:
93,274,25223,2,0,P|122:279|152:291,1,52.5000020027161,0|2,3:2|3:2,0:0:0:0:
260,177,25518,1,8,0:0:0:0:
218,260,25666,1,0,3:2:0:0:
130,172,25814,1,2,3:2:0:0:
195,121,25962,2,0,L|191:106,2,13.125000500679,8|0|0,0:0|0:0|0:0,0:0:0:0:
344,169,26110,5,2,0:0:0:0:
338,55,26257,2,0,P|357:75|377:104,1,52.5000020027161,12|0,0:0|0:0,0:0:0:0:
506,153,26553,1,8,0:0:0:0:
409,225,26701,1,8,0:0:0:0:
403,237,26996,1,2,3:2:0:0:
468,286,27144,1,0,3:2:0:0:
292,314,27292,6,0,L|296:331,2,13.125000500679,8|0|0,0:0|0:0|0:0,0:0:0:0:
359,372,27440,1,0,0:0:0:0:
121,369,27587,1,2,0:0:0:0:
196,337,27735,1,0,3:2:0:0:
84,212,27883,1,2,3:2:0:0:
136,277,28031,2,0,L|132:296,2,13.125000500679,8|0|0,0:0|0:0|0:0,0:0:0:0:
274,170,28179,1,2,3:2:0:0:
222,235,28326,2,0,L|226:254,2,13.125000500679,2|0|0,3:2|0:0|0:0,0:0:0:0:
151,160,28474,6,0,P|134:133|106:103,1,70,0|0,3:2|0:0,0:0:0:0:
109,93,28696,1,8,0:0:0:0:
109,93,28770,1,8,0:0:0:0:
215,22,28917,1,10,0:0:0:0:
215,22,28991,1,0,0:0:0:0:
215,22,29065,2,0,P|202:37|195:53,2,35,0|0|8,0:0|0:0|0:0,0:0:0:0:
295,90,29361,1,2,0:0:0:0:
310,82,29435,1,0,0:0:0:0:
327,75,29509,1,0,0:0:0:0:
343,70,29582,1,0,0:0:0:0:
360,65,29656,6,0,P|395:78|436:100,1,70,10|0,0:0|0:0,0:0:0:0:
437,88,29878,1,0,0:0:0:0:
437,88,29952,1,8,0:0:0:0:
505,219,30100,1,2,0:0:0:0:
505,219,30174,1,0,0:0:0:0:
505,219,30247,1,8,0:0:0:0:
479,291,30395,1,0,0:0:0:0:
479,291,30469,1,0,0:0:0:0:
479,291,30543,1,10,0:0:0:0:
358,161,30691,2,0,L|360:144,2,17.5,8|0|0,0:0|0:0|0:0,0:0:0:0:
312,212,30839,6,0,P|270:224|241:236,1,70,2|0,0:0|0:0,0:0:0:0:
238,246,31060,1,8,0:0:0:0:
238,246,31134,1,8,0:0:0:0:
186,341,31282,1,2,0:0:0:0:
186,341,31356,1,8,0:0:0:0:
186,341,31430,2,0,P|180:323|174:308,2,35,8|0|8,0:0|0:0|0:0,0:0:0:0:
49,377,31725,1,2,0:0:0:0:
62,365,31799,1,0,0:0:0:0:
72,351,31873,1,0,0:0:0:0:
79,335,31947,1,0,0:0:0:0:
83,318,32021,6,0,P|60:283|49:252,1,70,8|0,0:0|0:0,0:0:0:0:
39,250,32243,1,0,0:0:0:0:
39,250,32316,1,0,0:0:0:0:
164,115,32464,1,2,0:0:0:0:
164,115,32538,1,8,0:0:0:0:
164,115,32612,1,8,0:0:0:0:
153,192,32760,1,0,0:0:0:0:
153,192,32834,1,8,0:0:0:0:
153,192,32908,1,4,0:0:0:0:
502,34,33203,5,2,0:0:0:0:
464,98,33351,1,0,0:0:0:0:
398,55,33499,1,8,0:0:0:0:
395,269,33647,1,2,0:0:0:0:
395,269,33720,1,0,0:0:0:0:
395,269,33794,2,0,P|391:249|386:232,2,35,0|0|8,0:0|0:0|0:0,0:0:0:0:
423,164,34090,1,0,0:0:0:0:
500,187,34238,1,0,3:2:0:0:
376,384,34385,6,0,P|355:347|334:319,1,70,2|0,0:0|0:0,0:0:0:0:
280,274,34681,1,8,0:0:0:0:
193,350,34829,1,2,0:0:0:0:
193,350,34903,1,0,0:0:0:0:
193,350,34977,2,0,P|212:342|231:339,2,35,8|0|0,0:0|0:0|0:0,0:0:0:0:
130,285,35272,1,0,0:0:0:0:
130,285,35346,1,0,0:0:0:0:
130,285,35420,2,0,P|110:277|92:274,1,35,2|0,0:0|0:0,0:0:0:0:
91,90,35568,6,0,P|103:144|89:166,1,70,2|0,0:0|0:0,0:0:0:0:
39,208,35863,1,8,0:0:0:0:
12,55,36011,1,2,0:0:0:0:
24,42,36085,1,0,0:0:0:0:
37,31,36159,1,0,0:0:0:0:
51,21,36233,1,0,0:0:0:0:
66,12,36307,1,0,0:0:0:0:
193,0,36454,2,0,P|177:37|167:66,1,70,8|0,0:0|0:0,0:0:0:0:
410,3,36750,5,2,0:0:0:0:
431,79,36898,1,8,0:0:0:0:
452,155,37046,1,8,0:0:0:0:
346,78,37193,2,0,L|352:54,2,17.5,2|0|0,0:0|0:0|0:0,0:0:0:0:
293,122,37341,1,8,0:0:0:0:
293,122,37932,6,0,P|256:179|196:319,1,210,2|0,0:0|0:0,0:0:0:0:
129,384,39114,2,0,P|122:336|18:331,1,168,2|0,0:0|0:0,0:0:0:0:
0,194,40297,6,0,B|17:211|17:211|157:189|144:159|315:110,1,335.999989746094,2|0,0:0|0:0,0:0:0:0:
406,27,42070,1,2,0:0:0:0:
406,27,42661,2,0,B|392:144|377:115|357:237,1,210,2|0,0:0|0:0,0:0:0:0:
406,317,43844,2,0,P|425:277|506:327,1,168,2|0,0:0|0:0,0:0:0:0:
358,379,45026,2,0,P|286:344|152:303,1,210,2|0,0:0|0:0,0:0:0:0:
45,363,46208,6,0,P|26:331|-1:288,1,83.9999974365235,2|0,0:0|0:0,0:0:0:0:
91,223,46799,2,0,P|99:187|150:154,1,97.9999970092774,2|0,0:0|0:0,0:0:0:0:
108,19,47390,6,0,P|139:37|171:75,1,83.9999974365235,0|8,3:2|0:0,0:0:0:0:
238,85,47834,1,0,0:0:0:0:
272,26,47981,1,0,0:0:0:0:
272,26,48129,1,8,0:0:0:0:
395,127,48573,5,0,3:2:0:0:
402,139,48868,2,0,P|433:152|483:193,1,83.9999974365235,8|0,0:0|0:0,0:0:0:0:
475,254,49312,2,0,P|453:269|436:286,1,41.9999987182618,8|0,0:0|0:0,0:0:0:0:
446,356,49607,1,0,0:0:0:0:
363,371,49755,6,0,P|336:380|312:389,1,41.9999987182618,0|0,3:2|0:0,0:0:0:0:
270,316,50050,1,8,0:0:0:0:
263,328,50346,1,0,0:0:0:0:
187,314,50494,2,0,P|178:283|158:231,1,83.9999974365235,8|0,0:0|3:2,0:0:0:0:
36,133,50937,6,0,P|52:119|75:116,1,41.9999987182618,8|0,0:0|0:0,0:0:0:0:
166,130,51233,2,0,L|147:147,2,20.9999993591309,0|0|0,0:0|0:0|3:2,0:0:0:0:
196,61,51528,1,0,0:0:0:0:
270,74,51676,2,0,P|281:43|291:22,1,41.9999987182618,8|0,0:0|3:2,0:0:0:0:
358,11,51972,1,8,0:0:0:0:
391,77,52119,6,0,P|368:88|349:86,1,41.9999987182618,0|0,3:2|3:2,0:0:0:0:
288,152,52415,2,0,P|329:163|381:182,1,83.9999974365235,8|0,0:0|3:2,0:0:0:0:
407,237,52858,1,0,0:0:0:0:
407,237,53006,1,0,3:2:0:0:
493,320,53302,6,0,P|463:310|443:305,1,41.9999987182618,0|0,3:2|0:0,0:0:0:0:
362,329,53597,2,0,P|376:351|376:368,1,41.9999987182618,8|0,0:0|0:0,0:0:0:0:
270,372,53893,2,0,L|291:369,2,20.9999993591309,0|0|0,3:2|0:0|0:0,0:0:0:0:
220,309,54188,1,0,3:2:0:0:
209,298,54484,6,0,P|176:283|156:276,1,56,0|0,3:2|3:2,0:0:0:0:
63,330,54780,2,0,P|81:300|75:278,1,56,0|0,3:2|3:2,0:0:0:0:
67,150,55075,2,0,P|87:182|95:203,1,56,0|0,3:2|3:2,0:0:0:0:
208,182,55371,2,0,P|184:154|158:152,1,56,0|0,3:2|3:2,0:0:0:0:
102,42,55666,6,0,L|94:10,3,28,0|0|0|0,3:2|3:2|3:2|3:2,0:0:0:0:
185,46,55962,2,0,L|177:72,3,28,0|0|0|0,3:2|3:2|3:2|3:2,0:0:0:0:
267,47,56257,2,0,L|270:32,14,14,0|0|0|0|0|0|0|0|0|0|0|0|0|0|0,3:2|0:0|0:0|0:0|0:0|0:0|0:0|0:0|0:0|0:0|0:0|0:0|0:0|0:0|0:0,0:0:0:0:
355,47,56848,6,0,B|382:28|382:28|497:54,1,140,2|0,3:2|0:0,0:0:0:0:
505,126,57292,1,0,0:0:0:0:
332,220,57440,2,0,P|338:168|417:144,1,140,8|0,0:0|0:0,0:0:0:0:
468,209,57883,1,0,3:2:0:0:
372,293,58031,5,0,3:2:0:0:
261,361,58179,2,0,P|270:323|283:289,1,70,8|0,3:2|0:0,0:0:0:0:
275,283,58400,1,0,0:0:0:0:
275,283,58474,1,8,3:2:0:0:
214,234,58622,1,0,0:0:0:0:
93,335,58770,1,8,3:2:0:0:
87,347,59065,1,2,3:2:0:0:
21,117,59213,6,0,B|48:140|48:140|41:173,1,70,2|0,3:2|0:0,0:0:0:0:
90,73,59509,1,0,0:0:0:0:
90,73,59582,1,0,0:0:0:0:
90,73,59656,1,0,0:0:0:0:
196,108,59804,2,0,P|157:134|132:154,1,70,8|0,0:0|0:0,0:0:0:0:
213,189,60100,1,0,3:2:0:0:
295,5,60247,1,8,0:0:0:0:
352,61,60395,5,8,0:0:0:0:
420,17,60543,1,8,0:0:0:0:
494,95,60691,1,8,0:0:0:0:
294,197,60839,2,0,B|316:169|316:169|352:177,1,70,2|0,3:2|0:0,0:0:0:0:
375,242,61134,2,0,B|353:270|353:270|317:262,1,70,2|0,3:2|0:0,0:0:0:0:
269,325,61430,1,2,3:2:0:0:
211,95,61578,6,0,B|228:125|228:125|194:232,1,140,2|0,3:2|3:2,0:0:0:0:
43,172,62021,2,0,B|56:103|56:103|121:141,1,140,2|0,3:2|3:2,0:0:0:0:
164,305,62464,2,0,B|109:297|109:297|80:306|80:306|17:297,1,140,2|0,3:2|0:0,0:0:0:0:
131,384,62908,5,0,0:0:0:0:
196,225,63055,1,8,3:2:0:0:
261,276,63203,2,0,P|267:258|277:242,1,35,8|8,3:2|3:2,0:0:0:0:
266,288,63351,1,8,3:2:0:0:
383,199,63499,2,0,L|348:206,1,35,2|0,3:2|0:0,0:0:0:0:
285,162,63647,1,8,0:0:0:0:
245,23,63794,6,0,B|300:27|300:27|342:52|342:52|381:42,1,140,2|0,3:2|0:0,0:0:0:0:
512,149,64238,2,0,B|460:103|460:103|392:128,1,140,2|8,3:2|0:0,0:0:0:0:
488,270,64681,1,2,3:2:0:0:
440,210,64829,2,0,B|474:308|474:308|449:333,1,140,2|8,3:2|0:0,0:0:0:0:
328,384,65272,2,0,B|335:350|335:350|372:360,1,70,2|8,3:2|0:0,0:0:0:0:
383,282,65568,1,8,0:0:0:0:
216,267,65715,1,8,0:0:0:0:
148,231,65863,2,0,B|178:248|178:248|189:320|189:320|208:349,1,140,2|8,3:2|0:0,0:0:0:0:
29,358,66307,6,0,B|34:287|34:287|105:302,1,140,2|0,3:2|0:0,0:0:0:0:
173,132,66750,1,0,0:0:0:0:
173,132,66824,1,0,0:0:0:0:
173,132,66898,2,0,P|163:144|149:157,1,35,8|0,0:0|0:0,0:0:0:0:
76,123,67046,1,0,0:0:0:0:
390,31,67341,1,0,3:2:0:0:
284,10,67489,5,0,3:2:0:0:
241,80,67637,1,8,3:2:0:0:
324,133,67784,2,0,P|316:115|305:102,1,35
393,169,67932,2,0,P|361:189|336:210,1,70,8|0,3:2|0:0,0:0:0:0:
352,289,68228,2,0,P|392:279|404:251,1,70,8|0,3:2|0:0,0:0:0:0:
327,218,68523,1,2,3:2:0:0:
201,353,68671,6,0,B|236:349|236:349|264:383,1,70,2|0,3:2|0:0,0:0:0:0:
145,298,68967,1,0,0:0:0:0:
145,298,69041,1,0,0:0:0:0:
145,298,69114,1,0,0:0:0:0:
35,375,69262,2,0,P|22:328|-7:236,1,140,8|0,0:0|3:2,0:0:0:0:
102,167,69706,5,8,0:0:0:0:
22,171,69853,1,8,0:0:0:0:
68,64,70001,1,8,0:0:0:0:
0,107,70149,1,8,0:0:0:0:
190,0,70297,2,0,B|219:22|219:22|255:10,1,70,2|0,3:2|0:0,0:0:0:0:
234,111,70592,2,0,B|205:89|205:89|169:101,1,70,2|0,3:2|0:0,0:0:0:0:
393,92,70888,1,2,3:2:0:0:
352,157,71036,6,0,B|357:137|357:137|445:105|445:105|466:120,1,140,2|0,3:2|3:2,0:0:0:0:
512,285,71479,2,0,B|411:237|411:237|436:196,1,140,2|0,3:2|3:2,0:0:0:0:
315,247,71922,2,0,B|340:354|340:354|359:381,1,140,2|0,3:2|0:0,0:0:0:0:
424,329,72366,1,0,0:0:0:0:
199,383,72514,5,8,3:2:0:0:
297,319,72661,1,8,3:2:0:0:
235,268,72809,1,8,3:2:0:0:
347,190,72957,2,0,B|313:201|313:201|305:236,1,70,2|8,3:2|0:0,0:0:0:0:
156,276,73252,6,0,B|221:250|221:250|175:195,1,140,2|0,3:2|0:0,0:0:0:0:
142,74,73696,2,0,B|129:113|129:113|98:128|98:128|74:192,1,140,2|8,3:2|0:0,0:0:0:0:
76,280,74139,1,2,3:2:0:0:
189,189,74287,6,0,B|206:158|206:158|246:149,1,70,2|8,3:2|0:0,0:0:0:0:
201,21,74582,1,8,0:0:0:0:
330,39,74730,2,0,L|266:74,1,70,2|8,3:2|0:0,0:0:0:0:
467,135,75026,1,8,0:0:0:0:
501,68,75174,1,8,0:0:0:0:
341,125,75321,2,0,B|363:155|363:155|341:262,1,140,2|8,3:2|0:0,0:0:0:0:
54,359,75765,6,0,B|67:326|67:326|178:350,1,140,2|8,3:2|0:0,0:0:0:0:
281,343,76208,2,0,B|239:281|239:281|245:281|245:281|279:329,1,140,2|0,3:2|0:0,0:0:0:0:
366,330,76651,1,8,0:0:0:0:
13,152,76947,5,0,3:2:0:0:
67,214,77095,1,0,0:0:0:0:
51,74,77243,1,8,0:0:0:0:
122,126,77390,2,0,B|126:91|126:91|156:74,1,70,2|8,3:2|0:0,0:0:0:0:
57,224,77686,2,0,B|53:259|53:259|23:276,1,70,0|8,0:0|0:0,0:0:0:0:
106,5,77981,1,2,3:2:0:0:
200,203,78129,6,0,B|206:133|206:133|294:151,1,140,2|8,3:2|0:0,0:0:0:0:
304,312,78573,2,0,B|312:262|312:262|279:225|279:225|288:264,1,140,2|0,3:2|0:0,0:0:0:0:
333,96,79016,1,8,0:0:0:0:
369,369,79312,6,0,B|409:308|409:308|357:367,1,140,2|8,3:2|0:0,0:0:0:0:
130,264,79755,2,0,B|156:242|156:242|191:251,1,70,2|8,3:2|0:0,0:0:0:0:
215,359,80050,2,0,B|188:380|188:380|153:371,1,70,2|8,3:2|0:0,0:0:0:0:
46,258,80346,1,2,3:2:0:0:
266,294,80494,6,0,B|285:272|285:272|277:191|277:191|287:148,1,140,0|8,3:2|0:0,0:0:0:0:
96,119,80937,2,0,B|189:169|189:169|189:127,1,140,0|0,3:2|0:0,0:0:0:0:
214,42,81381,2,0,L|279:84,1,70,10|0,0:0|0:0,0:0:0:0:
409,0,81676,6,0,P|379:20|373:64,1,70,8|0,0:0|0:0,0:0:0:0:
434,96,81972,1,8,0:0:0:0:
452,199,82119,2,0,L|473:166,1,35,2|0,3:2|0:0,0:0:0:0:
445,93,82267,1,8,0:0:0:0:
286,78,82415,2,0,B|292:111|292:111|323:131,1,70,0|8,3:2|0:0,0:0:0:0:
478,274,82711,5,2,3:2:0:0:
448,339,82858,2,0,L|376:356,1,70,0|0,3:2|0:0,0:0:0:0:
215,320,83154,1,2,3:2:0:0:
284,362,83302,2,0,B|300:331|300:331|288:292,1,70,2|8,3:2|0:0,0:0:0:0:
40,309,83597,1,2,3:2:0:0:
122,196,83745,2,0,L|109:267,1,70,2|0,3:2|3:2,0:0:0:0:
16,34,84041,5,8,0:0:0:0:
80,65,84188,1,0,3:2:0:0:
279,57,84336,2,0,B|222:21|222:21|182:39|182:39|147:27,1,140,8|0,0:0|3:2,0:0:0:0:
211,258,84780,1,2,3:2:0:0:
216,124,84927,1,0,3:2:0:0:
221,249,85075,1,0,3:2:0:0:
341,2,85223,6,0,B|370:31|370:31|381:109|381:109|363:136,1,140,2|8,3:2|0:0,0:0:0:0:
346,289,85666,2,0,B|303:231|303:231|367:205,1,140,2|0,3:2|0:0,0:0:0:0:
438,162,86110,1,8,0:0:0:0:
318,372,86405,6,0,B|289:350|289:350|207:371|207:371|200:341,1,140,2|8,3:2|0:0,0:0:0:0:
74,384,86848,2,0,B|97:339|97:339|88:307|88:307|137:270,1,140,0|0,3:2|0:0,0:0:0:0:
303,236,87292,1,8,0:0:0:0:
240,279,87440,1,2,3:2:0:0:
51,243,87587,6,0,B|26:218|26:218|126:262,1,140,0|0,3:2|0:0,0:0:0:0:
336,164,88031,2,0,B|306:136|306:136|233:164|233:164|229:196,1,140,10|0,0:0|0:0,0:0:0:0:
158,193,88474,1,0,3:2:0:0:
82,104,88622,1,8,0:0:0:0:
234,0,88770,6,0,B|161:78|161:78|166:113,1,140,2|8,3:2|0:0,0:0:0:0:
321,68,89213,1,2,3:2:0:0:
248,106,89361,2,0,L|318:81,1,70,8|0,0:0|0:0,0:0:0:0:
396,109,89656,1,0,0:0:0:0:
493,261,89804,1,8,3:2:0:0:
512,153,89952,6,0,B|484:180|484:180|410:184|410:184|429:210,1,140,2|8,3:2|0:0,0:0:0:0:
441,384,90395,2,0,B|449:360|449:360|412:283|412:283|379:291,1,140,2|0,3:2|0:0,0:0:0:0:
248,358,90839,1,8,0:0:0:0:
326,380,90986,1,0,0:0:0:0:
49,337,91134,6,0,B|75:360|75:360|153:338|153:338|142:308,1,140,2|8,3:2|0:0,0:0:0:0:
202,145,91578,2,0,B|232:158|232:158|209:263,1,140,0|0,3:2|0:0,0:0:0:0:
216,279,91947,1,0,0:0:0:0:
216,279,92021,1,0,0:0:0:0:
2,227,92169,1,2,3:2:0:0:
44,37,92316,6,0,B|91:46|91:46|126:116|126:116|110:126,1,140,0|0,3:2|0:0,0:0:0:0:
296,200,92760,2,0,B|265:138|265:138|198:160,1,140,0|0,3:2|0:0,0:0:0:0:
102,128,93203,1,8,0:0:0:0:
228,16,93351,1,2,3:2:0:0:
310,190,93499,6,0,B|330:175|330:175|401:186|401:186|420:222,1,105,2|0,3:2|0:0,0:0:0:0:
463,231,93794,6,0,B|484:226|484:226|475:172|475:172|497:147,1,105,0|0,3:2|0:0,0:0:0:0:
415,108,94090,6,0,B|443:33|443:33|434:35|434:35|424:121,1,157.500006008148,2|0,3:2|0:0,0:0:0:0:
447,342,94681,6,0,P|432:305|402:295,1,70,2|0,3:2|0:0,0:0:0:0:
331,320,94977,2,0,P|346:357|376:367,1,70,2|0,3:2|0:0,0:0:0:0:
459,332,95272,2,0,P|444:295|414:285,1,70,2|0,3:2|0:0,0:0:0:0:
318,329,95568,2,0,P|333:366|363:376,1,70,2|0,3:2|0:0,0:0:0:0:
362,175,95863,6,0,P|328:166|290:161,1,70,2|0,3:2|0:0,0:0:0:0:
230,89,96159,2,0,P|264:84|298:75,1,70,2|0,3:2|0:0,0:0:0:0:
360,187,96454,2,0,P|326:178|288:173,1,70,2|0,3:2|0:0,0:0:0:0:
217,82,96750,1,2,3:2:0:0:
307,60,96898,1,2,3:2:0:0:
181,213,97046,6,0,P|217:223|231:252,1,70,2|0,3:2|0:0,0:0:0:0:
179,312,97341,2,0,P|143:302|129:273,1,70,2|0,3:2|0:0,0:0:0:0:
193,201,97637,2,0,P|229:211|243:240,1,70,2|0,3:2|0:0,0:0:0:0:
173,322,97932,2,0,P|137:312|123:283,1,70,2|0,3:2|0:0,0:0:0:0:
189,118,98228,5,2,3:2:0:0:
116,82,98376,1,2,3:2:0:0:
116,82,98449,1,2,3:2:0:0:
116,82,98523,1,2,3:2:0:0:
32,222,98671,1,2,3:2:0:0:
15,123,98819,1,2,3:2:0:0:
31,128,98893,1,2,3:2:0:0:
47,135,98967,1,2,3:2:0:0:
62,144,99041,1,2,3:2:0:0:
76,155,99114,1,2,3:2:0:0:
140,207,99262,1,2,3:2:0:0:
187,32,99410,6,0,P|219:20|263:11,1,70,2|0,3:2|0:0,0:0:0:0:
353,120,99706,2,0,P|322:98|316:68,1,70,2|0,3:2|0:0,0:0:0:0:
185,46,100001,2,0,P|217:34|261:25,1,70,2|0,3:2|0:0,0:0:0:0:
340,129,100297,2,0,P|309:107|303:77,1,70,2|0,3:2|0:0,0:0:0:0:
472,49,100592,6,0,P|455:93|443:116,1,70,2|0,3:2|0:0,0:0:0:0:
443,236,100888,2,0,P|466:198|494:190,1,70,2|0,3:2|0:0,0:0:0:0:
459,44,101183,2,0,P|442:88|430:111,1,70,2|0,3:2|0:0,0:0:0:0:
442,252,101479,1,2,3:2:0:0:
505,195,101627,1,2,3:2:0:0:
398,373,101775,6,0,P|389:331|377:301,1,70,2|0,3:2|0:0,0:0:0:0:
258,270,102070,2,0,P|283:245|318:246,1,70,2|0,3:2|0:0,0:0:0:0:
408,366,102366,2,0,P|399:324|387:294,1,70,2|0,3:2|0:0,0:0:0:0:
253,260,102661,2,0,P|278:235|313:236,1,70,2|0,3:2|0:0,0:0:0:0:
261,77,102957,5,2,3:2:0:0:
239,147,103105,1,2,3:2:0:0:
239,147,103179,1,2,3:2:0:0:
239,147,103252,1,2,3:2:0:0:
157,130,103400,1,2,3:2:0:0:
112,243,103548,1,2,3:2:0:0:
126,233,103622,1,2,3:2:0:0:
141,224,103696,1,2,3:2:0:0:
157,216,103770,1,2,3:2:0:0:
173,209,103844,1,2,3:2:0:0:
144,129,103991,1,2,3:2:0:0:
32,213,104139,5,2,3:2:0:0:
101,253,104287,1,0,0:0:0:0:
25,373,104435,2,0,P|42:337|82:326,1,70,10|0,2:2|0:0,0:0:0:0:
80,330,104656,1,0,0:0:0:0:
80,330,104730,2,0,P|103:333|121:340,1,35,2|0,3:2|0:0,0:0:0:0:
184,370,104878,1,8,0:0:0:0:
224,278,105026,1,2,3:2:0:0:
224,278,105100,1,0,0:0:0:0:
224,278,105174,2,0,P|233:292|242:310,1,35
460,336,105321,6,0,P|424:339|390:347,1,70,2|0,3:2|0:0,0:0:0:0:
307,361,105617,2,0,P|327:293|335:270,1,70,10|0,0:2|0:0,0:0:0:0:
324,282,105839,1,0,0:0:0:0:
324,282,105913,2,0,P|338:268|358:260,1,35,2|0,3:2|0:0,0:0:0:0:
328,190,106060,1,0,0:0:0:0:
501,170,106208,1,10,0:2:0:0:
430,258,106356,1,2,3:2:0:0:
366,96,106504,5,2,3:2:0:0:
441,84,106651,1,0,0:0:0:0:
311,9,106799,2,0,P|285:39|261:60,1,70,10|0,0:2|0:0,0:0:0:0:
247,59,107021,1,0,0:0:0:0:
247,59,107095,2,0,P|243:80|241:98,1,35,2|0,3:2|0:0,0:0:0:0:
192,149,107243,1,8,0:0:0:0:
90,101,107390,1,2,3:2:0:0:
90,101,107464,1,0,0:0:0:0:
90,101,107538,2,0,P|103:118|112:132,1,35
83,306,107686,5,2,3:2:0:0:
14,219,107834,1,2,3:2:0:0:
14,219,107908,1,2,3:2:0:0:
14,219,107981,1,10,0:2:0:0:
1,336,108129,1,2,3:2:0:0:
124,228,108277,1,2,3:2:0:0:
148,236,108351,1,2,3:2:0:0:
166,255,108425,1,2,3:2:0:0:
174,279,108499,1,2,3:2:0:0:
171,305,108573,1,10,0:2:0:0:
276,374,108720,2,0,P|265:356|251:340,1,35,2|8,3:2|0:0,0:0:0:0:
237,203,108868,6,0,P|253:194|271:189,1,35,2|0,3:2|0:0,0:0:0:0:
338,235,109016,1,8,0:0:0:0:
269,54,109164,1,10,2:2:0:0:
269,54,109238,1,0,0:0:0:0:
269,54,109312,2,0,P|288:44|304:39,1,35
360,93,109459,2,0,P|406:122|428:139,1,70,2|8,3:2|0:0,0:0:0:0:
357,311,109755,2,0,P|396:299|405:269,1,70,2|0,3:2|0:0,0:0:0:0:
418,267,109977,1,0,0:0:0:0:
418,267,110050,6,0,P|439:269|453:270,1,35,2|0,3:2|0:0,0:0:0:0:
482,195,110198,1,0,0:0:0:0:
456,62,110346,2,0,P|437:108|431:132,1,70,10|0,0:2|0:0,0:0:0:0:
241,187,110642,2,0,P|252:149|288:132,1,70,2|0,3:2|0:0,0:0:0:0:
155,4,110937,1,10,0:2:0:0:
111,66,111085,1,2,3:2:0:0:
111,66,111159,1,0,0:0:0:0:
111,66,111233,6,0,P|119:85|122:101,1,35,2|0,3:2|0:0,0:0:0:0:
30,69,111381,1,0,0:0:0:0:
159,173,111528,1,10,0:2:0:0:
142,178,111602,1,0,0:0:0:0:
126,186,111676,1,0,0:0:0:0:
112,196,111750,1,0,0:0:0:0:
100,208,111824,2,0,P|79:248|69:278,1,70,2|8,3:2|0:0,0:0:0:0:
195,377,112119,2,0,P|175:334|149:326,1,70,2|0,3:2|0:0,0:0:0:0:
146,314,112341,1,0,0:0:0:0:
146,314,112415,5,2,3:2:0:0:
237,182,112563,1,2,3:2:0:0:
237,182,112637,1,2,3:2:0:0:
237,182,112711,1,10,0:2:0:0:
255,288,112858,1,2,3:2:0:0:
285,104,113006,1,2,3:2:0:0:
315,120,113080,1,2,3:2:0:0:
345,139,113154,1,2,3:2:0:0:
372,161,113228,1,2,3:2:0:0:
397,186,113302,1,10,0:2:0:0:
434,318,113449,2,0,L|440:298,2,17.5,2|0|8,3:2|0:0|0:0,0:0:0:0:
474,215,113597,5,2,3:2:0:0:
319,226,113745,1,0,0:0:0:0:
426,107,113893,2,0,P|403:161|394:200,1,83.9999974365235,10|0,2:2|0:0,0:0:0:0:
278,91,114188,1,2,3:2:0:0:
278,91,114262,1,0,0:0:0:0:
278,91,114336,1,8,0:0:0:0:
172,202,114484,2,0,P|207:234|231:263,1,83.9999974365235,2|0,3:2|0:0,0:0:0:0:
227,279,114706,1,0,0:0:0:0:
227,279,114780,5,2,3:2:0:0:
65,383,114927,1,0,0:0:0:0:
85,214,115075,2,0,P|134:198|160:215,1,83.9999974365235,10|0,0:2|0:0,0:0:0:0:
7,323,115371,1,2,3:2:0:0:
7,323,115445,1,0,0:0:0:0:
7,323,115518,1,0,0:0:0:0:
52,141,115666,1,10,0:2:0:0:
122,288,115814,1,2,3:2:0:0:
270,104,115962,5,2,3:2:0:0:
180,123,116110,1,0,0:0:0:0:
56,7,116257,2,0,P|96:20|138:40,1,83.9999974365235,10|0,0:2|0:0,0:0:0:0:
313,24,116553,1,2,3:2:0:0:
313,24,116627,1,0,0:0:0:0:
313,24,116701,1,8,0:0:0:0:
244,194,116848,2,0,P|263:146|278:117,1,83.9999974365235,2|0,3:2|0:0,0:0:0:0:
270,104,117070,1,0,0:0:0:0:
270,104,117144,5,2,3:2:0:0:
400,47,117292,1,2,3:2:0:0:
419,39,117366,1,2,3:2:0:0:
440,35,117440,1,10,0:2:0:0:
360,137,117587,1,2,3:2:0:0:
510,162,117735,1,2,3:2:0:0:
468,158,117809,1,2,3:2:0:0:
433,180,117883,1,2,3:2:0:0:
417,218,117957,1,2,3:2:0:0:
425,258,118031,1,10,0:2:0:0:
506,301,118179,1,2,3:2:0:0:
324,369,118326,5,2,3:2:0:0:
324,369,118400,1,0,0:0:0:0:
324,369,118474,1,0,0:0:0:0:
165,365,118622,2,0,P|203:357|239:399,1,83.9999974365235,10|0,2:2|0:0,0:0:0:0:
75,356,118917,1,2,3:2:0:0:
0,273,119065,1,8,0:0:0:0:
124,190,119213,2,0,P|100:225|80:263,1,83.9999974365235,2|0,3:2|0:0,0:0:0:0:
88,272,119435,1,0,0:0:0:0:
88,272,119509,5,2,3:2:0:0:
27,172,119656,1,0,0:0:0:0:
195,241,119804,2,0,P|220:204|207:168,1,83.9999974365235,10|0,0:2|0:0,0:0:0:0:
146,47,120100,1,2,3:2:0:0:
98,115,120247,1,0,0:0:0:0:
240,11,120395,1,10,0:2:0:0:
300,179,120543,1,2,3:2:0:0:
352,26,120691,5,2,3:2:0:0:
352,26,120765,1,0,0:0:0:0:
352,26,120839,1,0,0:0:0:0:
440,117,120986,2,0,P|466:85|502:52,1,83.9999974365235,10|0,0:2|0:0,0:0:0:0:
385,179,121282,1,2,3:2:0:0:
468,199,121430,1,8,0:0:0:0:
443,334,121578,2,0,P|412:303|415:262,1,83.9999974365235,2|0,3:2|0:0,0:0:0:0:
410,252,121799,1,0,0:0:0:0:
410,252,121873,5,2,3:2:0:0:
306,368,122021,1,2,3:2:0:0:
325,359,122095,1,2,3:2:0:0:
345,353,122169,1,10,0:2:0:0:
290,194,122316,1,2,3:2:0:0:
164,356,122464,1,2,3:2:0:0:
200,336,122538,1,2,3:2:0:0:
220,299,122612,1,2,3:2:0:0:
218,258,122686,1,2,3:2:0:0:
195,224,122760,1,10,0:2:0:0:
76,337,122908,1,2,3:2:0:0:
5,160,123055,5,2,3:2:0:0:
78,230,123203,1,0,0:0:0:0:
166,125,123351,2,0,P|121:138|76:156,1,83.9999974365235,10|0,2:2|0:0,0:0:0:0:
75,145,123573,1,0,0:0:0:0:
75,145,123647,1,2,3:2:0:0:
124,47,123794,1,8,0:0:0:0:
251,153,123942,1,2,3:2:0:0:
251,153,124016,1,0,0:0:0:0:
251,153,124090,1,0,0:0:0:0:
299,12,124238,5,2,3:2:0:0:
236,62,124385,1,0,0:0:0:0:
336,173,124533,2,0,P|358:138|386:100,1,83.9999974365235,10|0,0:2|0:0,0:0:0:0:
379,91,124755,1,0,0:0:0:0:
379,91,124829,1,2,3:2:0:0:
429,24,124977,1,0,0:0:0:0:
427,210,125124,1,10,0:2:0:0:
495,88,125272,1,2,3:2:0:0:
323,176,125420,5,2,3:2:0:0:
352,263,125568,1,0,0:0:0:0:
237,322,125715,2,0,P|237:273|268:248,1,83.9999974365235,10|0,0:2|0:0,0:0:0:0:
443,298,126011,1,2,3:2:0:0:
387,355,126159,1,8,0:0:0:0:
242,339,126307,2,0,P|203:355|165:374,1,83.9999974365235,2|0,3:2|0:0,0:0:0:0:
152,368,126528,1,0,0:0:0:0:
152,369,126602,5,2,3:2:0:0:
8,323,126750,1,2,3:2:0:0:
27,315,126824,1,2,3:2:0:0:
48,311,126898,1,10,0:2:0:0:
130,270,127046,1,2,3:2:0:0:
0,64,127193,1,2,3:2:0:0:
17,102,127267,1,2,3:2:0:0:
32,141,127341,1,2,3:2:0:0:
45,181,127415,1,2,3:2:0:0:
55,222,127489,1,10,0:2:0:0:
114,89,127637,1,2,3:2:0:0:
256,256,127784,5,2,3:2:0:0:
173,201,127932,1,0,0:0:0:0:
317,91,128080,2,0,P|287:129|268:165,1,83.9999974365235,10|0,2:2|0:0,0:0:0:0:
257,165,128302,1,0,0:0:0:0:
257,165,128376,1,2,3:2:0:0:
446,265,128523,1,8,0:0:0:0:
431,181,128671,2,0,P|392:171|360:196,1,83.9999974365235,2|0,3:2|0:0,0:0:0:0:
387,375,128967,5,2,3:2:0:0:
439,279,129114,1,0,0:0:0:0:
239,350,129262,2,0,P|294:336|327:330,1,83.9999974365235,10|0,0:2|0:0,0:0:0:0:
330,321,129484,1,0,0:0:0:0:
330,321,129558,1,2,3:2:0:0:
261,260,129706,1,0,0:0:0:0:
129,371,129853,1,10,0:2:0:0:
191,196,130001,1,2,3:2:0:0:
5,143,130149,5,2,3:2:0:0:
35,227,130297,1,0,0:0:0:0:
159,109,130445,2,0,P|118:134|87:158,1,83.9999974365235,10|0,0:2|0:0,0:0:0:0:
121,257,130740,1,2,3:2:0:0:
18,31,130888,1,8,0:0:0:0:
18,31,130962,1,8,0:0:0:0:
18,31,131036,2,0,P|63:36|83:71,1,83.9999974365235,10|0,0:2|0:0,0:0:0:0:
241,133,131331,5,2,3:2:0:0:
405,25,131479,1,10,0:2:0:0:
384,29,131553,1,2,3:2:0:0:
364,34,131627,1,10,0:2:0:0:
265,3,131775,1,2,3:2:0:0:
346,233,131922,1,2,3:2:0:0:
334,193,131996,1,2,3:2:0:0:
343,152,132070,1,2,3:2:0:0:
371,122,132144,1,2,3:2:0:0:
411,109,132218,1,10,0:2:0:0:
450,267,132366,1,10,0:0:0:0:
261,373,132514,5,2,3:2:0:0:
338,244,132661,1,0,0:0:0:0:
101,296,132809,2,0,P|114:320|123:347,1,48.9999985046387,10|0,2:2|0:0,0:0:0:0:
182,267,132957,1,0,0:0:0:0:
185,242,133031,1,0,0:0:0:0:
189,218,133105,1,2,3:2:0:0:
193,194,133179,1,0,0:0:0:0:
197,170,133252,1,8,0:0:0:0:
63,31,133400,2,0,P|113:79|110:104,1,97.9999970092774,2|0,3:2|0:0,0:0:0:0:
99,115,133622,1,0,0:0:0:0:
99,115,133696,5,2,3:2:0:0:
262,95,133844,1,0,0:0:0:0:
93,217,133991,2,0,P|76:199|54:186,1,48.9999985046387,10|0,0:2|0:0,0:0:0:0:
190,40,134139,1,0,0:0:0:0:
190,40,134213,1,0,0:0:0:0:
190,40,134287,2,0,P|203:19|222:3,1,48.9999985046387,2|0,3:2|0:0,0:0:0:0:
345,58,134435,1,0,0:0:0:0:
197,170,134582,1,10,0:2:0:0:
344,327,134730,1,2,3:2:0:0:
188,302,134878,6,0,P|219:251|265:250,1,97.9999970092774,2|0,3:2|0:0,0:0:0:0:
264,236,135100,1,0,0:0:0:0:
264,236,135174,1,10,0:2:0:0:
335,314,135321,1,0,0:0:0:0:
466,117,135469,1,2,3:2:0:0:
306,148,135617,1,8,0:0:0:0:
452,288,135765,1,2,3:2:0:0:
452,288,135839,1,0,0:0:0:0:
452,288,135913,2,0,P|458:263|474:239,1,48.9999985046387
477,106,136060,5,2,3:2:0:0:
234,49,136208,1,2,3:2:0:0:
256,57,136282,1,2,3:2:0:0:
277,71,136356,1,10,0:2:0:0:
378,237,136504,1,2,3:2:0:0:
220,134,136651,1,2,3:2:0:0:
198,178,136725,1,2,3:2:0:0:
179,223,136799,1,2,3:2:0:0:
163,269,136873,1,2,3:2:0:0:
149,316,136947,1,10,0:2:0:0:
57,366,137095,1,2,3:2:0:0:
10,105,137243,6,0,P|40:50|92:43,1,97.9999970092774,2|0,3:2|0:0,0:0:0:0:
317,0,137538,1,10,2:2:0:0:
116,144,137686,1,0,0:0:0:0:
139,137,137760,1,0,0:0:0:0:
163,131,137834,1,2,3:2:0:0:
187,126,137908,1,0,0:0:0:0:
211,122,137981,1,8,0:0:0:0:
388,51,138129,1,2,3:2:0:0:
388,51,138203,1,0,0:0:0:0:
388,51,138277,2,0,P|375:75|367:97,1,48.9999985046387
252,200,138425,5,2,3:2:0:0:
433,149,138573,1,0,0:0:0:0:
365,342,138720,2,0,P|346:279|326:228,1,97.9999970092774,10|0,0:2|0:0,0:0:0:0:
341,234,138942,1,0,0:0:0:0:
341,234,139016,1,2,3:2:0:0:
203,290,139164,1,0,0:0:0:0:
86,68,139312,1,10,0:2:0:0:
299,132,139459,1,2,3:2:0:0:
0,251,139607,6,0,P|46:270|59:319,1,97.9999970092774,2|0,3:2|0:0,0:0:0:0:
75,323,139829,1,0,0:0:0:0:
75,323,139903,1,10,0:2:0:0:
266,355,140050,1,0,0:0:0:0:
266,355,140124,1,0,0:0:0:0:
266,355,140198,1,2,3:2:0:0:
131,240,140346,1,8,0:0:0:0:
391,333,140494,1,2,3:2:0:0:
401,311,140568,1,0,0:0:0:0:
414,289,140642,1,0,0:0:0:0:
427,269,140715,1,0,0:0:0:0:
442,249,140789,5,2,3:2:0:0:
208,174,140937,1,2,3:2:0:0:
218,196,141011,1,2,3:2:0:0:
226,219,141085,1,10,0:2:0:0:
429,302,141233,1,2,3:2:0:0:
481,94,141381,1,2,3:2:0:0:
437,73,141454,1,2,3:2:0:0:
389,77,141528,1,2,3:2:0:0:
350,107,141602,1,2,3:2:0:0:
332,152,141676,1,10,0:2:0:0:
212,95,141824,1,2,3:2:0:0:
362,2,141972,5,2,3:2:0:0:
424,157,142119,1,0,0:0:0:0:
262,27,142267,2,0,P|249:52|239:78,1,48.9999985046387,10|0,2:2|0:0,0:0:0:0:
70,89,142415,1,0,0:0:0:0:
70,89,142489,1,0,0:0:0:0:
70,89,142563,2,0,P|87:108|102:134,1,48.9999985046387,2|0,3:2|0:0,0:0:0:0:
45,207,142711,1,8,0:0:0:0:
223,276,142858,2,0,P|232:253|243:231,1,48.9999985046387,2|0,3:2|0:0,0:0:0:0:
202,148,143006,1,0,0:0:0:0:
400,245,143154,6,0,P|355:260|336:304,1,97.9999970092774,2|0,3:2|0:0,0:0:0:0:
67,301,143449,1,10,0:2:0:0:
257,225,143597,1,0,0:0:0:0:
182,384,143745,2,0,P|171:359|156:332,1,48.9999985046387,2|0,3:2|0:0,0:0:0:0:
145,227,143893,1,0,0:0:0:0:
401,151,144041,1,10,0:2:0:0:
346,317,144188,1,2,3:2:0:0:
198,132,144336,6,0,P|249:111|295:98,1,97.9999970092774,2|0,3:2|0:0,0:0:0:0:
297,88,144558,1,0,0:0:0:0:
297,88,144632,1,10,0:2:0:0:
365,25,144780,1,0,0:0:0:0:
470,272,144927,1,2,3:2:0:0:
506,98,145075,1,8,0:0:0:0:
274,195,145223,1,2,3:2:0:0:
374,233,145371,1,0,0:0:0:0:
374,233,145445,1,0,0:0:0:0:
374,233,145518,5,2,3:2:0:0:
174,380,145666,1,2,3:2:0:0:
179,356,145740,1,2,3:2:0:0:
187,332,145814,1,10,0:2:0:0:
112,185,145962,1,2,3:2:0:0:
346,92,146110,1,2,3:2:0:0:
297,88,146183,1,2,3:2:0:0:
258,115,146257,1,2,3:2:0:0:
243,161,146331,1,2,3:2:0:0:
260,206,146405,1,10,0:2:0:0:
179,246,146553,1,2,3:2:0:0:
15,21,146701,6,0,B|39:13|39:13|138:57,1,112,6|0,3:2|0:0,0:0:0:0:
304,0,146996,1,10,2:2:0:0:
47,172,147144,2,0,B|102:173|102:173|137:120,1,112,4|2,0:0|3:2,0:0:0:0:
133,46,147440,1,8,0:0:0:0:
436,37,147587,2,0,B|363:82|363:82|368:42,1,112,2|0,3:2|0:0,0:0:0:0:
434,244,147883,6,0,B|433:222|433:222|460:168|460:168|440:135,1,112,6|0,3:2|0:0,0:0:0:0:
273,103,148179,1,10,0:2:0:0:
407,362,148326,1,0,0:0:0:0:
367,322,148400,1,0,0:0:0:0:
327,283,148474,1,2,3:2:0:0:
278,309,148548,1,0,0:0:0:0:
229,336,148622,1,0,0:0:0:0:
358,174,148770,1,10,0:2:0:0:
114,343,148917,2,0,L|138:288,1,56,2|0,3:2|0:0,0:0:0:0:
48,275,149065,6,0,B|31:229|31:229|50:209|50:209|61:172,1,112,6|0,3:2|0:0,0:0:0:0:
3,12,149361,1,10,0:2:0:0:
152,203,149509,2,0,B|200:175|200:175|257:187,1,112,0|2,0:0|3:2,0:0:0:0:
177,85,149804,1,8,0:0:0:0:
472,0,149952,2,0,B|439:1|439:1|450:81,1,112,2|0,3:2|0:0,0:0:0:0:
175,5,150247,5,6,3:2:0:0:
395,154,150395,1,2,3:2:0:0:
375,173,150469,1,2,3:2:0:0:
365,199,150543,1,10,0:2:0:0:
465,344,150691,1,2,3:2:0:0:
152,203,150839,1,2,3:2:0:0:
161,267,150913,1,2,3:2:0:0:
203,319,150986,1,2,3:2:0:0:
266,341,151060,1,2,3:2:0:0:
330,327,151134,1,10,0:2:0:0:
361,219,151282,1,2,3:2:0:0:
152,111,151430,6,0,B|114:99|114:99|81:107,1,70,0|0,3:2|0:0,0:0:0:0:
33,32,151725,1,8,0:0:0:0:
210,30,151873,1,0,0:0:0:0:
210,30,151947,1,0,0:0:0:0:
210,30,152021,2,0,L|219:68,2,35,0|0|0,0:0|0:0|3:2,0:0:0:0:
302,14,152316,1,0,0:0:0:0:
473,165,152464,1,8,0:0:0:0:
434,69,152612,6,0,L|356:87,1,70,0|0,3:2|0:0,0:0:0:0:
301,190,152908,1,8,0:0:0:0:
236,143,153055,1,0,0:0:0:0:
172,196,153203,1,0,0:0:0:0:
172,196,153277,1,0,0:0:0:0:
172,196,153351,2,0,L|196:264,1,70,0|0,3:2|0:0,0:0:0:0:
137,319,153647,1,8,0:0:0:0:
346,272,153794,6,0,B|311:275|311:275|298:312,1,70,0|0,3:2|0:0,0:0:0:0:
243,361,154090,1,8,0:0:0:0:
367,364,154238,1,0,0:0:0:0:
367,364,154312,1,0,0:0:0:0:
367,364,154385,2,0,L|399:384,1,35
489,368,154533,2,0,B|491:353|491:353|458:308,1,70,0|0,3:2|0:0,0:0:0:0:
372,198,154829,2,0,L|405:186,1,35,8|0,0:0|0:0,0:0:0:0:
454,132,154977,6,0,B|451:117|451:117|484:72,1,70,0|0,3:2|0:0,0:0:0:0:
416,16,155272,1,8,0:0:0:0:
361,77,155420,1,0,0:0:0:0:
288,47,155568,1,0,0:0:0:0:
288,47,155642,1,0,0:0:0:0:
288,47,155715,2,0,L|217:70,1,70,0|0,3:2|0:0,0:0:0:0:
161,20,156011,1,8,0:0:0:0:
26,166,156159,6,0,B|33:131|33:131|6:98,1,70,0|0,3:2|0:0,0:0:0:0:
100,80,156454,1,8,0:0:0:0:
13,256,156602,2,0,L|86:235,1,70,0|0,3:2|0:0,0:0:0:0:
181,166,156898,2,0,L|163:252,1,70
230,290,157193,1,8,0:0:0:0:
327,186,157341,6,0,B|294:201|294:201|293:241,1,70,0|0,3:2|0:0,0:0:0:0:
361,291,157637,1,8,0:0:0:0:
293,360,157784,1,0,0:0:0:0:
293,360,157858,1,0,0:0:0:0:
293,360,157932,2,0,L|250:369,1,35
221,302,158080,2,0,L|148:317,1,70,0|0,3:2|0:0,0:0:0:0:
96,271,158376,1,8,0:0:0:0:
0,374,158523,6,0,B|41:347|41:347|61:357,1,70,0|0,3:2|0:0,0:0:0:0:
148,331,158819,1,8,0:0:0:0:
26,220,158967,2,0,B|47:193|47:193|41:156,1,70,0|0,3:2|0:0,0:0:0:0:
148,145,159262,2,0,L|119:222,1,70
204,213,159558,1,8,0:0:0:0:
53,40,159706,6,0,B|92:66|92:66|105:89,1,70,0|0,3:2|0:0,0:0:0:0:
181,52,160001,1,8,0:0:0:0:
271,169,160149,2,0,L|239:90,1,70,0|0,3:2|0:0,0:0:0:0:
192,44,160445,1,0,0:0:0:0:
374,54,160592,2,0,B|352:86|352:86|314:87,1,70,0|8,3:2|0:0,0:0:0:0:
488,279,160888,6,0,B|505:225|505:225|478:224,1,83.9999974365235,0|0,3:2|0:0,0:0:0:0:
406,359,161183,1,8,0:0:0:0:
332,309,161331,1,0,0:0:0:0:
350,298,161405,1,0,0:0:0:0:
369,290,161479,1,0,0:0:0:0:
389,282,161553,1,0,0:0:0:0:
409,277,161627,1,0,3:2:0:0:
394,178,161775,1,0,0:0:0:0:
394,178,161848,1,0,0:0:0:0:
394,178,161922,2,0,L|360:209,1,41.9999987182618,8|0,0:0|0:0,0:0:0:0:
247,186,162070,6,0,B|258:198|258:198|245:264,1,83.9999974365235,0|0,3:2|0:0,0:0:0:0:
254,275,162292,1,0,0:0:0:0:
254,275,162366,1,8,0:0:0:0:
192,373,162514,2,0,L|236:363,1,41.9999987182618
174,311,162661,2,0,L|161:355,1,41.9999987182618
60,284,162809,2,0,B|110:275|110:275|115:223,1,83.9999974365235,0|0,3:2|0:0,0:0:0:0:
165,180,163105,1,8,0:0:0:0:
362,206,163252,6,0,L|281:176,1,83.9999974365235,0|0,3:2|0:0,0:0:0:0:
239,101,163548,1,8,0:0:0:0:
283,25,163696,1,0,0:0:0:0:
293,43,163770,1,0,0:0:0:0:
304,61,163844,1,0,0:0:0:0:
315,79,163917,1,0,0:0:0:0:
326,97,163991,1,0,3:2:0:0:
426,102,164139,1,0,0:0:0:0:
426,102,164213,1,0,0:0:0:0:
426,102,164287,2,0,L|392:69,1,41.9999987182618,8|0,0:0|0:0,0:0:0:0:
283,25,164435,6,0,B|236:55|236:55|218:28,1,83.9999974365235,0|0,3:2|0:0,0:0:0:0:
59,28,164730,1,8,0:0:0:0:
145,48,164878,1,0,0:0:0:0:
130,63,164952,1,0,0:0:0:0:
116,79,165026,1,0,0:0:0:0:
102,94,165100,1,0,0:0:0:0:
88,110,165174,1,0,3:2:0:0:
11,139,165321,1,0,0:0:0:0:
51,201,165469,1,8,0:0:0:0:
217,200,165617,6,0,L|237:283,1,83.9999974365235,0|0,3:2|0:0,0:0:0:0:
82,384,165913,2,0,B|120:339|120:339|144:355,1,83.9999974365235,8|0,0:0|3:2,0:0:0:0:
154,364,166134,1,0,0:0:0:0:
154,364,166208,2,0,L|198:348,1,41.9999987182618
313,380,166356,2,0,B|292:348|292:348|317:309,1,83.9999974365235
388,350,166651,1,8,0:0:0:0:
480,178,166799,6,0,L|390:148,1,83.9999974365235,0|0,3:2|0:0,0:0:0:0:
336,192,167095,1,8,0:0:0:0:
283,134,167243,1,0,0:0:0:0:
282,113,167316,1,0,0:0:0:0:
281,92,167390,1,0,0:0:0:0:
280,71,167464,1,0,0:0:0:0:
279,50,167538,2,0,B|298:38|298:38|361:43,1,83.9999974365235,0|0,3:2|0:0,0:0:0:0:
420,9,167834,1,8,0:0:0:0:
179,46,167981,6,0,B|209:78|209:78|200:119,1,83.9999974365235,0|0,3:2|0:0,0:0:0:0:
211,186,168277,1,8,0:0:0:0:
133,198,168425,1,0,3:2:0:0:
114,188,168499,1,0,0:0:0:0:
96,178,168573,1,0,0:0:0:0:
77,168,168647,1,0,0:0:0:0:
59,158,168720,2,0,B|17:172|17:172|38:210,1,83.9999974365235
0,272,169016,1,8,0:0:0:0:
147,103,169164,6,0,B|141:60|141:60|181:45,1,83.9999974365235,0|0,3:2|0:0,0:0:0:0:
298,11,169459,1,8,0:0:0:0:
298,11,169533,1,0,0:0:0:0:
298,11,169607,2,0,L|251:13,1,41.9999987182618,0|0,3:2|0:0,0:0:0:0:
321,152,169755,1,0,0:0:0:0:
321,152,169829,1,0,0:0:0:0:
321,152,169903,2,0,L|338:96,1,41.9999987182618
403,86,170050,1,0,3:2:0:0:
201,137,170198,2,0,L|230:170,1,41.9999987182618,8|0,0:0|0:0,0:0:0:0:
270,275,170346,5,0,3:2:0:0:
270,275,170420,1,0,0:0:0:0:
270,275,170494,2,0,L|281:230,1,41.9999987182618
363,217,170642,1,8,0:0:0:0:
363,217,170715,1,0,3:2:0:0:
363,217,170789,2,0,B|426:209|426:209|418:228,1,83.9999974365235,0|0,3:2|0:0,0:0:0:0:
435,240,171011,1,8,0:0:0:0:
435,240,171085,2,0,L|427:284,1,41.9999987182618,8|0,0:0|0:0,0:0:0:0:
512,311,171233,2,0,L|504:269,1,41.9999987182618,0|8,0:0|0:0,0:0:0:0:
387,348,171381,1,0,0:0:0:0:
387,348,171454,1,0,0:0:0:0:
387,348,171528,6,0,B|344:335|344:335|329:364,1,70,0|0,3:2|3:2,0:0:0:0:
259,322,171824,2,0,L|182:337,1,70,8|0,0:0|0:0,0:0:0:0:
177,328,172046,1,0,0:0:0:0:
159,331,172119,1,0,0:0:0:0:
142,334,172193,1,0,0:0:0:0:
125,338,172267,1,0,3:2:0:0:
26,312,172415,2,0,P|55:281|56:262,1,56,8|0,0:0|0:0,0:0:0:0:
49,258,172637,1,0,0:0:0:0:
49,258,172711,6,0,L|37:199,1,56,0|0,3:2|0:0,0:0:0:0:
10,72,173006,1,8,0:0:0:0:
80,133,173154,1,0,3:2:0:0:
80,133,173302,1,0,3:2:0:0:
153,89,173449,2,0,L|210:99,1,56,8|0,0:0|0:0,0:0:0:0:
221,90,173671,1,0,0:0:0:0:
232,82,173745,1,0,0:0:0:0:
245,78,173819,1,0,0:0:0:0:
259,79,173893,5,0,3:2:0:0:
323,35,174041,1,0,3:2:0:0:
294,153,174188,2,0,L|348:168,1,56,8|0,0:0|0:0,0:0:0:0:
361,164,174410,1,0,0:0:0:0:
374,161,174484,1,0,0:0:0:0:
388,158,174558,1,0,0:0:0:0:
402,155,174632,1,0,3:2:0:0:
459,103,174780,1,8,0:0:0:0:
414,44,174927,1,0,0:0:0:0:
489,205,175075,6,0,P|460:208|442:230,1,56,0|0,3:2|0:0,0:0:0:0:
470,362,175371,2,0,L|459:300,1,56,8|0,0:0|3:2,0:0:0:0:
447,301,175592,1,0,0:0:0:0:
433,303,175666,1,0,3:2:0:0:
419,305,175740,1,0,0:0:0:0:
405,307,175814,1,8,0:0:0:0:
337,365,175962,1,0,0:0:0:0:
330,352,176036,1,0,0:0:0:0:
320,343,176110,1,0,0:0:0:0:
308,336,176183,1,0,0:0:0:0:
294,333,176257,5,0,3:2:0:0:
226,368,176405,1,0,3:2:0:0:
215,255,176553,2,0,L|273:263,1,56,8|0,0:0|0:0,0:0:0:0:
282,257,176775,1,0,0:0:0:0:
278,243,176848,1,0,0:0:0:0:
279,229,176922,1,0,0:0:0:0:
284,217,176996,1,0,3:2:0:0:
383,158,177144,2,0,L|321:149,1,56,8|0,0:0|0:0,0:0:0:0:
315,140,177366,1,0,0:0:0:0:
315,140,177440,6,0,P|312:110|294:89,1,56,0|0,3:2|0:0,0:0:0:0:
262,20,177735,1,8,0:0:0:0:
209,77,177883,1,0,3:2:0:0:
209,77,178031,1,0,3:2:0:0:
139,45,178179,1,8,0:0:0:0:
95,111,178326,2,0,P|124:120|140:140,1,56,0|0,3:2|0:0,0:0:0:0:
55,288,178622,5,0,3:2:0:0:
18,223,178770,1,0,3:2:0:0:
18,223,178917,1,0,3:2:0:0:
82,186,179065,1,8,0:0:0:0:
79,114,179213,2,0,L|66:54,1,56,0|0,3:2|0:0,0:0:0:0:
218,24,179509,1,8,0:0:0:0:
153,135,179656,1,0,3:2:0:0:
213,188,179804,6,0,L|272:176,1,56,0|0,3:2|0:0,0:0:0:0:
303,112,180100,1,8,0:0:0:0:
378,142,180247,1,0,0:0:0:0:
375,155,180321,1,0,0:0:0:0:
373,169,180395,1,0,0:0:0:0:
370,183,180469,1,0,0:0:0:0:
368,197,180543,1,8,0:0:0:0:
421,253,180691,1,0,0:0:0:0:
418,266,180765,1,0,0:0:0:0:
416,280,180839,1,0,0:0:0:0:
413,294,180913,1,0,0:0:0:0:
411,308,180986,5,0,3:2:0:0:
452,374,181134,1,0,3:2:0:0:
338,335,181282,2,0,P|315:351|285:354,1,56,8|0,0:0|0:0,0:0:0:0:
273,352,181504,1,0,0:0:0:0:
259,349,181578,1,0,0:0:0:0:
245,346,181651,1,0,0:0:0:0:
231,343,181725,1,0,3:2:0:0:
118,323,181873,2,0,P|142:299|164:296,1,56,8|0,0:0|0:0,0:0:0:0:
176,162,182169,6,0,L|187:224,1,56,0|0,3:2|0:0,0:0:0:0:
254,259,182464,1,8,0:0:0:0:
316,209,182612,1,0,3:2:0:0:
316,209,182760,1,0,3:2:0:0:
274,140,182908,1,8,0:0:0:0:
331,86,183055,1,0,0:0:0:0:
344,84,183129,1,0,0:0:0:0:
358,86,183203,1,0,0:0:0:0:
371,91,183277,1,0,0:0:0:0:
381,100,183351,5,0,3:2:0:0:
427,165,183499,1,0,3:2:0:0:
500,132,183647,2,0,L|513:77,1,56,8|0,0:0|0:0,0:0:0:0:
510,66,183868,1,0,0:0:0:0:
503,53,183942,1,0,0:0:0:0:
493,43,184016,1,0,0:0:0:0:
481,36,184090,1,0,3:2:0:0:
411,0,184238,2,0,L|356:15,1,56,8|0,0:0|0:0,0:0:0:0:
216,21,184533,6,0,P|240:38|247:67,1,56,0|0,3:2|0:0,0:0:0:0:
201,127,184829,1,8,0:0:0:0:
144,66,184977,1,0,0:0:0:0:
130,64,185050,1,0,0:0:0:0:
116,63,185124,1,0,0:0:0:0:
102,61,185198,1,0,0:0:0:0:
88,60,185272,1,8,0:0:0:0:
40,132,185420,1,0,0:0:0:0:
53,133,185494,1,0,0:0:0:0:
66,134,185568,1,0,0:0:0:0:
80,135,185642,1,0,0:0:0:0:
94,137,185715,5,0,3:2:0:0:
109,210,185863,1,0,3:2:0:0:
26,241,186011,2,0,P|39:283|32:296,1,56,8|0,0:0|0:0,0:0:0:0:
43,305,186233,1,0,0:0:0:0:
56,307,186307,1,0,0:0:0:0:
70,309,186381,1,0,0:0:0:0:
84,312,186454,1,0,3:2:0:0:
142,365,186602,2,0,P|161:339|163:310,1,56,8|0,0:0|0:0,0:0:0:0:
210,206,186898,6,0,L|225:262,1,56,0|0,3:2|0:0,0:0:0:0:
285,314,187193,1,8,0:0:0:0:
350,268,187341,1,0,3:2:0:0:
350,268,187489,1,0,3:2:0:0:
328,196,187637,1,8,0:0:0:0:
418,157,187784,2,0,L|403:219,1,56,0|0,3:2|0:0,0:0:0:0:
465,265,188080,5,8,0:0:0:0:
463,340,188228,2,0,L|405:329,1,56,0|0,3:2|3:2,0:0:0:0:
345,279,188523,1,8,0:0:0:0:
317,206,188671,2,0,L|259:217,1,56,0|0,3:2|0:0,0:0:0:0:
205,276,188967,5,8,0:0:0:0:
139,228,189114,1,0,3:2:0:0:
192,160,189262,6,0,B|210:112|240:58|240:58|300:-18|176:-78|101:40|159:119|224:72|224:72|282:30|322:77|322:77|373:138|478:99,1,672,2|0,0:0|0:0,0:0:0:0:
512,208,193991,6,0,B|491:190|491:190|469:200|469:200|405:148|265:148|265:148|410:324|288:384|119:377|209:240,1,672,2|0,0:0|0:0,0:0:0:0:
97,293,198720,6,0,B|94:247|62:201|62:201|100:212|136:238|136:238|236:212|354:182|354:182|417:332|230:324|267:219|203:247,1,672,2|0,0:0|0:0,0:0:0:0:
40,109,203449,6,0,B|118:72|187:126|187:126|273:191|360:146|360:146|449:107|476:257|287:262|361:148|361:148|366:93|341:75,1,672,2|0,0:0|0:0,0:0:0:0:
40,73,208179,6,0,B|34:26|240:36|186:151|186:151|157:216|273:260|317:111|219:128|219:128|125:140|68:220|100:280,1,672,2|0,0:0|0:0,0:0:0:0:
282,16,212908,6,0,B|309:22|323:31|323:31|372:337|396:360|396:360|425:381|488:307|406:260|406:260|351:227|401:137,1,672,2|0,0:0|0:0,0:0:0:0:
259,370,217637,6,0,B|201:349|234:257|234:257|253:193|130:151|105:302|160:287|160:287|168:293|168:293|231:237|319:268|319:268|408:301|450:207,1,672,2|0,0:0|0:0,0:0:0:0:
498,91,222366,6,0,B|452:174|350:143|350:143|251:115|196:167|196:167|252:194|230:303|73:237|133:117|133:117|154:80|138:40,1,672,2|0,0:0|0:0,0:0:0:0:
201,352,227095,6,0,B|195:374|77:360|116:232|116:232|114:152|-34:144|-45:315|53:316|83:259|83:259|118:191|169:212|169:212|222:232|256:195,1,672,2|0,0:0|0:0,0:0:0:0:
428,361,231824,6,0,B|442:314|487:274|487:274|384:294|334:354|334:354|203:285|323:109|361:189|361:189|393:254|463:247,1,672,2|0,0:0|0:0,0:0:0:0:
264,235,236553,6,0,B|280:153|347:202|353:112|353:112|252:36|35:122|140:265|211:183|211:183|206:257|264:230|263:313,1,672,2|0,0:0|0:0,0:0:0:0:
