osu file format v14

[General]
AudioFilename: audio.mp3
AudioLeadIn: 0
PreviewTime: 56737
Countdown: 0
SampleSet: Soft
StackLeniency: 0.7
Mode: 0
LetterboxInBreaks: 0
WidescreenStoryboard: 1

[Editor]
Bookmarks: 28363,37821,56737,94570,104028,113486,132402,146589,151319,160777,171417,189151,236442
DistanceSpacing: 1
BeatDivisor: 4
GridSize: 32
TimelineZoom: 1.9

[Metadata]
Title:when the cicadas cry
TitleUnicode:when the cicadas cry
Artist:goreshit
ArtistUnicode:goreshit
Creator:riot1133
Version:lunatic
Source:
Tags:with all my heart higurashi no naku koro ni heart. electronic instrumental breakcore
BeatmapID:3778550
BeatmapSetID:1839749

[Difficulty]
HPDrainRate:4.8
CircleSize:4.6
OverallDifficulty:8.8
ApproachRate:9.4
SliderMultiplier:1.4
SliderTickRate:1

[Events]
//Background and Video events
0,0,"artem-chebokha-11regular-magic-1385.jpg",0,0
//Break Periods
//Storyboard Layer 0 (Background)
//Storyboard Layer 1 (Fail)
//Storyboard Layer 2 (Pass)
//Storyboard Layer 3 (Foreground)
//Storyboard Layer 4 (Overlay)
//Storyboard Sound Samples

[TimingPoints]
100,295.566502463054,4,2,0,60,1,0
100,-133.333333333333,4,2,0,60,0,0
28474,-100,4,2,0,70,0,0
37932,-200,4,2,0,40,0,0
38228,-200,4,2,0,5,0,0
38819,-200,4,2,0,40,0,0
39114,-250,4,2,0,40,0,0
39410,-250,4,2,0,5,0,0
40001,-250,4,2,0,40,0,0
40297,-166.666666666667,4,2,0,40,0,0
40592,-166.666666666667,4,2,0,5,0,0
41479,-166.666666666667,4,2,0,40,0,0
42661,-200,4,2,0,40,0,0
42957,-200,4,2,0,5,0,0
43548,-200,4,2,0,40,0,0
43843,-250,4,2,0,40,0,0
44139,-250,4,2,0,5,0,0
44730,-250,4,2,0,40,0,0
45026,-200,4,2,0,40,0,0
45321,-200,4,2,0,5,0,0
45912,-200,4,2,0,40,0,0
46208,-166.666666666667,4,2,0,40,0,0
46799,-142.857142857143,4,2,0,40,0,0
47390,-166.666666666667,4,2,0,45,0,0
54484,-125,4,2,0,50,0,0
56848,-100,4,2,0,70,0,0
94090,-133.333333333333,4,2,0,70,0,0
94681,-100,4,2,0,70,0,0
113597,-83.3333333333333,4,2,0,70,0,0
132513,-71.4285714285714,4,2,0,80,0,0
146700,-62.5,4,2,0,90,0,0
151430,-100,4,2,0,60,0,0
160888,-83.3333333333333,4,2,0,60,0,0
171528,-100,4,2,0,60,0,0
172119,-125,4,2,0,50,0,0
189262,-250,4,2,0,40,0,0
189558,-250,4,2,0,5,0,0
192809,-250,4,2,0,40,0,0
194287,-250,4,2,0,5,0,0
197538,-250,4,2,0,40,0,0
199016,-250,4,2,0,5,0,0
202267,-250,4,2,0,40,0,0
203745,-250,4,2,0,5,0,0
206996,-250,4,2,0,40,0,0
208474,-250,4,2,0,5,0,0
211725,-250,4,2,0,40,0,0
213203,-250,4,2,0,5,0,0
216454,-250,4,2,0,40,0,0
217932,-250,4,2,0,5,0,0
221183,-250,4,2,0,40,0,0
222661,-250,4,2,0,5,0,0
225912,-250,4,2,0,40,0,0
227390,-250,4,2,0,5,0,0
230641,-250,4,2,0,40,0,0
232119,-250,4,2,0,5,0,0
235370,-250,4,2,0,40,0,0
236848,-250,4,2,0,5,0,0
240099,-250,4,2,0,40,0,0

[Colours]
Combo1 : 100,141,99
Combo2 : 149,96,159
Combo3 : 182,179,133
Combo4 : 106,117,145

[HitObjects]
328,293,100,2,0,P|359:329|321:382,1,105.000004005432,2|0,0:0|0:0,0:0:0:0:
249,383,543,2,0,P|218:347|256:294,1,105.000004005432,2|0,0:0|0:0,0:0:0:0:
152,260,986,1,2,0:0:0:0:
35,111,1282,6,0,P|45:141|67:217,1,105.000004005432,2|0,0:0|0:0,0:0:0:0:
148,172,1725,2,0,B|212:178|187:189|248:200,1,105.000004005432,2|0,0:0|0:0,0:0:0:0:
309,140,2169,1,2,0:0:0:0:
309,140,2316,1,2,0:0:0:0:
276,59,2464,6,0,P|314:44|339:39,1,52.5000020027161,2|0,0:0|0:0,0:0:0:0:
405,66,2760,1,2,0:0:0:0:
503,24,2908,2,0,P|484:72|468:125,1,105.000004005432,2|0,0:0|0:0,0:0:0:0:
511,193,3351,1,2,0:0:0:0:
495,316,3647,6,0,P|486:278|424:250,1,105.000004005432,2|0,0:0|0:0,0:0:0:0:
378,321,4090,2,0,P|315:339|273:356,1,105.000004005432,2|0,0:0|0:0,0:0:0:0:
201,317,4533,1,2,0:0:0:0:
45,352,4829,6,0,P|97:365|155:388,1,105.000004005432,2|0,0:0|0:0,0:0:0:0:
189,314,5272,2,0,P|193:282|256:257,1,105.000004005432,2|0,0:0|0:0,0:0:0:0:
342,234,5715,1,2,0:0:0:0:
166,104,6011,5,2,0:0:0:0:
91,142,6307,1,0,0:0:0:0:
91,142,6454,2,0,P|105:174|123:242,1,105.000004005432,2|0,0:0|0:0,0:0:0:0:
88,323,6898,1,2,0:0:0:0:
88,323,7046,1,2,0:0:0:0:
181,310,7193,6,0,P|203:279|219:262,2,52.5000020027161,2|0|2,0:0|0:0|0:0,0:0:0:0:
245,378,7637,2,0,P|279:329|333:327,1,105.000004005432,2|0,0:0|0:0,0:0:0:0:
386,271,8080,2,0,P|359:250|334:235,1,52.5000020027161,2|2,0:0|0:0,0:0:0:0:
264,93,8376,6,0,P|296:98|311:118,1,52.5000020027161,2|2,0:0|0:0,0:0:0:0:
373,160,8671,2,0,P|420:136|470:119,1,105.000004005432,2|2,0:0|0:0,0:0:0:0:
504,46,9114,1,2,0:0:0:0:
438,2,9262,1,2,0:0:0:0:
438,2,9410,1,2,0:0:0:0:
356,16,9558,6,0,P|370:54|375:79,2,52.5000020027161,2|0|2,0:0|0:0|0:0,0:0:0:0:
267,0,10001,2,0,P|223:21|179:55,1,105.000004005432,2|0,0:0|0:0,0:0:0:0:
102,20,10445,1,2,0:0:0:0:
32,167,10740,6,0,P|53:124|121:108,1,105.000004005432,2|0,0:0|0:0,0:0:0:0:
215,130,11183,2,0,B|177:163|140:206,1,105.000004005432,2|0,0:0|0:0,0:0:0:0:
43,251,11627,2,0,P|75:259|97:276,1,52.5000020027161,2|2,0:0|0:0,0:0:0:0:
250,274,11922,6,0,P|236:234|228:213,2,52.5000020027161,2|0|2,0:0|0:0|0:0,0:0:0:0:
317,338,12366,2,0,P|364:346|427:365,1,105.000004005432,2|0,0:0|0:0,0:0:0:0:
485,313,12809,1,2,0:0:0:0:
512,139,13105,6,0,P|468:140|441:194,1,105.000004005432,2|0,0:0|0:0,0:0:0:0:
373,268,13548,2,0,P|350:211|329:170,1,105.000004005432,2|0,0:0|0:0,0:0:0:0:
375,99,13991,1,2,0:0:0:0:
148,107,14287,6,0,P|191:124|254:162,1,105.000004005432,2|0,0:0|0:0,0:0:0:0:
151,211,14730,2,0,P|124:253|145:300,1,105.000004005432,2|0,0:0|0:0,0:0:0:0:
104,376,15174,1,2,0:0:0:0:
44,138,15469,6,0,B|101:128|75:101|146:98,1,105.000004005432,2|0,0:0|0:0,0:0:0:0:
210,35,15913,2,0,P|189:7|117:11,1,105.000004005432,2|0,0:0|0:0,0:0:0:0:
48,42,16356,1,2,0:0:0:0:
48,42,16504,1,2,0:0:0:0:
146,113,16651,6,0,P|125:148|113:179,2,52.5000020027161,2|0|2,0:0|0:0|0:0,0:0:0:0:
228,155,17095,2,0,P|259:114|317:111,1,105.000004005432,2|0,0:0|0:0,0:0:0:0:
369,50,17538,1,2,0:0:0:0:
369,50,17686,1,0,0:0:0:0:
466,75,17834,6,0,P|446:95|428:117,1,52.5000020027161,2|0,0:0|0:0,0:0:0:0:
454,211,18129,2,0,P|471:187|496:183,1,52.5000020027161,2|0,0:0|0:0,0:0:0:0:
498,286,18425,1,2,0:0:0:0:
498,286,18499,1,0,0:0:0:0:
498,286,18573,1,8,0:0:0:0:
438,349,18720,1,8,0:0:0:0:
363,308,18868,1,8,0:0:0:0:
275,347,19016,6,0,P|298:367|316:389,2,52.5000020027161,2|0|2,0:0|0:0|0:0,0:0:0:0:
180,338,19459,2,0,P|190:286|250:259,1,105.000004005432,2|0,0:0|0:0,0:0:0:0:
286,164,19903,2,0,B|261:175|261:175|231:170,1,52.5000020027161,10|0,0:0|0:0,0:0:0:0:
221,161,20124,1,0,0:0:0:0:
221,161,20198,6,0,P|180:158|139:223,1,105.000004005432,2|0,0:0|0:0,0:0:0:0:
93,302,20642,2,0,P|84:276|69:244,1,52.5000020027161,2|0,0:0|0:0,0:0:0:0:
21,116,20937,2,0,B|47:124|47:124|56:148,1,52.5000020027161,8|2,0:0|0:0,0:0:0:0:
111,67,21233,1,2,0:0:0:0:
111,67,21381,6,0,L|166:57,1,52.5000020027161,2|0,0:0|0:0,0:0:0:0:
231,3,21676,1,2,0:0:0:0:
313,51,21824,2,0,B|287:58|287:58|278:82,1,52.5000020027161,2|0,0:0|3:0,0:0:0:0:
324,150,22119,1,0,3:0:0:0:
402,143,22267,2,0,L|405:173,2,26.2500010013581,0|0|8,3:0|0:0|0:0,0:0:0:0:
475,213,22563,5,2,3:2:0:0:
475,213,22637,1,8,0:0:0:0:
475,213,22711,1,0,3:0:0:0:
415,274,22858,1,8,0:0:0:0:
438,352,23006,2,0,B|411:355|411:355|397:379,1,52.5000020027161,2|0,3:2|0:0,0:0:0:0:
381,382,23228,1,0,0:0:0:0:
381,382,23302,2,0,L|354:374,1,26.2500010013581,8|0,0:0|0:0,0:0:0:0:
307,308,23449,1,8,0:0:0:0:
230,333,23597,1,0,3:0:0:0:
230,333,23671,1,0,3:0:0:0:
230,333,23745,5,10,0:0:0:0:
180,268,23893,1,0,0:0:0:0:
180,268,23967,1,8,0:0:0:0:
180,268,24041,1,8,0:0:0:0:
98,271,24188,2,0,B|72:279|72:279|62:303,1,52.5000020027161,2|8,0:0|0:0,0:0:0:0:
51,312,24410,1,0,0:0:0:0:
51,312,24484,2,0,L|54:334,2,13.125000500679,8|0|0,0:0|0:0|0:0,0:0:0:0:
254,202,24780,2,0,L|251:224,2,13.125000500679,8|0|0,0:0|0:0|0:0,0:0:0:0:
201,134,24927,5,2,3:2:0:0:
242,64,25075,1,0,0:0:0:0:
372,82,25223,2,0,B|346:80|346:80|323:99,1,52.5000020027161,0|2,3:2|3:2,0:0:0:0:
336,231,25518,1,8,0:0:0:0:
374,161,25666,1,0,3:2:0:0:
450,197,25814,1,2,3:2:0:0:
420,301,25962,2,0,L|412:271,1,26.2500010013581,8|0,0:0|0:0,0:0:0:0:
330,325,26110,5,2,0:0:0:0:
255,276,26257,2,0,L|139:261,1,105.000004005432,12|8,0:0|0:0,0:0:0:0:
87,314,26701,1,8,0:0:0:0:
77,324,26996,1,2,3:2:0:0:
19,259,27144,1,0,3:2:0:0:
88,202,27292,6,0,L|93:174,2,26.2500010013581,8|0|0,0:0|0:0|0:0,0:0:0:0:
37,112,27587,2,0,B|56:94|56:94|85:92,1,52.5000020027161,2|0,0:0|3:2,0:0:0:0:
144,40,27883,1,2,3:2:0:0:
215,77,28031,2,0,L|218:96,2,13.125000500679,8|0|0,0:0|0:0|0:0,0:0:0:0:
394,15,28326,2,0,L|391:34,2,13.125000500679,2|0|0,3:2|0:0|0:0,0:0:0:0:
465,74,28474,6,0,P|442:100|450:142,1,70,0|0,3:2|0:0,0:0:0:0:
441,149,28696,1,8,0:0:0:0:
441,149,28770,1,8,0:0:0:0:
512,216,28917,2,0,P|474:224|405:246,1,105,10|0,0:0|0:0,0:0:0:0:
406,259,29213,1,8,0:0:0:0:
356,330,29361,2,0,L|363:372,2,35,2|0|0,0:0|0:0|0:0,0:0:0:0:
271,290,29656,6,0,P|237:300|201:313,1,70,10|0,0:0|0:0,0:0:0:0:
163,204,29952,1,8,0:0:0:0:
73,316,30100,2,0,P|91:285|132:275,1,70,2|8,0:0|0:0,0:0:0:0:
248,197,30395,1,0,0:0:0:0:
248,197,30469,1,0,0:0:0:0:
248,197,30543,1,10,0:0:0:0:
199,112,30691,2,0,L|205:134,2,17.5,8|0|0,0:0|0:0|0:0,0:0:0:0:
264,49,30839,6,0,P|321:62|336:69,1,70,2|0,0:0|0:0,0:0:0:0:
347,62,31060,1,8,0:0:0:0:
347,62,31134,1,8,0:0:0:0:
483,94,31282,2,0,P|438:102|407:156,1,105,2|0,0:0|0:0,0:0:0:0:
396,160,31578,1,8,0:0:0:0:
481,225,31725,2,0,P|485:205|495:181,2,35,2|0|0,0:0|0:0|0:0,0:0:0:0:
422,339,32021,6,0,P|421:301|404:276,1,70,8|0,0:0|0:0,0:0:0:0:
390,273,32243,1,0,0:0:0:0:
390,273,32316,1,0,0:0:0:0:
310,183,32464,2,0,P|274:198|243:205,1,70,2|8,0:0|0:0,0:0:0:0:
168,160,32760,1,0,0:0:0:0:
168,160,32834,1,8,0:0:0:0:
168,160,32908,1,4,0:0:0:0:
12,47,33203,6,0,P|39:21|71:22,1,70,2|0,0:0|0:0,0:0:0:0:
196,80,33499,1,8,0:0:0:0:
68,112,33647,2,0,P|51:160|40:205,1,70,2|0,0:0|0:0,0:0:0:0:
32,188,33868,1,0,0:0:0:0:
32,188,33942,1,8,0:0:0:0:
81,252,34090,1,0,0:0:0:0:
15,300,34238,1,0,3:2:0:0:
165,384,34385,6,0,P|152:341|137:304,1,70,2|0,0:0|0:0,0:0:0:0:
202,253,34681,1,8,0:0:0:0:
302,323,34829,1,2,0:0:0:0:
302,323,34903,1,0,0:0:0:0:
302,323,34977,2,0,P|282:320|260:317,2,35,8|0|0,0:0|0:0|0:0,0:0:0:0:
368,374,35272,2,0,P|387:366|405:362,1,35
504,266,35420,1,2,0:0:0:0:
322,174,35568,6,0,P|333:214|339:242,1,70,2|0,0:0|0:0,0:0:0:0:
417,285,35863,1,8,0:0:0:0:
506,148,36011,1,2,0:0:0:0:
506,148,36085,1,0,0:0:0:0:
506,148,36159,2,0,P|495:169|491:191,1,35
411,194,36307,1,0,0:0:0:0:
505,63,36454,2,0,P|465:51|424:42,1,70,8|0,0:0|0:0,0:0:0:0:
227,48,36750,6,0,P|258:79|263:119,1,70,2|8,0:0|0:0,0:0:0:0:
141,44,37046,1,8,0:0:0:0:
84,103,37193,2,0,L|89:121,2,17.5,2|0|0,0:0|0:0|0:0,0:0:0:0:
13,63,37341,1,8,0:0:0:0:
36,192,37932,6,0,P|25:226|154:303,1,210,2|0,0:0|0:0,0:0:0:0:
243,359,39114,2,0,P|230:319|175:204,1,168,2|0,0:0|0:0,0:0:0:0:
307,67,40297,6,0,B|269:46|269:46|231:179|361:309,1,335.999989746094,2|0,0:0|0:0,0:0:0:0:
444,298,42070,1,2,0:0:0:0:
483,217,42661,2,0,P|384:216|264:232,1,210,2|0,0:0|0:0,0:0:0:0:
190,177,43844,2,0,P|208:135|319:153,1,168,2|0,0:0|0:0,0:0:0:0:
334,5,45026,2,0,P|371:76|487:49,1,210,2|0,0:0|0:0,0:0:0:0:
512,227,46208,6,0,B|470:223|443:183|443:183|396:177|373:217,1,167.999994873047,2|2,0:0|0:0,0:0:0:0:
273,358,47390,6,0,P|243:351|178:339,1,83.9999974365235,0|8,3:2|0:0,0:0:0:0:
75,367,47981,2,0,P|98:359|115:344,1,41.9999987182618,0|8,0:0|0:0,0:0:0:0:
141,276,48277,1,0,0:0:0:0:
129,265,48573,6,0,P|156:229|223:176,1,125.999996154785,0|0,3:2|0:0,0:0:0:0:
214,101,49164,1,0,0:0:0:0:
214,101,49312,1,8,0:0:0:0:
285,59,49459,1,0,0:0:0:0:
296,46,49755,6,0,P|328:31|376:13,1,83.9999974365235,0|8,3:2|0:0,0:0:0:0:
505,140,50346,1,0,0:0:0:0:
475,60,50494,2,0,P|434:75|428:113,1,83.9999974365235,8|0,0:0|3:2,0:0:0:0:
398,182,50937,6,0,P|412:201|419:220,1,41.9999987182618,8|0,0:0|0:0,0:0:0:0:
480,280,51233,2,0,P|458:288|449:309,1,41.9999987182618,0|0,0:0|3:2,0:0:0:0:
403,369,51528,1,0,0:0:0:0:
321,326,51676,2,0,B|274:329|290:348|237:354,1,83.9999974365235,8|8,0:0|0:0,0:0:0:0:
162,332,52119,6,0,P|146:313|128:300,1,41.9999987182618,0|0,3:2|3:2,0:0:0:0:
49,303,52415,1,8,0:0:0:0:
37,310,52711,2,0,L|30:337,2,20.9999993591309,0|0|0,3:2|0:0|0:0,0:0:0:0:
3,234,53006,1,0,3:2:0:0:
3,234,53154,1,0,0:0:0:0:
66,173,53302,6,0,P|99:171|138:205,1,83.9999974365235,0|8,3:2|0:0,0:0:0:0:
0,113,53893,2,0,P|10:91|48:27,1,83.9999974365235,0|0,3:2|3:2,0:0:0:0:
110,88,54336,1,0,0:0:0:0:
173,35,54484,6,0,P|205:10|225:-2,1,56,0|0,3:2|3:2,0:0:0:0:
328,22,54780,2,0,P|299:31|287:58,1,56,0|0,3:2|3:2,0:0:0:0:
262,144,55075,2,0,P|291:135|322:127,1,56,0|0,3:2|3:2,0:0:0:0:
407,197,55371,2,0,P|377:190|353:207,1,56,0|0,3:2|3:2,0:0:0:0:
306,265,55666,6,0,L|315:293,3,28,0|0|0|0,3:2|3:2|3:2|3:2,0:0:0:0:
394,304,55962,2,0,L|387:332,3,28,0|0|0|0,3:2|3:2|3:2|3:2,0:0:0:0:
460,368,56257,2,0,L|449:386,14,14,0|0|0|0|0|0|0|0|0|0|0|0|0|0|0,3:2|0:0|0:0|0:0|0:0|0:0|0:0|0:0|0:0|0:0|0:0|0:0|0:0|0:0|0:0,0:0:0:0:
478,259,56848,6,0,B|449:237|449:237|466:124,1,140,2|0,3:2|0:0,0:0:0:0:
486,56,57292,1,0,0:0:0:0:
326,16,57440,2,0,P|385:50|348:127,1,140,8|0,0:0|0:0,0:0:0:0:
318,178,57883,1,0,3:2:0:0:
233,71,58031,5,0,3:2:0:0:
157,36,58179,2,0,P|122:28|71:26,1,70,8|0,3:2|0:0,0:0:0:0:
0,114,58474,2,0,P|34:123|71:98,1,70,8|0,3:2|0:0,0:0:0:0:
163,134,58770,2,0,P|135:171|121:195,1,70,8|0,3:2|0:0,0:0:0:0:
15,325,59065,1,2,3:2:0:0:
122,338,59213,6,0,B|139:284|139:284|166:281|166:281|207:243,1,140,2|0,3:2|0:0,0:0:0:0:
223,243,59582,1,0,0:0:0:0:
223,243,59656,1,0,0:0:0:0:
370,197,59804,1,8,0:0:0:0:
327,125,59952,2,0,P|286:145|258:162,1,70,0|0,0:0|3:2,0:0:0:0:
277,325,60247,1,8,0:0:0:0:
357,285,60395,6,0,P|392:297|409:333,1,70,8|8,0:0|0:0,0:0:0:0:
488,293,60691,1,8,0:0:0:0:
444,159,60839,2,0,B|409:162|409:162|386:191,1,70,2|0,3:2|0:0,0:0:0:0:
439,80,61134,2,0,B|404:77|404:77|381:48,1,70,2|0,3:2|0:0,0:0:0:0:
220,8,61430,1,2,3:2:0:0:
268,91,61578,6,0,B|279:59|279:59|345:29|345:29|378:37,1,140,2|0,3:2|3:2,0:0:0:0:
315,159,62021,1,2,3:2:0:0:
185,136,62169,2,0,B|200:168|200:168|185:219,1,70,0|0,0:0|3:2,0:0:0:0:
130,59,62464,2,0,L|57:49,1,70,2|0,3:2|0:0,0:0:0:0:
0,226,62760,5,0,0:0:0:0:
0,226,62908,1,0,0:0:0:0:
29,147,63055,2,0,P|67:155|103:166,1,70,8|8,3:2|3:2,0:0:0:0:
177,210,63351,1,8,3:2:0:0:
65,292,63499,2,0,B|86:278|86:278|139:288,1,70,2|8,3:2|0:0,0:0:0:0:
246,368,63794,6,0,B|262:300|262:300|243:263|243:263|257:238,1,140,2|0,3:2|0:0,0:0:0:0:
185,116,64238,2,0,B|221:116|221:116|291:161|291:161|317:149,1,140,2|8,3:2|0:0,0:0:0:0:
322,70,64681,1,2,3:2:0:0:
440,107,64829,2,0,B|406:120|406:120|399:161,1,70,2|0,3:2|0:0,0:0:0:0:
489,294,65124,5,8,0:0:0:0:
416,248,65272,2,0,B|364:249|364:249|358:232,1,70,2|8,3:2|0:0,0:0:0:0:
283,303,65568,1,8,0:0:0:0:
335,365,65715,1,8,0:0:0:0:
193,286,65863,2,0,B|261:309|261:309|247:242,1,140,2|8,3:2|0:0,0:0:0:0:
292,159,66307,6,0,B|283:123|283:123|165:92,1,140,2|0,3:2|0:0,0:0:0:0:
138,29,66750,1,0,0:0:0:0:
53,61,66898,2,0,P|79:89|95:116,1,70,8|0,0:0|0:0,0:0:0:0:
155,177,67193,1,0,0:0:0:0:
155,177,67341,1,0,3:2:0:0:
195,86,67489,5,0,3:2:0:0:
276,77,67637,2,0,P|318:60|343:55,1,70,8|0,3:2|0:0,0:0:0:0:
353,44,67858,1,0,0:0:0:0:
353,44,67932,2,0,P|390:60|421:51,1,70,8|0,3:2|0:0,0:0:0:0:
482,0,68228,1,8,3:2:0:0:
503,249,68523,1,2,3:2:0:0:
435,202,68671,6,0,B|399:194|399:194|428:297,1,140,2|0,3:2|0:0,0:0:0:0:
371,361,69114,1,0,0:0:0:0:
251,319,69262,2,0,P|307:296|326:291,1,70,8|0,0:0|0:0,0:0:0:0:
273,217,69558,1,0,3:2:0:0:
363,181,69706,1,8,0:0:0:0:
334,80,69853,6,0,P|301:99|294:136,1,70,8|8,0:0|0:0,0:0:0:0:
211,157,70149,1,8,0:0:0:0:
109,49,70297,2,0,B|139:90|139:90|121:114,1,70,2|0,3:2|0:0,0:0:0:0:
24,174,70592,2,0,B|41:166|41:166|36:115,1,70,2|0,3:2|0:0,0:0:0:0:
128,200,70888,1,2,3:2:0:0:
23,274,71036,6,0,B|54:253|54:253|85:335|85:335|125:332,1,140,2|0,3:2|3:2,0:0:0:0:
174,280,71479,2,0,B|205:297|205:297|285:238|285:238|291:245,1,140,2|0,3:2|3:2,0:0:0:0:
381,339,71922,2,0,B|346:351|346:351|317:331,1,70,2|0,3:2|0:0,0:0:0:0:
366,190,72218,5,0,0:0:0:0:
366,190,72366,1,0,0:0:0:0:
484,244,72514,2,0,P|446:252|407:266,1,70,8|8,3:2|3:2,0:0:0:0:
356,202,72809,1,8,3:2:0:0:
477,137,72957,2,0,B|452:146|452:146|423:98,1,70,2|8,3:2|0:0,0:0:0:0:
459,0,73252,6,0,B|445:28|445:28|322:40,1,140,2|0,3:2|0:0,0:0:0:0:
216,14,73696,2,0,B|236:32|236:32|268:106|268:106|252:144,1,140,2|8,3:2|0:0,0:0:0:0:
77,49,74139,1,2,3:2:0:0:
167,103,74287,2,0,B|141:108|141:108|106:142,1,70,2|8,3:2|0:0,0:0:0:0:
49,308,74582,5,8,0:0:0:0:
0,232,74730,2,0,B|49:217|49:217|111:237|111:237|141:227,1,140,2|8,3:2|0:0,0:0:0:0:
227,239,75174,1,8,0:0:0:0:
177,384,75321,2,0,B|144:323|144:323|219:332,1,140,2|8,3:2|0:0,0:0:0:0:
285,156,75765,6,0,B|356:166|356:166|373:158|373:158|426:177,1,140,2|8,3:2|0:0,0:0:0:0:
505,285,76208,2,0,B|413:267|413:267|463:263,1,140,2|0,3:2|0:0,0:0:0:0:
501,125,76651,2,0,P|474:102|440:82,1,70,8|0,0:0|0:0,0:0:0:0:
289,10,76947,5,0,3:2:0:0:
341,83,77095,1,0,0:0:0:0:
275,7,77243,1,8,0:0:0:0:
211,109,77390,2,0,B|254:104|254:104|259:176|259:176|279:190,1,140,2|0,3:2|0:0,0:0:0:0:
360,170,77834,1,8,0:0:0:0:
286,339,77981,1,2,3:2:0:0:
171,200,78129,6,0,B|144:297|144:297|183:310,1,140,2|8,3:2|0:0,0:0:0:0:
74,381,78573,2,0,B|26:312|26:312|78:354,1,140,2|0,3:2|0:0,0:0:0:0:
69,213,79016,2,0,B|28:199|28:199|31:230,1,70,8|0,0:0|0:0,0:0:0:0:
0,121,79312,6,0,P|28:101|65:102,1,70,2|0,3:2|0:0,0:0:0:0:
137,49,79607,1,8,0:0:0:0:
166,229,79755,2,0,B|192:253|192:253|230:250,1,70,2|8,3:2|0:0,0:0:0:0:
222,156,80050,2,0,B|196:132|196:132|158:135,1,70,2|8,3:2|0:0,0:0:0:0:
241,245,80346,1,2,3:2:0:0:
383,94,80494,6,0,B|364:107|364:107|336:246,1,140,0|8,3:2|0:0,0:0:0:0:
255,46,80937,2,0,B|283:59|283:59|321:145|321:145|307:148,1,140,0|0,3:2|0:0,0:0:0:0:
471,127,81381,2,0,B|464:161|464:161|430:171,1,70,10|0,0:0|0:0,0:0:0:0:
267,279,81676,6,0,P|298:293|327:313,1,70,8|0,0:0|0:0,0:0:0:0:
193,311,81972,1,8,0:0:0:0:
133,368,82119,1,2,3:2:0:0:
133,368,82193,1,0,0:0:0:0:
133,368,82267,1,8,0:0:0:0:
48,289,82415,2,0,B|82:300|82:300|115:287,1,70,0|8,3:2|0:0,0:0:0:0:
259,195,82711,6,0,B|269:160|269:160|186:135|186:135|177:111,1,140,2|0,3:2|0:0,0:0:0:0:
55,50,83154,1,2,3:2:0:0:
114,0,83302,2,0,B|152:18|152:18|165:53,1,70,2|8,3:2|0:0,0:0:0:0:
338,22,83597,1,2,3:2:0:0:
246,3,83745,2,0,B|256:61|256:61|270:65,1,70,2|0,3:2|3:2,0:0:0:0:
345,112,84041,5,8,0:0:0:0:
512,211,84188,1,0,3:2:0:0:
460,148,84336,2,0,B|421:180|421:180|397:175,1,70,8|0,0:0|0:0,0:0:0:0:
251,217,84632,1,0,3:2:0:0:
342,324,84780,1,2,3:2:0:0:
267,225,84927,2,0,B|300:216|300:216|331:234,1,70,0|0,3:2|3:2,0:0:0:0:
4,140,85223,6,0,B|31:149|31:149|74:260,1,140,2|8,3:2|0:0,0:0:0:0:
0,349,85666,2,0,B|26:327|26:327|94:353|94:353|132:353,1,140,2|0,3:2|0:0,0:0:0:0:
210,313,86110,2,0,P|174:281|145:260,1,70,8|0,0:0|0:0,0:0:0:0:
221,26,86405,6,0,B|253:48|253:48|225:110|225:110|232:152,1,140,2|8,3:2|0:0,0:0:0:0:
382,75,86848,2,0,B|333:126|333:126|338:198,1,140,0|0,3:2|0:0,0:0:0:0:
416,243,87292,1,8,0:0:0:0:
267,270,87440,1,2,3:2:0:0:
315,342,87587,6,0,B|339:331|339:331|458:358,1,140,0|0,3:2|0:0,0:0:0:0:
431,240,88031,2,0,B|463:265|463:265|502:182|502:182|495:169,1,140,10|0,0:0|0:0,0:0:0:0:
441,118,88474,1,0,3:2:0:0:
497,5,88622,1,8,0:0:0:0:
358,97,88770,6,0,B|328:115|328:115|256:104|256:104|234:75,1,140,2|8,3:2|0:0,0:0:0:0:
107,18,89213,1,2,3:2:0:0:
89,104,89361,2,0,B|125:110|125:110|145:93|145:93|231:74,1,140,8|0,0:0|0:0,0:0:0:0:
305,22,89804,1,8,3:2:0:0:
325,219,89952,6,0,B|294:194|294:194|185:176,1,140,2|8,3:2|0:0,0:0:0:0:
38,211,90395,2,0,B|65:190|65:190|129:247|129:247|122:266,1,140,2|0,3:2|0:0,0:0:0:0:
62,370,90839,2,0,P|50:330|36:299,1,70,8|0,0:0|0:0,0:0:0:0:
262,268,91134,6,0,B|304:295|304:295|293:394,1,140,2|8,3:2|0:0,0:0:0:0:
462,263,91578,2,0,B|412:243|412:243|377:213|377:213|329:209,1,140,0|0,3:2|0:0,0:0:0:0:
280,142,92021,1,0,0:0:0:0:
445,30,92169,1,2,3:2:0:0:
454,158,92316,6,0,B|432:124|432:124|361:85|361:85|357:54,1,140,0|0,3:2|0:0,0:0:0:0:
242,20,92760,2,0,B|266:50|266:50|167:85,1,140,0|0,3:2|0:0,0:0:0:0:
99,38,93203,1,8,0:0:0:0:
18,192,93351,1,2,3:2:0:0:
105,167,93499,6,0,L|211:191,1,105,2|0,3:2|0:0,0:0:0:0:
214,204,93794,2,0,L|111:180,1,105,0|0,3:2|0:0,0:0:0:0:
53,271,94090,6,0,B|78:252|78:252|109:259|109:259|127:283|127:283|160:290|160:290|187:276,1,157.500006008148,2|0,3:2|0:0,0:0:0:0:
469,161,94681,6,0,P|436:181|407:205,1,70,2|0,3:2|0:0,0:0:0:0:
321,170,94977,2,0,P|338:133|365:124,1,70,2|0,3:2|0:0,0:0:0:0:
476,172,95272,2,0,P|443:192|414:216,1,70,2|0,3:2|0:0,0:0:0:0:
313,162,95568,2,0,P|330:125|357:116,1,70,2|0,3:2|0:0,0:0:0:0:
486,326,95863,6,0,P|447:310|419:301,1,70,2|0,3:2|0:0,0:0:0:0:
304,314,96159,2,0,P|321:274|345:261,1,70,2|0,3:2|0:0,0:0:0:0:
484,340,96454,2,0,P|445:324|417:315,1,70,2|0,3:2|0:0,0:0:0:0:
289,317,96750,1,2,3:2:0:0:
340,248,96898,1,2,3:2:0:0:
185,290,97046,6,0,P|196:327|204:359,1,70,2|0,3:2|0:0,0:0:0:0:
99,267,97341,2,0,P|109:232|138:215,1,70,2|0,3:2|0:0,0:0:0:0:
199,287,97637,2,0,P|210:324|218:356,1,70,2|0,3:2|0:0,0:0:0:0:
88,260,97932,2,0,P|98:225|127:208,1,70,2|0,3:2|0:0,0:0:0:0:
177,132,98228,5,2,3:2:0:0:
251,175,98376,1,2,3:2:0:0:
251,175,98449,1,2,3:2:0:0:
251,175,98523,1,2,3:2:0:0:
306,108,98671,1,2,3:2:0:0:
215,48,98819,1,2,3:2:0:0:
197,46,98893,1,2,3:2:0:0:
180,45,98967,1,2,3:2:0:0:
162,43,99041,1,2,3:2:0:0:
145,42,99114,1,2,3:2:0:0:
61,32,99262,1,2,3:2:0:0:
17,117,99410,6,0,P|38:149|57:187,1,70,2|0,3:2|0:0,0:0:0:0:
138,206,99706,2,0,P|140:244|137:286,1,70,2|0,3:2|0:0,0:0:0:0:
29,111,100001,2,0,P|50:143|69:181,1,70,2|0,3:2|0:0,0:0:0:0:
150,200,100297,2,0,P|152:238|149:280,1,70,2|0,3:2|0:0,0:0:0:0:
225,350,100592,6,0,P|246:316|278:309,1,70,2|0,3:2|0:0,0:0:0:0:
313,234,100888,2,0,P|348:215|379:224,1,70,2|0,3:2|0:0,0:0:0:0:
235,361,101183,2,0,P|256:327|288:320,1,70,2|0,3:2|0:0,0:0:0:0:
300,226,101479,1,2,3:2:0:0:
384,212,101627,1,2,3:2:0:0:
392,367,101775,6,0,P|378:329|362:292,1,70,2|0,3:2|0:0,0:0:0:0:
469,278,102070,2,0,P|475:243|479:208,1,70,2|0,3:2|0:0,0:0:0:0:
403,362,102366,2,0,P|389:324|373:287,1,70,2|0,3:2|0:0,0:0:0:0:
480,273,102661,2,0,P|486:238|490:203,1,70,2|0,3:2|0:0,0:0:0:0:
445,39,102957,5,2,3:2:0:0:
508,107,103105,1,2,3:2:0:0:
508,107,103179,1,2,3:2:0:0:
508,107,103252,1,2,3:2:0:0:
427,149,103400,1,2,3:2:0:0:
355,42,103548,1,2,3:2:0:0:
352,59,103622,1,2,3:2:0:0:
349,76,103696,1,2,3:2:0:0:
346,93,103770,1,2,3:2:0:0:
343,111,103844,1,2,3:2:0:0:
331,190,103991,1,2,3:2:0:0:
256,258,104139,6,0,P|214:236|187:228,1,70,2|0,3:2|0:0,0:0:0:0:
117,278,104435,1,10,2:2:0:0:
28,164,104582,1,0,0:0:0:0:
28,164,104656,1,0,0:0:0:0:
28,164,104730,1,2,3:2:0:0:
113,185,104878,2,0,P|136:154|172:147,1,70,8|2,0:0|3:2,0:0:0:0:
176,135,105100,1,0,0:0:0:0:
176,135,105174,2,0,P|172:116|167:97,1,35
288,34,105321,6,0,P|268:81|259:107,1,70,2|0,3:2|0:0,0:0:0:0:
379,201,105617,2,0,P|354:165|327:158,1,70,10|0,0:2|0:0,0:0:0:0:
266,220,105913,1,2,3:2:0:0:
266,220,105986,1,0,0:0:0:0:
266,220,106060,1,0,0:0:0:0:
299,356,106208,1,10,0:2:0:0:
338,279,106356,1,2,3:2:0:0:
412,330,106504,6,0,P|464:314|486:307,1,70,2|0,3:2|0:0,0:0:0:0:
477,149,106799,1,10,0:2:0:0:
442,231,106947,1,0,0:0:0:0:
363,199,107095,1,2,3:2:0:0:
363,199,107169,1,0,0:0:0:0:
363,199,107243,1,8,0:0:0:0:
391,119,107390,1,2,3:2:0:0:
391,119,107464,1,0,0:0:0:0:
391,119,107538,1,0,0:0:0:0:
337,47,107686,5,2,3:2:0:0:
211,32,107834,1,2,3:2:0:0:
211,32,107908,1,2,3:2:0:0:
211,32,107981,1,10,0:2:0:0:
268,104,108129,1,2,3:2:0:0:
140,85,108277,1,2,3:2:0:0:
127,97,108351,1,2,3:2:0:0:
119,113,108425,1,2,3:2:0:0:
116,130,108499,1,2,3:2:0:0:
117,147,108573,1,10,0:2:0:0:
176,210,108720,1,2,3:2:0:0:
31,299,108868,6,0,P|26:316|22:335,2,35,2|0|8,3:2|0:0|0:0,0:0:0:0:
116,279,109164,1,10,2:2:0:0:
116,279,109238,1,0,0:0:0:0:
116,279,109312,1,0,0:0:0:0:
183,341,109459,2,0,P|227:324|254:316,1,70,2|8,3:2|0:0,0:0:0:0:
246,180,109755,2,0,P|214:214|182:215,1,70,2|0,3:2|0:0,0:0:0:0:
176,210,109977,1,0,0:0:0:0:
176,210,110050,6,0,P|171:192|163:170,2,35,2|0|0,3:2|0:0|0:0,0:0:0:0:
35,101,110346,2,0,P|72:100|96:121,1,70,10|0,0:2|0:0,0:0:0:0:
275,102,110642,2,0,P|241:91|207:84,1,70,2|0,3:2|0:0,0:0:0:0:
332,27,110937,1,10,0:2:0:0:
409,73,111085,1,2,3:2:0:0:
484,34,111233,6,0,P|487:15|496:-7,2,35,2|0|0,3:2|0:0|0:0,0:0:0:0:
352,137,111528,2,0,P|374:174|390:207,1,70,10|0,0:2|0:0,0:0:0:0:
470,223,111750,1,0,0:0:0:0:
470,223,111824,2,0,P|439:249|435:296,1,70,2|8,3:2|0:0,0:0:0:0:
342,368,112119,2,0,P|322:320|308:294,1,70,2|0,3:2|0:0,0:0:0:0:
298,298,112341,1,0,0:0:0:0:
298,298,112415,5,2,3:2:0:0:
221,338,112563,1,2,3:2:0:0:
221,338,112637,1,2,3:2:0:0:
221,338,112711,1,10,0:2:0:0:
160,282,112858,1,2,3:2:0:0:
185,135,113006,1,2,3:2:0:0:
190,151,113080,1,2,3:2:0:0:
196,168,113154,1,2,3:2:0:0:
202,184,113228,1,2,3:2:0:0:
207,201,113302,1,10,0:2:0:0:
292,214,113449,1,2,3:2:0:0:
344,86,113597,6,0,P|297:101|278:133,1,83.9999974365235,2|0,3:2|0:0,0:0:0:0:
129,72,113893,2,0,P|168:111|190:143,1,83.9999974365235,10|0,2:2|0:0,0:0:0:0:
52,116,114188,1,2,3:2:0:0:
52,116,114262,1,0,0:0:0:0:
52,116,114336,1,8,0:0:0:0:
78,272,114484,2,0,P|93:225|105:175,1,83.9999974365235,2|0,3:2|0:0,0:0:0:0:
13,366,114780,6,0,P|56:361|88:387,1,83.9999974365235,2|0,3:2|0:0,0:0:0:0:
228,278,115075,2,0,P|182:307|156:329,1,83.9999974365235,10|0,0:2|0:0,0:0:0:0:
242,368,115371,1,2,3:2:0:0:
242,368,115445,1,0,0:0:0:0:
242,368,115518,1,0,0:0:0:0:
309,228,115666,1,10,0:2:0:0:
328,324,115814,1,2,3:2:0:0:
450,281,115962,6,0,P|423:326|405:365,1,83.9999974365235,2|0,3:2|0:0,0:0:0:0:
311,215,116257,2,0,P|355:192|385:206,1,83.9999974365235,10|0,0:2|0:0,0:0:0:0:
463,156,116553,1,2,3:2:0:0:
463,156,116627,1,0,0:0:0:0:
463,156,116701,1,8,0:0:0:0:
424,12,116848,2,0,P|410:60|401:101,1,83.9999974365235,2|0,3:2|0:0,0:0:0:0:
389,103,117070,1,0,0:0:0:0:
389,103,117144,5,2,3:2:0:0:
300,40,117292,1,2,3:2:0:0:
300,40,117366,1,2,3:2:0:0:
300,40,117440,1,10,0:2:0:0:
221,110,117587,1,2,3:2:0:0:
67,73,117735,1,2,3:2:0:0:
80,56,117809,1,2,3:2:0:0:
97,45,117883,1,2,3:2:0:0:
118,41,117957,1,2,3:2:0:0:
138,43,118031,1,10,0:2:0:0:
210,123,118179,1,2,3:2:0:0:
13,147,118326,6,0,P|24:167|32:190,2,41.9999987182618,2|0|0,3:2|0:0|0:0,0:0:0:0:
157,197,118622,2,0,P|121:236|100:267,1,83.9999974365235,10|0,2:2|0:0,0:0:0:0:
219,378,118917,2,0,P|276:375|297:351,1,83.9999974365235,2|8,3:2|0:0,0:0:0:0:
251,206,119213,2,0,P|239:257|234:295,1,83.9999974365235,2|0,3:2|0:0,0:0:0:0:
383,363,119509,6,0,P|394:345|412:326,2,41.9999987182618,2|0|0,3:2|0:0|0:0,0:0:0:0:
329,155,119804,2,0,P|374:162|395:197,1,83.9999974365235,10|0,0:2|0:0,0:0:0:0:
502,336,120100,2,0,P|461:326|420:317,1,83.9999974365235,2|0,3:2|0:0,0:0:0:0:
264,214,120395,1,10,0:2:0:0:
334,282,120543,1,2,3:2:0:0:
326,141,120691,6,0,P|316:119|307:102,2,41.9999987182618,2|0|0,3:2|0:0|0:0,0:0:0:0:
512,159,120986,2,0,P|490:200|474:240,1,83.9999974365235,10|0,0:2|0:0,0:0:0:0:
395,78,121282,2,0,P|433:54|488:74,1,83.9999974365235,2|8,3:2|0:0,0:0:0:0:
241,23,121578,2,0,P|220:78|200:119,1,83.9999974365235,2|0,3:2|0:0,0:0:0:0:
15,166,121873,5,2,3:2:0:0:
63,95,122021,1,2,3:2:0:0:
63,95,122095,1,2,3:2:0:0:
63,95,122169,1,10,0:2:0:0:
165,178,122316,1,2,3:2:0:0:
34,296,122464,1,2,3:2:0:0:
37,275,122538,1,2,3:2:0:0:
47,257,122612,1,2,3:2:0:0:
63,243,122686,1,2,3:2:0:0:
83,237,122760,1,10,0:2:0:0:
226,253,122908,1,2,3:2:0:0:
166,384,123055,6,0,P|136:338|113:312,1,83.9999974365235,2|0,3:2|0:0,0:0:0:0:
299,218,123351,2,0,P|270:259|235:264,1,83.9999974365235,10|0,2:2|0:0,0:0:0:0:
83,237,123647,1,2,3:2:0:0:
83,237,123720,1,0,0:0:0:0:
83,237,123794,1,8,0:0:0:0:
220,175,123942,2,0,P|231:121|242:84,1,83.9999974365235,2|0,3:2|0:0,0:0:0:0:
305,329,124238,6,0,P|335:363|379:363,1,83.9999974365235,2|0,3:2|0:0,0:0:0:0:
502,259,124533,2,0,P|475:314|465:341,1,83.9999974365235,10|0,0:2|0:0,0:0:0:0:
301,315,124829,1,2,3:2:0:0:
301,315,124903,1,0,0:0:0:0:
301,315,124977,1,0,0:0:0:0:
428,165,125124,1,10,0:2:0:0:
383,270,125272,1,2,3:2:0:0:
233,189,125420,6,0,P|283:171|324:161,1,83.9999974365235,2|0,3:2|0:0,0:0:0:0:
508,92,125715,2,0,P|472:62|432:62,1,83.9999974365235,10|0,0:2|0:0,0:0:0:0:
304,0,126011,2,0,P|326:45|345:88,1,83.9999974365235,2|8,3:2|0:0,0:0:0:0:
146,162,126307,2,0,P|175:96|190:68,1,83.9999974365235,2|0,3:2|0:0,0:0:0:0:
172,73,126528,1,0,0:0:0:0:
172,73,126602,5,2,3:2:0:0:
35,31,126750,1,2,3:2:0:0:
35,31,126824,1,2,3:2:0:0:
35,31,126898,1,10,0:2:0:0:
84,106,127046,1,2,3:2:0:0:
0,256,127193,1,2,3:2:0:0:
8,237,127267,1,2,3:2:0:0:
23,222,127341,1,2,3:2:0:0:
42,214,127415,1,2,3:2:0:0:
63,213,127489,1,10,0:2:0:0:
151,259,127637,1,2,3:2:0:0:
305,305,127784,6,0,P|244:317|219:324,1,83.9999974365235,2|0,3:2|0:0,0:0:0:0:
57,382,128080,2,0,P|51:339|73:305,1,83.9999974365235,10|0,2:2|0:0,0:0:0:0:
239,212,128376,1,2,3:2:0:0:
239,212,128449,1,0,0:0:0:0:
239,212,128523,1,8,0:0:0:0:
18,142,128671,2,0,P|58:204|69:226,1,83.9999974365235,2|0,3:2|0:0,0:0:0:0:
129,181,128893,1,0,0:0:0:0:
129,181,128967,6,0,P|143:137|178:120,1,83.9999974365235,2|0,3:2|0:0,0:0:0:0:
359,82,129262,2,0,P|324:148|316:170,1,83.9999974365235,10|0,0:2|0:0,0:0:0:0:
247,44,129558,1,2,3:2:0:0:
247,44,129632,1,0,0:0:0:0:
247,44,129706,1,0,0:0:0:0:
326,170,129853,1,10,0:2:0:0:
191,119,130001,1,2,3:2:0:0:
186,259,130149,6,0,P|227:248|287:237,1,83.9999974365235,2|0,3:2|0:0,0:0:0:0:
448,186,130445,2,0,P|417:214|411:256,1,83.9999974365235,10|0,0:2|0:0,0:0:0:0:
475,333,130740,1,2,3:2:0:0:
334,304,130888,1,8,0:0:0:0:
334,304,130962,1,8,0:0:0:0:
334,304,131036,2,0,P|320:346|308:388,1,83.9999974365235,10|0,0:2|0:0,0:0:0:0:
173,253,131331,5,2,3:2:0:0:
229,315,131479,1,10,0:2:0:0:
229,315,131553,1,2,3:2:0:0:
229,315,131627,1,10,0:2:0:0:
113,365,131775,1,2,3:2:0:0:
57,244,131922,1,2,3:2:0:0:
60,223,131996,1,2,3:2:0:0:
71,205,132070,1,2,3:2:0:0:
86,191,132144,1,2,3:2:0:0:
106,183,132218,1,10,0:2:0:0:
277,229,132366,1,10,0:0:0:0:
313,95,132514,5,2,3:2:0:0:
204,156,132661,1,0,0:0:0:0:
278,12,132809,2,0,P|305:3|328:1,2,48.9999985046387,10|0|0,2:2|0:0|0:0,0:0:0:0:
188,7,133105,1,2,3:2:0:0:
188,7,133252,1,8,0:0:0:0:
124,93,133400,2,0,P|110:45|86:-9,1,97.9999970092774,2|0,3:2|0:0,0:0:0:0:
4,273,133696,6,0,P|47:305|91:298,1,97.9999970092774,2|0,3:2|0:0,0:0:0:0:
224,174,133991,2,0,P|189:229|172:265,1,97.9999970092774,10|0,0:2|0:0,0:0:0:0:
182,271,134213,1,0,0:0:0:0:
182,271,134287,1,2,3:2:0:0:
161,357,134435,1,0,0:0:0:0:
283,251,134582,1,10,0:2:0:0:
327,363,134730,1,2,3:2:0:0:
404,205,134878,6,0,P|362:168|315:169,1,97.9999970092774,2|0,3:2|0:0,0:0:0:0:
207,64,135174,2,0,P|225:131|236:176,1,97.9999970092774,10|0,0:2|0:0,0:0:0:0:
372,285,135469,1,2,3:2:0:0:
507,175,135617,1,8,0:0:0:0:
449,115,135765,1,2,3:2:0:0:
478,36,135913,1,0,0:0:0:0:
478,36,135986,1,0,0:0:0:0:
478,36,136060,5,2,3:2:0:0:
349,88,136208,1,2,3:2:0:0:
349,88,136282,1,2,3:2:0:0:
349,88,136356,1,10,0:2:0:0:
207,21,136504,1,2,3:2:0:0:
198,170,136651,1,2,3:2:0:0:
205,147,136725,1,2,3:2:0:0:
222,129,136799,1,2,3:2:0:0:
245,119,136873,1,2,3:2:0:0:
269,120,136947,1,10,0:2:0:0:
384,166,137095,1,2,3:2:0:0:
312,300,137243,6,0,P|297:254|275:202,1,97.9999970092774,2|0,3:2|0:0,0:0:0:0:
108,142,137538,2,0,P|163:150|191:194,1,97.9999970092774,10|0,2:2|0:0,0:0:0:0:
39,195,137834,1,2,3:2:0:0:
39,195,137908,1,0,0:0:0:0:
39,195,137981,1,8,0:0:0:0:
210,282,138129,2,0,P|185:287|159:297,2,48.9999985046387,2|0|0,3:2|0:0|0:0,0:0:0:0:
44,358,138425,6,0,P|12:292|-9:258,1,97.9999970092774,2|0,3:2|0:0,0:0:0:0:
152,128,138720,2,0,P|156:175|127:213,1,97.9999970092774,10|0,0:2|0:0,0:0:0:0:
7,126,139016,1,2,3:2:0:0:
7,126,139090,1,0,0:0:0:0:
7,126,139164,1,0,0:0:0:0:
178,3,139312,1,10,0:2:0:0:
59,32,139459,1,2,3:2:0:0:
241,112,139607,6,0,P|268:61|294:19,1,97.9999970092774,2|0,3:2|0:0,0:0:0:0:
461,0,139903,2,0,P|411:9|390:52,1,97.9999970092774,10|0,0:2|0:0,0:0:0:0:
484,104,140198,1,2,3:2:0:0:
339,149,140346,1,8,0:0:0:0:
412,197,140494,2,0,P|399:247|389:308,1,97.9999970092774,2|0,3:2|0:0,0:0:0:0:
378,304,140715,1,0,0:0:0:0:
378,304,140789,5,2,3:2:0:0:
285,227,140937,1,2,3:2:0:0:
285,227,141011,1,2,3:2:0:0:
285,227,141085,1,10,0:2:0:0:
268,366,141233,1,2,3:2:0:0:
109,318,141381,1,2,3:2:0:0:
132,310,141454,1,2,3:2:0:0:
155,303,141528,1,2,3:2:0:0:
179,296,141602,1,2,3:2:0:0:
202,289,141676,1,10,0:2:0:0:
273,211,141824,1,2,3:2:0:0:
108,125,141972,5,2,3:2:0:0:
176,199,142119,1,0,0:0:0:0:
253,83,142267,2,0,P|245:104|238:133,2,48.9999985046387,10|0|0,2:2|0:0|0:0,0:0:0:0:
362,220,142563,1,2,3:2:0:0:
445,151,142711,1,8,0:0:0:0:
328,24,142858,2,0,P|350:90|365:154,1,97.9999970092774,2|0,3:2|0:0,0:0:0:0:
433,271,143154,6,0,P|376:266|354:233,1,97.9999970092774,2|0,3:2|0:0,0:0:0:0:
257,307,143449,1,10,0:2:0:0:
342,348,143597,1,0,0:0:0:0:
192,384,143745,2,0,P|168:327|147:293,1,97.9999970092774,2|0,3:2|0:0,0:0:0:0:
90,201,144041,1,10,0:2:0:0:
35,352,144188,1,2,3:2:0:0:
105,207,144336,6,0,P|157:185|192:204,1,97.9999970092774,2|0,3:2|0:0,0:0:0:0:
206,201,144558,1,0,0:0:0:0:
206,201,144632,1,10,0:2:0:0:
228,115,144780,1,0,0:0:0:0:
58,34,144927,1,2,3:2:0:0:
141,104,145075,1,8,0:0:0:0:
293,36,145223,2,0,P|223:22|184:18,1,97.9999970092774,2|0,3:2|0:0,0:0:0:0:
181,25,145445,1,0,0:0:0:0:
181,25,145518,5,2,3:2:0:0:
318,123,145666,1,2,3:2:0:0:
318,123,145740,1,2,3:2:0:0:
318,123,145814,1,10,0:2:0:0:
382,15,145962,1,2,3:2:0:0:
488,146,146110,1,2,3:2:0:0:
476,124,146183,1,2,3:2:0:0:
457,109,146257,1,2,3:2:0:0:
434,101,146331,1,2,3:2:0:0:
410,102,146405,1,10,0:2:0:0:
351,208,146553,1,2,3:2:0:0:
492,298,146701,6,0,B|464:279|464:279|380:292,1,112,6|0,3:2|0:0,0:0:0:0:
360,384,146996,1,10,2:2:0:0:
247,178,147144,2,0,B|248:206|248:206|211:241|211:241|193:275,1,112,4|2,0:0|3:2,0:0:0:0:
246,379,147440,1,8,0:0:0:0:
99,376,147587,2,0,B|53:342|53:342|-3:356,1,112,2|0,3:2|0:0,0:0:0:0:
12,48,147883,6,0,B|38:63|38:63|25:172,1,112,6|0,3:2|0:0,0:0:0:0:
166,165,148179,2,0,B|111:165|111:165|123:227,1,112,10|0,0:2|0:0,0:0:0:0:
104,243,148400,1,0,0:0:0:0:
104,243,148474,1,2,3:2:0:0:
336,196,148622,1,0,0:0:0:0:
167,49,148770,2,0,B|235:44|235:44|262:83,1,112,10|2,0:2|3:2,0:0:0:0:
496,78,149065,6,0,B|476:54|476:54|429:59|429:59|389:47,1,112,6|0,3:2|0:0,0:0:0:0:
199,129,149361,1,10,0:2:0:0:
366,204,149509,2,0,B|363:178|363:178|444:147,1,112,0|2,0:0|3:2,0:0:0:0:
501,286,149804,1,8,0:0:0:0:
318,326,149952,2,0,B|354:370|354:370|407:353,1,112,2|0,3:2|0:0,0:0:0:0:
307,337,150247,6,0,B|281:306|281:306|186:290,1,112,6|2,3:2|3:2,0:0:0:0:
196,270,150469,1,2,3:2:0:0:
196,270,150543,1,10,0:2:0:0:
149,204,150691,1,2,3:2:0:0:
4,360,150839,1,2,3:2:0:0:
2,318,150913,1,2,3:2:0:0:
23,282,150986,1,2,3:2:0:0:
60,264,151060,1,2,3:2:0:0:
101,268,151134,1,10,0:2:0:0:
27,52,151282,1,2,3:2:0:0:
99,105,151430,6,0,B|134:109|134:109|175:137,1,70,0|0,3:2|0:0,0:0:0:0:
233,77,151725,1,8,0:0:0:0:
341,38,151873,2,0,L|333:76,3,35
361,27,152169,2,0,B|466:54|466:54|464:104,1,140,0|8,3:2|0:0,0:0:0:0:
496,192,152612,6,0,B|457:202|457:202|436:307,1,140,0|8,3:2|0:0,0:0:0:0:
470,383,153055,1,0,0:0:0:0:
470,383,153129,1,0,0:0:0:0:
470,383,153203,1,0,0:0:0:0:
357,331,153351,2,0,B|318:359|318:359|249:356|249:356|232:375,1,140,0|8,3:2|0:0,0:0:0:0:
78,379,153794,6,0,B|93:310|93:310|164:325,1,140,0|8,3:2|0:0,0:0:0:0:
278,258,154238,2,0,L|289:221,3,35
263,267,154533,2,0,B|176:224|176:224|112:239,1,140,0|8,3:2|0:0,0:0:0:0:
30,126,154977,6,0,B|56:157|56:157|20:265,1,140,0|8,3:2|0:0,0:0:0:0:
71,328,155420,1,0,0:0:0:0:
71,328,155494,1,0,0:0:0:0:
71,328,155568,1,0,0:0:0:0:
221,384,155715,2,0,B|216:324|216:324|237:306|237:306|252:251,1,140,0|8,3:2|0:0,0:0:0:0:
139,120,156159,6,0,B|178:113|178:113|271:166,1,140,0|8,3:2|0:0,0:0:0:0:
275,24,156602,2,0,B|311:22|311:22|341:111|341:111|354:119,1,140,0|0,3:2|0:0,0:0:0:0:
428,78,157046,1,0,0:0:0:0:
428,78,157193,1,8,0:0:0:0:
483,221,157341,6,0,B|375:202|375:202|341:230,1,140,0|8,3:2|0:0,0:0:0:0:
275,256,157784,1,0,0:0:0:0:
275,256,157858,1,0,0:0:0:0:
275,256,157932,1,0,0:0:0:0:
375,384,158080,2,0,B|403:291|403:291|431:331,1,140,0|8,3:2|0:0,0:0:0:0:
281,343,158523,6,0,B|240:362|240:362|159:351|159:351|151:333,1,140,0|8,3:2|0:0,0:0:0:0:
119,156,158967,2,0,B|113:199|113:199|186:262,1,140,0|0,3:2|0:0,0:0:0:0:
254,171,159410,2,0,B|214:160|214:160|212:130,1,70,0|8,0:0|0:0,0:0:0:0:
64,40,159706,6,0,B|95:21|95:21|213:52,1,140,0|8,3:2|0:0,0:0:0:0:
345,9,160149,2,0,B|279:74|279:74|320:103,1,140,0|0,3:2|0:0,0:0:0:0:
421,116,160592,2,0,B|401:159|401:159|425:175,1,70,0|8,3:2|0:0,0:0:0:0:
512,276,160888,6,0,B|477:249|477:249|437:257,1,83.9999974365235,0|0,3:2|0:0,0:0:0:0:
289,233,161183,2,0,P|329:266|331:301,1,83.9999974365235,8|0,0:0|0:0,0:0:0:0:
343,308,161405,1,0,0:0:0:0:
343,308,161479,1,0,0:0:0:0:
218,288,161627,2,0,B|200:261|200:261|61:240,1,167.999994873047,0|8,3:2|0:0,0:0:0:0:
0,353,162070,6,0,B|36:330|36:330|76:342,1,83.9999974365235,0|0,3:2|0:0,0:0:0:0:
168,372,162366,1,8,0:0:0:0:
203,290,162514,1,0,0:0:0:0:
203,290,162587,1,0,0:0:0:0:
203,290,162661,1,0,0:0:0:0:
166,199,162809,2,0,B|146:225|146:225|128:82,1,167.999994873047,0|8,3:2|0:0,0:0:0:0:
372,55,163252,6,0,B|332:70|332:70|321:111,1,83.9999974365235,0|0,3:2|0:0,0:0:0:0:
180,5,163548,2,0,P|210:40|232:74,1,83.9999974365235,8|0,0:0|0:0,0:0:0:0:
226,86,163770,1,0,0:0:0:0:
226,86,163844,1,0,0:0:0:0:
64,20,163991,2,0,B|88:42|88:42|69:186,1,167.999994873047,0|8,3:2|0:0,0:0:0:0:
19,317,164435,6,0,B|40:287|40:287|141:261|141:261|171:279,1,167.999994873047,0|8,3:2|0:0,0:0:0:0:
277,358,164878,1,0,0:0:0:0:
277,358,164952,1,0,0:0:0:0:
277,358,165026,1,0,0:0:0:0:
248,236,165174,2,0,B|288:243|288:243|315:278,1,83.9999974365235,0|0,3:2|0:0,0:0:0:0:
404,293,165469,1,8,0:0:0:0:
436,71,165617,6,0,B|407:74|407:74|371:212,1,167.999994873047,0|8,3:2|0:0,0:0:0:0:
272,146,166060,2,0,L|298:104,1,41.9999987182618,0|0,3:2|0:0,0:0:0:0:
249,57,166208,2,0,L|292:33,1,41.9999987182618
179,38,166356,2,0,B|125:31|125:31|79:9|79:9|16:0,1,167.999994873047,0|8,0:0|0:0,0:0:0:0:
22,115,166799,6,0,B|47:92|47:92|40:229,1,167.999994873047,0|8,3:2|0:0,0:0:0:0:
84,353,167243,2,0,L|53:311,3,41.9999987182618
106,358,167538,2,0,B|137:331|137:331|180:346,1,83.9999974365235,0|0,3:2|0:0,0:0:0:0:
252,303,167834,1,8,0:0:0:0:
134,171,167981,6,0,B|161:203|161:203|154:262,1,83.9999974365235,0|0,3:2|0:0,0:0:0:0:
247,213,168277,1,8,0:0:0:0:
213,129,168425,1,0,3:2:0:0:
213,129,168499,1,0,0:0:0:0:
213,129,168573,2,0,L|259:118,1,41.9999987182618
349,135,168720,2,0,B|334:176|334:176|355:210,1,83.9999974365235
439,240,169016,1,8,0:0:0:0:
495,104,169164,6,0,B|501:78|501:78|360:54,1,167.999994873047,0|8,3:2|0:0,0:0:0:0:
350,42,169533,1,0,0:0:0:0:
350,42,169607,1,0,3:2:0:0:
270,12,169755,1,0,0:0:0:0:
270,12,169829,1,0,0:0:0:0:
270,12,169903,1,0,0:0:0:0:
204,64,170050,1,0,3:2:0:0:
128,12,170198,1,8,0:0:0:0:
128,12,170272,1,0,0:0:0:0:
128,12,170346,6,0,L|87:25,1,41.9999987182618,0|0,3:2|0:0,0:0:0:0:
98,93,170494,2,0,L|68:124,1,41.9999987182618
8,172,170642,5,8,0:0:0:0:
8,172,170715,1,0,3:2:0:0:
8,172,170789,2,0,L|26:257,1,83.9999974365235,0|0,3:2|0:0,0:0:0:0:
41,263,171011,1,8,0:0:0:0:
41,263,171085,1,8,0:0:0:0:
18,354,171233,1,0,0:0:0:0:
38,349,171307,1,8,0:0:0:0:
58,344,171381,1,0,0:0:0:0:
79,339,171454,1,0,0:0:0:0:
99,335,171528,6,0,B|131:349|131:349|171:336,1,70,0|0,3:2|3:2,0:0:0:0:
216,273,171824,1,8,0:0:0:0:
284,323,171972,2,0,L|317:308,3,35
278,338,172267,1,0,3:2:0:0:
367,379,172415,2,0,P|386:351|410:330,1,56,8|0,0:0|0:0,0:0:0:0:
490,253,172711,6,0,P|464:226|438:226,1,56,0|0,3:2|0:0,0:0:0:0:
372,258,173006,1,8,0:0:0:0:
331,185,173154,1,0,3:2:0:0:
331,185,173302,1,0,3:2:0:0:
405,144,173449,1,8,0:0:0:0:
371,67,173597,2,0,L|343:59,3,28
387,60,173893,5,0,3:2:0:0:
465,27,174041,1,0,3:2:0:0:
512,103,174188,2,0,P|495:137|485:177,1,56,8|0,0:0|0:0,0:0:0:0:
496,170,174410,1,0,0:0:0:0:
496,170,174484,2,0,P|491:183|485:198,2,28,0|0|0,0:0|0:0|3:2,0:0:0:0:
466,275,174780,2,0,P|432:249|411:237,1,56,8|0,0:0|0:0,0:0:0:0:
290,117,175075,6,0,P|266:143|236:148,1,56,0|0,3:2|0:0,0:0:0:0:
178,91,175371,1,8,0:0:0:0:
102,140,175518,1,0,3:2:0:0:
102,140,175592,1,0,0:0:0:0:
102,140,175666,2,0,L|92:108,2,28,0|0|8,3:2|0:0|0:0,0:0:0:0:
35,33,175962,2,0,L|25:65,3,28
49,23,176257,5,0,3:2:0:0:
127,0,176405,1,0,3:2:0:0:
176,73,176553,2,0,P|213:80|236:89,1,56,8|0,0:0|0:0,0:0:0:0:
247,80,176775,1,0,0:0:0:0:
247,80,176848,2,0,P|260:73|277:68,2,28,0|0|0,0:0|0:0|3:2,0:0:0:0:
370,25,177144,2,0,P|352:55|357:84,1,56,8|0,0:0|0:0,0:0:0:0:
477,239,177440,6,0,P|488:198|498:167,1,56,0|0,3:2|0:0,0:0:0:0:
441,126,177735,1,8,0:0:0:0:
408,283,177883,2,0,P|382:264|354:266,1,56,0|0,3:2|3:2,0:0:0:0:
296,222,178179,1,8,0:0:0:0:
356,348,178326,2,0,P|323:362|302:375,1,56,0|0,3:2|0:0,0:0:0:0:
219,256,178622,5,0,3:2:0:0:
175,329,178770,1,0,3:2:0:0:
175,329,178917,1,0,3:2:0:0:
96,285,179065,1,8,0:0:0:0:
47,381,179213,2,0,P|87:368|110:363,1,56,0|0,3:2|0:0,0:0:0:0:
203,249,179509,1,8,0:0:0:0:
145,186,179656,1,0,3:2:0:0:
32,236,179804,6,0,P|13:205|-4:180,1,56,0|0,3:2|0:0,0:0:0:0:
66,132,180100,1,8,0:0:0:0:
12,60,180247,1,0,0:0:0:0:
12,60,180321,1,0,0:0:0:0:
12,60,180395,2,0,L|23:30,2,28,0|0|8,0:0|0:0|0:0,0:0:0:0:
142,101,180691,2,0,L|153:131,3,28
149,88,180986,5,0,3:2:0:0:
215,37,181134,1,0,3:2:0:0:
291,84,181282,2,0,P|273:116|260:149,1,56,8|0,0:0|0:0,0:0:0:0:
272,150,181504,1,0,0:0:0:0:
272,150,181578,2,0,P|284:161|297:168,2,28,0|0|0,0:0|0:0|3:2,0:0:0:0:
284,276,181873,2,0,P|309:252|336:246,1,56,8|0,0:0|0:0,0:0:0:0:
464,64,182169,6,0,P|437:50|403:40,1,56,0|0,3:2|0:0,0:0:0:0:
368,110,182464,1,8,0:0:0:0:
495,146,182612,1,0,3:2:0:0:
495,146,182760,1,0,3:2:0:0:
419,245,182908,1,8,0:0:0:0:
506,230,183055,1,0,0:0:0:0:
506,230,183129,1,0,0:0:0:0:
506,230,183203,2,0,L|514:260,1,28
485,322,183351,5,0,3:2:0:0:
411,373,183499,1,0,3:2:0:0:
345,319,183647,2,0,P|311:310|286:303,1,56,8|0,0:0|0:0,0:0:0:0:
280,292,183868,1,0,0:0:0:0:
280,292,183942,2,0,P|265:296|248:304,2,28,0|0|0,0:0|0:0|3:2,0:0:0:0:
178,368,184238,2,0,P|172:330|147:314,1,56,8|0,0:0|0:0,0:0:0:0:
7,216,184533,6,0,P|27:184|43:152,1,56,0|0,3:2|0:0,0:0:0:0:
34,91,184829,1,8,0:0:0:0:
120,181,184977,1,0,0:0:0:0:
120,181,185050,1,0,0:0:0:0:
120,181,185124,2,0,P|131:168|142:158,2,28,0|0|8,0:0|0:0|0:0,0:0:0:0:
151,66,185420,2,0,P|137:69|124:73,3,28
166,55,185715,5,0,3:2:0:0:
227,110,185863,1,0,3:2:0:0:
306,68,186011,2,0,P|321:32|331:11,1,56,8|0,0:0|0:0,0:0:0:0:
346,8,186233,1,0,0:0:0:0:
346,8,186307,2,0,P|366:5|386:6,2,28,0|0|0,0:0|0:0|3:2,0:0:0:0:
486,12,186602,2,0,P|461:45|436:51,1,56,8|0,0:0|0:0,0:0:0:0:
478,244,186898,6,0,P|486:210|493:184,1,56,0|0,3:2|0:0,0:0:0:0:
430,134,187193,1,8,0:0:0:0:
372,232,187341,1,0,3:2:0:0:
372,232,187489,1,0,3:2:0:0:
297,152,187637,1,8,0:0:0:0:
230,213,187784,2,0,P|262:227|283:240,1,56,0|0,3:2|0:0,0:0:0:0:
411,310,188080,5,8,0:0:0:0:
294,364,188228,2,0,P|313:330|333:304,1,56,0|0,3:2|3:2,0:0:0:0:
163,274,188523,1,8,0:0:0:0:
169,377,188671,2,0,P|201:361|213:337,1,56,0|0,3:2|0:0,0:0:0:0:
153,264,188967,1,8,0:0:0:0:
41,310,189114,1,0,3:2:0:0:
121,327,189262,6,0,B|110:162|214:245|262:74|262:74|285:0|165:-32|103:101|192:174|258:97|258:97|298:77|336:103,1,672,2|0,0:0|0:0,0:0:0:0:
274,121,193991,6,0,B|293:80|366:94|401:117|401:117|462:161|546:90|406:4|358:70|358:70|320:153|388:196|388:196|453:239|414:299|365:306,1,672,2|0,0:0|0:0,0:0:0:0:
156,48,198720,6,0,B|122:54|89:110|166:163|223:101|223:101|268:51|378:100|282:207|211:166|211:166|171:142|81:181|131:320|244:271,1,672,2|0,0:0|0:0,0:0:0:0:
86,332,203449,6,0,B|61:259|149:207|232:279|232:279|303:339|436:266|340:169|273:194|278:241|278:241|287:300|220:331|220:331|183:345|154:314,1,672,2|0,0:0|0:0,0:0:0:0:
12,88,208179,6,0,B|145:45|96:134|211:98|211:98|300:65|355:180|271:216|201:187|201:187|109:145|127:290|-7:224|38:184,1,672,2|0,0:0|0:0,0:0:0:0:
178,200,212908,6,0,B|247:174|258:261|258:261|264:324|352:337|351:245|351:245|357:172|454:169|480:258|437:303|377:309|336:246|336:246|308:195|317:142,1,672,2|0,0:0|0:0,0:0:0:0:
367,71,217637,6,0,B|405:57|471:89|473:203|346:147|302:122|302:122|244:109|173:200|331:309|412:176|302:122|302:122|249:89|180:86,1,672,2|0,0:0|0:0,0:0:0:0:
96,126,222366,6,0,B|26:223|-124:-5|234:-64|239:169|111:210|111:210|-5:243|156:350|221:281,1,672,2|0,0:0|0:0,0:0:0:0:
48,329,227095,6,0,B|79:311|42:239|42:239|14:176|57:143|57:143|120:100|169:165|158:218|158:218|150:269|234:324|361:281|275:89|172:167|185:211,1,672,2|0,0:0|0:0,0:0:0:0:
95,338,231824,6,0,B|71:290|181:240|247:289|213:331|288:382|379:314|359:261|359:261|341:217|248:266|216:261|216:261|183:260|147:206|213:141|258:175,1,672,2|0,0:0|0:0,0:0:0:0:
499,66,236553,6,0,B|469:88|469:88|412:68|148:97|314:122|179:134|13:151|13:151|-28:96|90:29|111:98,1,672,2|0,0:0|0:0,0:0:0:0:
