osu file format v14

[General]
AudioFilename: audio.mp3
AudioLeadIn: 0
PreviewTime: 71761
Countdown: 0
SampleSet: Normal
StackLeniency: 0.7
Mode: 1
LetterboxInBreaks: 0
WidescreenStoryboard: 1

[Editor]
Bookmarks: 25512,50841,61507,71840,82506,92505,111178,129849
DistanceSpacing: 0.4
BeatDivisor: 4
GridSize: 16
TimelineZoom: 1.1

[Metadata]
Title:waste
TitleUnicode:waste
Artist:goreshit
ArtistUnicode:goreshit
Creator:Nepuri
Version:futsuu
Source:osu!
Tags:featured artist fa mappers' guild mpg mg breakcore dnb electronic instrumental noise industrial loather
BeatmapID:2271780
BeatmapSetID:1086346

[Difficulty]
HPDrainRate:7
CircleSize:5
OverallDifficulty:4.5
ApproachRate:5
SliderMultiplier:1.4
SliderTickRate:1

[Events]
//Background and Video events
0,0,"bg.jpg",0,0
//Break Periods
//Storyboard Layer 0 (Background)
//Storyboard Layer 1 (Fail)
//Storyboard Layer 2 (Pass)
//Storyboard Layer 3 (Foreground)
//Storyboard Layer 4 (Overlay)
//Storyboard Sound Samples

[TimingPoints]
184,333.333333333333,4,1,0,70,1,0
2850,333.333333333333,4,1,0,70,1,8
3517,333.333333333333,4,1,0,70,1,0
8850,333.333333333333,4,1,0,70,1,8
9516,333.333333333333,4,1,0,70,1,0
12182,333.333333333333,4,1,0,70,1,8
12849,333.333333333333,4,1,0,70,1,0
15515,333.333333333333,4,1,0,70,1,8
16182,333.333333333333,4,1,0,70,1,0
21515,333.333333333333,4,1,0,70,1,8
22181,333.333333333333,4,1,0,70,1,0
24847,333.333333333333,4,1,0,70,1,8
24930,-100,4,1,0,70,0,8
25013,-100,4,1,0,70,0,8
25097,-100,4,1,0,70,0,8
25180,-100,4,1,0,70,0,8
25263,-100,4,1,0,70,0,8
25347,-100,4,1,0,70,0,8
25430,-100,4,1,0,70,0,8
25517,333.333333333333,4,1,0,70,1,0
28183,333.333333333333,4,1,0,70,1,8
28849,333.333333333333,4,1,0,70,1,0
34182,333.333333333333,4,1,0,70,1,8
34848,333.333333333333,4,1,0,70,1,0
37098,-100,4,1,0,70,0,0
37181,-100,4,1,0,70,0,0
37264,-100,4,1,0,70,0,0
37348,-100,4,1,0,70,0,0
37431,-100,4,1,0,70,0,0
37514,333.333333333333,4,1,0,70,1,8
37514,-100,4,1,0,70,0,8
37597,-100,4,1,0,70,0,8
37680,-100,4,1,0,70,0,8
37764,-100,4,1,0,70,0,8
37847,-100,4,1,0,70,0,8
37930,-100,4,1,0,70,0,8
38014,-100,4,1,0,70,0,8
38097,-100,4,1,0,70,0,8
38181,333.333333333333,4,1,0,70,1,0
38181,-100,4,1,0,70,0,0
38347,-100,4,1,0,70,0,0
38514,-100,4,1,0,70,0,0
38597,-100,4,1,0,70,0,0
38681,-100,4,1,0,70,0,0
38764,-100,4,1,0,70,0,0
38847,-100,4,1,0,70,0,0
39014,-100,4,1,0,70,0,0
40847,333.333333333333,4,1,0,70,1,8
41514,333.333333333333,4,1,0,70,1,0
46847,333.333333333333,4,1,0,70,1,8
47513,333.333333333333,4,1,0,70,1,0
50179,333.333333333333,4,1,0,70,1,8
50179,-100,4,1,0,70,0,8
50262,-100,4,1,0,70,0,8
50345,-100,4,1,0,70,0,8
50429,-100,4,1,0,70,0,8
50512,-100,4,1,0,70,0,8
50595,-100,4,1,0,70,0,8
50679,-100,4,1,0,70,0,8
50762,-100,4,1,0,70,0,8
50846,333.333333333333,4,1,0,70,1,0
50846,-100,4,1,0,70,0,0
51262,-111.111111111111,4,1,0,45,0,0
60845,-100,4,1,0,45,0,0
61457,-100,4,1,0,70,0,0
71845,333.333333333333,4,1,0,70,1,1
71845,-100,4,1,0,70,0,1
82511,-100,4,1,0,70,0,0
82678,-100,4,1,0,70,0,0
82844,-100,4,1,0,70,0,0
83011,-100,4,1,0,70,0,0
83094,-100,4,1,0,70,0,0
83178,-100,4,1,0,70,0,0
83511,-100,4,1,0,70,0,0
91844,333.333333333333,4,1,0,70,1,8
92517,333.333333333333,4,1,0,70,1,1
92517,-100,4,1,0,70,0,1
96516,333.333333333333,4,1,0,70,1,9
96516,-100,4,1,0,70,0,9
97183,333.333333333333,4,1,0,70,1,1
97183,-100,4,1,0,70,0,9
101182,333.333333333333,4,1,0,70,1,9
101182,-100,4,1,0,70,0,9
101850,333.333333333333,4,1,0,70,1,1
101850,-100,4,1,0,70,0,9
105849,333.333333333333,4,1,0,70,1,9
105849,-100,4,1,0,70,0,9
106516,333.333333333333,4,1,0,70,1,1
106516,-100,4,1,0,70,0,9
110515,333.333333333333,4,1,0,70,1,9
110515,-100,4,1,0,70,0,9
110598,-100,4,1,0,70,0,9
110681,-100,4,1,0,70,0,9
110765,-100,4,1,0,70,0,9
110848,-100,4,1,0,70,0,9
110931,-100,4,1,0,70,0,9
111015,-100,4,1,0,70,0,9
111098,-100,4,1,0,70,0,9
111183,333.333333333333,4,1,0,70,1,1
111183,-100,4,1,0,70,0,9
115182,333.333333333333,4,1,0,70,1,9
115182,-100,4,1,0,70,0,9
115850,333.333333333333,4,1,0,70,1,1
115850,-100,4,1,0,70,0,9
119849,333.333333333333,4,1,0,70,1,9
119849,-100,4,1,0,70,0,9
120516,333.333333333333,4,1,0,70,1,1
120516,-100,4,1,0,70,0,9
124515,333.333333333333,4,1,0,70,1,9
124515,-100,4,1,0,70,0,9
125183,333.333333333333,4,1,0,70,1,1
125183,-100,4,1,0,70,0,9
129182,333.333333333333,4,1,0,70,1,9
129182,-100,4,1,0,70,0,9
129849,333.333333333333,4,1,0,70,1,0
129849,-100,4,1,0,70,0,8

[HitObjects]
273,89,184,5,4,0:0:0:0:
345,166,517,1,8,0:0:0:0:
215,244,767,1,0,0:0:0:0:
215,244,1017,1,8,0:0:0:0:
362,155,1517,1,8,0:0:0:0:
171,118,1767,1,0,0:0:0:0:
171,118,2017,1,8,0:0:0:0:
171,118,2517,1,8,0:0:0:0:
164,98,2683,1,0,0:0:0:0:
171,118,2850,1,0,0:0:0:0:
364,246,3183,1,8,0:0:0:0:
336,120,3349,1,8,0:0:0:0:
336,120,3516,1,0,0:0:0:0:
277,120,4350,1,8,0:0:0:0:
277,120,4850,1,8,0:0:0:0:
277,120,5350,1,8,0:0:0:0:
277,120,5850,1,8,0:0:0:0:
277,120,6183,1,4,0:0:0:0:
186,163,6516,1,8,0:0:0:0:
186,163,6766,1,8,0:0:0:0:
186,163,7016,1,0,0:0:0:0:
217,129,7516,1,8,0:0:0:0:
217,129,7766,1,8,0:0:0:0:
217,129,8016,1,0,0:0:0:0:
217,129,8516,1,8,0:0:0:0:
217,129,8683,1,0,0:0:0:0:
217,129,8850,1,0,0:0:0:0:
217,129,9183,1,8,0:0:0:0:
217,129,9350,1,8,0:0:0:0:
217,129,9516,1,0,0:0:0:0:
277,120,10349,1,8,0:0:0:0:
277,120,10849,1,8,0:0:0:0:
277,120,11349,1,8,0:0:0:0:
277,120,11849,1,8,0:0:0:0:
290,121,12182,1,8,0:0:0:0:
98,109,12515,1,8,0:0:0:0:
94,125,12682,1,8,0:0:0:0:
290,121,12848,1,4,0:0:0:0:
345,166,13182,1,8,0:0:0:0:
215,244,13432,1,0,0:0:0:0:
215,244,13682,1,8,0:0:0:0:
362,155,14182,1,8,0:0:0:0:
171,118,14432,1,0,0:0:0:0:
171,118,14682,1,8,0:0:0:0:
171,118,15182,1,8,0:0:0:0:
171,118,15348,1,0,0:0:0:0:
171,118,15515,1,0,0:0:0:0:
364,246,15848,1,8,0:0:0:0:
141,58,16015,1,8,0:0:0:0:
336,120,16181,1,0,0:0:0:0:
217,131,17015,1,8,0:0:0:0:
220,162,17515,1,8,0:0:0:0:
220,162,18015,1,8,0:0:0:0:
277,120,18515,1,8,0:0:0:0:
277,120,18848,1,4,0:0:0:0:
186,163,19181,1,8,0:0:0:0:
186,163,19431,1,8,0:0:0:0:
186,163,19681,1,0,0:0:0:0:
217,129,20181,1,8,0:0:0:0:
217,129,20431,1,8,0:0:0:0:
217,129,20681,1,0,0:0:0:0:
217,129,21181,1,8,0:0:0:0:
217,129,21348,1,0,0:0:0:0:
217,129,21515,1,0,0:0:0:0:
217,129,21848,1,8,0:0:0:0:
217,129,22015,1,8,0:0:0:0:
217,129,22181,1,0,0:0:0:0:
277,120,23014,1,8,0:0:0:0:
277,120,23514,1,8,0:0:0:0:
277,120,24014,1,8,0:0:0:0:
277,120,24514,1,8,0:0:0:0:
290,121,24847,1,4,0:0:0:0:
290,121,25517,1,4,0:0:0:0:
345,166,25850,1,8,0:0:0:0:
215,244,26100,1,0,0:0:0:0:
215,244,26350,1,8,0:0:0:0:
362,155,26600,1,0,0:0:0:0:
362,155,26850,1,8,0:0:0:0:
171,118,27350,1,8,0:0:0:0:
171,118,27600,1,0,0:0:0:0:
171,118,27850,1,8,0:0:0:0:
171,118,28183,1,0,0:0:0:0:
364,246,28516,1,8,0:0:0:0:
336,120,28849,1,0,0:0:0:0:
217,131,29682,1,8,0:0:0:0:
220,162,30182,1,8,0:0:0:0:
220,162,30682,1,8,0:0:0:0:
277,120,31015,1,0,0:0:0:0:
277,120,31182,1,8,0:0:0:0:
181,88,31515,1,4,0:0:0:0:
186,163,31848,1,8,0:0:0:0:
186,163,32098,1,0,0:0:0:0:
186,163,32348,1,8,0:0:0:0:
217,129,32598,1,0,0:0:0:0:
217,129,32848,1,8,0:0:0:0:
217,129,33348,1,8,0:0:0:0:
217,129,33598,1,0,0:0:0:0:
217,129,33848,1,8,0:0:0:0:
217,129,34182,1,0,0:0:0:0:
217,129,34515,1,8,0:0:0:0:
217,129,34848,1,0,0:0:0:0:
277,120,35681,1,8,0:0:0:0:
277,120,36181,1,8,0:0:0:0:
277,120,36681,1,8,0:0:0:0:
277,120,37014,1,0,0:0:0:0:
277,120,37181,1,8,0:0:0:0:
251,108,37431,1,0,0:0:0:0:
194,55,37680,1,0,0:0:0:0:
306,193,37847,1,8,0:0:0:0:
306,193,38180,1,4,0:0:0:0:
345,166,38514,1,8,0:0:0:0:
215,244,38764,1,0,0:0:0:0:
215,244,39014,1,8,0:0:0:0:
244,117,39264,1,0,0:0:0:0:
362,155,39514,1,8,0:0:0:0:
171,118,40014,1,8,0:0:0:0:
171,118,40264,1,0,0:0:0:0:
171,118,40514,1,8,0:0:0:0:
171,118,40847,1,0,0:0:0:0:
364,246,41180,1,8,0:0:0:0:
336,120,41513,1,0,0:0:0:0:
217,131,42347,1,8,0:0:0:0:
220,162,42847,1,8,0:0:0:0:
220,162,43347,1,8,0:0:0:0:
277,120,43680,1,0,0:0:0:0:
236,208,43847,1,8,0:0:0:0:
65,32,44180,1,4,0:0:0:0:
186,163,44514,1,8,0:0:0:0:
186,163,44764,1,0,0:0:0:0:
186,163,45013,1,8,0:0:0:0:
217,129,45263,1,0,0:0:0:0:
217,129,45513,1,8,0:0:0:0:
217,129,46013,1,8,0:0:0:0:
217,129,46263,1,0,0:0:0:0:
217,129,46513,1,8,0:0:0:0:
217,129,46847,1,0,0:0:0:0:
217,129,47180,1,8,0:0:0:0:
217,129,47513,1,0,0:0:0:0:
277,120,48346,1,8,0:0:0:0:
277,120,48846,1,8,0:0:0:0:
277,120,49346,1,8,0:0:0:0:
277,120,49679,5,0,0:0:0:0:
277,120,49846,1,8,0:0:0:0:
405,283,50179,1,0,0:0:0:0:
123,130,50845,5,12,0:0:0:0:
365,136,51346,1,0,0:0:0:0:
365,136,51846,1,8,0:0:0:0:
365,136,52346,1,0,0:0:0:0:
365,136,52846,1,8,0:0:0:0:
214,81,53179,1,0,0:0:0:0:
365,136,53346,1,0,0:0:0:0:
365,136,53512,1,8,0:0:0:0:
365,136,54012,1,8,0:0:0:0:
365,136,54512,1,0,0:0:0:0:
365,136,55012,1,8,0:0:0:0:
365,136,55512,1,0,0:0:0:0:
365,136,55845,1,8,0:0:0:0:
365,136,56012,1,8,0:0:0:0:
365,136,56179,1,0,0:0:0:0:
365,136,56679,1,8,0:0:0:0:
365,136,57179,1,0,0:0:0:0:
365,136,57679,1,8,0:0:0:0:
365,136,58179,1,8,0:0:0:0:
365,136,58512,1,0,0:0:0:0:
365,136,58679,1,0,0:0:0:0:
365,136,58845,1,8,0:0:0:0:
365,136,59345,1,8,0:0:0:0:
365,136,59845,1,0,0:0:0:0:
365,136,60345,1,8,0:0:0:0:
310,128,60845,1,0,0:0:0:0:
217,43,61512,5,4,0:0:0:0:
278,220,61762,1,8,0:0:0:0:
278,220,62012,1,0,0:0:0:0:
286,144,62179,1,8,0:0:0:0:
286,144,62679,1,0,0:0:0:0:
256,156,62845,1,0,0:0:0:0:
256,156,63095,1,8,0:0:0:0:
249,151,63345,1,0,0:0:0:0:
256,156,63512,1,8,0:0:0:0:
256,156,64179,1,0,0:0:0:0:
355,247,64429,1,8,0:0:0:0:
355,247,64679,1,0,0:0:0:0:
355,247,64845,1,8,0:0:0:0:
221,156,65345,1,0,0:0:0:0:
167,151,65512,1,0,0:0:0:0:
167,151,65762,5,8,0:0:0:0:
167,151,66012,1,0,0:0:0:0:
167,151,66179,1,8,0:0:0:0:
182,108,66512,1,8,0:0:0:0:
374,247,66845,5,0,0:0:0:0:
278,220,67095,1,8,0:0:0:0:
278,220,67345,1,0,0:0:0:0:
286,144,67512,1,8,0:0:0:0:
261,123,68012,1,0,0:0:0:0:
256,156,68179,1,0,0:0:0:0:
256,156,68429,1,8,0:0:0:0:
256,156,68679,1,0,0:0:0:0:
256,156,68845,1,12,0:0:0:0:
256,156,69512,1,0,0:0:0:0:
355,247,69762,1,8,0:0:0:0:
355,247,70012,1,0,0:0:0:0:
355,247,70179,1,8,0:0:0:0:
221,156,70679,1,0,0:0:0:0:
167,151,70845,1,8,0:0:0:0:
181,162,71012,1,0,0:0:0:0:
180,162,71179,1,0,0:0:0:0:
182,108,71845,1,4,0:0:0:0:
167,122,72345,1,0,0:0:0:0:
167,122,72511,1,8,0:0:0:0:
167,122,72761,1,8,0:0:0:0:
167,122,73011,1,8,0:0:0:0:
132,145,73178,1,0,0:0:0:0:
188,134,73428,1,8,0:0:0:0:
188,134,73678,1,0,0:0:0:0:
188,134,73845,1,8,0:0:0:0:
137,125,74511,1,4,0:0:0:0:
197,169,75011,1,0,0:0:0:0:
197,169,75178,1,8,0:0:0:0:
137,197,75428,1,8,0:0:0:0:
137,197,75678,1,8,0:0:0:0:
178,197,75845,1,0,0:0:0:0:
242,213,76095,1,8,0:0:0:0:
298,227,76345,1,0,0:0:0:0:
340,238,76511,1,8,0:0:0:0:
374,247,76845,1,8,0:0:0:0:
374,247,77178,1,4,0:0:0:0:
167,122,77678,1,0,0:0:0:0:
167,122,77845,1,8,0:0:0:0:
167,122,78095,1,8,0:0:0:0:
167,122,78345,1,8,0:0:0:0:
132,145,78511,1,0,0:0:0:0:
188,134,78761,1,8,0:0:0:0:
188,134,79011,1,0,0:0:0:0:
188,134,79178,1,12,0:0:0:0:
280,149,79511,1,8,0:0:0:0:
137,125,79844,1,4,0:0:0:0:
229,226,80344,1,0,0:0:0:0:
229,226,80511,1,8,0:0:0:0:
229,226,80761,1,8,0:0:0:0:
229,219,81011,1,0,0:0:0:0:
229,219,81178,1,8,0:0:0:0:
233,162,81678,1,0,0:0:0:0:
184,173,81844,1,8,0:0:0:0:
243,101,82511,1,4,0:0:0:0:
342,141,83178,1,0,0:0:0:0:
342,141,83511,1,0,0:0:0:0:
342,141,83678,1,8,0:0:0:0:
296,85,84011,1,8,0:0:0:0:
282,67,84178,1,0,0:0:0:0:
308,127,84511,1,0,0:0:0:0:
331,179,85178,1,8,0:0:0:0:
259,193,85511,1,8,0:0:0:0:
145,28,85678,1,8,0:0:0:0:
245,161,86011,1,0,0:0:0:0:
232,128,86178,1,8,0:0:0:0:
232,128,86511,1,0,0:0:0:0:
206,102,87178,1,0,0:0:0:0:
342,141,87511,1,0,0:0:0:0:
342,141,87678,1,8,0:0:0:0:
296,85,88011,1,8,0:0:0:0:
282,67,88178,1,0,0:0:0:0:
308,127,88511,1,0,0:0:0:0:
331,179,89178,1,8,0:0:0:0:
259,193,89511,1,8,0:0:0:0:
259,193,89678,1,8,0:0:0:0:
232,128,90011,1,8,0:0:0:0:
232,128,90178,1,0,0:0:0:0:
256,146,90511,1,0,0:0:0:0:
338,206,91178,1,8,0:0:0:0:
309,178,91511,1,0,0:0:0:0:
276,146,91678,1,8,0:0:0:0:
136,163,92517,1,4,0:0:0:0:
187,189,92850,1,8,0:0:0:0:
211,202,93350,1,8,0:0:0:0:
211,202,93600,1,0,0:0:0:0:
211,202,93850,1,8,0:0:0:0:
211,202,94100,1,0,0:0:0:0:
211,202,94350,1,8,0:0:0:0:
221,163,94600,1,0,0:0:0:0:
232,123,94850,1,8,0:0:0:0:
241,95,95183,1,0,0:0:0:0:
189,117,95517,1,8,0:0:0:0:
147,134,95767,1,0,0:0:0:0:
133,140,96017,1,8,0:0:0:0:
133,140,96517,1,8,0:0:0:0:
133,140,96682,1,0,0:0:0:0:
133,140,96849,1,0,0:0:0:0:
133,140,97016,1,8,0:0:0:0:
156,127,97182,1,4,0:0:0:0:
211,202,98016,1,8,0:0:0:0:
211,202,98266,1,0,0:0:0:0:
211,202,98516,1,8,0:0:0:0:
211,202,98766,1,0,0:0:0:0:
211,202,99016,1,8,0:0:0:0:
221,163,99266,1,0,0:0:0:0:
232,123,99516,1,8,0:0:0:0:
241,95,99849,1,0,0:0:0:0:
189,117,100183,1,8,0:0:0:0:
147,134,100433,1,0,0:0:0:0:
133,140,100683,1,8,0:0:0:0:
133,140,101183,1,8,0:0:0:0:
133,140,101348,1,8,0:0:0:0:
133,140,101515,1,0,0:0:0:0:
133,140,101682,1,8,0:0:0:0:
148,129,101848,1,4,0:0:0:0:
211,202,102683,1,8,0:0:0:0:
211,202,102933,1,0,0:0:0:0:
211,202,103183,1,8,0:0:0:0:
211,202,103433,1,0,0:0:0:0:
211,202,103683,1,8,0:0:0:0:
221,163,103933,1,0,0:0:0:0:
232,123,104183,1,8,0:0:0:0:
241,95,104516,1,0,0:0:0:0:
189,117,104850,1,8,0:0:0:0:
147,134,105100,1,0,0:0:0:0:
133,140,105350,1,8,0:0:0:0:
133,140,105850,1,8,0:0:0:0:
133,140,106015,1,0,0:0:0:0:
133,140,106182,1,0,0:0:0:0:
133,140,106349,1,8,0:0:0:0:
156,127,106515,1,4,0:0:0:0:
211,202,107349,1,8,0:0:0:0:
211,202,107599,1,0,0:0:0:0:
211,202,107849,1,8,0:0:0:0:
211,202,108099,1,0,0:0:0:0:
211,202,108349,1,8,0:0:0:0:
221,163,108599,1,0,0:0:0:0:
232,123,108849,1,8,0:0:0:0:
241,95,109182,1,0,0:0:0:0:
189,117,109516,1,8,0:0:0:0:
147,134,109766,1,0,0:0:0:0:
133,140,110016,1,8,0:0:0:0:
185,104,110516,1,0,0:0:0:0:
216,85,110848,1,0,0:0:0:0:
232,98,111015,1,0,0:0:0:0:
232,98,111181,1,12,0:0:0:0:
211,202,112016,1,8,0:0:0:0:
211,202,112266,1,0,0:0:0:0:
211,202,112516,1,8,0:0:0:0:
211,202,112766,1,8,0:0:0:0:
211,202,113016,1,8,0:0:0:0:
221,163,113266,1,0,0:0:0:0:
232,123,113516,1,8,0:0:0:0:
241,95,113849,1,0,0:0:0:0:
189,117,114183,1,8,0:0:0:0:
147,134,114433,1,0,0:0:0:0:
133,140,114683,1,8,0:0:0:0:
133,140,115183,1,8,0:0:0:0:
133,140,115348,1,0,0:0:0:0:
133,140,115515,1,0,0:0:0:0:
133,140,115682,1,8,0:0:0:0:
156,127,115850,1,4,0:0:0:0:
211,202,116683,1,8,0:0:0:0:
211,202,116933,1,0,0:0:0:0:
211,202,117183,1,8,0:0:0:0:
211,202,117433,1,8,0:0:0:0:
211,202,117683,1,8,0:0:0:0:
221,163,117933,1,0,0:0:0:0:
232,123,118183,1,8,0:0:0:0:
241,95,118516,1,0,0:0:0:0:
189,117,118850,1,8,0:0:0:0:
147,134,119100,1,0,0:0:0:0:
133,140,119350,1,8,0:0:0:0:
133,140,119850,1,8,0:0:0:0:
133,140,120015,1,8,0:0:0:0:
133,140,120182,1,0,0:0:0:0:
133,140,120349,1,8,0:0:0:0:
148,129,120515,1,4,0:0:0:0:
211,202,121349,1,8,0:0:0:0:
211,202,121599,1,0,0:0:0:0:
211,202,121849,1,8,0:0:0:0:
211,202,122099,1,8,0:0:0:0:
211,202,122349,1,8,0:0:0:0:
221,163,122599,1,8,0:0:0:0:
232,123,122849,1,8,0:0:0:0:
241,95,123182,1,0,0:0:0:0:
189,117,123516,1,8,0:0:0:0:
147,134,123766,1,0,0:0:0:0:
133,140,124016,1,8,0:0:0:0:
133,140,124516,1,8,0:0:0:0:
133,140,124681,1,0,0:0:0:0:
133,140,124848,1,0,0:0:0:0:
133,140,125015,1,8,0:0:0:0:
153,135,125183,1,4,0:0:0:0:
211,202,126016,1,8,0:0:0:0:
211,202,126266,1,0,0:0:0:0:
211,202,126516,1,8,0:0:0:0:
211,202,126766,1,8,0:0:0:0:
211,202,127016,1,8,0:0:0:0:
221,163,127266,1,8,0:0:0:0:
232,123,127516,1,8,0:0:0:0:
241,95,127849,1,0,0:0:0:0:
189,117,128183,1,8,0:0:0:0:
147,134,128433,1,0,0:0:0:0:
133,140,128683,5,8,0:0:0:0:
185,104,129183,1,0,0:0:0:0:
216,85,129348,1,0,0:0:0:0:
232,98,129515,1,12,0:0:0:0:
158,98,129849,5,0,0:0:0:0:
