osu file format v14

[General]
AudioFilename: goreshit - toromi hearts 2.mp3
AudioLeadIn: 0
PreviewTime: 39553
Countdown: 0
SampleSet: Soft
StackLeniency: 0.7
Mode: 3
LetterboxInBreaks: 0
SpecialStyle: 0
WidescreenStoryboard: 0

[Editor]
Bookmarks: 56265
DistanceSpacing: 2
BeatDivisor: 4
GridSize: 4
TimelineZoom: 2

[Metadata]
Title:toromi hearts 2
TitleUnicode:toromi hearts 2
Artist:goreshit
ArtistUnicode:goreshit
Creator:qodtjr
Version:Pain
Source:
Tags:electronic instrumental Sub-69 split sHimaU breakcore lolicore speedcore hardcore chordstream
BeatmapID:982566
BeatmapSetID:458563

[Difficulty]
HPDrainRate:7
CircleSize:7
OverallDifficulty:8
ApproachRate:5
SliderMultiplier:1.4
SliderTickRate:1

[Events]
//Background and Video events
0,0,"BG.jpg",0,0
//Break Periods
//Storyboard Layer 0 (Background)
//Storyboard Layer 1 (Fail)
//Storyboard Layer 2 (Pass)
//Storyboard Layer 3 (Foreground)
//Storyboard Layer 4 (Overlay)
//Storyboard Sound Samples

[TimingPoints]
101,273.972602739726,4,2,1,50,1,0

[HitObjects]
36,192,101,5,0,0:0:0:0:
109,192,101,1,0,0:0:0:0:
182,192,169,1,0,0:0:0:0:
475,192,237,1,0,0:0:0:0:
329,192,237,1,0,0:0:0:0:
256,192,306,1,0,0:0:0:0:
36,192,374,1,0,0:0:0:0:
109,192,374,1,0,0:0:0:0:
475,192,511,1,0,0:0:0:0:
402,192,511,1,0,0:0:0:0:
329,192,580,1,0,0:0:0:0:
182,192,648,1,0,0:0:0:0:
36,192,648,1,0,0:0:0:0:
256,192,717,1,0,0:0:0:0:
475,192,785,1,0,0:0:0:0:
329,192,785,1,0,0:0:0:0:
109,192,922,1,0,0:0:0:0:
36,192,922,1,0,0:0:0:0:
182,192,991,1,0,0:0:0:0:
329,192,1059,1,0,0:0:0:0:
475,192,1059,1,0,0:0:0:0:
256,192,1128,1,0,0:0:0:0:
36,192,1196,1,0,0:0:0:0:
109,192,1196,1,0,0:0:0:0:
329,192,1265,1,0,0:0:0:0:
475,192,1333,1,0,0:0:0:0:
402,192,1333,1,0,0:0:0:0:
256,192,1402,1,0,0:0:0:0:
182,192,1470,1,0,0:0:0:0:
36,192,1470,1,0,0:0:0:0:
475,192,1607,1,0,0:0:0:0:
402,192,1607,1,0,0:0:0:0:
109,192,1744,1,0,0:0:0:0:
36,192,1744,1,0,0:0:0:0:
402,192,1881,1,0,0:0:0:0:
256,192,1881,1,0,0:0:0:0:
182,192,1950,1,0,0:0:0:0:
109,192,2018,1,0,0:0:0:0:
36,192,2018,1,0,0:0:0:0:
256,192,2087,1,0,0:0:0:0:
329,192,2155,1,0,0:0:0:0:
475,192,2155,1,0,0:0:0:0:
36,192,2292,1,0,0:0:0:0:
182,192,2292,1,0,0:0:0:0:
256,192,2361,1,0,0:0:0:0:
329,192,2429,1,0,0:0:0:0:
475,192,2429,1,0,0:0:0:0:
402,192,2498,1,0,0:0:0:0:
182,192,2566,1,0,0:0:0:0:
36,192,2566,1,0,0:0:0:0:
329,192,2703,1,0,0:0:0:0:
475,192,2703,1,0,0:0:0:0:
402,192,2840,1,0,0:0:0:0:
109,192,2840,1,0,0:0:0:0:
329,192,2909,1,0,0:0:0:0:
182,192,2977,1,0,0:0:0:0:
36,192,2977,1,0,0:0:0:0:
256,192,3046,1,0,0:0:0:0:
329,192,3114,1,0,0:0:0:0:
475,192,3114,1,0,0:0:0:0:
402,192,3251,1,0,0:0:0:0:
109,192,3251,1,0,0:0:0:0:
182,192,3388,1,0,0:0:0:0:
36,192,3388,1,0,0:0:0:0:
475,192,3525,1,0,0:0:0:0:
329,192,3525,1,0,0:0:0:0:
36,192,3662,1,0,0:0:0:0:
182,192,3662,1,0,0:0:0:0:
475,192,3799,1,0,0:0:0:0:
402,192,3799,1,0,0:0:0:0:
329,192,3868,1,0,0:0:0:0:
182,192,3936,1,0,0:0:0:0:
36,192,3936,1,0,0:0:0:0:
256,192,4005,1,0,0:0:0:0:
475,192,4073,1,0,0:0:0:0:
109,192,4073,1,0,0:0:0:0:
402,192,4142,1,0,0:0:0:0:
329,192,4210,1,0,0:0:0:0:
182,192,4210,1,0,0:0:0:0:
36,192,4347,1,0,0:0:0:0:
475,192,4347,1,0,0:0:0:0:
402,192,4484,1,0,0:0:0:0:
329,192,4484,1,0,0:0:0:0:
256,192,4553,1,0,0:0:0:0:
182,192,4621,1,0,0:0:0:0:
36,192,4621,1,0,0:0:0:0:
109,192,4690,1,0,0:0:0:0:
329,192,4758,1,0,0:0:0:0:
475,192,4758,1,0,0:0:0:0:
402,192,4895,1,0,0:0:0:0:
256,192,4895,1,0,0:0:0:0:
329,192,4964,1,0,0:0:0:0:
182,192,5032,1,0,0:0:0:0:
36,192,5032,1,0,0:0:0:0:
109,192,5101,1,0,0:0:0:0:
329,192,5169,1,0,0:0:0:0:
475,192,5169,1,0,0:0:0:0:
402,192,5306,1,0,0:0:0:0:
256,192,5306,1,0,0:0:0:0:
109,192,5443,1,0,0:0:0:0:
36,192,5443,1,0,0:0:0:0:
329,192,5580,1,0,0:0:0:0:
475,192,5580,1,0,0:0:0:0:
182,192,5648,1,0,0:0:0:0:
36,192,5717,1,0,0:0:0:0:
109,192,5717,1,0,0:0:0:0:
329,192,5785,1,0,0:0:0:0:
402,192,5854,1,0,0:0:0:0:
475,192,5854,1,0,0:0:0:0:
256,192,5991,1,0,0:0:0:0:
109,192,5991,1,0,0:0:0:0:
329,192,6059,1,0,0:0:0:0:
475,192,6128,1,0,0:0:0:0:
402,192,6128,1,0,0:0:0:0:
36,192,6265,1,0,0:0:0:0:
182,192,6265,1,0,0:0:0:0:
256,192,6333,1,0,0:0:0:0:
475,192,6402,1,0,0:0:0:0:
109,192,6402,1,0,0:0:0:0:
329,192,6539,1,0,0:0:0:0:
182,192,6539,1,0,0:0:0:0:
109,192,6676,1,0,0:0:0:0:
36,192,6676,1,0,0:0:0:0:
182,192,6744,1,0,0:0:0:0:
329,192,6813,1,0,0:0:0:0:
475,192,6813,1,0,0:0:0:0:
402,192,6881,1,0,0:0:0:0:
329,192,6950,1,0,0:0:0:0:
182,192,6950,1,0,0:0:0:0:
36,192,7087,1,0,0:0:0:0:
109,192,7087,1,0,0:0:0:0:
402,192,7224,1,0,0:0:0:0:
475,192,7224,1,0,0:0:0:0:
329,192,7292,1,0,0:0:0:0:
182,192,7361,1,0,0:0:0:0:
36,192,7361,1,0,0:0:0:0:
475,192,7498,1,0,0:0:0:0:
402,192,7498,1,0,0:0:0:0:
329,192,7566,1,0,0:0:0:0:
182,192,7635,1,0,0:0:0:0:
36,192,7635,1,0,0:0:0:0:
109,192,7772,1,0,0:0:0:0:
256,192,7772,1,0,0:0:0:0:
329,192,7840,1,0,0:0:0:0:
475,192,7909,1,0,0:0:0:0:
402,192,7909,1,0,0:0:0:0:
36,192,8046,1,0,0:0:0:0:
182,192,8046,1,0,0:0:0:0:
402,192,8183,1,0,0:0:0:0:
475,192,8183,1,0,0:0:0:0:
329,192,8251,1,0,0:0:0:0:
182,192,8320,1,0,0:0:0:0:
36,192,8320,1,0,0:0:0:0:
109,192,8457,1,0,0:0:0:0:
256,192,8457,1,0,0:0:0:0:
329,192,8525,1,0,0:0:0:0:
402,192,8594,1,0,0:0:0:0:
182,192,8594,1,0,0:0:0:0:
475,192,8731,1,0,0:0:0:0:
329,192,8731,1,0,0:0:0:0:
402,192,8799,1,0,0:0:0:0:
36,192,8868,1,0,0:0:0:0:
109,192,8868,1,0,0:0:0:0:
475,192,9005,1,0,0:0:0:0:
402,192,9073,1,0,0:0:0:0:
329,192,9142,1,0,0:0:0:0:
109,192,9279,1,0,0:0:0:0:
36,192,9279,1,0,0:0:0:0:
402,192,9416,1,0,0:0:0:0:
475,192,9416,1,0,0:0:0:0:
329,192,9553,1,0,0:0:0:0:
256,192,9553,1,0,0:0:0:0:
402,192,9690,1,0,0:0:0:0:
475,192,9690,1,0,0:0:0:0:
256,192,9827,1,0,0:0:0:0:
182,192,9827,1,0,0:0:0:0:
109,192,9964,1,0,0:0:0:0:
36,192,9964,1,0,0:0:0:0:
475,192,10101,1,0,0:0:0:0:
402,192,10169,1,0,0:0:0:0:
329,192,10237,1,0,0:0:0:0:
109,192,10374,1,0,0:0:0:0:
36,192,10374,1,0,0:0:0:0:
402,192,10511,1,0,0:0:0:0:
475,192,10511,1,0,0:0:0:0:
329,192,10648,1,0,0:0:0:0:
256,192,10648,1,0,0:0:0:0:
402,192,10785,1,0,0:0:0:0:
475,192,10785,1,0,0:0:0:0:
256,192,10922,1,0,0:0:0:0:
182,192,10922,1,0,0:0:0:0:
109,192,11059,1,0,0:0:0:0:
36,192,11059,1,0,0:0:0:0:
475,192,11196,1,0,0:0:0:0:
402,192,11265,1,0,0:0:0:0:
329,192,11333,1,0,0:0:0:0:
36,192,11470,1,0,0:0:0:0:
109,192,11470,1,0,0:0:0:0:
475,192,11607,1,0,0:0:0:0:
402,192,11607,1,0,0:0:0:0:
329,192,11744,1,0,0:0:0:0:
256,192,11744,1,0,0:0:0:0:
402,192,11881,1,0,0:0:0:0:
475,192,11881,1,0,0:0:0:0:
329,192,12018,1,0,0:0:0:0:
182,192,12018,1,0,0:0:0:0:
109,192,12155,1,0,0:0:0:0:
36,192,12155,1,0,0:0:0:0:
475,192,12292,1,0,0:0:0:0:
402,192,12361,1,0,0:0:0:0:
329,192,12429,1,0,0:0:0:0:
36,192,12566,1,0,0:0:0:0:
109,192,12566,1,0,0:0:0:0:
256,192,12703,1,0,0:0:0:0:
329,192,12703,1,0,0:0:0:0:
475,192,12840,1,0,0:0:0:0:
402,192,12840,1,0,0:0:0:0:
182,192,12977,1,0,0:0:0:0:
256,192,12977,1,0,0:0:0:0:
329,192,13114,1,0,0:0:0:0:
402,192,13114,1,0,0:0:0:0:
109,192,13251,1,0,0:0:0:0:
36,192,13251,1,0,0:0:0:0:
475,192,13388,1,0,0:0:0:0:
402,192,13457,1,0,0:0:0:0:
329,192,13525,1,0,0:0:0:0:
109,192,13662,1,0,0:0:0:0:
36,192,13662,1,0,0:0:0:0:
256,192,13799,1,0,0:0:0:0:
329,192,13799,1,0,0:0:0:0:
402,192,13936,1,0,0:0:0:0:
475,192,13936,1,0,0:0:0:0:
182,192,14073,1,0,0:0:0:0:
109,192,14073,1,0,0:0:0:0:
256,192,14210,1,0,0:0:0:0:
329,192,14210,1,0,0:0:0:0:
402,192,14347,1,0,0:0:0:0:
475,192,14347,1,0,0:0:0:0:
36,192,14484,1,0,0:0:0:0:
109,192,14553,1,0,0:0:0:0:
182,192,14621,1,0,0:0:0:0:
402,192,14758,1,0,0:0:0:0:
475,192,14758,1,0,0:0:0:0:
109,192,14895,1,0,0:0:0:0:
36,192,14895,1,0,0:0:0:0:
256,192,15032,1,0,0:0:0:0:
329,192,15032,1,0,0:0:0:0:
182,192,15169,1,0,0:0:0:0:
109,192,15169,1,0,0:0:0:0:
256,192,15306,1,0,0:0:0:0:
329,192,15306,1,0,0:0:0:0:
402,192,15443,1,0,0:0:0:0:
475,192,15443,1,0,0:0:0:0:
36,192,15580,1,0,0:0:0:0:
109,192,15648,1,0,0:0:0:0:
182,192,15717,1,0,0:0:0:0:
402,192,15854,1,0,0:0:0:0:
475,192,15854,1,0,0:0:0:0:
329,192,15991,1,0,0:0:0:0:
256,192,15991,1,0,0:0:0:0:
36,192,16128,1,0,0:0:0:0:
109,192,16128,1,0,0:0:0:0:
182,192,16265,1,0,0:0:0:0:
256,192,16265,1,0,0:0:0:0:
402,192,16402,1,0,0:0:0:0:
475,192,16402,1,0,0:0:0:0:
109,192,16539,1,0,0:0:0:0:
36,192,16539,1,0,0:0:0:0:
475,192,16676,1,0,0:0:0:0:
402,192,16744,1,0,0:0:0:0:
329,192,16813,1,0,0:0:0:0:
109,192,16950,1,0,0:0:0:0:
36,192,16950,1,0,0:0:0:0:
256,192,17087,1,0,0:0:0:0:
182,192,17087,1,0,0:0:0:0:
475,192,17224,1,0,0:0:0:0:
402,192,17224,1,0,0:0:0:0:
109,192,17361,1,0,0:0:0:0:
36,192,17361,1,0,0:0:0:0:
329,192,17498,1,0,0:0:0:0:
402,192,17498,1,0,0:0:0:0:
36,192,17635,1,0,0:0:0:0:
109,192,17703,1,0,0:0:0:0:
182,192,17772,1,0,0:0:0:0:
256,192,17840,1,0,0:0:0:0:
329,192,17909,1,0,0:0:0:0:
36,192,17977,1,0,0:0:0:0:
109,192,18046,1,0,0:0:0:0:
182,192,18114,1,0,0:0:0:0:
256,192,18183,1,0,0:0:0:0:
329,192,18251,1,0,0:0:0:0:
36,192,18320,1,0,0:0:0:0:
109,192,18388,1,0,0:0:0:0:
182,192,18457,1,0,0:0:0:0:
256,192,18525,1,0,0:0:0:0:
329,192,18594,1,0,0:0:0:0:
402,192,18662,1,0,0:0:0:0:
475,192,18731,1,0,0:0:0:0:
402,192,18799,1,0,0:0:0:0:
329,192,18868,1,0,0:0:0:0:
256,192,18936,1,0,0:0:0:0:
182,192,19005,1,0,0:0:0:0:
475,192,19073,1,0,0:0:0:0:
402,192,19142,1,0,0:0:0:0:
329,192,19210,1,0,0:0:0:0:
256,192,19279,1,0,0:0:0:0:
182,192,19347,1,0,0:0:0:0:
475,192,19416,1,0,0:0:0:0:
402,192,19484,1,0,0:0:0:0:
329,192,19553,1,0,0:0:0:0:
256,192,19621,1,0,0:0:0:0:
182,192,19690,1,0,0:0:0:0:
109,192,19758,1,0,0:0:0:0:
36,192,19827,1,0,0:0:0:0:
109,192,19895,1,0,0:0:0:0:
182,192,19964,1,0,0:0:0:0:
256,192,20032,1,0,0:0:0:0:
329,192,20101,1,0,0:0:0:0:
36,192,20169,1,0,0:0:0:0:
109,192,20237,1,0,0:0:0:0:
182,192,20306,1,0,0:0:0:0:
256,192,20374,1,0,0:0:0:0:
329,192,20443,1,0,0:0:0:0:
36,192,20511,1,0,0:0:0:0:
109,192,20580,1,0,0:0:0:0:
182,192,20648,1,0,0:0:0:0:
256,192,20717,1,0,0:0:0:0:
329,192,20785,1,0,0:0:0:0:
36,192,20854,1,0,0:0:0:0:
109,192,20922,1,0,0:0:0:0:
182,192,20991,1,0,0:0:0:0:
256,192,21059,1,0,0:0:0:0:
329,192,21128,1,0,0:0:0:0:
36,192,21196,1,0,0:0:0:0:
109,192,21265,1,0,0:0:0:0:
182,192,21333,1,0,0:0:0:0:
256,192,21402,1,0,0:0:0:0:
329,192,21470,1,0,0:0:0:0:
36,192,21539,1,0,0:0:0:0:
109,192,21607,1,0,0:0:0:0:
182,192,21676,1,0,0:0:0:0:
256,192,21744,1,0,0:0:0:0:
329,192,21813,1,0,0:0:0:0:
402,192,21881,1,0,0:0:0:0:
475,192,21950,1,0,0:0:0:0:
329,192,22018,1,0,0:0:0:0:
256,192,22087,1,0,0:0:0:0:
182,192,22155,1,0,0:0:0:0:
109,192,22224,1,0,0:0:0:0:
36,192,22292,1,0,0:0:0:0:
329,192,22361,1,0,0:0:0:0:
256,192,22429,1,0,0:0:0:0:
182,192,22498,1,0,0:0:0:0:
109,192,22566,1,0,0:0:0:0:
36,192,22635,1,0,0:0:0:0:
329,192,22703,1,0,0:0:0:0:
256,192,22772,1,0,0:0:0:0:
182,192,22840,1,0,0:0:0:0:
109,192,22909,1,0,0:0:0:0:
36,192,22977,1,0,0:0:0:0:
109,192,23046,1,0,0:0:0:0:
182,192,23114,1,0,0:0:0:0:
256,192,23183,1,0,0:0:0:0:
329,192,23251,1,0,0:0:0:0:
402,192,23320,1,0,0:0:0:0:
475,192,23388,1,0,0:0:0:0:
182,192,23457,1,0,0:0:0:0:
256,192,23525,1,0,0:0:0:0:
329,192,23594,1,0,0:0:0:0:
402,192,23662,1,0,0:0:0:0:
475,192,23731,1,0,0:0:0:0:
182,192,23799,1,0,0:0:0:0:
256,192,23868,1,0,0:0:0:0:
329,192,23936,1,0,0:0:0:0:
402,192,24005,1,0,0:0:0:0:
475,192,24073,1,0,0:0:0:0:
402,192,24142,1,0,0:0:0:0:
329,192,24210,1,0,0:0:0:0:
256,192,24279,1,0,0:0:0:0:
182,192,24347,1,0,0:0:0:0:
109,192,24416,1,0,0:0:0:0:
36,192,24484,1,0,0:0:0:0:
329,192,24553,1,0,0:0:0:0:
256,192,24621,1,0,0:0:0:0:
182,192,24690,1,0,0:0:0:0:
109,192,24758,1,0,0:0:0:0:
36,192,24827,1,0,0:0:0:0:
329,192,24895,1,0,0:0:0:0:
256,192,24964,1,0,0:0:0:0:
182,192,25032,1,0,0:0:0:0:
109,192,25101,1,0,0:0:0:0:
36,192,25169,1,0,0:0:0:0:
329,192,25237,1,0,0:0:0:0:
256,192,25306,1,0,0:0:0:0:
182,192,25374,1,0,0:0:0:0:
109,192,25443,1,0,0:0:0:0:
36,192,25511,1,0,0:0:0:0:
329,192,25580,1,0,0:0:0:0:
256,192,25648,1,0,0:0:0:0:
182,192,25717,1,0,0:0:0:0:
109,192,25785,1,0,0:0:0:0:
36,192,25854,1,0,0:0:0:0:
329,192,25922,1,0,0:0:0:0:
256,192,25991,1,0,0:0:0:0:
182,192,26059,1,0,0:0:0:0:
109,192,26128,1,0,0:0:0:0:
36,192,26196,1,0,0:0:0:0:
329,192,26265,1,0,0:0:0:0:
256,192,26333,1,0,0:0:0:0:
109,192,26402,1,0,1:0:0:0:
36,192,26402,1,0,1:0:0:0:
475,192,26402,1,0,0:0:0:0:
402,192,26470,1,0,0:0:0:0:
329,192,26539,1,0,0:0:0:0:
256,192,26607,1,0,0:0:0:0:
182,192,26676,1,8,0:0:0:0:
36,192,26676,1,8,0:0:0:0:
475,192,26676,1,0,0:0:0:0:
402,192,26744,1,0,0:0:0:0:
109,192,26813,1,0,1:0:0:0:
329,192,26813,1,0,1:0:0:0:
256,192,26813,1,0,0:0:0:0:
36,192,26881,1,0,0:0:0:0:
182,192,26950,1,0,0:0:0:0:
256,192,27018,1,0,0:0:0:0:
109,192,27087,1,8,0:0:0:0:
329,192,27087,1,8,0:0:0:0:
475,192,27087,1,0,0:0:0:0:
402,192,27155,1,0,0:0:0:0:
329,192,27224,1,0,0:0:0:0:
109,192,27292,1,0,0:0:0:0:
182,192,27361,1,0,1:0:0:0:
36,192,27361,1,0,1:0:0:0:
402,192,27361,1,0,0:0:0:0:
329,192,27429,1,0,0:0:0:0:
475,192,27498,1,0,1:0:0:0:
182,192,27498,1,0,1:0:0:0:
256,192,27498,1,0,0:0:0:0:
36,192,27566,1,0,0:0:0:0:
109,192,27635,1,0,0:0:0:0:
182,192,27703,1,0,0:0:0:0:
329,192,27772,1,8,0:0:0:0:
109,192,27772,1,8,0:0:0:0:
256,192,27772,1,0,0:0:0:0:
36,192,27840,1,0,0:0:0:0:
402,192,27909,1,0,1:0:0:0:
475,192,27909,1,0,1:0:0:0:
182,192,27909,1,0,0:0:0:0:
256,192,27977,1,0,0:0:0:0:
36,192,28046,1,0,0:0:0:0:
475,192,28114,1,0,0:0:0:0:
329,192,28183,1,0,1:0:0:0:
109,192,28183,1,0,1:0:0:0:
402,192,28183,1,0,0:0:0:0:
256,192,28251,1,0,0:0:0:0:
182,192,28320,1,8,0:0:0:0:
36,192,28320,1,8,0:0:0:0:
475,192,28320,1,0,0:0:0:0:
402,192,28388,1,0,0:0:0:0:
109,192,28457,1,0,0:0:0:0:
182,192,28525,1,0,0:0:0:0:
402,192,28594,1,0,1:0:0:0:
475,192,28594,1,0,1:0:0:0:
256,192,28594,1,0,0:0:0:0:
36,192,28662,1,0,0:0:0:0:
109,192,28731,1,0,0:0:0:0:
329,192,28799,1,0,0:0:0:0:
36,192,28868,1,8,0:0:0:0:
256,192,28868,1,8,0:0:0:0:
475,192,28868,1,0,0:0:0:0:
329,192,28936,1,0,0:0:0:0:
109,192,29005,1,0,1:0:0:0:
402,192,29005,1,0,1:0:0:0:
182,192,29005,1,0,0:0:0:0:
475,192,29073,1,0,0:0:0:0:
402,192,29142,1,0,0:0:0:0:
329,192,29210,1,0,0:0:0:0:
256,192,29279,1,8,0:0:0:0:
36,192,29279,1,8,0:0:0:0:
109,192,29279,1,0,0:0:0:0:
402,192,29347,1,0,0:0:0:0:
36,192,29416,1,0,0:0:0:0:
109,192,29484,1,0,0:0:0:0:
475,192,29553,1,0,1:0:0:0:
402,192,29553,1,0,1:0:0:0:
182,192,29553,1,0,0:0:0:0:
256,192,29621,1,0,0:0:0:0:
109,192,29690,1,0,1:0:0:0:
329,192,29690,1,0,1:0:0:0:
475,192,29690,1,0,0:0:0:0:
402,192,29758,1,0,0:0:0:0:
36,192,29827,1,0,1:0:0:0:
256,192,29827,1,0,1:0:0:0:
182,192,29827,1,0,0:0:0:0:
109,192,29895,1,0,0:0:0:0:
475,192,29964,1,2,3:0:0:0:
182,192,29964,1,0,0:0:0:0:
402,192,29998,1,2,3:0:0:0:
329,192,30032,1,2,3:0:0:0:
36,192,30032,1,0,0:0:0:0:
256,192,30066,1,2,3:0:0:0:
475,192,30101,1,2,3:0:0:0:
109,192,30101,1,0,0:0:0:0:
182,192,30169,1,0,0:0:0:0:
256,192,30237,1,0,0:0:0:0:
329,192,30306,1,0,0:0:0:0:
109,192,30374,1,8,0:0:0:0:
36,192,30374,1,8,0:0:0:0:
475,192,30374,1,0,0:0:0:0:
402,192,30443,1,0,0:0:0:0:
182,192,30511,1,0,0:0:0:0:
329,192,30580,1,0,0:0:0:0:
402,192,30648,1,0,1:0:0:0:
36,192,30648,1,0,1:0:0:0:
256,192,30648,1,0,0:0:0:0:
329,192,30717,1,0,0:0:0:0:
109,192,30785,1,0,1:0:0:0:
182,192,30785,1,0,1:0:0:0:
475,192,30785,1,0,0:0:0:0:
402,192,30854,1,0,0:0:0:0:
256,192,30922,1,0,0:0:0:0:
182,192,30991,1,0,0:0:0:0:
329,192,31059,1,8,0:0:0:0:
475,192,31059,1,8,0:0:0:0:
36,192,31059,1,0,0:0:0:0:
182,192,31128,1,0,0:0:0:0:
109,192,31196,1,0,1:0:0:0:
36,192,31196,1,0,1:0:0:0:
402,192,31196,1,0,0:0:0:0:
256,192,31265,1,0,0:0:0:0:
475,192,31333,1,0,1:0:0:0:
329,192,31333,1,0,1:0:0:0:
109,192,31333,1,0,0:0:0:0:
182,192,31402,1,0,0:0:0:0:
256,192,31470,1,8,0:0:0:0:
36,192,31470,1,8,0:0:0:0:
402,192,31470,1,0,0:0:0:0:
329,192,31539,1,0,0:0:0:0:
182,192,31607,1,0,0:0:0:0:
475,192,31676,1,0,0:0:0:0:
109,192,31744,1,0,1:0:0:0:
36,192,31744,1,0,1:0:0:0:
402,192,31744,1,0,0:0:0:0:
329,192,31813,1,0,0:0:0:0:
256,192,31881,1,0,1:0:0:0:
475,192,31881,1,0,1:0:0:0:
36,192,31881,1,0,0:0:0:0:
109,192,31950,1,0,0:0:0:0:
329,192,32018,1,0,0:0:0:0:
402,192,32087,1,0,0:0:0:0:
182,192,32155,1,8,0:0:0:0:
36,192,32155,1,8,0:0:0:0:
475,192,32155,1,0,0:0:0:0:
402,192,32224,1,0,0:0:0:0:
329,192,32292,1,0,0:0:0:0:
109,192,32361,1,0,0:0:0:0:
402,192,32429,1,0,0:0:0:0:
256,192,32498,1,0,0:0:0:0:
329,192,32566,1,8,0:0:0:0:
475,192,32566,1,8,0:0:0:0:
182,192,32566,1,0,0:0:0:0:
36,192,32635,1,0,0:0:0:0:
256,192,32703,1,0,0:0:0:0:
329,192,32772,1,0,0:0:0:0:
109,192,32840,1,0,1:0:0:0:
402,192,32840,1,0,1:0:0:0:
36,192,32840,1,0,0:0:0:0:
256,192,32909,1,0,0:0:0:0:
182,192,32977,1,0,1:0:0:0:
475,192,32977,1,0,1:0:0:0:
329,192,32977,1,0,0:0:0:0:
402,192,33046,1,0,0:0:0:0:
256,192,33114,1,0,0:0:0:0:
109,192,33183,1,0,0:0:0:0:
36,192,33251,1,8,0:0:0:0:
329,192,33251,1,8,0:0:0:0:
182,192,33251,1,0,0:0:0:0:
475,192,33320,1,0,0:0:0:0:
402,192,33388,1,0,0:0:0:0:
109,192,33457,1,0,0:0:0:0:
475,192,33525,1,0,0:0:0:0:
329,192,33594,1,0,0:0:0:0:
182,192,33662,1,8,0:0:0:0:
402,192,33662,1,8,0:0:0:0:
36,192,33662,1,0,0:0:0:0:
109,192,33731,1,0,0:0:0:0:
182,192,33799,1,0,0:0:0:0:
329,192,33868,1,0,0:0:0:0:
36,192,33936,1,0,1:0:0:0:
182,192,33936,1,0,1:0:0:0:
402,192,33936,1,0,0:0:0:0:
256,192,34005,1,0,0:0:0:0:
109,192,34073,1,0,1:0:0:0:
475,192,34073,1,0,1:0:0:0:
329,192,34073,1,0,0:0:0:0:
256,192,34142,1,0,0:0:0:0:
402,192,34210,1,0,1:0:0:0:
182,192,34210,1,0,1:0:0:0:
36,192,34210,1,0,0:0:0:0:
256,192,34279,1,0,0:0:0:0:
36,192,34347,1,8,0:0:0:0:
475,192,34347,1,8,0:0:0:0:
329,192,34347,1,0,0:0:0:0:
109,192,34416,1,0,0:0:0:0:
402,192,34484,1,0,0:0:0:0:
329,192,34553,1,0,0:0:0:0:
109,192,34621,1,0,1:0:0:0:
256,192,34621,1,0,1:0:0:0:
475,192,34621,1,0,0:0:0:0:
402,192,34690,1,0,0:0:0:0:
475,192,34758,1,8,0:0:0:0:
182,192,34758,1,8,0:0:0:0:
329,192,34758,1,0,0:0:0:0:
256,192,34827,1,0,0:0:0:0:
182,192,34895,1,0,1:0:0:0:
36,192,34895,1,0,1:0:0:0:
402,192,34895,1,0,0:0:0:0:
109,192,34964,1,0,0:0:0:0:
329,192,35032,1,0,0:0:0:0:
256,192,35101,1,0,0:0:0:0:
329,192,35169,1,0,1:0:0:0:
475,192,35169,1,0,1:0:0:0:
182,192,35169,1,0,0:0:0:0:
36,192,35237,1,0,0:0:0:0:
256,192,35306,1,0,0:0:0:0:
329,192,35374,1,0,0:0:0:0:
402,192,35443,1,8,0:0:0:0:
109,192,35443,1,8,0:0:0:0:
475,192,35443,1,0,0:0:0:0:
256,192,35511,1,0,0:0:0:0:
182,192,35580,1,0,1:0:0:0:
109,192,35580,1,0,1:0:0:0:
329,192,35580,1,0,0:0:0:0:
256,192,35648,1,0,0:0:0:0:
36,192,35717,1,0,0:0:0:0:
109,192,35785,1,0,0:0:0:0:
256,192,35854,1,8,0:0:0:0:
475,192,35854,1,8,0:0:0:0:
402,192,35854,1,0,0:0:0:0:
329,192,35922,1,0,0:0:0:0:
182,192,35991,1,0,1:0:0:0:
36,192,35991,1,0,1:0:0:0:
109,192,35991,1,0,0:0:0:0:
256,192,36059,1,0,0:0:0:0:
109,192,36128,1,0,1:0:0:0:
402,192,36128,1,0,1:0:0:0:
36,192,36128,1,0,0:0:0:0:
182,192,36196,1,0,0:0:0:0:
256,192,36265,1,0,1:0:0:0:
402,192,36265,1,0,1:0:0:0:
475,192,36265,1,0,0:0:0:0:
329,192,36333,1,0,0:0:0:0:
256,192,36402,1,0,0:0:0:0:
36,192,36470,1,0,0:0:0:0:
182,192,36539,1,8,0:0:0:0:
475,192,36539,1,8,0:0:0:0:
329,192,36539,1,0,0:0:0:0:
402,192,36607,1,0,0:0:0:0:
256,192,36676,1,0,1:0:0:0:
36,192,36676,1,0,1:0:0:0:
475,192,36676,1,0,0:0:0:0:
402,192,36744,1,0,0:0:0:0:
182,192,36813,1,0,0:0:0:0:
256,192,36881,1,0,0:0:0:0:
402,192,36950,1,8,0:0:0:0:
329,192,36950,1,8,0:0:0:0:
36,192,36950,1,0,0:0:0:0:
256,192,37018,1,0,0:0:0:0:
182,192,37087,1,8,0:0:0:0:
475,192,37087,1,8,0:0:0:0:
329,192,37155,1,0,0:0:0:0:
402,192,37224,1,0,0:0:0:0:
475,192,37292,1,0,0:0:0:0:
109,192,37361,1,0,1:0:0:0:
36,192,37361,1,0,1:0:0:0:
256,192,37361,1,0,0:0:0:0:
402,192,37429,1,0,0:0:0:0:
329,192,37498,1,0,0:0:0:0:
182,192,37566,1,0,0:0:0:0:
329,192,37635,1,8,0:0:0:0:
475,192,37635,1,8,0:0:0:0:
36,192,37635,1,0,0:0:0:0:
256,192,37703,1,0,0:0:0:0:
109,192,37772,1,0,1:0:0:0:
36,192,37772,1,0,1:0:0:0:
402,192,37772,1,0,0:0:0:0:
329,192,37840,1,0,0:0:0:0:
182,192,37909,1,0,0:0:0:0:
36,192,37977,1,0,0:0:0:0:
329,192,38046,1,8,0:0:0:0:
475,192,38046,1,8,0:0:0:0:
256,192,38046,1,0,0:0:0:0:
402,192,38114,1,0,0:0:0:0:
182,192,38183,5,0,1:0:0:0:
109,192,38183,1,0,1:0:0:0:
329,192,38183,1,0,0:0:0:0:
36,192,38251,1,0,0:0:0:0:
475,192,38320,1,0,1:0:0:0:
109,192,38320,1,0,1:0:0:0:
256,192,38320,1,0,0:0:0:0:
329,192,38388,1,0,0:0:0:0:
256,192,38457,1,0,1:0:0:0:
36,192,38457,1,0,1:0:0:0:
402,192,38457,1,0,0:0:0:0:
329,192,38525,1,0,0:0:0:0:
402,192,38594,1,0,1:0:0:0:
475,192,38594,1,0,1:0:0:0:
109,192,38594,1,0,0:0:0:0:
182,192,38662,1,0,0:0:0:0:
36,192,38731,1,8,0:0:0:0:
329,192,38731,1,8,0:0:0:0:
256,192,38731,1,0,0:0:0:0:
402,192,38799,1,0,0:0:0:0:
109,192,38868,1,0,1:0:0:0:
475,192,38868,1,0,1:0:0:0:
256,192,38868,1,0,0:0:0:0:
329,192,38936,1,0,0:0:0:0:
475,192,39005,1,0,0:0:0:0:
402,192,39073,1,0,0:0:0:0:
36,192,39142,1,8,0:0:0:0:
182,192,39142,1,8,0:0:0:0:
329,192,39142,1,0,0:0:0:0:
256,192,39210,1,0,0:0:0:0:
475,192,39279,5,2,3:0:0:0:
402,192,39301,1,2,3:0:0:0:
329,192,39324,1,2,3:0:0:0:
256,192,39347,1,2,3:0:0:0:
182,192,39370,1,2,3:0:0:0:
109,192,39393,1,2,3:0:0:0:
36,192,39416,1,2,3:0:0:0:
475,192,39438,1,2,3:0:0:0:
402,192,39461,1,2,3:0:0:0:
329,192,39484,1,2,3:0:0:0:
256,192,39507,1,2,3:0:0:0:
182,192,39530,1,2,3:0:0:0:
109,192,39553,1,2,3:0:0:0:
36,192,39553,1,2,3:0:0:0:
402,192,39621,1,0,0:0:0:0:
475,192,39621,1,0,0:0:0:0:
329,192,39690,1,0,0:0:0:0:
256,192,39690,1,0,0:0:0:0:
182,192,39758,1,0,0:0:0:0:
109,192,39758,1,0,0:0:0:0:
402,192,39827,1,0,0:0:0:0:
475,192,39827,1,0,0:0:0:0:
329,192,39895,1,0,0:0:0:0:
36,192,39964,1,0,0:0:0:0:
109,192,39964,1,0,0:0:0:0:
182,192,40032,1,0,0:0:0:0:
256,192,40032,1,0,0:0:0:0:
402,192,40101,1,0,0:0:0:0:
475,192,40101,1,0,0:0:0:0:
329,192,40169,1,0,0:0:0:0:
256,192,40169,1,0,0:0:0:0:
182,192,40237,1,0,0:0:0:0:
109,192,40237,1,0,0:0:0:0:
256,192,40306,1,0,0:0:0:0:
402,192,40374,1,0,0:0:0:0:
475,192,40374,1,0,0:0:0:0:
329,192,40443,1,0,0:0:0:0:
256,192,40443,1,0,0:0:0:0:
182,192,40511,1,0,0:0:0:0:
109,192,40511,1,0,0:0:0:0:
475,192,40580,1,0,0:0:0:0:
256,192,40648,1,0,0:0:0:0:
36,192,40648,1,0,0:0:0:0:
329,192,40717,1,0,0:0:0:0:
402,192,40717,1,0,0:0:0:0:
182,192,40785,1,0,0:0:0:0:
109,192,40785,1,0,0:0:0:0:
329,192,40854,1,0,0:0:0:0:
402,192,40854,1,0,0:0:0:0:
256,192,40922,1,0,0:0:0:0:
36,192,40922,1,0,0:0:0:0:
182,192,40991,1,0,0:0:0:0:
329,192,41059,1,0,0:0:0:0:
402,192,41059,1,0,0:0:0:0:
182,192,41128,1,0,0:0:0:0:
109,192,41128,1,0,0:0:0:0:
256,192,41196,1,0,0:0:0:0:
329,192,41196,1,0,0:0:0:0:
475,192,41265,1,0,0:0:0:0:
329,192,41333,1,0,0:0:0:0:
402,192,41333,1,0,0:0:0:0:
182,192,41402,1,0,0:0:0:0:
109,192,41402,1,0,0:0:0:0:
402,192,41470,1,0,0:0:0:0:
475,192,41470,1,0,0:0:0:0:
329,192,41539,1,0,0:0:0:0:
256,192,41539,1,0,0:0:0:0:
182,192,41607,1,0,0:0:0:0:
109,192,41607,1,0,0:0:0:0:
256,192,41676,1,0,0:0:0:0:
36,192,41744,1,0,0:0:0:0:
109,192,41744,1,0,0:0:0:0:
182,192,41813,1,0,0:0:0:0:
256,192,41813,1,0,0:0:0:0:
329,192,41881,1,0,0:0:0:0:
402,192,41881,1,0,0:0:0:0:
256,192,41950,1,0,0:0:0:0:
182,192,41950,1,0,0:0:0:0:
109,192,42018,1,0,0:0:0:0:
36,192,42018,1,0,0:0:0:0:
256,192,42087,1,0,0:0:0:0:
402,192,42155,1,0,0:0:0:0:
475,192,42155,1,0,0:0:0:0:
109,192,42224,1,0,0:0:0:0:
36,192,42224,1,0,0:0:0:0:
256,192,42292,1,0,0:0:0:0:
329,192,42292,1,0,0:0:0:0:
402,192,42361,1,0,0:0:0:0:
475,192,42361,1,0,0:0:0:0:
182,192,42429,1,0,0:0:0:0:
256,192,42429,1,0,0:0:0:0:
329,192,42498,1,0,0:0:0:0:
36,192,42566,1,0,0:0:0:0:
109,192,42566,1,0,0:0:0:0:
182,192,42635,1,0,0:0:0:0:
256,192,42635,1,0,0:0:0:0:
329,192,42703,1,0,0:0:0:0:
402,192,42703,1,0,0:0:0:0:
475,192,42703,1,0,0:0:0:0:
36,192,43936,1,2,2:0:0:0:
182,192,43936,1,0,1:0:0:0:
329,192,43936,1,0,1:0:0:0:
475,192,43936,1,0,0:0:0:0:
109,192,44005,1,2,2:0:0:0:
402,192,44005,1,0,0:0:0:0:
475,192,44073,1,2,2:0:0:0:
256,192,44073,1,0,0:0:0:0:
182,192,44142,1,2,2:0:0:0:
329,192,44142,1,0,0:0:0:0:
109,192,44210,1,2,2:0:0:0:
402,192,44210,1,8,0:0:0:0:
36,192,44210,1,8,0:0:0:0:
475,192,44210,1,0,0:0:0:0:
329,192,44279,1,2,2:0:0:0:
182,192,44279,1,0,0:0:0:0:
36,192,44347,1,2,2:0:0:0:
256,192,44347,1,0,0:0:0:0:
182,192,44416,1,2,2:0:0:0:
402,192,44416,1,0,0:0:0:0:
329,192,44484,1,2,2:0:0:0:
475,192,44484,1,0,1:0:0:0:
36,192,44484,1,0,1:0:0:0:
256,192,44484,1,0,0:0:0:0:
109,192,44553,1,2,2:0:0:0:
402,192,44553,1,0,0:0:0:0:
256,192,44621,1,2,2:0:0:0:
36,192,44621,1,8,0:0:0:0:
475,192,44621,1,8,0:0:0:0:
182,192,44621,1,0,0:0:0:0:
402,192,44690,1,2,2:0:0:0:
329,192,44690,1,0,0:0:0:0:
36,192,44758,1,0,1:0:0:0:
182,192,44758,1,0,1:0:0:0:
109,192,44758,1,0,0:0:0:0:
475,192,44827,1,2,2:0:0:0:
256,192,44827,1,0,0:0:0:0:
402,192,44895,1,2,2:0:0:0:
109,192,44895,1,0,1:0:0:0:
36,192,44895,1,0,1:0:0:0:
329,192,44895,1,0,0:0:0:0:
182,192,44964,1,0,0:0:0:0:
36,192,45032,1,2,2:0:0:0:
256,192,45032,1,0,1:0:0:0:
475,192,45032,1,0,1:0:0:0:
402,192,45032,1,0,0:0:0:0:
329,192,45101,1,2,2:0:0:0:
109,192,45101,1,0,0:0:0:0:
475,192,45169,1,2,2:0:0:0:
256,192,45169,1,0,0:0:0:0:
109,192,45237,1,2,2:0:0:0:
329,192,45237,1,0,0:0:0:0:
402,192,45306,1,2,2:0:0:0:
182,192,45306,1,8,0:0:0:0:
36,192,45306,1,8,0:0:0:0:
475,192,45306,1,0,0:0:0:0:
329,192,45374,1,2,2:0:0:0:
109,192,45374,1,0,0:0:0:0:
182,192,45443,1,2,2:0:0:0:
402,192,45443,1,0,0:0:0:0:
475,192,45511,1,2,2:0:0:0:
329,192,45511,1,0,0:0:0:0:
402,192,45580,1,2,2:0:0:0:
36,192,45580,1,0,1:0:0:0:
182,192,45580,1,0,1:0:0:0:
256,192,45580,1,0,0:0:0:0:
109,192,45648,1,2,2:0:0:0:
475,192,45648,1,0,0:0:0:0:
329,192,45717,1,2,2:0:0:0:
36,192,45717,1,8,0:0:0:0:
182,192,45717,1,8,0:0:0:0:
402,192,45717,1,0,0:0:0:0:
256,192,45785,1,2,2:0:0:0:
109,192,45785,1,0,0:0:0:0:
475,192,45854,1,0,1:0:0:0:
182,192,45854,1,0,1:0:0:0:
402,192,45854,1,0,0:0:0:0:
36,192,45922,1,2,2:0:0:0:
109,192,45922,1,0,0:0:0:0:
329,192,45991,1,2,2:0:0:0:
475,192,45991,1,0,1:0:0:0:
256,192,45991,1,0,1:0:0:0:
402,192,46059,1,0,0:0:0:0:
475,192,46128,1,2,2:0:0:0:
36,192,46128,1,0,1:0:0:0:
182,192,46128,1,0,1:0:0:0:
329,192,46128,1,0,0:0:0:0:
402,192,46196,1,2,2:0:0:0:
256,192,46196,1,0,0:0:0:0:
109,192,46265,1,2,2:0:0:0:
36,192,46265,1,0,0:0:0:0:
256,192,46333,1,2,2:0:0:0:
329,192,46333,1,0,0:0:0:0:
402,192,46402,1,2,2:0:0:0:
182,192,46402,1,8,0:0:0:0:
475,192,46402,1,8,0:0:0:0:
36,192,46402,1,0,0:0:0:0:
329,192,46470,1,2,2:0:0:0:
109,192,46470,1,0,0:0:0:0:
36,192,46539,1,2,2:0:0:0:
256,192,46539,1,0,0:0:0:0:
182,192,46607,1,2,2:0:0:0:
402,192,46607,1,0,0:0:0:0:
475,192,46676,1,2,2:0:0:0:
36,192,46676,1,0,1:0:0:0:
256,192,46676,1,0,1:0:0:0:
329,192,46676,1,0,0:0:0:0:
402,192,46744,1,2,2:0:0:0:
109,192,46744,1,0,0:0:0:0:
329,192,46813,1,2,2:0:0:0:
182,192,46813,1,8,0:0:0:0:
475,192,46813,1,8,0:0:0:0:
36,192,46813,1,0,0:0:0:0:
402,192,46881,1,2,2:0:0:0:
109,192,46881,1,0,0:0:0:0:
329,192,46950,1,2,2:0:0:0:
256,192,46950,1,0,0:0:0:0:
36,192,47018,1,2,2:0:0:0:
402,192,47018,1,0,0:0:0:0:
109,192,47087,1,2,2:0:0:0:
475,192,47087,1,0,1:0:0:0:
182,192,47087,1,0,1:0:0:0:
256,192,47087,1,0,0:0:0:0:
329,192,47155,1,0,0:0:0:0:
402,192,47224,1,2,2:0:0:0:
36,192,47224,1,0,1:0:0:0:
256,192,47224,1,0,1:0:0:0:
182,192,47224,1,0,0:0:0:0:
109,192,47292,1,2,2:0:0:0:
475,192,47292,1,0,0:0:0:0:
182,192,47361,1,2,2:0:0:0:
402,192,47361,1,0,0:0:0:0:
256,192,47429,1,2,2:0:0:0:
109,192,47429,1,0,0:0:0:0:
36,192,47498,1,2,2:0:0:0:
475,192,47498,1,8,0:0:0:0:
402,192,47498,1,8,0:0:0:0:
182,192,47498,1,0,0:0:0:0:
329,192,47566,1,2,2:0:0:0:
109,192,47566,1,0,0:0:0:0:
402,192,47635,1,2,2:0:0:0:
182,192,47635,1,0,0:0:0:0:
109,192,47703,1,2,2:0:0:0:
475,192,47703,1,0,0:0:0:0:
256,192,47772,1,2,2:0:0:0:
36,192,47772,1,0,1:0:0:0:
329,192,47772,1,0,1:0:0:0:
402,192,47772,1,0,0:0:0:0:
475,192,47840,1,2,2:0:0:0:
182,192,47840,1,0,0:0:0:0:
329,192,47909,1,2,2:0:0:0:
109,192,47909,1,8,0:0:0:0:
402,192,47909,1,8,0:0:0:0:
36,192,47909,1,0,0:0:0:0:
475,192,47977,1,2,2:0:0:0:
182,192,47977,1,0,0:0:0:0:
36,192,48046,1,2,2:0:0:0:
329,192,48046,1,0,1:0:0:0:
256,192,48046,1,0,1:0:0:0:
402,192,48046,1,0,0:0:0:0:
109,192,48114,1,2,2:0:0:0:
182,192,48114,1,0,0:0:0:0:
475,192,48183,1,2,2:0:0:0:
36,192,48183,1,0,1:0:0:0:
329,192,48183,1,0,1:0:0:0:
402,192,48251,1,2,2:0:0:0:
256,192,48251,1,0,0:0:0:0:
329,192,48320,1,2,2:0:0:0:
109,192,48320,1,0,1:0:0:0:
475,192,48320,1,0,1:0:0:0:
182,192,48320,1,0,0:0:0:0:
36,192,48388,1,2,2:0:0:0:
256,192,48388,1,0,0:0:0:0:
109,192,48457,1,2,2:0:0:0:
475,192,48457,1,0,0:0:0:0:
402,192,48525,1,2,2:0:0:0:
182,192,48525,1,0,0:0:0:0:
329,192,48594,1,2,2:0:0:0:
36,192,48594,1,8,0:0:0:0:
256,192,48594,1,8,0:0:0:0:
109,192,48594,1,0,0:0:0:0:
475,192,48662,1,2,2:0:0:0:
182,192,48662,1,0,0:0:0:0:
402,192,48731,1,2,2:0:0:0:
36,192,48731,1,0,0:0:0:0:
329,192,48799,1,2,2:0:0:0:
182,192,48799,1,0,0:0:0:0:
36,192,48868,1,2,2:0:0:0:
109,192,48868,1,0,1:0:0:0:
256,192,48868,1,0,1:0:0:0:
475,192,48868,1,0,0:0:0:0:
402,192,48936,1,2,2:0:0:0:
182,192,48936,1,0,0:0:0:0:
109,192,49005,1,2,2:0:0:0:
329,192,49005,1,8,0:0:0:0:
475,192,49005,1,8,0:0:0:0:
36,192,49005,1,0,0:0:0:0:
256,192,49073,1,2,2:0:0:0:
182,192,49073,1,0,0:0:0:0:
329,192,49142,1,0,0:0:0:0:
475,192,49210,1,2,2:0:0:0:
36,192,49210,1,0,0:0:0:0:
402,192,49279,1,2,2:0:0:0:
109,192,49279,1,0,1:0:0:0:
256,192,49279,1,0,1:0:0:0:
182,192,49279,1,0,0:0:0:0:
329,192,49347,1,0,0:0:0:0:
36,192,49416,1,2,2:0:0:0:
256,192,49416,1,0,1:0:0:0:
475,192,49416,1,0,1:0:0:0:
402,192,49416,1,0,0:0:0:0:
182,192,49484,1,2,2:0:0:0:
109,192,49484,1,0,0:0:0:0:
329,192,49553,1,2,2:0:0:0:
256,192,49553,1,0,0:0:0:0:
109,192,49621,1,2,2:0:0:0:
402,192,49621,1,0,0:0:0:0:
475,192,49690,1,2,2:0:0:0:
36,192,49690,1,8,0:0:0:0:
329,192,49690,1,8,0:0:0:0:
182,192,49690,1,0,0:0:0:0:
402,192,49758,1,2,2:0:0:0:
256,192,49758,1,0,0:0:0:0:
182,192,49827,1,2,2:0:0:0:
36,192,49827,1,0,0:0:0:0:
329,192,49895,1,2,2:0:0:0:
475,192,49895,1,0,0:0:0:0:
36,192,49964,1,2,2:0:0:0:
109,192,49964,1,0,1:0:0:0:
182,192,49964,1,0,1:0:0:0:
402,192,49964,1,0,0:0:0:0:
256,192,50032,1,2,2:0:0:0:
329,192,50032,1,0,0:0:0:0:
182,192,50101,1,2,2:0:0:0:
475,192,50101,1,8,0:0:0:0:
36,192,50101,1,8,0:0:0:0:
109,192,50169,1,2,2:0:0:0:
256,192,50169,1,0,0:0:0:0:
36,192,50237,1,0,1:0:0:0:
402,192,50237,1,0,1:0:0:0:
475,192,50237,1,0,0:0:0:0:
182,192,50306,1,2,2:0:0:0:
329,192,50306,1,0,0:0:0:0:
256,192,50374,1,2,2:0:0:0:
109,192,50374,1,0,0:0:0:0:
182,192,50443,1,0,0:0:0:0:
36,192,50511,1,2,2:0:0:0:
329,192,50511,1,0,1:0:0:0:
109,192,50511,1,0,1:0:0:0:
475,192,50511,1,0,0:0:0:0:
182,192,50580,1,2,2:0:0:0:
256,192,50580,1,0,0:0:0:0:
402,192,50648,1,2,2:0:0:0:
36,192,50648,1,0,0:0:0:0:
109,192,50717,1,2,2:0:0:0:
329,192,50717,1,0,0:0:0:0:
475,192,50785,1,2,2:0:0:0:
182,192,50785,1,8,0:0:0:0:
36,192,50785,1,8,0:0:0:0:
256,192,50785,1,0,0:0:0:0:
402,192,50854,1,2,2:0:0:0:
109,192,50854,1,0,0:0:0:0:
329,192,50922,1,2,2:0:0:0:
182,192,50922,1,0,0:0:0:0:
109,192,50991,1,2,2:0:0:0:
256,192,50991,1,0,0:0:0:0:
402,192,51059,1,2,2:0:0:0:
475,192,51059,1,0,1:0:0:0:
182,192,51059,1,0,1:0:0:0:
329,192,51059,1,0,0:0:0:0:
36,192,51128,1,2,2:0:0:0:
109,192,51128,1,0,0:0:0:0:
402,192,51196,1,2,2:0:0:0:
256,192,51196,1,8,0:0:0:0:
329,192,51196,1,8,0:0:0:0:
475,192,51196,1,0,0:0:0:0:
109,192,51265,1,2,2:0:0:0:
182,192,51265,1,0,0:0:0:0:
36,192,51333,1,0,1:0:0:0:
329,192,51333,1,0,1:0:0:0:
475,192,51333,1,0,0:0:0:0:
182,192,51402,1,2,2:0:0:0:
402,192,51402,1,0,0:0:0:0:
329,192,51470,1,2,2:0:0:0:
109,192,51470,1,0,0:0:0:0:
182,192,51539,1,0,0:0:0:0:
36,192,51607,1,2,2:0:0:0:
256,192,51607,1,0,1:0:0:0:
475,192,51607,1,0,1:0:0:0:
109,192,51607,1,0,0:0:0:0:
402,192,51676,1,2,2:0:0:0:
182,192,51676,1,0,0:0:0:0:
329,192,51744,1,2,2:0:0:0:
36,192,51744,1,0,0:0:0:0:
109,192,51813,1,0,0:0:0:0:
475,192,51813,1,0,0:0:0:0:
402,192,51881,1,2,2:0:0:0:
182,192,51881,1,8,0:0:0:0:
256,192,51881,1,8,0:0:0:0:
36,192,51881,1,0,0:0:0:0:
109,192,51950,1,2,2:0:0:0:
329,192,51950,1,0,0:0:0:0:
182,192,52018,1,2,2:0:0:0:
475,192,52018,1,0,0:0:0:0:
256,192,52087,1,2,2:0:0:0:
402,192,52087,1,0,0:0:0:0:
329,192,52155,1,2,2:0:0:0:
36,192,52155,1,0,1:0:0:0:
182,192,52155,1,0,0:0:0:0:
109,192,52155,1,0,0:0:0:0:
475,192,52224,1,2,2:0:0:0:
256,192,52224,1,0,0:0:0:0:
109,192,52292,1,2,2:0:0:0:
402,192,52292,1,8,0:0:0:0:
36,192,52292,1,8,0:0:0:0:
329,192,52292,1,0,0:0:0:0:
182,192,52361,1,2,2:0:0:0:
475,192,52361,1,0,0:0:0:0:
256,192,52429,1,0,1:0:0:0:
36,192,52429,1,0,1:0:0:0:
329,192,52429,1,0,0:0:0:0:
402,192,52498,1,2,2:0:0:0:
182,192,52498,1,0,0:0:0:0:
109,192,52566,1,2,2:0:0:0:
256,192,52566,1,0,1:0:0:0:
36,192,52566,1,0,0:0:0:0:
402,192,52635,1,0,1:0:0:0:
182,192,52635,1,0,0:0:0:0:
36,192,52703,1,2,2:0:0:0:
329,192,52703,1,0,1:0:0:0:
475,192,52703,1,0,1:0:0:0:
109,192,52703,1,0,0:0:0:0:
182,192,52772,1,2,2:0:0:0:
256,192,52772,1,0,0:0:0:0:
475,192,52840,1,2,2:0:0:0:
36,192,52840,1,0,0:0:0:0:
402,192,52909,1,2,2:0:0:0:
182,192,52909,1,0,0:0:0:0:
109,192,52977,1,2,2:0:0:0:
36,192,52977,1,8,0:0:0:0:
256,192,52977,1,8,0:0:0:0:
475,192,52977,1,0,0:0:0:0:
329,192,53046,1,2,2:0:0:0:
402,192,53046,1,0,0:0:0:0:
475,192,53114,1,2,2:0:0:0:
109,192,53114,1,0,0:0:0:0:
182,192,53183,1,2,2:0:0:0:
402,192,53183,1,0,0:0:0:0:
329,192,53251,1,2,2:0:0:0:
36,192,53251,1,0,1:0:0:0:
109,192,53251,1,0,1:0:0:0:
475,192,53251,1,0,0:0:0:0:
402,192,53320,1,2,2:0:0:0:
182,192,53320,1,0,0:0:0:0:
256,192,53388,1,2,2:0:0:0:
329,192,53388,1,8,0:0:0:0:
36,192,53388,1,8,0:0:0:0:
109,192,53388,1,0,0:0:0:0:
475,192,53457,1,2,2:0:0:0:
182,192,53457,1,0,0:0:0:0:
36,192,53525,1,0,0:0:0:0:
109,192,53594,1,2,2:0:0:0:
329,192,53594,1,0,0:0:0:0:
36,192,53662,1,0,1:0:0:0:
402,192,53662,1,0,1:0:0:0:
256,192,53662,1,2,2:0:0:0:
475,192,53662,1,0,0:0:0:0:
109,192,53731,1,0,0:0:0:0:
182,192,53799,1,2,2:0:0:0:
475,192,53799,1,0,1:0:0:0:
329,192,53799,1,0,1:0:0:0:
36,192,53799,1,0,0:0:0:0:
402,192,53868,1,2,2:0:0:0:
256,192,53868,1,0,0:0:0:0:
109,192,53936,1,2,2:0:0:0:
182,192,53936,1,0,0:0:0:0:
475,192,54005,1,2,2:0:0:0:
329,192,54005,1,0,0:0:0:0:
402,192,54073,1,2,2:0:0:0:
256,192,54073,1,8,0:0:0:0:
36,192,54073,1,8,0:0:0:0:
109,192,54073,1,0,0:0:0:0:
329,192,54142,1,2,2:0:0:0:
182,192,54142,1,0,0:0:0:0:
109,192,54210,1,2,2:0:0:0:
475,192,54210,1,0,0:0:0:0:
402,192,54279,1,2,2:0:0:0:
256,192,54279,1,0,0:0:0:0:
329,192,54347,1,2,2:0:0:0:
36,192,54347,1,0,1:0:0:0:
182,192,54347,1,0,1:0:0:0:
475,192,54347,1,0,0:0:0:0:
256,192,54416,1,2,2:0:0:0:
402,192,54416,1,0,0:0:0:0:
109,192,54484,1,2,2:0:0:0:
475,192,54484,1,8,0:0:0:0:
329,192,54484,1,8,0:0:0:0:
36,192,54484,1,0,0:0:0:0:
182,192,54553,1,2,2:0:0:0:
402,192,54553,1,0,0:0:0:0:
109,192,54621,1,0,1:0:0:0:
256,192,54621,1,0,1:0:0:0:
36,192,54621,1,0,0:0:0:0:
475,192,54690,1,2,2:0:0:0:
182,192,54690,1,0,0:0:0:0:
36,192,54758,1,2,2:0:0:0:
402,192,54758,1,0,1:0:0:0:
329,192,54758,1,0,1:0:0:0:
256,192,54758,1,0,0:0:0:0:
109,192,54827,1,0,0:0:0:0:
475,192,54895,1,2,2:0:0:0:
182,192,54895,1,0,1:0:0:0:
36,192,54895,1,0,1:0:0:0:
329,192,54895,1,0,0:0:0:0:
402,192,54964,1,2,2:0:0:0:
256,192,54964,1,0,0:0:0:0:
329,192,55032,1,2,2:0:0:0:
36,192,55032,1,0,0:0:0:0:
109,192,55101,1,2,2:0:0:0:
256,192,55101,1,0,0:0:0:0:
475,192,55169,1,2,2:0:0:0:
402,192,55169,1,8,0:0:0:0:
182,192,55169,1,8,0:0:0:0:
329,192,55169,1,0,0:0:0:0:
36,192,55237,1,2,2:0:0:0:
256,192,55237,1,0,0:0:0:0:
109,192,55306,1,2,2:0:0:0:
475,192,55306,1,0,0:0:0:0:
182,192,55374,1,2,2:0:0:0:
402,192,55374,1,0,0:0:0:0:
475,192,55443,1,2,2:0:0:0:
36,192,55443,1,0,1:0:0:0:
329,192,55443,1,0,1:0:0:0:
256,192,55443,1,0,0:0:0:0:
402,192,55511,1,2,2:0:0:0:
182,192,55511,1,0,0:0:0:0:
109,192,55580,1,2,2:0:0:0:
256,192,55580,1,8,0:0:0:0:
475,192,55580,1,8,0:0:0:0:
36,192,55580,1,0,0:0:0:0:
329,192,55648,1,2,2:0:0:0:
402,192,55648,1,0,0:0:0:0:
36,192,55717,1,0,1:0:0:0:
182,192,55717,1,0,1:0:0:0:
256,192,55717,1,0,0:0:0:0:
475,192,55785,1,2,2:0:0:0:
329,192,55785,1,0,0:0:0:0:
182,192,55854,1,2,2:0:0:0:
109,192,55854,1,0,1:0:0:0:
402,192,55854,1,0,1:0:0:0:
36,192,55854,1,0,0:0:0:0:
256,192,55922,1,0,0:0:0:0:
36,192,55991,1,2,2:0:0:0:
475,192,55991,1,0,1:0:0:0:
402,192,55991,1,0,1:0:0:0:
182,192,55991,1,0,0:0:0:0:
329,192,56059,1,2,2:0:0:0:
256,192,56059,1,0,0:0:0:0:
109,192,56128,1,2,2:0:0:0:
402,192,56128,1,0,0:0:0:0:
475,192,56196,1,2,2:0:0:0:
329,192,56196,1,0,0:0:0:0:
182,192,56265,1,2,2:0:0:0:
36,192,56265,1,8,0:0:0:0:
256,192,56265,1,8,0:0:0:0:
402,192,56265,1,0,0:0:0:0:
329,192,56333,1,2,2:0:0:0:
109,192,56333,1,0,0:0:0:0:
402,192,56402,1,2,2:0:0:0:
182,192,56402,1,0,0:0:0:0:
475,192,56470,1,2,2:0:0:0:
256,192,56470,1,0,0:0:0:0:
109,192,56539,1,2,2:0:0:0:
182,192,56539,1,0,1:0:0:0:
36,192,56539,1,0,1:0:0:0:
329,192,56539,1,0,0:0:0:0:
402,192,56607,1,2,2:0:0:0:
256,192,56607,1,0,0:0:0:0:
36,192,56676,1,2,2:0:0:0:
475,192,56676,1,0,1:0:0:0:
182,192,56676,1,0,0:0:0:0:
109,192,56744,1,2,2:0:0:0:
329,192,56744,1,0,1:0:0:0:
402,192,56744,1,0,0:0:0:0:
36,192,56813,1,0,1:0:0:0:
182,192,56813,1,0,1:0:0:0:
256,192,56813,1,0,0:0:0:0:
475,192,56881,1,2,2:0:0:0:
329,192,56881,1,0,0:0:0:0:
182,192,56950,1,2,2:0:0:0:
109,192,56950,1,0,1:0:0:0:
402,192,56950,1,0,0:0:0:0:
329,192,57018,1,0,1:0:0:0:
256,192,57018,1,0,0:0:0:0:
36,192,57087,1,2,2:0:0:0:
475,192,57087,1,0,1:0:0:0:
402,192,57087,1,0,1:0:0:0:
182,192,57087,1,0,0:0:0:0:
109,192,57155,1,2,2:0:0:0:
329,192,57155,1,0,0:0:0:0:
402,192,57224,1,2,2:0:0:0:
256,192,57224,1,0,0:0:0:0:
182,192,57292,1,2,2:0:0:0:
36,192,57292,1,0,0:0:0:0:
475,192,57361,1,2,2:0:0:0:
109,192,57361,1,8,0:0:0:0:
329,192,57361,1,8,0:0:0:0:
402,192,57361,1,0,0:0:0:0:
36,192,57429,1,2,2:0:0:0:
182,192,57429,1,0,0:0:0:0:
256,192,57498,1,2,2:0:0:0:
475,192,57498,1,0,0:0:0:0:
329,192,57566,1,2,2:0:0:0:
402,192,57566,1,0,0:0:0:0:
475,192,57635,1,2,2:0:0:0:
109,192,57635,1,0,1:0:0:0:
182,192,57635,1,0,1:0:0:0:
256,192,57635,1,0,0:0:0:0:
36,192,57703,1,2,2:0:0:0:
329,192,57703,1,0,0:0:0:0:
402,192,57772,1,2,2:0:0:0:
256,192,57772,1,8,0:0:0:0:
475,192,57772,1,8,0:0:0:0:
109,192,57772,1,0,0:0:0:0:
329,192,57840,1,2,2:0:0:0:
182,192,57840,1,0,0:0:0:0:
36,192,57909,1,0,0:0:0:0:
475,192,57977,1,2,2:0:0:0:
329,192,57977,1,0,0:0:0:0:
182,192,58046,1,0,1:0:0:0:
109,192,58046,1,0,1:0:0:0:
256,192,58046,1,2,2:0:0:0:
402,192,58046,1,0,0:0:0:0:
329,192,58114,1,0,0:0:0:0:
36,192,58183,1,2,2:0:0:0:
402,192,58183,1,0,1:0:0:0:
475,192,58183,1,0,1:0:0:0:
256,192,58183,1,0,0:0:0:0:
182,192,58251,1,2,2:0:0:0:
329,192,58251,1,0,0:0:0:0:
402,192,58320,1,2,2:0:0:0:
36,192,58320,1,0,0:0:0:0:
182,192,58388,1,2,2:0:0:0:
329,192,58388,1,0,0:0:0:0:
475,192,58457,1,2,2:0:0:0:
109,192,58457,1,8,0:0:0:0:
36,192,58457,1,8,0:0:0:0:
256,192,58457,1,0,0:0:0:0:
402,192,58525,1,2,2:0:0:0:
182,192,58525,1,0,0:0:0:0:
329,192,58594,1,2,2:0:0:0:
36,192,58594,1,0,0:0:0:0:
109,192,58662,1,2,2:0:0:0:
182,192,58662,1,0,0:0:0:0:
36,192,58731,1,2,2:0:0:0:
475,192,58731,1,0,1:0:0:0:
256,192,58731,1,0,1:0:0:0:
402,192,58731,1,0,0:0:0:0:
182,192,58799,1,2,2:0:0:0:
329,192,58799,1,0,0:0:0:0:
402,192,58868,1,2,2:0:0:0:
256,192,58868,1,8,0:0:0:0:
36,192,58868,1,8,0:0:0:0:
475,192,58868,1,0,0:0:0:0:
109,192,58936,1,2,2:0:0:0:
329,192,58936,1,0,0:0:0:0:
36,192,59005,1,0,1:0:0:0:
182,192,59005,1,0,1:0:0:0:
402,192,59005,1,0,0:0:0:0:
475,192,59073,1,2,2:0:0:0:
109,192,59073,1,0,0:0:0:0:
329,192,59142,1,2,2:0:0:0:
36,192,59142,1,0,0:0:0:0:
256,192,59210,1,0,0:0:0:0:
36,192,59279,1,2,2:0:0:0:
402,192,59279,1,0,1:0:0:0:
475,192,59279,1,0,1:0:0:0:
109,192,59279,1,0,0:0:0:0:
182,192,59347,1,2,2:0:0:0:
329,192,59347,1,0,0:0:0:0:
256,192,59416,1,2,2:0:0:0:
36,192,59416,1,0,0:0:0:0:
402,192,59484,1,2,2:0:0:0:
475,192,59484,1,0,0:0:0:0:
36,192,59553,1,0,1:0:0:0:
109,192,59553,1,2,2:0:0:0:
182,192,59553,1,0,1:0:0:0:
256,192,59553,1,0,0:0:0:0:
329,192,59621,1,2,2:0:0:0:
402,192,59621,1,0,0:0:0:0:
475,192,59690,1,2,2:0:0:0:
36,192,59690,1,0,0:0:0:0:
256,192,59758,1,2,2:0:0:0:
402,192,59758,1,0,0:0:0:0:
109,192,59827,1,2,2:0:0:0:
329,192,59827,1,0,1:0:0:0:
182,192,59827,1,0,1:0:0:0:
475,192,59827,1,0,0:0:0:0:
36,192,59895,1,2,2:0:0:0:
256,192,59895,1,0,0:0:0:0:
475,192,59964,1,2,2:0:0:0:
402,192,59964,1,8,0:0:0:0:
109,192,59964,1,8,0:0:0:0:
329,192,59964,1,0,0:0:0:0:
182,192,60032,1,2,2:0:0:0:
36,192,60032,1,0,0:0:0:0:
256,192,60101,1,0,0:0:0:0:
109,192,60169,1,2,2:0:0:0:
329,192,60169,1,0,0:0:0:0:
402,192,60237,1,2,2:0:0:0:
182,192,60237,1,0,1:0:0:0:
475,192,60237,1,0,1:0:0:0:
36,192,60237,1,0,0:0:0:0:
109,192,60306,1,0,0:0:0:0:
36,192,60374,1,2,2:0:0:0:
329,192,60374,1,0,1:0:0:0:
256,192,60374,1,0,1:0:0:0:
475,192,60374,1,0,0:0:0:0:
182,192,60443,1,2,2:0:0:0:
402,192,60443,1,0,0:0:0:0:
475,192,60511,1,2,2:0:0:0:
256,192,60511,1,0,0:0:0:0:
182,192,60580,1,2,2:0:0:0:
109,192,60580,1,0,0:0:0:0:
402,192,60648,1,2,2:0:0:0:
36,192,60648,1,8,0:0:0:0:
329,192,60648,1,8,0:0:0:0:
475,192,60648,1,0,0:0:0:0:
256,192,60717,1,2,2:0:0:0:
182,192,60717,1,0,0:0:0:0:
109,192,60785,1,2,2:0:0:0:
329,192,60785,1,0,0:0:0:0:
475,192,60854,1,2,2:0:0:0:
256,192,60854,1,0,0:0:0:0:
402,192,60922,1,2,2:0:0:0:
329,192,60922,1,0,1:0:0:0:
109,192,60922,1,0,1:0:0:0:
182,192,60922,1,0,0:0:0:0:
36,192,60991,1,2,2:0:0:0:
256,192,60991,1,0,0:0:0:0:
475,192,61059,1,2,2:0:0:0:
109,192,61059,1,8,0:0:0:0:
329,192,61059,1,8,0:0:0:0:
182,192,61059,1,0,0:0:0:0:
402,192,61128,1,2,2:0:0:0:
36,192,61128,1,0,0:0:0:0:
256,192,61196,1,0,0:0:0:0:
182,192,61265,1,2,2:0:0:0:
402,192,61265,1,0,0:0:0:0:
475,192,61333,1,2,2:0:0:0:
256,192,61333,1,0,1:0:0:0:
36,192,61333,1,0,1:0:0:0:
109,192,61333,1,0,0:0:0:0:
402,192,61402,1,2,2:0:0:0:
329,192,61402,1,0,0:0:0:0:
256,192,61470,1,0,1:0:0:0:
36,192,61470,1,2,2:0:0:0:
182,192,61470,1,0,1:0:0:0:
475,192,61470,1,0,0:0:0:0:
109,192,61539,1,2,2:0:0:0:
329,192,61539,1,0,0:0:0:0:
475,192,61607,1,2,2:0:0:0:
182,192,61607,1,0,0:0:0:0:
402,192,61676,1,2,2:0:0:0:
256,192,61676,1,0,0:0:0:0:
36,192,61744,1,8,0:0:0:0:
182,192,61744,1,8,0:0:0:0:
109,192,61744,1,2,2:0:0:0:
329,192,61744,1,0,0:0:0:0:
402,192,61813,1,2,2:0:0:0:
256,192,61813,1,0,0:0:0:0:
36,192,61881,1,2,2:0:0:0:
329,192,61881,1,0,0:0:0:0:
256,192,61950,1,2,2:0:0:0:
402,192,61950,1,0,0:0:0:0:
182,192,62018,1,0,1:0:0:0:
475,192,62018,1,0,1:0:0:0:
329,192,62018,1,2,2:0:0:0:
36,192,62018,1,0,0:0:0:0:
109,192,62087,1,2,2:0:0:0:
402,192,62087,1,0,0:0:0:0:
475,192,62155,1,8,0:0:0:0:
256,192,62155,1,2,2:0:0:0:
36,192,62155,1,8,0:0:0:0:
182,192,62155,1,0,0:0:0:0:
402,192,62224,1,2,2:0:0:0:
109,192,62224,1,0,0:0:0:0:
329,192,62292,1,0,1:0:0:0:
182,192,62292,1,0,1:0:0:0:
36,192,62292,1,0,0:0:0:0:
475,192,62361,1,2,2:0:0:0:
256,192,62361,1,0,0:0:0:0:
36,192,62429,1,0,1:0:0:0:
182,192,62429,1,0,1:0:0:0:
402,192,62429,1,2,2:0:0:0:
329,192,62429,1,0,0:0:0:0:
109,192,62498,1,0,0:0:0:0:
182,192,62566,1,0,1:0:0:0:
36,192,62566,1,2,2:0:0:0:
475,192,62566,1,0,1:0:0:0:
329,192,62566,1,0,0:0:0:0:
402,192,62635,1,2,2:0:0:0:
109,192,62635,1,0,0:0:0:0:
256,192,62703,1,2,2:0:0:0:
475,192,62703,1,0,0:0:0:0:
109,192,62772,1,2,2:0:0:0:
329,192,62772,1,0,0:0:0:0:
36,192,62840,1,8,0:0:0:0:
402,192,62840,1,2,2:0:0:0:
182,192,62840,1,8,0:0:0:0:
256,192,62840,1,0,0:0:0:0:
475,192,62909,1,2,2:0:0:0:
329,192,62909,1,0,0:0:0:0:
256,192,62977,1,2,2:0:0:0:
109,192,62977,1,0,0:0:0:0:
475,192,63046,1,2,2:0:0:0:
182,192,63046,1,0,0:0:0:0:
402,192,63114,1,2,2:0:0:0:
329,192,63114,1,0,1:0:0:0:
36,192,63114,1,0,1:0:0:0:
256,192,63114,1,0,0:0:0:0:
109,192,63183,1,2,2:0:0:0:
182,192,63183,1,0,0:0:0:0:
329,192,63251,1,2,2:0:0:0:
475,192,63251,1,8,0:0:0:0:
36,192,63251,1,8,0:0:0:0:
402,192,63251,1,0,0:0:0:0:
256,192,63320,1,2,2:0:0:0:
182,192,63320,1,0,0:0:0:0:
109,192,63388,1,0,1:0:0:0:
475,192,63388,1,0,1:0:0:0:
329,192,63388,1,0,0:0:0:0:
182,192,63457,1,2,2:0:0:0:
36,192,63457,1,0,0:0:0:0:
256,192,63525,1,8,0:0:0:0:
402,192,63525,1,8,0:0:0:0:
329,192,63525,1,2,2:0:0:0:
109,192,63525,1,0,0:0:0:0:
182,192,63594,1,0,0:0:0:0:
475,192,63662,1,2,2:0:0:0:
36,192,63662,1,0,1:0:0:0:
109,192,63662,1,0,1:0:0:0:
329,192,63662,1,0,0:0:0:0:
402,192,63731,1,2,2:0:0:0:
256,192,63731,1,0,0:0:0:0:
329,192,63799,1,2,2:0:0:0:
109,192,63799,1,0,0:0:0:0:
36,192,63868,1,2,2:0:0:0:
256,192,63868,1,0,0:0:0:0:
182,192,63936,1,8,0:0:0:0:
475,192,63936,1,8,0:0:0:0:
402,192,63936,1,2,2:0:0:0:
109,192,63936,1,0,0:0:0:0:
256,192,64005,1,2,2:0:0:0:
36,192,64005,1,0,0:0:0:0:
329,192,64073,1,2,2:0:0:0:
182,192,64073,1,0,0:0:0:0:
109,192,64142,1,2,2:0:0:0:
256,192,64142,1,0,0:0:0:0:
475,192,64210,1,2,2:0:0:0:
402,192,64210,1,0,1:0:0:0:
182,192,64210,1,0,1:0:0:0:
36,192,64210,1,0,0:0:0:0:
329,192,64279,1,2,2:0:0:0:
109,192,64279,1,0,0:0:0:0:
475,192,64347,1,8,0:0:0:0:
36,192,64347,1,2,2:0:0:0:
182,192,64347,1,8,0:0:0:0:
256,192,64347,1,0,0:0:0:0:
402,192,64416,1,2,2:0:0:0:
109,192,64416,1,0,0:0:0:0:
329,192,64484,1,2,2:0:0:0:
475,192,64484,1,0,0:0:0:0:
36,192,64553,1,2,2:0:0:0:
402,192,64553,1,0,0:0:0:0:
182,192,64621,1,0,1:0:0:0:
475,192,64621,1,0,1:0:0:0:
329,192,64621,1,2,2:0:0:0:
109,192,64621,1,0,0:0:0:0:
256,192,64690,1,0,0:0:0:0:
402,192,64690,1,0,0:0:0:0:
182,192,64758,1,0,1:0:0:0:
475,192,64758,1,2,2:0:0:0:
36,192,64758,1,0,1:0:0:0:
329,192,64758,1,0,0:0:0:0:
109,192,64827,1,2,2:0:0:0:
402,192,64827,1,0,0:0:0:0:
182,192,64895,1,2,2:0:0:0:
256,192,64895,1,0,0:0:0:0:
109,192,64964,1,2,2:0:0:0:
329,192,64964,1,0,0:0:0:0:
402,192,65032,1,8,0:0:0:0:
475,192,65032,1,8,0:0:0:0:
36,192,65032,1,2,2:0:0:0:
256,192,65032,1,0,0:0:0:0:
329,192,65101,1,2,2:0:0:0:
109,192,65101,1,0,0:0:0:0:
182,192,65169,1,2,2:0:0:0:
475,192,65169,1,0,0:0:0:0:
109,192,65237,1,2,2:0:0:0:
256,192,65237,1,0,0:0:0:0:
36,192,65306,1,0,1:0:0:0:
329,192,65306,1,0,1:0:0:0:
402,192,65306,1,2,2:0:0:0:
182,192,65306,1,0,0:0:0:0:
475,192,65374,1,2,2:0:0:0:
256,192,65374,1,0,0:0:0:0:
109,192,65443,1,8,0:0:0:0:
182,192,65443,1,2,2:0:0:0:
329,192,65443,1,8,0:0:0:0:
36,192,65443,1,0,0:0:0:0:
475,192,65511,1,2,2:0:0:0:
256,192,65511,1,0,0:0:0:0:
402,192,65580,1,0,1:0:0:0:
36,192,65580,1,2,2:0:0:0:
182,192,65580,1,0,1:0:0:0:
329,192,65580,1,0,0:0:0:0:
109,192,65648,1,2,2:0:0:0:
256,192,65648,1,0,0:0:0:0:
36,192,65717,1,0,1:0:0:0:
182,192,65717,1,0,1:0:0:0:
475,192,65717,1,2,2:0:0:0:
402,192,65717,1,0,0:0:0:0:
256,192,65785,1,2,2:0:0:0:
109,192,65785,1,0,0:0:0:0:
182,192,65854,1,0,1:0:0:0:
329,192,65854,1,2,2:0:0:0:
475,192,65854,1,0,1:0:0:0:
402,192,65854,1,0,0:0:0:0:
36,192,65922,1,2,2:0:0:0:
109,192,65922,1,0,0:0:0:0:
256,192,65991,1,2,2:0:0:0:
475,192,65991,1,0,0:0:0:0:
402,192,66059,1,2,2:0:0:0:
109,192,66059,1,0,0:0:0:0:
36,192,66128,1,8,0:0:0:0:
329,192,66128,1,8,0:0:0:0:
182,192,66128,1,2,2:0:0:0:
475,192,66128,1,0,0:0:0:0:
402,192,66196,1,2,2:0:0:0:
256,192,66196,1,0,0:0:0:0:
182,192,66265,1,2,2:0:0:0:
109,192,66265,1,0,0:0:0:0:
36,192,66265,1,0,0:0:0:0:
329,192,66333,1,2,2:0:0:0:
475,192,66333,1,0,0:0:0:0:
256,192,66402,1,0,1:0:0:0:
36,192,66402,1,2,2:0:0:0:
182,192,66402,1,0,1:0:0:0:
402,192,66402,1,0,0:0:0:0:
329,192,66470,1,2,2:0:0:0:
109,192,66539,1,2,2:0:0:0:
475,192,66539,1,8,0:0:0:0:
182,192,66539,1,8,0:0:0:0:
402,192,66539,1,0,0:0:0:0:
256,192,66607,1,2,2:0:0:0:
36,192,66607,1,0,0:0:0:0:
109,192,66676,1,0,0:0:0:0:
475,192,66744,1,2,2:0:0:0:
182,192,66744,1,0,0:0:0:0:
402,192,66813,1,2,2:0:0:0:
109,192,66813,1,0,1:0:0:0:
256,192,66813,1,0,1:0:0:0:
36,192,66813,1,0,0:0:0:0:
182,192,66881,1,0,0:0:0:0:
475,192,66950,1,0,1:0:0:0:
36,192,66950,1,2,2:0:0:0:
329,192,66950,1,0,1:0:0:0:
109,192,66950,1,0,0:0:0:0:
182,192,67018,1,2,2:0:0:0:
256,192,67018,1,0,0:0:0:0:
402,192,67087,1,2,2:0:0:0:
329,192,67087,1,0,0:0:0:0:
109,192,67155,1,2,2:0:0:0:
182,192,67155,1,0,0:0:0:0:
329,192,67224,1,8,0:0:0:0:
36,192,67224,1,8,0:0:0:0:
475,192,67224,1,2,2:0:0:0:
402,192,67224,1,0,0:0:0:0:
256,192,67292,1,2,2:0:0:0:
109,192,67292,1,0,0:0:0:0:
182,192,67361,1,2,2:0:0:0:
475,192,67361,1,0,0:0:0:0:
329,192,67429,1,2,2:0:0:0:
109,192,67429,1,0,0:0:0:0:
402,192,67498,1,0,1:0:0:0:
36,192,67498,1,2,2:0:0:0:
256,192,67498,1,0,1:0:0:0:
475,192,67498,1,0,0:0:0:0:
182,192,67566,1,2,2:0:0:0:
329,192,67566,1,0,0:0:0:0:
109,192,67635,1,8,0:0:0:0:
475,192,67635,1,8,0:0:0:0:
256,192,67635,1,2,2:0:0:0:
36,192,67635,1,0,0:0:0:0:
402,192,67703,1,2,2:0:0:0:
329,192,67703,1,0,0:0:0:0:
36,192,67772,1,0,1:0:0:0:
182,192,67772,1,0,1:0:0:0:
256,192,67772,1,0,0:0:0:0:
475,192,67840,1,2,2:0:0:0:
109,192,67840,1,0,0:0:0:0:
329,192,67909,1,2,2:0:0:0:
182,192,67909,1,0,0:0:0:0:
109,192,67977,1,0,0:0:0:0:
36,192,68046,1,2,2:0:0:0:
256,192,68046,1,0,1:0:0:0:
402,192,68046,1,0,1:0:0:0:
475,192,68046,1,0,0:0:0:0:
182,192,68114,1,2,2:0:0:0:
109,192,68114,1,0,0:0:0:0:
329,192,68183,1,2,2:0:0:0:
402,192,68183,1,0,0:0:0:0:
256,192,68251,1,2,2:0:0:0:
182,192,68251,1,0,0:0:0:0:
109,192,68320,1,8,0:0:0:0:
36,192,68320,1,8,0:0:0:0:
475,192,68320,1,2,2:0:0:0:
329,192,68320,1,0,0:0:0:0:
402,192,68388,1,2,2:0:0:0:
256,192,68388,1,0,0:0:0:0:
329,192,68457,1,2,2:0:0:0:
36,192,68457,1,0,0:0:0:0:
109,192,68525,1,2,2:0:0:0:
256,192,68525,1,0,0:0:0:0:
402,192,68594,1,2,2:0:0:0:
182,192,68594,1,0,1:0:0:0:
475,192,68594,1,0,1:0:0:0:
329,192,68594,1,0,0:0:0:0:
36,192,68662,1,2,2:0:0:0:
109,192,68662,1,0,0:0:0:0:
329,192,68731,1,8,0:0:0:0:
402,192,68731,1,2,2:0:0:0:
256,192,68731,1,8,0:0:0:0:
182,192,68731,1,0,0:0:0:0:
475,192,68799,1,2,2:0:0:0:
109,192,68799,1,0,0:0:0:0:
36,192,68868,1,0,1:0:0:0:
182,192,68868,1,0,1:0:0:0:
402,192,68868,1,0,0:0:0:0:
256,192,68936,1,2,2:0:0:0:
475,192,68936,1,0,0:0:0:0:
329,192,69005,1,2,2:0:0:0:
109,192,69005,1,0,0:0:0:0:
182,192,69073,1,0,0:0:0:0:
256,192,69142,1,0,1:0:0:0:
475,192,69142,1,0,1:0:0:0:
36,192,69142,1,2,2:0:0:0:
402,192,69142,1,0,0:0:0:0:
329,192,69210,1,2,2:0:0:0:
182,192,69210,1,0,0:0:0:0:
109,192,69279,1,2,2:0:0:0:
402,192,69279,1,0,0:0:0:0:
182,192,69347,1,0,0:0:0:0:
329,192,69347,1,0,0:0:0:0:
475,192,69416,1,8,0:0:0:0:
256,192,69416,1,8,0:0:0:0:
402,192,69416,1,2,2:0:0:0:
109,192,69416,1,0,0:0:0:0:
36,192,69484,1,2,2:0:0:0:
329,192,69484,1,0,0:0:0:0:
182,192,69553,1,2,2:0:0:0:
475,192,69553,1,0,0:0:0:0:
402,192,69621,1,2,2:0:0:0:
109,192,69621,1,0,0:0:0:0:
329,192,69690,1,2,2:0:0:0:
36,192,69690,1,0,1:0:0:0:
182,192,69690,1,0,1:0:0:0:
256,192,69690,1,0,0:0:0:0:
475,192,69758,1,2,2:0:0:0:
109,192,69758,1,0,0:0:0:0:
36,192,69827,1,2,2:0:0:0:
402,192,69827,1,8,0:0:0:0:
256,192,69827,1,8,0:0:0:0:
182,192,69827,1,0,0:0:0:0:
329,192,69895,1,2,2:0:0:0:
109,192,69895,1,0,0:0:0:0:
475,192,69964,1,0,1:0:0:0:
36,192,69964,1,0,1:0:0:0:
256,192,69964,1,0,0:0:0:0:
402,192,70032,1,2,2:0:0:0:
329,192,70032,1,0,0:0:0:0:
182,192,70101,1,0,1:0:0:0:
109,192,70101,1,2,2:0:0:0:
475,192,70101,1,0,0:0:0:0:
329,192,70169,1,0,1:0:0:0:
256,192,70169,1,0,0:0:0:0:
36,192,70237,1,2,2:0:0:0:
402,192,70237,1,0,1:0:0:0:
475,192,70237,1,0,1:0:0:0:
182,192,70237,1,0,0:0:0:0:
109,192,70306,1,2,2:0:0:0:
329,192,70306,1,0,0:0:0:0:
182,192,70374,1,2,2:0:0:0:
36,192,70374,1,0,0:0:0:0:
402,192,70443,1,2,2:0:0:0:
475,192,70443,1,0,0:0:0:0:
256,192,70511,1,8,0:0:0:0:
36,192,70511,1,8,0:0:0:0:
109,192,70511,1,2,2:0:0:0:
182,192,70511,1,0,0:0:0:0:
329,192,70580,1,2,2:0:0:0:
402,192,70580,1,0,0:0:0:0:
475,192,70648,1,2,2:0:0:0:
109,192,70648,1,0,0:0:0:0:
402,192,70717,1,2,2:0:0:0:
182,192,70717,1,0,0:0:0:0:
109,192,70785,1,0,1:0:0:0:
36,192,70785,1,0,1:0:0:0:
329,192,70785,1,2,2:0:0:0:
256,192,70785,1,0,0:0:0:0:
475,192,70854,1,2,2:0:0:0:
182,192,70854,1,0,0:0:0:0:
36,192,70922,1,8,0:0:0:0:
402,192,70922,1,2,2:0:0:0:
109,192,70922,1,8,0:0:0:0:
256,192,70922,1,0,0:0:0:0:
329,192,70991,1,2,2:0:0:0:
182,192,70991,1,0,0:0:0:0:
475,192,71059,1,0,0:0:0:0:
36,192,71128,1,2,2:0:0:0:
329,192,71128,1,0,0:0:0:0:
109,192,71196,1,0,1:0:0:0:
402,192,71196,1,0,1:0:0:0:
256,192,71196,1,2,2:0:0:0:
182,192,71196,1,0,0:0:0:0:
329,192,71265,1,0,0:0:0:0:
36,192,71333,1,2,2:0:0:0:
182,192,71333,1,0,1:0:0:0:
475,192,71333,1,0,1:0:0:0:
402,192,71333,1,0,0:0:0:0:
256,192,71402,1,2,2:0:0:0:
329,192,71402,1,0,0:0:0:0:
36,192,71470,1,2,2:0:0:0:
402,192,71470,1,0,0:0:0:0:
475,192,71539,1,2,2:0:0:0:
109,192,71539,1,0,0:0:0:0:
182,192,71607,1,2,2:0:0:0:
36,192,71607,1,8,0:0:0:0:
256,192,71607,1,8,0:0:0:0:
402,192,71607,1,0,0:0:0:0:
329,192,71676,1,2,2:0:0:0:
109,192,71676,1,0,0:0:0:0:
402,192,71744,1,2,2:0:0:0:
182,192,71744,1,0,0:0:0:0:
475,192,71813,1,2,2:0:0:0:
256,192,71813,1,0,0:0:0:0:
36,192,71881,1,0,1:0:0:0:
329,192,71881,1,2,2:0:0:0:
182,192,71881,1,0,1:0:0:0:
402,192,71881,1,0,0:0:0:0:
109,192,71950,1,2,2:0:0:0:
256,192,71950,1,0,0:0:0:0:
182,192,72018,1,2,2:0:0:0:
475,192,72018,1,8,0:0:0:0:
36,192,72018,1,8,0:0:0:0:
402,192,72018,1,0,0:0:0:0:
256,192,72087,1,2,2:0:0:0:
109,192,72087,1,0,0:0:0:0:
182,192,72155,1,0,1:0:0:0:
329,192,72155,1,0,1:0:0:0:
475,192,72224,1,2,2:0:0:0:
36,192,72224,1,0,0:0:0:0:
182,192,72292,1,2,2:0:0:0:
329,192,72292,1,0,1:0:0:0:
402,192,72292,1,0,1:0:0:0:
109,192,72292,1,0,0:0:0:0:
256,192,72361,1,0,0:0:0:0:
36,192,72429,1,0,1:0:0:0:
475,192,72429,1,2,2:0:0:0:
329,192,72429,1,0,1:0:0:0:
402,192,72498,1,2,2:0:0:0:
182,192,72498,1,0,0:0:0:0:
329,192,72566,1,2,2:0:0:0:
36,192,72566,1,0,0:0:0:0:
256,192,72635,1,2,2:0:0:0:
109,192,72635,1,0,0:0:0:0:
475,192,72703,1,2,2:0:0:0:
182,192,72703,1,8,0:0:0:0:
329,192,72703,1,8,0:0:0:0:
402,192,72703,1,0,0:0:0:0:
36,192,72772,1,2,2:0:0:0:
256,192,72772,1,0,0:0:0:0:
109,192,72840,1,2,2:0:0:0:
329,192,72840,1,0,0:0:0:0:
402,192,72909,1,2,2:0:0:0:
256,192,72909,1,0,0:0:0:0:
329,192,72977,1,0,1:0:0:0:
36,192,72977,1,0,1:0:0:0:
475,192,72977,1,2,2:0:0:0:
109,192,72977,1,0,0:0:0:0:
256,192,73046,1,2,2:0:0:0:
402,192,73046,1,0,0:0:0:0:
109,192,73114,1,2,2:0:0:0:
182,192,73114,1,8,0:0:0:0:
475,192,73114,1,8,0:0:0:0:
329,192,73114,1,0,0:0:0:0:
36,192,73183,1,2,2:0:0:0:
256,192,73183,1,0,0:0:0:0:
402,192,73251,1,0,1:0:0:0:
182,192,73251,1,0,1:0:0:0:
109,192,73251,1,0,0:0:0:0:
475,192,73320,1,2,2:0:0:0:
329,192,73320,1,0,0:0:0:0:
109,192,73388,1,0,1:0:0:0:
256,192,73388,1,2,2:0:0:0:
402,192,73388,1,0,1:0:0:0:
36,192,73388,1,0,0:0:0:0:
329,192,73457,1,0,0:0:0:0:
182,192,73525,1,0,1:0:0:0:
36,192,73525,1,2,2:0:0:0:
475,192,73525,1,0,1:0:0:0:
402,192,73525,1,0,0:0:0:0:
329,192,73594,1,2,2:0:0:0:
256,192,73594,1,0,0:0:0:0:
109,192,73662,1,2,2:0:0:0:
402,192,73662,1,0,0:0:0:0:
475,192,73731,1,2,2:0:0:0:
329,192,73731,1,0,0:0:0:0:
36,192,73799,1,8,0:0:0:0:
402,192,73799,1,8,0:0:0:0:
182,192,73799,1,2,2:0:0:0:
109,192,73799,1,0,0:0:0:0:
256,192,73868,1,2,2:0:0:0:
329,192,73868,1,0,0:0:0:0:
402,192,73936,1,2,2:0:0:0:
109,192,73936,1,0,0:0:0:0:
475,192,74005,1,2,2:0:0:0:
182,192,74005,1,0,0:0:0:0:
329,192,74073,1,0,1:0:0:0:
36,192,74073,1,0,1:0:0:0:
109,192,74073,1,2,2:0:0:0:
402,192,74073,1,0,0:0:0:0:
256,192,74142,1,2,2:0:0:0:
475,192,74142,1,0,0:0:0:0:
36,192,74210,1,2,2:0:0:0:
182,192,74210,1,0,1:0:0:0:
402,192,74210,1,0,0:0:0:0:
329,192,74279,1,0,1:0:0:0:
109,192,74279,1,2,2:0:0:0:
475,192,74279,1,0,0:0:0:0:
182,192,74347,1,0,1:0:0:0:
402,192,74347,1,0,1:0:0:0:
256,192,74347,1,0,0:0:0:0:
475,192,74416,1,2,2:0:0:0:
329,192,74416,1,0,0:0:0:0:
36,192,74484,1,2,2:0:0:0:
109,192,74484,1,0,1:0:0:0:
182,192,74484,1,0,0:0:0:0:
329,192,74553,1,0,1:0:0:0:
256,192,74553,1,0,0:0:0:0:
402,192,74621,1,0,1:0:0:0:
109,192,74621,1,2,2:0:0:0:
475,192,74621,1,0,1:0:0:0:
36,192,74621,1,0,0:0:0:0:
256,192,74690,1,2,2:0:0:0:
182,192,74690,1,0,0:0:0:0:
329,192,74758,1,2,2:0:0:0:
109,192,74758,1,0,0:0:0:0:
402,192,74827,1,2,2:0:0:0:
182,192,74827,1,0,0:0:0:0:
36,192,74895,1,8,0:0:0:0:
329,192,74895,1,8,0:0:0:0:
475,192,74895,1,2,2:0:0:0:
109,192,74895,1,0,0:0:0:0:
256,192,74964,1,2,2:0:0:0:
402,192,74964,1,0,0:0:0:0:
182,192,75032,1,2,2:0:0:0:
329,192,75032,1,0,0:0:0:0:
36,192,75101,1,2,2:0:0:0:
109,192,75101,1,0,0:0:0:0:
329,192,75169,1,0,1:0:0:0:
402,192,75169,1,0,1:0:0:0:
475,192,75169,1,2,2:0:0:0:
182,192,75169,1,0,0:0:0:0:
36,192,75237,1,2,2:0:0:0:
256,192,75237,1,0,0:0:0:0:
109,192,75306,1,2,2:0:0:0:
402,192,75306,1,8,0:0:0:0:
475,192,75306,1,8,0:0:0:0:
182,192,75306,1,0,0:0:0:0:
329,192,75374,1,2,2:0:0:0:
36,192,75374,1,0,0:0:0:0:
256,192,75443,1,0,0:0:0:0:
475,192,75511,1,2,2:0:0:0:
402,192,75511,1,0,0:0:0:0:
329,192,75580,1,2,2:0:0:0:
182,192,75580,1,0,1:0:0:0:
109,192,75580,1,0,1:0:0:0:
256,192,75648,1,0,0:0:0:0:
402,192,75717,1,0,1:0:0:0:
475,192,75717,1,0,1:0:0:0:
36,192,75717,1,2,2:0:0:0:
329,192,75717,1,0,0:0:0:0:
182,192,75785,1,2,2:0:0:0:
109,192,75785,1,0,0:0:0:0:
402,192,75854,1,2,2:0:0:0:
256,192,75854,1,0,0:0:0:0:
182,192,75922,1,2,2:0:0:0:
329,192,75922,1,0,0:0:0:0:
36,192,75991,1,8,0:0:0:0:
475,192,75991,1,2,2:0:0:0:
109,192,75991,1,8,0:0:0:0:
256,192,75991,1,0,0:0:0:0:
402,192,76059,1,2,2:0:0:0:
182,192,76059,1,0,0:0:0:0:
329,192,76128,1,2,2:0:0:0:
36,192,76128,1,0,0:0:0:0:
256,192,76196,1,2,2:0:0:0:
402,192,76196,1,0,0:0:0:0:
36,192,76265,1,0,1:0:0:0:
109,192,76265,1,2,2:0:0:0:
475,192,76265,1,0,1:0:0:0:
329,192,76265,1,0,0:0:0:0:
182,192,76333,1,2,2:0:0:0:
402,192,76333,1,0,0:0:0:0:
475,192,76402,1,2,2:0:0:0:
256,192,76402,1,8,0:0:0:0:
36,192,76402,1,8,0:0:0:0:
329,192,76402,1,0,0:0:0:0:
109,192,76470,1,2,2:0:0:0:
402,192,76470,1,0,0:0:0:0:
182,192,76539,1,0,1:0:0:0:
329,192,76539,1,0,1:0:0:0:
36,192,76539,1,0,0:0:0:0:
475,192,76607,1,2,2:0:0:0:
109,192,76607,1,0,0:0:0:0:
329,192,76676,1,2,2:0:0:0:
182,192,76676,1,0,0:0:0:0:
256,192,76744,1,0,0:0:0:0:
475,192,76813,1,0,1:0:0:0:
402,192,76813,1,0,1:0:0:0:
36,192,76813,1,2,2:0:0:0:
109,192,76813,1,0,0:0:0:0:
182,192,76881,1,2,2:0:0:0:
329,192,76881,1,0,0:0:0:0:
256,192,76950,1,2,2:0:0:0:
36,192,76950,1,0,0:0:0:0:
329,192,77018,1,2,2:0:0:0:
109,192,77018,1,0,0:0:0:0:
182,192,77087,1,8,0:0:0:0:
36,192,77087,1,8,0:0:0:0:
402,192,77087,1,2,2:0:0:0:
475,192,77087,1,0,0:0:0:0:
329,192,77155,1,2,2:0:0:0:
109,192,77155,1,0,0:0:0:0:
475,192,77224,1,2,2:0:0:0:
182,192,77224,1,0,0:0:0:0:
256,192,77292,1,2,2:0:0:0:
36,192,77292,1,0,0:0:0:0:
402,192,77361,1,0,1:0:0:0:
182,192,77361,1,0,1:0:0:0:
109,192,77361,1,2,2:0:0:0:
329,192,77361,1,0,0:0:0:0:
36,192,77429,1,2,2:0:0:0:
475,192,77429,1,0,0:0:0:0:
329,192,77498,1,8,0:0:0:0:
256,192,77498,1,8,0:0:0:0:
402,192,77498,1,2,2:0:0:0:
109,192,77498,1,0,0:0:0:0:
182,192,77566,1,2,2:0:0:0:
475,192,77566,1,0,0:0:0:0:
402,192,77635,1,0,0:0:0:0:
36,192,77703,1,2,2:0:0:0:
329,192,77703,1,0,0:0:0:0:
475,192,77772,1,0,1:0:0:0:
256,192,77772,1,2,2:0:0:0:
109,192,77772,1,0,1:0:0:0:
402,192,77772,1,0,0:0:0:0:
182,192,77840,1,0,0:0:0:0:
329,192,77909,5,0,1:0:0:0:
475,192,77909,1,0,1:0:0:0:
36,192,77909,1,2,2:0:0:0:
256,192,77909,1,0,0:0:0:0:
109,192,77977,1,2,2:0:0:0:
402,192,77977,1,0,0:0:0:0:
475,192,78046,1,2,2:0:0:0:
182,192,78046,1,0,0:0:0:0:
256,192,78114,1,2,2:0:0:0:
109,192,78114,1,0,0:0:0:0:
182,192,78183,1,8,0:0:0:0:
402,192,78183,1,2,2:0:0:0:
36,192,78183,1,8,0:0:0:0:
475,192,78183,1,0,0:0:0:0:
329,192,78251,1,2,2:0:0:0:
109,192,78251,1,0,0:0:0:0:
256,192,78320,1,2,2:0:0:0:
182,192,78320,1,0,0:0:0:0:
402,192,78388,1,2,2:0:0:0:
109,192,78388,1,0,0:0:0:0:
475,192,78457,1,2,2:0:0:0:
329,192,78457,1,0,1:0:0:0:
36,192,78457,1,0,1:0:0:0:
256,192,78457,1,0,0:0:0:0:
109,192,78525,1,2,2:0:0:0:
402,192,78525,1,0,0:0:0:0:
182,192,78594,1,8,0:0:0:0:
256,192,78594,1,8,0:0:0:0:
475,192,78594,1,2,2:0:0:0:
36,192,78594,1,0,0:0:0:0:
402,192,78662,1,2,2:0:0:0:
109,192,78662,1,0,0:0:0:0:
182,192,78731,1,0,0:0:0:0:
256,192,78799,1,2,2:0:0:0:
475,192,78799,1,0,0:0:0:0:
36,192,78868,1,0,1:0:0:0:
182,192,78868,1,0,1:0:0:0:
329,192,78868,1,2,2:0:0:0:
402,192,78868,1,0,0:0:0:0:
109,192,78936,1,2,2:0:0:0:
256,192,78936,1,0,0:0:0:0:
329,192,79005,5,0,1:0:0:0:
402,192,79005,1,8,0:0:0:0:
475,192,79005,1,0,1:0:0:0:
36,192,79005,128,0,79827:1:0:0:70:LN HS.wav
329,192,79279,1,0,1:0:0:0:
402,192,79279,1,8,0:0:0:0:
475,192,79279,1,0,1:0:0:0:
329,192,79553,1,0,1:0:0:0:
402,192,79553,1,8,0:0:0:0:
475,192,79553,1,0,1:0:0:0:
329,192,79827,1,0,1:0:0:0:
402,192,79827,1,8,0:0:0:0:
475,192,79827,1,0,1:0:0:0:
256,192,79827,128,0,79964:1:0:0:70:LN HS.wav
182,192,79964,128,0,80101:1:0:0:70:LN HS.wav
329,192,80101,1,0,1:0:0:0:
402,192,80101,1,8,0:0:0:0:
475,192,80101,1,0,1:0:0:0:
36,192,80101,128,0,80237:1:0:0:70:LN HS.wav
109,192,80237,128,0,80374:1:0:0:70:LN HS.wav
329,192,80374,1,0,1:0:0:0:
402,192,80374,1,8,0:0:0:0:
475,192,80374,1,0,1:0:0:0:
256,192,80374,128,0,80511:1:0:0:70:LN HS.wav
182,192,80511,128,0,80648:1:0:0:70:LN HS.wav
329,192,80648,1,0,1:0:0:0:
402,192,80648,1,8,0:0:0:0:
475,192,80648,1,0,1:0:0:0:
109,192,80648,128,0,80785:1:0:0:70:LN HS.wav
256,192,80785,128,0,80922:1:0:0:70:LN HS.wav
329,192,80922,1,0,1:0:0:0:
402,192,80922,1,8,0:0:0:0:
475,192,80922,1,0,1:0:0:0:
36,192,80922,128,0,81059:1:0:0:70:LN HS.wav
182,192,81059,128,0,81196:0:0:0:70:LN HS.wav
329,192,81196,1,0,1:0:0:0:
402,192,81196,1,8,0:0:0:0:
475,192,81196,1,0,1:0:0:0:
256,192,81196,128,0,81333:0:0:0:70:LN HS.wav
109,192,81333,128,0,81470:0:0:0:70:LN HS.wav
329,192,81470,1,0,1:0:0:0:
402,192,81470,1,8,0:0:0:0:
475,192,81470,1,0,1:0:0:0:
182,192,81470,128,0,81607:0:0:0:70:LN HS.wav
36,192,81607,128,0,81744:0:0:0:70:LN HS.wav
329,192,81744,1,0,1:0:0:0:
402,192,81744,1,8,0:0:0:0:
475,192,81744,1,0,1:0:0:0:
109,192,81744,128,0,81881:0:0:0:70:LN HS.wav
256,192,81881,128,0,82018:0:0:0:70:LN HS.wav
329,192,82018,1,0,1:0:0:0:
402,192,82018,1,8,0:0:0:0:
475,192,82018,1,0,1:0:0:0:
36,192,82018,128,0,82155:0:0:0:70:LN HS.wav
182,192,82155,128,0,82292:0:0:0:70:LN HS.wav
329,192,82292,1,0,1:0:0:0:
402,192,82292,1,8,0:0:0:0:
475,192,82292,1,0,1:0:0:0:
256,192,82292,128,0,82429:0:0:0:70:LN HS.wav
182,192,82429,128,0,82566:0:0:0:70:LN HS.wav
329,192,82566,1,0,1:0:0:0:
402,192,82566,1,8,0:0:0:0:
475,192,82566,1,0,1:0:0:0:
109,192,82566,128,0,82703:0:0:0:70:LN HS.wav
256,192,82703,128,0,82840:0:0:0:70:LN HS.wav
329,192,82840,1,0,1:0:0:0:
402,192,82840,1,8,0:0:0:0:
475,192,82840,1,0,1:0:0:0:
36,192,82840,128,0,82977:0:0:0:70:LN HS.wav
182,192,82977,128,0,83114:0:0:0:70:LN HS.wav
329,192,83114,1,0,1:0:0:0:
402,192,83114,1,8,0:0:0:0:
475,192,83114,1,0,1:0:0:0:
256,192,83114,128,0,83251:0:0:0:70:LN HS.wav
109,192,83251,128,0,83388:0:0:0:70:LN HS.wav
329,192,83388,1,0,1:0:0:0:
402,192,83388,1,8,0:0:0:0:
475,192,83388,1,0,1:0:0:0:
182,192,83388,128,0,84210:0:0:0:70:LN HS.wav
475,192,83662,1,0,1:0:0:0:
329,192,83662,1,0,1:0:0:0:
402,192,83662,1,8,0:0:0:0:
475,192,83936,1,0,1:0:0:0:
329,192,83936,1,0,1:0:0:0:
402,192,83936,1,8,0:0:0:0:
329,192,84210,1,0,1:0:0:0:
402,192,84210,1,8,0:0:0:0:
475,192,84210,1,0,1:0:0:0:
36,192,84210,128,0,84347:0:0:0:70:LN HS.wav
109,192,84347,128,0,84484:0:0:0:70:LN HS.wav
329,192,84484,1,0,1:0:0:0:
402,192,84484,1,8,0:0:0:0:
475,192,84484,1,0,1:0:0:0:
256,192,84484,128,0,84621:0:0:0:70:LN HS.wav
182,192,84621,128,0,84758:0:0:0:70:LN HS.wav
475,192,84758,1,0,1:0:0:0:
329,192,84758,1,0,1:0:0:0:
402,192,84758,1,8,0:0:0:0:
36,192,84758,128,0,84895:0:0:0:70:LN HS.wav
109,192,84895,128,0,85032:0:0:0:70:LN HS.wav
475,192,85032,1,0,1:0:0:0:
329,192,85032,1,0,1:0:0:0:
402,192,85032,1,8,0:0:0:0:
256,192,85032,128,0,85169:0:0:0:70:LN HS.wav
109,192,85169,128,0,85306:0:0:0:70:LN HS.wav
475,192,85306,1,0,1:0:0:0:
329,192,85306,1,0,1:0:0:0:
402,192,85306,1,8,0:0:0:0:
182,192,85306,128,0,85443:0:0:0:70:LN HS.wav
36,192,85443,128,0,85580:0:0:0:70:LN HS.wav
402,192,85580,1,8,0:0:0:0:
475,192,85580,1,0,1:0:0:0:
329,192,85580,1,0,1:0:0:0:
109,192,85580,128,0,85717:0:0:0:70:LN HS.wav
256,192,85717,128,0,85854:0:0:0:70:LN HS.wav
402,192,85854,1,8,0:0:0:0:
329,192,85854,1,0,1:0:0:0:
475,192,85854,1,0,1:0:0:0:
36,192,85854,128,0,85991:0:0:0:70:LN HS.wav
182,192,85991,128,0,86128:0:0:0:70:LN HS.wav
402,192,86128,1,8,0:0:0:0:
329,192,86128,1,0,1:0:0:0:
475,192,86128,1,0,1:0:0:0:
109,192,86128,128,0,86265:0:0:0:70:LN HS.wav
256,192,86265,128,0,86402:0:0:0:70:LN HS.wav
402,192,86402,1,8,0:0:0:0:
329,192,86402,1,0,1:0:0:0:
475,192,86402,1,0,1:0:0:0:
36,192,86402,128,0,86539:0:0:0:70:LN HS.wav
109,192,86539,128,0,86676:0:0:0:70:LN HS.wav
475,192,86676,1,0,1:0:0:0:
402,192,86676,1,8,0:0:0:0:
329,192,86676,1,0,1:0:0:0:
182,192,86676,128,0,86813:0:0:0:70:LN HS.wav
256,192,86813,128,0,86950:0:0:0:70:LN HS.wav
475,192,86950,1,0,1:0:0:0:
402,192,86950,1,8,0:0:0:0:
329,192,86950,1,0,1:0:0:0:
109,192,86950,128,0,87087:0:0:0:70:LN HS.wav
182,192,87087,128,0,87224:0:0:0:70:LN HS.wav
475,192,87224,1,0,1:0:0:0:
402,192,87224,1,8,0:0:0:0:
329,192,87224,1,0,1:0:0:0:
36,192,87224,128,0,87361:0:0:0:70:LN HS.wav
256,192,87361,128,0,87498:0:0:0:70:LN HS.wav
402,192,87498,1,8,0:0:0:0:
329,192,87498,1,0,1:0:0:0:
475,192,87498,1,0,1:0:0:0:
182,192,87498,128,0,87635:0:0:0:70:LN HS.wav
109,192,87635,128,0,87772:0:0:0:70:LN HS.wav
402,192,87772,1,8,0:0:0:0:
329,192,87772,1,0,1:0:0:0:
475,192,87772,1,0,1:0:0:0:
36,192,87772,128,0,88594:0:0:0:70:LN HS.wav
475,192,88046,1,0,1:0:0:0:
402,192,88046,1,8,0:0:0:0:
329,192,88046,1,0,1:0:0:0:
475,192,88320,1,0,1:0:0:0:
402,192,88320,1,8,0:0:0:0:
329,192,88320,1,0,1:0:0:0:
402,192,88594,1,8,0:0:0:0:
329,192,88594,1,0,1:0:0:0:
475,192,88594,1,0,1:0:0:0:
256,192,88594,128,0,88731:0:0:0:70:LN HS.wav
182,192,88731,128,0,88868:0:0:0:70:LN HS.wav
402,192,88868,1,8,0:0:0:0:
329,192,88868,1,0,1:0:0:0:
475,192,88868,1,0,1:0:0:0:
36,192,88868,128,0,89005:0:0:0:70:LN HS.wav
109,192,89005,128,0,89142:0:0:0:70:LN HS.wav
402,192,89142,1,8,0:0:0:0:
329,192,89142,1,0,1:0:0:0:
475,192,89142,1,0,1:0:0:0:
182,192,89142,128,0,89279:0:0:0:70:LN HS.wav
256,192,89279,128,0,89416:0:0:0:70:LN HS.wav
329,192,89416,1,0,1:0:0:0:
475,192,89416,1,0,1:0:0:0:
402,192,89416,1,8,0:0:0:0:
109,192,89416,128,0,89553:0:0:0:70:LN HS.wav
182,192,89553,128,0,89690:0:0:0:70:LN HS.wav
475,192,89690,1,0,1:0:0:0:
329,192,89690,1,0,1:0:0:0:
402,192,89690,1,8,0:0:0:0:
256,192,89690,128,0,89827:0:0:0:70:LN HS.wav
109,192,89827,128,0,89964:0:0:0:70:LN HS.wav
475,192,89964,1,0,1:0:0:0:
329,192,89964,1,0,1:0:0:0:
402,192,89964,1,8,0:0:0:0:
182,192,89964,128,0,90101:0:0:0:70:LN HS.wav
36,192,90101,128,0,90237:0:0:0:70:LN HS.wav
475,192,90237,1,0,1:0:0:0:
329,192,90237,1,0,1:0:0:0:
402,192,90237,1,8,0:0:0:0:
256,192,90237,128,0,90374:0:0:0:70:LN HS.wav
109,192,90374,128,0,90511:0:0:0:70:LN HS.wav
329,192,90511,1,0,1:0:0:0:
402,192,90511,1,8,0:0:0:0:
475,192,90511,1,0,1:0:0:0:
182,192,90511,128,0,90648:0:0:0:70:LN HS.wav
256,192,90648,128,0,90785:0:0:0:70:LN HS.wav
329,192,90785,1,0,1:0:0:0:
402,192,90785,1,8,0:0:0:0:
475,192,90785,1,0,1:0:0:0:
36,192,90785,128,0,90922:0:0:0:70:LN HS.wav
109,192,90922,128,0,91059:0:0:0:70:LN HS.wav
329,192,91059,1,0,1:0:0:0:
402,192,91059,1,8,0:0:0:0:
475,192,91059,1,0,1:0:0:0:
182,192,91059,128,0,91196:0:0:0:70:LN HS.wav
36,192,91196,128,0,91333:0:0:0:70:LN HS.wav
475,192,91333,1,0,1:0:0:0:
329,192,91333,1,0,1:0:0:0:
402,192,91333,1,8,0:0:0:0:
256,192,91333,128,0,91470:0:0:0:70:LN HS.wav
109,192,91470,128,0,91607:0:0:0:70:LN HS.wav
475,192,91607,1,0,1:0:0:0:
329,192,91607,1,0,1:0:0:0:
402,192,91607,1,8,0:0:0:0:
182,192,91607,128,0,91744:0:0:0:70:LN HS.wav
36,192,91744,128,0,91881:0:0:0:70:LN HS.wav
329,192,91881,1,0,1:0:0:0:
402,192,91881,1,8,0:0:0:0:
475,192,91881,1,0,1:0:0:0:
109,192,91881,128,0,92018:0:0:0:70:LN HS.wav
256,192,92018,128,0,92155:0:0:0:70:LN HS.wav
329,192,92155,1,0,1:0:0:0:
402,192,92155,1,8,0:0:0:0:
475,192,92155,1,0,1:0:0:0:
182,192,92155,128,0,92977:0:0:0:70:LN HS.wav
475,192,92429,1,0,1:0:0:0:
329,192,92429,1,0,1:0:0:0:
402,192,92429,1,8,0:0:0:0:
475,192,92703,1,0,1:0:0:0:
329,192,92703,1,0,1:0:0:0:
402,192,92703,1,8,0:0:0:0:
475,192,92977,1,0,1:0:0:0:
329,192,92977,1,0,1:0:0:0:
402,192,92977,1,8,0:0:0:0:
36,192,92977,128,0,93114:0:0:0:70:LN HS.wav
109,192,93114,128,0,93251:0:0:0:70:LN HS.wav
402,192,93251,1,8,0:0:0:0:
475,192,93251,1,0,1:0:0:0:
329,192,93251,1,0,1:0:0:0:
256,192,93251,128,0,93388:0:0:0:70:LN HS.wav
182,192,93388,128,0,93525:0:0:0:70:LN HS.wav
402,192,93525,1,8,0:0:0:0:
329,192,93525,1,0,1:0:0:0:
475,192,93525,1,0,1:0:0:0:
36,192,93525,128,0,93662:0:0:0:70:LN HS.wav
109,192,93662,128,0,93799:0:0:0:70:LN HS.wav
402,192,93799,1,8,0:0:0:0:
329,192,93799,1,0,1:0:0:0:
475,192,93799,1,0,1:0:0:0:
256,192,93799,128,0,93936:0:0:0:70:LN HS.wav
36,192,93936,128,0,94073:0:0:0:70:LN HS.wav
402,192,94073,1,8,0:0:0:0:
329,192,94073,1,0,1:0:0:0:
475,192,94073,1,0,1:0:0:0:
182,192,94073,128,0,94210:0:0:0:70:LN HS.wav
109,192,94210,128,0,94347:0:0:0:70:LN HS.wav
475,192,94347,1,0,1:0:0:0:
402,192,94347,1,8,0:0:0:0:
329,192,94347,1,0,1:0:0:0:
256,192,94347,128,0,94484:0:0:0:70:LN HS.wav
36,192,94484,128,0,94621:0:0:0:70:LN HS.wav
475,192,94621,1,0,1:0:0:0:
402,192,94621,1,8,0:0:0:0:
329,192,94621,1,0,1:0:0:0:
109,192,94621,128,0,94758:0:0:0:70:LN HS.wav
36,192,94758,128,0,94895:0:0:0:70:LN HS.wav
475,192,94895,1,0,1:0:0:0:
402,192,94895,1,8,0:0:0:0:
329,192,94895,1,0,1:0:0:0:
256,192,94895,128,0,95032:0:0:0:70:LN HS.wav
182,192,95032,128,0,95169:0:0:0:70:LN HS.wav
402,192,95169,1,8,0:0:0:0:
329,192,95169,1,0,1:0:0:0:
475,192,95169,1,0,1:0:0:0:
109,192,95169,128,0,95306:0:0:0:70:LN HS.wav
256,192,95306,128,0,95443:0:0:0:70:LN HS.wav
402,192,95443,1,2,3:0:0:0:
329,192,95443,1,0,1:0:0:0:
475,192,95443,1,2,3:0:0:0:
36,192,95580,1,2,3:0:0:0:
109,192,95580,1,2,3:0:0:0:
402,192,95717,1,2,3:0:0:0:
475,192,95717,1,2,3:0:0:0:
36,192,95854,1,2,3:0:0:0:
182,192,95854,1,2,3:0:0:0:
256,192,95922,1,2,3:0:0:0:
329,192,95922,1,2,3:0:0:0:
402,192,95991,1,2,3:0:0:0:
475,192,95991,1,2,3:0:0:0:
182,192,96128,1,2,3:0:0:0:
36,192,96128,1,2,3:0:0:0:
329,192,96265,1,2,3:0:0:0:
475,192,96265,1,2,3:0:0:0:
256,192,96333,1,2,3:0:0:0:
109,192,96333,1,2,3:0:0:0:
402,192,96402,1,2,3:0:0:0:
475,192,96402,1,2,3:0:0:0:
329,192,96470,1,2,3:0:0:0:
182,192,96470,1,2,3:0:0:0:
36,192,96539,1,2,2:0:0:0:
109,192,96539,1,0,1:0:0:0:
475,192,96539,1,0,0:0:0:0:
256,192,96539,1,0,1:0:0:0:
402,192,96607,1,0,0:0:0:0:
182,192,96607,1,2,2:0:0:0:
475,192,96676,1,2,2:0:0:0:
329,192,96676,1,0,0:0:0:0:
256,192,96744,1,0,0:0:0:0:
182,192,96744,1,2,2:0:0:0:
402,192,96813,1,8,0:0:0:0:
329,192,96813,1,2,2:0:0:0:
475,192,96813,1,0,0:0:0:0:
36,192,96813,1,8,0:0:0:0:
256,192,96881,1,2,2:0:0:0:
109,192,96881,1,0,0:0:0:0:
182,192,96950,1,0,0:0:0:0:
475,192,96950,1,2,2:0:0:0:
256,192,97018,1,2,2:0:0:0:
402,192,97018,1,0,0:0:0:0:
475,192,97087,1,0,1:0:0:0:
329,192,97087,1,2,2:0:0:0:
182,192,97087,1,0,0:0:0:0:
36,192,97087,1,0,1:0:0:0:
256,192,97155,1,2,2:0:0:0:
402,192,97155,1,0,0:0:0:0:
182,192,97224,1,0,0:0:0:0:
475,192,97224,1,8,0:0:0:0:
109,192,97224,1,2,2:0:0:0:
36,192,97224,1,8,0:0:0:0:
402,192,97292,1,2,2:0:0:0:
329,192,97292,1,0,0:0:0:0:
182,192,97361,1,0,1:0:0:0:
256,192,97361,1,0,1:0:0:0:
109,192,97361,1,0,0:0:0:0:
475,192,97429,1,2,2:0:0:0:
402,192,97429,1,0,0:0:0:0:
109,192,97498,1,0,1:0:0:0:
182,192,97498,1,2,2:0:0:0:
329,192,97498,1,0,0:0:0:0:
36,192,97498,1,0,1:0:0:0:
256,192,97566,1,0,0:0:0:0:
329,192,97635,1,0,1:0:0:0:
36,192,97635,1,2,2:0:0:0:
402,192,97635,1,0,0:0:0:0:
475,192,97635,1,0,1:0:0:0:
182,192,97703,1,2,2:0:0:0:
109,192,97703,1,0,0:0:0:0:
475,192,97772,1,2,2:0:0:0:
256,192,97772,1,0,0:0:0:0:
109,192,97840,1,2,2:0:0:0:
329,192,97840,1,0,0:0:0:0:
402,192,97909,1,2,2:0:0:0:
182,192,97909,1,8,0:0:0:0:
36,192,97909,1,8,0:0:0:0:
475,192,97909,1,0,0:0:0:0:
329,192,97977,1,2,2:0:0:0:
109,192,97977,1,0,0:0:0:0:
402,192,98046,1,0,0:0:0:0:
256,192,98046,1,2,2:0:0:0:
36,192,98114,1,2,2:0:0:0:
329,192,98114,1,0,0:0:0:0:
182,192,98183,1,0,1:0:0:0:
402,192,98183,1,2,2:0:0:0:
109,192,98183,1,0,1:0:0:0:
256,192,98183,1,0,0:0:0:0:
475,192,98251,1,0,0:0:0:0:
329,192,98251,1,2,2:0:0:0:
36,192,98320,1,8,0:0:0:0:
256,192,98320,1,2,2:0:0:0:
182,192,98320,1,8,0:0:0:0:
402,192,98320,1,0,0:0:0:0:
329,192,98388,1,2,2:0:0:0:
109,192,98388,1,0,0:0:0:0:
36,192,98457,1,0,0:0:0:0:
256,192,98457,1,0,1:0:0:0:
475,192,98457,1,0,1:0:0:0:
182,192,98525,1,2,2:0:0:0:
109,192,98525,1,0,0:0:0:0:
329,192,98594,1,2,2:0:0:0:
475,192,98594,1,0,1:0:0:0:
256,192,98594,1,0,1:0:0:0:
36,192,98662,1,0,0:0:0:0:
329,192,98731,1,0,0:0:0:0:
182,192,98731,1,0,1:0:0:0:
475,192,98731,1,2,2:0:0:0:
402,192,98731,1,0,1:0:0:0:
256,192,98799,1,0,0:0:0:0:
109,192,98799,1,2,2:0:0:0:
182,192,98868,1,2,2:0:0:0:
36,192,98868,1,0,0:0:0:0:
256,192,98936,1,2,2:0:0:0:
329,192,98936,1,0,0:0:0:0:
36,192,99005,1,0,0:0:0:0:
402,192,99005,1,2,2:0:0:0:
182,192,99005,1,8,0:0:0:0:
475,192,99005,1,8,0:0:0:0:
329,192,99073,1,2,2:0:0:0:
256,192,99073,1,0,0:0:0:0:
36,192,99142,1,2,2:0:0:0:
109,192,99142,1,0,0:0:0:0:
182,192,99210,1,2,2:0:0:0:
329,192,99210,1,0,0:0:0:0:
475,192,99279,1,2,2:0:0:0:
36,192,99279,1,0,1:0:0:0:
256,192,99279,1,0,1:0:0:0:
402,192,99279,1,0,0:0:0:0:
329,192,99347,1,2,2:0:0:0:
109,192,99347,1,0,0:0:0:0:
182,192,99416,1,8,0:0:0:0:
475,192,99416,1,8,0:0:0:0:
256,192,99416,1,0,0:0:0:0:
402,192,99416,1,2,2:0:0:0:
36,192,99484,1,2,2:0:0:0:
109,192,99484,1,0,0:0:0:0:
329,192,99553,1,2,2:0:0:0:
182,192,99553,1,0,0:0:0:0:
475,192,99621,1,0,0:0:0:0:
36,192,99621,1,2,2:0:0:0:
109,192,99690,1,2,2:0:0:0:
182,192,99690,1,0,1:0:0:0:
402,192,99690,1,0,1:0:0:0:
256,192,99690,1,0,0:0:0:0:
329,192,99758,1,0,0:0:0:0:
475,192,99827,1,2,2:0:0:0:
256,192,99827,1,0,1:0:0:0:
182,192,99827,1,0,0:0:0:0:
36,192,99827,1,0,1:0:0:0:
109,192,99895,1,2,2:0:0:0:
402,192,99895,1,0,0:0:0:0:
182,192,99964,1,2,2:0:0:0:
329,192,99964,1,0,0:0:0:0:
256,192,100032,1,0,0:0:0:0:
402,192,100032,1,2,2:0:0:0:
475,192,100101,1,8,0:0:0:0:
182,192,100101,1,0,0:0:0:0:
36,192,100101,1,2,2:0:0:0:
329,192,100101,1,8,0:0:0:0:
109,192,100169,1,0,0:0:0:0:
256,192,100169,1,2,2:0:0:0:
329,192,100237,1,0,0:0:0:0:
402,192,100237,1,2,2:0:0:0:
182,192,100306,1,0,0:0:0:0:
109,192,100306,1,2,2:0:0:0:
402,192,100374,1,0,0:0:0:0:
36,192,100374,1,0,1:0:0:0:
329,192,100374,1,0,1:0:0:0:
256,192,100374,1,2,2:0:0:0:
475,192,100443,1,2,2:0:0:0:
109,192,100443,1,0,0:0:0:0:
329,192,100511,1,2,2:0:0:0:
256,192,100511,1,8,0:0:0:0:
402,192,100511,1,8,0:0:0:0:
182,192,100511,1,0,0:0:0:0:
36,192,100580,1,0,0:0:0:0:
475,192,100580,1,2,2:0:0:0:
402,192,100648,1,0,0:0:0:0:
182,192,100648,1,2,2:0:0:0:
329,192,100648,1,0,1:0:0:0:
256,192,100648,1,0,1:0:0:0:
109,192,100717,1,2,2:0:0:0:
36,192,100717,1,0,0:0:0:0:
329,192,100785,1,0,1:0:0:0:
475,192,100785,1,2,2:0:0:0:
182,192,100785,1,0,1:0:0:0:
256,192,100854,1,0,0:0:0:0:
36,192,100854,1,2,2:0:0:0:
475,192,100922,1,0,1:0:0:0:
182,192,100922,1,0,0:0:0:0:
402,192,100922,1,2,2:0:0:0:
109,192,100922,1,0,1:0:0:0:
36,192,100991,1,2,2:0:0:0:
329,192,100991,1,0,0:0:0:0:
256,192,101059,1,2,2:0:0:0:
475,192,101059,1,0,0:0:0:0:
182,192,101128,1,0,0:0:0:0:
402,192,101128,1,2,2:0:0:0:
36,192,101196,1,8,0:0:0:0:
256,192,101196,1,8,0:0:0:0:
329,192,101196,1,2,2:0:0:0:
109,192,101196,1,0,0:0:0:0:
475,192,101265,1,2,2:0:0:0:
182,192,101265,1,0,0:0:0:0:
36,192,101333,1,0,0:0:0:0:
402,192,101333,1,2,2:0:0:0:
329,192,101402,1,2,2:0:0:0:
109,192,101402,1,0,0:0:0:0:
475,192,101470,1,0,0:0:0:0:
256,192,101470,1,0,1:0:0:0:
182,192,101470,1,0,1:0:0:0:
36,192,101470,1,2,2:0:0:0:
329,192,101539,1,0,0:0:0:0:
402,192,101539,1,2,2:0:0:0:
36,192,101607,1,0,0:0:0:0:
256,192,101607,1,8,0:0:0:0:
109,192,101607,1,2,2:0:0:0:
475,192,101607,1,8,0:0:0:0:
182,192,101676,1,0,0:0:0:0:
402,192,101676,1,2,2:0:0:0:
329,192,101744,1,0,0:0:0:0:
475,192,101813,1,2,2:0:0:0:
36,192,101813,1,0,0:0:0:0:
109,192,101881,1,0,1:0:0:0:
182,192,101881,1,0,0:0:0:0:
256,192,101881,1,0,1:0:0:0:
402,192,101881,1,2,2:0:0:0:
329,192,101950,1,0,0:0:0:0:
402,192,102018,1,0,0:0:0:0:
256,192,102018,1,0,1:0:0:0:
475,192,102018,1,0,1:0:0:0:
36,192,102018,1,2,2:0:0:0:
329,192,102087,1,2,2:0:0:0:
109,192,102087,1,0,0:0:0:0:
182,192,102155,1,2,2:0:0:0:
256,192,102155,1,0,0:0:0:0:
329,192,102224,1,2,2:0:0:0:
402,192,102224,1,0,0:0:0:0:
36,192,102292,1,8,0:0:0:0:
109,192,102292,1,8,0:0:0:0:
182,192,102292,1,0,0:0:0:0:
475,192,102292,1,2,2:0:0:0:
329,192,102361,1,0,0:0:0:0:
402,192,102361,1,2,2:0:0:0:
109,192,102429,1,0,0:0:0:0:
256,192,102429,1,2,2:0:0:0:
329,192,102498,1,2,2:0:0:0:
475,192,102498,1,0,0:0:0:0:
182,192,102566,1,0,1:0:0:0:
36,192,102566,1,2,2:0:0:0:
109,192,102566,1,0,1:0:0:0:
402,192,102566,1,0,0:0:0:0:
256,192,102635,1,2,2:0:0:0:
329,192,102635,1,0,0:0:0:0:
475,192,102703,1,8,0:0:0:0:
36,192,102703,1,8,0:0:0:0:
402,192,102703,1,2,2:0:0:0:
109,192,102772,1,2,2:0:0:0:
256,192,102772,1,0,0:0:0:0:
475,192,102840,1,0,0:0:0:0:
402,192,102840,1,0,1:0:0:0:
182,192,102840,1,0,1:0:0:0:
329,192,102909,1,0,0:0:0:0:
36,192,102909,1,2,2:0:0:0:
109,192,102977,1,0,0:0:0:0:
256,192,102977,1,2,2:0:0:0:
182,192,103046,1,0,0:0:0:0:
475,192,103114,1,0,0:0:0:0:
329,192,103114,1,0,1:0:0:0:
36,192,103114,1,2,2:0:0:0:
109,192,103114,1,0,1:0:0:0:
256,192,103183,1,0,0:0:0:0:
182,192,103183,1,2,2:0:0:0:
36,192,103251,1,0,0:0:0:0:
329,192,103251,1,2,2:0:0:0:
402,192,103320,1,0,0:0:0:0:
109,192,103320,1,2,2:0:0:0:
475,192,103388,1,2,2:0:0:0:
182,192,103388,1,8,0:0:0:0:
329,192,103388,1,8,0:0:0:0:
256,192,103388,1,0,0:0:0:0:
36,192,103457,1,0,0:0:0:0:
402,192,103457,1,2,2:0:0:0:
329,192,103525,1,2,2:0:0:0:
109,192,103525,1,0,0:0:0:0:
256,192,103594,1,0,0:0:0:0:
182,192,103594,1,2,2:0:0:0:
36,192,103662,1,0,1:0:0:0:
329,192,103662,1,0,0:0:0:0:
402,192,103662,1,2,2:0:0:0:
475,192,103662,1,0,1:0:0:0:
109,192,103731,1,0,0:0:0:0:
182,192,103731,1,2,2:0:0:0:
256,192,103799,1,8,0:0:0:0:
475,192,103799,1,0,0:0:0:0:
402,192,103799,1,2,2:0:0:0:
329,192,103799,1,8,0:0:0:0:
109,192,103868,1,2,2:0:0:0:
36,192,103868,1,0,0:0:0:0:
182,192,103936,1,0,1:0:0:0:
329,192,103936,1,0,1:0:0:0:
475,192,103936,1,0,0:0:0:0:
402,192,104005,1,0,0:0:0:0:
256,192,104005,1,2,2:0:0:0:
329,192,104073,1,2,2:0:0:0:
36,192,104073,1,0,0:0:0:0:
109,192,104142,1,0,0:0:0:0:
256,192,104210,1,0,1:0:0:0:
329,192,104210,1,2,2:0:0:0:
182,192,104210,1,0,0:0:0:0:
475,192,104210,1,0,1:0:0:0:
36,192,104279,1,0,0:0:0:0:
402,192,104279,1,2,2:0:0:0:
182,192,104347,1,0,0:0:0:0:
329,192,104347,1,2,2:0:0:0:
109,192,104416,1,0,0:0:0:0:
475,192,104416,1,0,0:0:0:0:
402,192,104484,1,2,2:0:0:0:
256,192,104484,1,8,0:0:0:0:
36,192,104484,1,0,0:0:0:0:
182,192,104484,1,8,0:0:0:0:
475,192,104553,1,2,2:0:0:0:
329,192,104553,1,0,0:0:0:0:
109,192,104621,1,2,2:0:0:0:
402,192,104621,1,0,0:0:0:0:
329,192,104690,1,0,0:0:0:0:
182,192,104690,1,2,2:0:0:0:
256,192,104758,1,0,0:0:0:0:
109,192,104758,1,0,0:0:0:0:
402,192,104758,1,2,2:0:0:0:
36,192,104758,1,0,1:0:0:0:
329,192,104827,1,2,2:0:0:0:
182,192,104827,1,0,0:0:0:0:
256,192,104895,1,0,0:0:0:0:
36,192,104895,1,8,0:0:0:0:
402,192,104895,1,8,0:0:0:0:
109,192,104895,1,2,2:0:0:0:
182,192,104964,1,2,2:0:0:0:
475,192,104964,1,0,0:0:0:0:
329,192,105032,1,0,0:0:0:0:
256,192,105032,1,0,1:0:0:0:
36,192,105032,1,0,1:0:0:0:
109,192,105101,1,0,0:0:0:0:
402,192,105101,1,2,2:0:0:0:
256,192,105169,1,0,1:0:0:0:
475,192,105169,1,2,2:0:0:0:
329,192,105169,1,0,0:0:0:0:
402,192,105237,1,0,1:0:0:0:
182,192,105237,1,0,0:0:0:0:
475,192,105306,1,0,1:0:0:0:
109,192,105306,1,0,0:0:0:0:
36,192,105306,1,2,2:0:0:0:
329,192,105306,1,0,1:0:0:0:
182,192,105374,1,2,2:0:0:0:
256,192,105374,1,0,0:0:0:0:
329,192,105443,1,0,0:0:0:0:
475,192,105443,1,2,2:0:0:0:
402,192,105511,1,2,2:0:0:0:
182,192,105511,1,0,0:0:0:0:
36,192,105580,1,8,0:0:0:0:
329,192,105580,1,0,0:0:0:0:
256,192,105580,1,8,0:0:0:0:
109,192,105580,1,2,2:0:0:0:
402,192,105648,1,0,0:0:0:0:
182,192,105648,1,2,2:0:0:0:
475,192,105717,1,2,2:0:0:0:
329,192,105717,1,0,0:0:0:0:
256,192,105785,1,0,0:0:0:0:
182,192,105785,1,2,2:0:0:0:
109,192,105854,1,0,1:0:0:0:
475,192,105854,1,0,0:0:0:0:
329,192,105854,1,2,2:0:0:0:
36,192,105854,1,0,1:0:0:0:
402,192,105922,1,2,2:0:0:0:
182,192,105922,1,0,0:0:0:0:
256,192,105991,1,2,2:0:0:0:
475,192,105991,1,8,0:0:0:0:
109,192,105991,1,0,0:0:0:0:
329,192,105991,1,8,0:0:0:0:
402,192,106059,1,2,2:0:0:0:
182,192,106059,1,0,0:0:0:0:
329,192,106128,1,0,0:0:0:0:
256,192,106196,1,0,0:0:0:0:
109,192,106196,1,2,2:0:0:0:
182,192,106265,1,2,2:0:0:0:
475,192,106265,1,0,0:0:0:0:
402,192,106265,1,0,1:0:0:0:
36,192,106265,1,0,1:0:0:0:
109,192,106333,1,0,0:0:0:0:
329,192,106402,1,0,1:0:0:0:
475,192,106402,1,0,1:0:0:0:
36,192,106402,1,0,0:0:0:0:
182,192,106402,1,2,2:0:0:0:
402,192,106470,1,2,2:0:0:0:
109,192,106470,1,0,0:0:0:0:
182,192,106539,1,0,0:0:0:0:
256,192,106539,1,2,2:0:0:0:
475,192,106607,1,2,2:0:0:0:
329,192,106607,1,0,0:0:0:0:
256,192,106676,1,8,0:0:0:0:
36,192,106676,1,8,0:0:0:0:
109,192,106676,1,0,0:0:0:0:
402,192,106676,1,2,2:0:0:0:
182,192,106744,1,0,0:0:0:0:
329,192,106744,1,2,2:0:0:0:
256,192,106813,1,2,2:0:0:0:
475,192,106813,1,0,0:0:0:0:
402,192,106881,1,2,2:0:0:0:
329,192,106881,1,0,0:0:0:0:
36,192,106950,1,0,1:0:0:0:
182,192,106950,1,0,1:0:0:0:
109,192,106950,1,2,2:0:0:0:
475,192,106950,1,0,0:0:0:0:
402,192,107018,1,0,0:0:0:0:
256,192,107018,1,2,2:0:0:0:
182,192,107087,1,2,2:0:0:0:
36,192,107087,1,0,0:0:0:0:
329,192,107087,1,8,0:0:0:0:
475,192,107087,1,8,0:0:0:0:
109,192,107155,1,2,2:0:0:0:
402,192,107155,1,0,0:0:0:0:
256,192,107224,1,0,1:0:0:0:
329,192,107224,1,0,1:0:0:0:
36,192,107224,1,0,0:0:0:0:
475,192,107292,1,2,2:0:0:0:
109,192,107292,1,0,0:0:0:0:
182,192,107361,1,2,2:0:0:0:
329,192,107361,1,0,1:0:0:0:
256,192,107361,1,0,0:0:0:0:
402,192,107361,1,0,1:0:0:0:
109,192,107429,1,0,0:0:0:0:
402,192,107498,1,0,1:0:0:0:
329,192,107498,1,0,0:0:0:0:
36,192,107498,1,0,1:0:0:0:
475,192,107498,1,2,2:0:0:0:
182,192,107566,1,2,2:0:0:0:
256,192,107566,1,0,0:0:0:0:
329,192,107635,1,2,2:0:0:0:
36,192,107635,1,0,0:0:0:0:
182,192,107703,1,0,0:0:0:0:
109,192,107703,1,2,2:0:0:0:
475,192,107772,1,2,2:0:0:0:
329,192,107772,1,0,0:0:0:0:
402,192,107772,1,8,0:0:0:0:
256,192,107772,1,8,0:0:0:0:
182,192,107840,1,0,0:0:0:0:
36,192,107840,1,2,2:0:0:0:
109,192,107909,1,2,2:0:0:0:
475,192,107909,1,0,0:0:0:0:
182,192,107977,1,2,2:0:0:0:
402,192,107977,1,0,0:0:0:0:
36,192,108046,1,0,1:0:0:0:
256,192,108046,1,0,0:0:0:0:
329,192,108046,1,0,1:0:0:0:
475,192,108046,1,2,2:0:0:0:
402,192,108114,1,2,2:0:0:0:
182,192,108114,1,0,0:0:0:0:
109,192,108183,1,2,2:0:0:0:
475,192,108183,1,8,0:0:0:0:
329,192,108183,1,8,0:0:0:0:
36,192,108183,1,0,0:0:0:0:
402,192,108251,1,0,0:0:0:0:
182,192,108251,1,2,2:0:0:0:
256,192,108320,1,0,0:0:0:0:
36,192,108320,1,0,1:0:0:0:
475,192,108320,1,0,1:0:0:0:
329,192,108388,1,0,0:0:0:0:
402,192,108388,1,2,2:0:0:0:
109,192,108457,1,0,1:0:0:0:
36,192,108457,1,0,0:0:0:0:
182,192,108457,1,2,2:0:0:0:
256,192,108457,1,0,1:0:0:0:
329,192,108525,1,0,0:0:0:0:
36,192,108594,1,2,2:0:0:0:
402,192,108594,1,0,1:0:0:0:
182,192,108594,1,0,0:0:0:0:
475,192,108594,1,0,1:0:0:0:
329,192,108662,1,2,2:0:0:0:
256,192,108662,1,0,0:0:0:0:
109,192,108731,1,2,2:0:0:0:
402,192,108731,1,0,0:0:0:0:
475,192,108799,1,2,2:0:0:0:
182,192,108799,1,0,0:0:0:0:
256,192,108868,1,8,0:0:0:0:
329,192,108868,1,2,2:0:0:0:
36,192,108868,1,8,0:0:0:0:
402,192,108868,1,0,0:0:0:0:
182,192,108936,1,2,2:0:0:0:
109,192,108936,1,0,0:0:0:0:
402,192,109005,1,2,2:0:0:0:
329,192,109005,1,0,0:0:0:0:
256,192,109073,1,0,0:0:0:0:
475,192,109073,1,2,2:0:0:0:
109,192,109142,1,2,2:0:0:0:
329,192,109142,1,0,0:0:0:0:
182,192,109142,1,0,1:0:0:0:
36,192,109142,1,0,1:0:0:0:
402,192,109210,1,2,2:0:0:0:
256,192,109210,1,0,0:0:0:0:
475,192,109279,1,0,1:0:0:0:
182,192,109279,1,0,0:0:0:0:
36,192,109279,1,2,2:0:0:0:
329,192,109347,1,0,1:0:0:0:
256,192,109347,1,2,2:0:0:0:
402,192,109347,1,0,0:0:0:0:
109,192,109416,1,0,0:0:0:0:
36,192,109416,1,0,1:0:0:0:
182,192,109416,1,0,1:0:0:0:
475,192,109484,1,2,2:0:0:0:
329,192,109484,1,0,0:0:0:0:
182,192,109553,1,2,2:0:0:0:
402,192,109553,1,0,0:0:0:0:
36,192,109553,1,0,1:0:0:0:
329,192,109621,1,0,1:0:0:0:
109,192,109621,1,0,0:0:0:0:
402,192,109690,1,0,1:0:0:0:
182,192,109690,1,0,0:0:0:0:
256,192,109690,1,2,2:0:0:0:
475,192,109690,1,0,1:0:0:0:
36,192,109758,1,2,2:0:0:0:
329,192,109758,1,0,0:0:0:0:
109,192,109827,1,0,0:0:0:0:
402,192,109827,1,2,2:0:0:0:
256,192,109895,1,0,0:0:0:0:
182,192,109895,1,2,2:0:0:0:
475,192,109964,1,2,2:0:0:0:
402,192,109964,1,0,0:0:0:0:
109,192,109964,1,8,0:0:0:0:
329,192,109964,1,8,0:0:0:0:
36,192,110032,1,2,2:0:0:0:
182,192,110032,1,0,0:0:0:0:
256,192,110101,1,2,2:0:0:0:
475,192,110101,1,0,0:0:0:0:
402,192,110169,1,0,0:0:0:0:
329,192,110169,1,2,2:0:0:0:
256,192,110237,1,0,0:0:0:0:
109,192,110237,1,0,1:0:0:0:
475,192,110237,1,2,2:0:0:0:
182,192,110237,1,0,1:0:0:0:
329,192,110306,1,0,0:0:0:0:
36,192,110306,1,2,2:0:0:0:
109,192,110374,1,0,0:0:0:0:
402,192,110374,1,2,2:0:0:0:
475,192,110374,1,8,0:0:0:0:
256,192,110374,1,8,0:0:0:0:
329,192,110443,1,2,2:0:0:0:
182,192,110443,1,0,0:0:0:0:
256,192,110511,1,0,0:0:0:0:
36,192,110580,1,0,0:0:0:0:
475,192,110580,1,2,2:0:0:0:
256,192,110648,1,2,2:0:0:0:
109,192,110648,1,0,1:0:0:0:
402,192,110648,1,0,0:0:0:0:
182,192,110648,1,0,1:0:0:0:
329,192,110717,1,0,0:0:0:0:
36,192,110785,1,2,2:0:0:0:
475,192,110785,1,0,1:0:0:0:
256,192,110785,1,0,0:0:0:0:
402,192,110785,1,0,1:0:0:0:
329,192,110854,1,0,0:0:0:0:
182,192,110854,1,2,2:0:0:0:
402,192,110922,1,2,2:0:0:0:
109,192,110922,1,0,0:0:0:0:
329,192,110991,1,0,0:0:0:0:
256,192,110991,1,2,2:0:0:0:
475,192,111059,1,2,2:0:0:0:
182,192,111059,1,0,0:0:0:0:
36,192,111059,1,8,0:0:0:0:
109,192,111059,1,8,0:0:0:0:
402,192,111128,1,2,2:0:0:0:
256,192,111128,1,0,0:0:0:0:
36,192,111196,1,0,0:0:0:0:
329,192,111196,1,2,2:0:0:0:
182,192,111265,1,0,0:0:0:0:
109,192,111265,1,2,2:0:0:0:
402,192,111333,1,0,0:0:0:0:
475,192,111333,1,0,1:0:0:0:
256,192,111333,1,0,1:0:0:0:
36,192,111333,1,2,2:0:0:0:
182,192,111402,1,2,2:0:0:0:
329,192,111402,1,0,0:0:0:0:
36,192,111470,1,8,0:0:0:0:
402,192,111470,1,2,2:0:0:0:
256,192,111470,1,8,0:0:0:0:
475,192,111470,1,0,0:0:0:0:
329,192,111539,1,0,0:0:0:0:
109,192,111539,1,2,2:0:0:0:
256,192,111607,1,0,1:0:0:0:
182,192,111607,1,0,1:0:0:0:
402,192,111607,1,0,0:0:0:0:
36,192,111676,1,0,0:0:0:0:
475,192,111676,1,2,2:0:0:0:
109,192,111744,1,0,0:0:0:0:
329,192,111744,1,2,2:0:0:0:
256,192,111813,1,0,0:0:0:0:
109,192,111881,1,0,0:0:0:0:
402,192,111881,1,0,1:0:0:0:
475,192,111881,1,0,1:0:0:0:
36,192,111881,1,2,2:0:0:0:
329,192,111950,1,0,0:0:0:0:
256,192,111950,1,2,2:0:0:0:
182,192,112018,1,2,2:0:0:0:
36,192,112018,1,0,0:0:0:0:
402,192,112087,1,2,2:0:0:0:
475,192,112087,1,0,0:0:0:0:
182,192,112155,1,0,1:0:0:0:
36,192,112155,1,0,1:0:0:0:
256,192,112155,1,0,0:0:0:0:
109,192,112155,1,2,2:0:0:0:
475,192,112224,1,0,0:0:0:0:
329,192,112224,1,2,2:0:0:0:
36,192,112292,1,0,0:0:0:0:
402,192,112292,1,2,2:0:0:0:
256,192,112361,1,2,2:0:0:0:
109,192,112361,1,0,0:0:0:0:
402,192,112429,1,2,2:0:0:0:
182,192,112429,1,0,1:0:0:0:
475,192,112429,1,0,0:0:0:0:
329,192,112429,1,0,1:0:0:0:
256,192,112498,1,0,0:0:0:0:
36,192,112498,1,2,2:0:0:0:
402,192,112566,1,8,0:0:0:0:
329,192,112566,1,0,0:0:0:0:
109,192,112566,1,8,0:0:0:0:
475,192,112566,1,2,2:0:0:0:
36,192,112635,1,0,0:0:0:0:
182,192,112635,1,2,2:0:0:0:
402,192,112703,1,0,0:0:0:0:
329,192,112772,1,0,0:0:0:0:
109,192,112772,1,2,2:0:0:0:
182,192,112840,1,0,1:0:0:0:
36,192,112840,1,0,0:0:0:0:
256,192,112840,1,2,2:0:0:0:
475,192,112840,1,0,1:0:0:0:
109,192,112909,1,0,0:0:0:0:
329,192,112977,1,0,1:0:0:0:
256,192,112977,1,0,1:0:0:0:
36,192,112977,1,2,2:0:0:0:
475,192,112977,1,0,0:0:0:0:
182,192,113046,1,2,2:0:0:0:
402,192,113046,1,0,0:0:0:0:
36,192,113114,1,0,0:0:0:0:
475,192,113114,1,2,2:0:0:0:
109,192,113183,1,0,0:0:0:0:
182,192,113183,1,2,2:0:0:0:
256,192,113251,1,8,0:0:0:0:
475,192,113251,1,0,0:0:0:0:
402,192,113251,1,2,2:0:0:0:
329,192,113251,1,8,0:0:0:0:
36,192,113320,1,2,2:0:0:0:
182,192,113320,1,0,0:0:0:0:
109,192,113388,1,2,2:0:0:0:
402,192,113388,1,0,0:0:0:0:
256,192,113457,1,0,0:0:0:0:
329,192,113457,1,2,2:0:0:0:
182,192,113525,1,0,0:0:0:0:
475,192,113525,1,0,1:0:0:0:
402,192,113525,1,2,2:0:0:0:
36,192,113525,1,0,1:0:0:0:
329,192,113594,1,2,2:0:0:0:
109,192,113594,1,0,0:0:0:0:
256,192,113662,1,8,0:0:0:0:
182,192,113662,1,0,0:0:0:0:
402,192,113662,1,8,0:0:0:0:
475,192,113662,1,2,2:0:0:0:
36,192,113731,1,0,0:0:0:0:
329,192,113731,1,2,2:0:0:0:
256,192,113799,1,0,0:0:0:0:
402,192,113868,1,0,0:0:0:0:
182,192,113868,1,2,2:0:0:0:
36,192,113936,1,0,1:0:0:0:
256,192,113936,1,0,1:0:0:0:
109,192,113936,1,0,0:0:0:0:
475,192,113936,1,2,2:0:0:0:
329,192,114005,1,0,0:0:0:0:
402,192,114005,1,2,2:0:0:0:
182,192,114073,1,0,1:0:0:0:
256,192,114073,1,0,1:0:0:0:
475,192,114073,1,0,0:0:0:0:
36,192,114073,1,2,2:0:0:0:
109,192,114142,1,2,2:0:0:0:
329,192,114142,1,0,0:0:0:0:
475,192,114210,1,2,2:0:0:0:
182,192,114210,1,0,0:0:0:0:
256,192,114279,1,0,0:0:0:0:
402,192,114279,1,2,2:0:0:0:
329,192,114347,1,0,0:0:0:0:
475,192,114347,1,2,2:0:0:0:
182,192,114347,1,8,0:0:0:0:
36,192,114347,1,8,0:0:0:0:
109,192,114416,1,0,0:0:0:0:
402,192,114416,1,2,2:0:0:0:
329,192,114484,1,0,0:0:0:0:
182,192,114484,1,2,2:0:0:0:
256,192,114553,1,2,2:0:0:0:
402,192,114553,1,0,0:0:0:0:
36,192,114621,1,0,0:0:0:0:
475,192,114621,1,0,1:0:0:0:
182,192,114621,1,0,1:0:0:0:
329,192,114621,1,2,2:0:0:0:
256,192,114690,1,2,2:0:0:0:
402,192,114690,1,0,0:0:0:0:
475,192,114758,1,8,0:0:0:0:
36,192,114758,1,8,0:0:0:0:
109,192,114758,1,2,2:0:0:0:
182,192,114758,1,0,0:0:0:0:
402,192,114827,1,2,2:0:0:0:
256,192,114827,1,0,0:0:0:0:
329,192,114895,1,0,1:0:0:0:
36,192,114895,1,0,0:0:0:0:
182,192,114895,1,0,1:0:0:0:
256,192,114964,1,0,0:0:0:0:
109,192,114964,1,2,2:0:0:0:
475,192,115032,1,0,1:0:0:0:
402,192,115032,1,2,2:0:0:0:
329,192,115032,1,0,0:0:0:0:
182,192,115032,1,0,1:0:0:0:
256,192,115101,1,0,0:0:0:0:
182,192,115169,1,0,1:0:0:0:
475,192,115169,1,0,1:0:0:0:
329,192,115169,1,0,0:0:0:0:
36,192,115169,1,2,2:0:0:0:
402,192,115237,1,2,2:0:0:0:
256,192,115237,1,0,0:0:0:0:
36,192,115306,1,2,2:0:0:0:
475,192,115306,1,0,0:0:0:0:
182,192,115374,1,2,2:0:0:0:
329,192,115374,1,0,0:0:0:0:
402,192,115443,1,2,2:0:0:0:
256,192,115443,1,0,0:0:0:0:
109,192,115443,1,8,0:0:0:0:
36,192,115443,1,8,0:0:0:0:
329,192,115511,1,0,0:0:0:0:
475,192,115511,1,2,2:0:0:0:
109,192,115580,1,0,0:0:0:0:
402,192,115580,1,2,2:0:0:0:
182,192,115648,1,0,0:0:0:0:
329,192,115648,1,2,2:0:0:0:
402,192,115717,1,2,2:0:0:0:
109,192,115717,1,0,1:0:0:0:
256,192,115717,1,0,0:0:0:0:
36,192,115717,1,0,1:0:0:0:
329,192,115785,1,2,2:0:0:0:
182,192,115785,1,0,0:0:0:0:
36,192,115854,1,8,0:0:0:0:
402,192,115854,1,0,0:0:0:0:
256,192,115854,1,2,2:0:0:0:
475,192,115854,1,8,0:0:0:0:
329,192,115922,1,2,2:0:0:0:
182,192,115922,1,0,0:0:0:0:
475,192,115991,1,0,1:0:0:0:
256,192,115991,1,0,0:0:0:0:
109,192,115991,1,0,1:0:0:0:
182,192,116059,1,2,2:0:0:0:
36,192,116059,1,0,0:0:0:0:
109,192,116128,1,0,0:0:0:0:
329,192,116128,1,2,2:0:0:0:
402,192,116128,1,8,0:0:0:0:
256,192,116128,1,8,0:0:0:0:
182,192,116196,1,0,0:0:0:0:
36,192,116265,1,0,1:0:0:0:
329,192,116265,1,0,0:0:0:0:
475,192,116265,1,2,2:0:0:0:
109,192,116265,1,0,1:0:0:0:
182,192,116333,1,0,0:0:0:0:
402,192,116333,1,2,2:0:0:0:
256,192,116402,1,0,0:0:0:0:
329,192,116402,1,2,2:0:0:0:
182,192,116470,1,0,0:0:0:0:
36,192,116470,1,2,2:0:0:0:
329,192,116539,1,8,0:0:0:0:
475,192,116539,1,8,0:0:0:0:
109,192,116539,1,0,0:0:0:0:
402,192,116539,1,2,2:0:0:0:
256,192,116607,1,2,2:0:0:0:
36,192,116607,1,0,0:0:0:0:
182,192,116676,1,0,0:0:0:0:
109,192,116676,1,2,2:0:0:0:
329,192,116744,1,2,2:0:0:0:
256,192,116744,1,0,0:0:0:0:
36,192,116813,1,0,0:0:0:0:
475,192,116813,1,2,2:0:0:0:
402,192,116813,1,0,1:0:0:0:
109,192,116813,1,0,1:0:0:0:
329,192,116881,1,0,0:0:0:0:
182,192,116881,1,2,2:0:0:0:
475,192,116950,1,8,0:0:0:0:
109,192,116950,1,8,0:0:0:0:
256,192,116950,1,0,0:0:0:0:
36,192,116950,1,2,2:0:0:0:
182,192,117018,1,0,0:0:0:0:
402,192,117018,1,2,2:0:0:0:
256,192,117087,1,2,2:0:0:0:
475,192,117087,1,0,0:0:0:0:
402,192,117155,1,0,0:0:0:0:
36,192,117155,1,2,2:0:0:0:
475,192,117224,1,0,1:0:0:0:
329,192,117224,1,2,2:0:0:0:
182,192,117224,1,0,1:0:0:0:
109,192,117224,1,0,0:0:0:0:
256,192,117292,1,0,0:0:0:0:
402,192,117292,1,0,0:0:0:0:
182,192,117361,1,0,1:0:0:0:
329,192,117361,1,0,0:0:0:0:
475,192,117361,1,2,2:0:0:0:
36,192,117361,1,0,1:0:0:0:
402,192,117429,1,0,0:0:0:0:
109,192,117429,1,2,2:0:0:0:
182,192,117498,1,0,0:0:0:0:
475,192,117498,1,2,2:0:0:0:
329,192,117566,1,0,0:0:0:0:
256,192,117566,1,2,2:0:0:0:
182,192,117635,1,0,0:0:0:0:
36,192,117635,1,2,2:0:0:0:
475,192,117635,1,8,0:0:0:0:
402,192,117635,1,8,0:0:0:0:
329,192,117703,1,2,2:0:0:0:
109,192,117703,1,0,0:0:0:0:
182,192,117772,1,2,2:0:0:0:
475,192,117772,1,0,0:0:0:0:
109,192,117840,1,2,2:0:0:0:
402,192,117840,1,0,0:0:0:0:
256,192,117909,1,0,1:0:0:0:
329,192,117909,1,2,2:0:0:0:
36,192,117909,1,0,1:0:0:0:
182,192,117909,1,0,0:0:0:0:
402,192,117977,1,0,0:0:0:0:
475,192,117977,1,2,2:0:0:0:
36,192,118046,1,0,0:0:0:0:
182,192,118046,1,2,2:0:0:0:
329,192,118046,1,8,0:0:0:0:
109,192,118046,1,8,0:0:0:0:
475,192,118114,1,2,2:0:0:0:
256,192,118114,1,0,0:0:0:0:
182,192,118183,1,0,1:0:0:0:
402,192,118183,1,0,1:0:0:0:
329,192,118183,1,0,0:0:0:0:
36,192,118183,1,2,2:0:0:0:
256,192,118251,1,0,0:0:0:0:
109,192,118251,1,2,2:0:0:0:
402,192,118320,1,0,0:0:0:0:
36,192,118320,1,0,1:0:0:0:
475,192,118320,1,2,2:0:0:0:
182,192,118320,1,0,1:0:0:0:
256,192,118388,1,2,2:0:0:0:
109,192,118388,1,0,0:0:0:0:
329,192,118457,1,2,2:0:0:0:
402,192,118457,1,0,0:0:0:0:
182,192,118457,1,0,1:0:0:0:
475,192,118457,1,0,1:0:0:0:
256,192,118525,1,0,0:0:0:0:
36,192,118525,1,2,2:0:0:0:
475,192,118594,1,0,0:0:0:0:
109,192,118594,1,2,2:0:0:0:
402,192,118662,1,2,2:0:0:0:
182,192,118662,1,0,0:0:0:0:
475,192,118731,1,0,0:0:0:0:
36,192,118731,1,8,0:0:0:0:
329,192,118731,1,8,0:0:0:0:
256,192,118731,1,2,2:0:0:0:
402,192,118799,1,2,2:0:0:0:
109,192,118799,1,0,0:0:0:0:
182,192,118868,1,2,2:0:0:0:
36,192,118868,1,0,0:0:0:0:
256,192,118868,1,0,0:0:0:0:
329,192,118936,1,2,2:0:0:0:
475,192,118936,1,0,0:0:0:0:
402,192,119005,1,0,0:0:0:0:
182,192,119005,1,0,1:0:0:0:
109,192,119005,1,0,1:0:0:0:
36,192,119005,1,2,2:0:0:0:
256,192,119073,1,2,2:0:0:0:
109,192,119142,1,2,2:0:0:0:
402,192,119142,1,0,0:0:0:0:
182,192,119142,1,8,0:0:0:0:
475,192,119142,1,8,0:0:0:0:
36,192,119210,1,0,0:0:0:0:
329,192,119210,1,2,2:0:0:0:
256,192,119279,1,0,0:0:0:0:
475,192,119347,1,2,2:0:0:0:
182,192,119347,1,0,0:0:0:0:
256,192,119416,1,0,1:0:0:0:
402,192,119416,1,2,2:0:0:0:
109,192,119416,1,0,1:0:0:0:
36,192,119416,1,0,0:0:0:0:
182,192,119484,1,0,0:0:0:0:
329,192,119553,1,0,1:0:0:0:
475,192,119553,1,0,1:0:0:0:
36,192,119553,1,2,2:0:0:0:
256,192,119553,1,0,0:0:0:0:
109,192,119621,1,0,0:0:0:0:
182,192,119621,1,2,2:0:0:0:
329,192,119690,1,0,0:0:0:0:
402,192,119690,1,2,2:0:0:0:
109,192,119758,1,2,2:0:0:0:
182,192,119758,1,0,0:0:0:0:
36,192,119827,1,8,0:0:0:0:
402,192,119827,1,0,0:0:0:0:
329,192,119827,1,8,0:0:0:0:
475,192,119827,1,2,2:0:0:0:
109,192,119895,1,0,0:0:0:0:
256,192,119895,1,2,2:0:0:0:
475,192,119964,1,0,0:0:0:0:
182,192,119964,1,2,2:0:0:0:
109,192,120032,1,0,0:0:0:0:
329,192,120032,1,2,2:0:0:0:
256,192,120101,1,0,1:0:0:0:
475,192,120101,1,0,0:0:0:0:
402,192,120101,1,0,1:0:0:0:
36,192,120101,1,2,2:0:0:0:
182,192,120169,1,2,2:0:0:0:
109,192,120169,1,0,0:0:0:0:
256,192,120237,1,2,2:0:0:0:
402,192,120237,1,8,0:0:0:0:
475,192,120237,1,8,0:0:0:0:
36,192,120237,1,0,0:0:0:0:
109,192,120306,1,2,2:0:0:0:
329,192,120306,1,0,0:0:0:0:
36,192,120374,1,0,1:0:0:0:
182,192,120374,1,0,1:0:0:0:
402,192,120374,1,0,0:0:0:0:
475,192,120443,1,2,2:0:0:0:
109,192,120443,1,0,0:0:0:0:
182,192,120511,1,0,0:0:0:0:
329,192,120511,1,2,2:0:0:0:
109,192,120580,1,0,0:0:0:0:
36,192,120648,1,2,2:0:0:0:
475,192,120648,1,0,0:0:0:0:
402,192,120648,1,0,1:0:0:0:
256,192,120648,1,0,1:0:0:0:
109,192,120717,1,0,0:0:0:0:
182,192,120717,1,2,2:0:0:0:
402,192,120785,1,0,0:0:0:0:
329,192,120785,1,2,2:0:0:0:
256,192,120854,1,2,2:0:0:0:
182,192,120854,1,0,0:0:0:0:
475,192,120922,1,2,2:0:0:0:
36,192,120922,1,8,0:0:0:0:
109,192,120922,1,8,0:0:0:0:
329,192,120922,1,0,0:0:0:0:
402,192,120991,1,2,2:0:0:0:
256,192,120991,1,0,0:0:0:0:
36,192,121059,1,0,0:0:0:0:
329,192,121059,1,2,2:0:0:0:
109,192,121128,1,2,2:0:0:0:
256,192,121128,1,0,0:0:0:0:
475,192,121196,1,0,1:0:0:0:
329,192,121196,1,0,0:0:0:0:
182,192,121196,1,0,1:0:0:0:
402,192,121196,1,2,2:0:0:0:
36,192,121265,1,2,2:0:0:0:
109,192,121265,1,0,0:0:0:0:
475,192,121333,1,2,2:0:0:0:
256,192,121333,1,8,0:0:0:0:
182,192,121333,1,0,0:0:0:0:
329,192,121333,1,8,0:0:0:0:
109,192,121402,1,0,0:0:0:0:
402,192,121402,1,2,2:0:0:0:
182,192,121470,1,0,1:0:0:0:
329,192,121470,1,0,0:0:0:0:
36,192,121470,1,0,1:0:0:0:
475,192,121539,1,0,0:0:0:0:
256,192,121539,1,2,2:0:0:0:
402,192,121607,1,2,2:0:0:0:
109,192,121607,1,0,0:0:0:0:
329,192,121676,1,0,0:0:0:0:
475,192,121744,1,0,1:0:0:0:
402,192,121744,1,0,0:0:0:0:
256,192,121744,1,0,1:0:0:0:
36,192,121744,1,2,2:0:0:0:
329,192,121813,1,2,2:0:0:0:
182,192,121813,1,0,0:0:0:0:
402,192,121881,1,0,0:0:0:0:
109,192,121881,1,2,2:0:0:0:
329,192,121950,1,0,0:0:0:0:
182,192,121950,1,0,0:0:0:0:
36,192,122018,1,0,0:0:0:0:
402,192,122018,1,2,2:0:0:0:
256,192,122018,1,8,0:0:0:0:
475,192,122018,1,8,0:0:0:0:
109,192,122087,1,2,2:0:0:0:
329,192,122087,1,0,0:0:0:0:
475,192,122155,1,0,0:0:0:0:
182,192,122155,1,2,2:0:0:0:
36,192,122224,1,0,0:0:0:0:
402,192,122224,1,2,2:0:0:0:
329,192,122292,1,2,2:0:0:0:
256,192,122292,1,0,0:0:0:0:
109,192,122292,1,0,1:0:0:0:
182,192,122292,1,0,1:0:0:0:
475,192,122361,1,2,2:0:0:0:
402,192,122361,1,0,0:0:0:0:
36,192,122429,1,2,2:0:0:0:
256,192,122429,1,8,0:0:0:0:
182,192,122429,1,0,0:0:0:0:
329,192,122429,1,8,0:0:0:0:
402,192,122498,1,2,2:0:0:0:
109,192,122498,1,0,0:0:0:0:
182,192,122566,1,0,1:0:0:0:
256,192,122566,1,0,0:0:0:0:
475,192,122566,1,0,1:0:0:0:
329,192,122635,1,0,0:0:0:0:
402,192,122635,1,2,2:0:0:0:
475,192,122703,1,0,0:0:0:0:
182,192,122703,1,0,1:0:0:0:
36,192,122703,1,2,2:0:0:0:
329,192,122772,1,0,1:0:0:0:
256,192,122772,1,0,0:0:0:0:
475,192,122840,1,0,1:0:0:0:
182,192,122840,1,0,0:0:0:0:
402,192,122840,1,0,1:0:0:0:
36,192,122840,1,2,2:0:0:0:
329,192,122909,1,0,0:0:0:0:
109,192,122909,1,2,2:0:0:0:
182,192,122977,1,2,2:0:0:0:
256,192,122977,1,0,0:0:0:0:
402,192,123046,1,2,2:0:0:0:
475,192,123046,1,0,0:0:0:0:
329,192,123114,1,8,0:0:0:0:
109,192,123114,1,2,2:0:0:0:
182,192,123114,1,0,0:0:0:0:
36,192,123114,1,8,0:0:0:0:
256,192,123183,1,2,2:0:0:0:
402,192,123183,1,0,0:0:0:0:
329,192,123251,1,0,0:0:0:0:
475,192,123251,1,2,2:0:0:0:
256,192,123320,1,2,2:0:0:0:
182,192,123320,1,0,0:0:0:0:
109,192,123388,1,0,1:0:0:0:
329,192,123388,1,2,2:0:0:0:
36,192,123388,1,0,1:0:0:0:
402,192,123388,1,0,0:0:0:0:
182,192,123457,1,0,0:0:0:0:
475,192,123457,1,2,2:0:0:0:
109,192,123525,1,8,0:0:0:0:
36,192,123525,1,8,0:0:0:0:
256,192,123525,1,0,0:0:0:0:
402,192,123525,1,2,2:0:0:0:
329,192,123594,1,2,2:0:0:0:
182,192,123594,1,0,0:0:0:0:
109,192,123662,1,0,0:0:0:0:
329,192,123731,1,0,0:0:0:0:
182,192,123731,1,2,2:0:0:0:
36,192,123799,1,0,0:0:0:0:
109,192,123799,1,0,1:0:0:0:
256,192,123799,1,2,2:0:0:0:
402,192,123799,1,0,1:0:0:0:
329,192,123868,1,0,0:0:0:0:
402,192,123936,1,0,0:0:0:0:
182,192,123936,1,0,1:0:0:0:
36,192,123936,1,2,2:0:0:0:
475,192,123936,1,0,1:0:0:0:
329,192,124005,1,0,0:0:0:0:
256,192,124005,1,2,2:0:0:0:
402,192,124073,1,0,0:0:0:0:
182,192,124073,1,2,2:0:0:0:
109,192,124142,1,0,0:0:0:0:
329,192,124142,1,2,2:0:0:0:
36,192,124210,1,8,0:0:0:0:
475,192,124210,1,0,0:0:0:0:
182,192,124210,1,2,2:0:0:0:
256,192,124210,1,8,0:0:0:0:
109,192,124279,1,0,0:0:0:0:
402,192,124279,1,2,2:0:0:0:
329,192,124347,1,2,2:0:0:0:
182,192,124347,1,0,0:0:0:0:
256,192,124416,1,0,0:0:0:0:
109,192,124416,1,2,2:0:0:0:
182,192,124484,1,0,1:0:0:0:
329,192,124484,1,2,2:0:0:0:
36,192,124484,1,0,1:0:0:0:
402,192,124484,1,0,0:0:0:0:
256,192,124553,1,0,0:0:0:0:
475,192,124553,1,2,2:0:0:0:
36,192,124621,1,8,0:0:0:0:
402,192,124621,1,0,0:0:0:0:
329,192,124621,1,8,0:0:0:0:
182,192,124621,1,2,2:0:0:0:
109,192,124690,1,0,0:0:0:0:
256,192,124690,1,2,2:0:0:0:
329,192,124758,1,0,1:0:0:0:
182,192,124758,1,0,1:0:0:0:
36,192,124827,1,0,0:0:0:0:
475,192,124827,1,2,2:0:0:0:
402,192,124895,1,0,1:0:0:0:
182,192,124895,1,2,2:0:0:0:
109,192,124895,1,0,0:0:0:0:
329,192,124895,1,0,1:0:0:0:
256,192,124964,1,0,0:0:0:0:
475,192,125032,1,2,2:0:0:0:
36,192,125032,1,0,1:0:0:0:
109,192,125032,1,0,1:0:0:0:
182,192,125101,1,0,0:0:0:0:
402,192,125101,1,2,2:0:0:0:
36,192,125169,1,0,0:0:0:0:
329,192,125169,1,2,2:0:0:0:
109,192,125237,1,0,0:0:0:0:
256,192,125237,1,2,2:0:0:0:
329,192,125306,1,8,0:0:0:0:
402,192,125306,1,0,0:0:0:0:
475,192,125306,1,2,2:0:0:0:
182,192,125306,1,8,0:0:0:0:
256,192,125374,1,0,0:0:0:0:
36,192,125374,1,2,2:0:0:0:
329,192,125443,1,0,0:0:0:0:
109,192,125443,1,2,2:0:0:0:
182,192,125511,1,0,0:0:0:0:
402,192,125511,1,2,2:0:0:0:
475,192,125580,1,2,2:0:0:0:
256,192,125580,1,0,0:0:0:0:
329,192,125580,1,0,1:0:0:0:
36,192,125580,1,0,1:0:0:0:
402,192,125648,1,0,0:0:0:0:
109,192,125648,1,2,2:0:0:0:
475,192,125717,1,8,0:0:0:0:
329,192,125717,1,0,0:0:0:0:
36,192,125717,1,2,2:0:0:0:
182,192,125717,1,8,0:0:0:0:
256,192,125785,1,0,0:0:0:0:
109,192,125785,1,2,2:0:0:0:
329,192,125854,1,0,0:0:0:0:
182,192,125854,1,0,1:0:0:0:
402,192,125854,1,0,1:0:0:0:
256,192,125922,1,0,0:0:0:0:
475,192,125922,1,2,2:0:0:0:
402,192,125991,1,0,1:0:0:0:
36,192,125991,1,0,0:0:0:0:
109,192,125991,1,0,1:0:0:0:
182,192,125991,1,2,2:0:0:0:
329,192,126059,1,0,0:0:0:0:
475,192,126128,1,0,1:0:0:0:
402,192,126128,1,0,0:0:0:0:
182,192,126128,1,0,1:0:0:0:
36,192,126128,1,2,2:0:0:0:
256,192,126196,1,0,0:0:0:0:
329,192,126196,1,2,2:0:0:0:
402,192,126265,1,0,0:0:0:0:
109,192,126265,1,2,2:0:0:0:
329,192,126333,1,0,0:0:0:0:
475,192,126333,1,2,2:0:0:0:
182,192,126402,1,2,2:0:0:0:
109,192,126402,1,0,0:0:0:0:
36,192,126402,1,8,0:0:0:0:
402,192,126402,1,8,0:0:0:0:
329,192,126470,1,0,0:0:0:0:
256,192,126470,1,2,2:0:0:0:
109,192,126539,1,0,0:0:0:0:
402,192,126539,1,2,2:0:0:0:
182,192,126607,1,0,0:0:0:0:
475,192,126607,1,2,2:0:0:0:
256,192,126676,1,2,2:0:0:0:
402,192,126676,1,0,0:0:0:0:
329,192,126676,1,0,1:0:0:0:
36,192,126676,1,0,1:0:0:0:
475,192,126744,1,0,0:0:0:0:
182,192,126744,1,2,2:0:0:0:
402,192,126813,1,0,0:0:0:0:
109,192,126813,1,0,1:0:0:0:
36,192,126813,1,2,2:0:0:0:
475,192,126881,1,0,0:0:0:0:
256,192,126881,1,2,2:0:0:0:
329,192,126881,1,0,1:0:0:0:
109,192,126950,1,0,0:0:0:0:
402,192,126950,1,0,1:0:0:0:
182,192,126950,1,0,1:0:0:0:
329,192,127018,1,0,0:0:0:0:
475,192,127018,1,2,2:0:0:0:
182,192,127087,1,0,0:0:0:0:
109,192,127087,1,0,1:0:0:0:
36,192,127087,1,2,2:0:0:0:
256,192,127155,1,0,0:0:0:0:
329,192,127155,1,0,1:0:0:0:
475,192,127224,1,0,1:0:0:0:
36,192,127224,1,0,0:0:0:0:
402,192,127224,1,0,1:0:0:0:
109,192,127224,1,2,2:0:0:0:
182,192,127292,1,0,0:0:0:0:
256,192,127292,1,2,2:0:0:0:
109,192,127361,1,0,0:0:0:0:
475,192,127361,1,2,2:0:0:0:
256,192,127429,1,0,0:0:0:0:
402,192,127429,1,2,2:0:0:0:
475,192,127498,1,2,2:0:0:0:
109,192,127498,1,0,0:0:0:0:
36,192,127498,1,8,0:0:0:0:
329,192,127498,1,8,0:0:0:0:
402,192,127566,1,0,0:0:0:0:
256,192,127566,1,2,2:0:0:0:
329,192,127635,1,0,0:0:0:0:
182,192,127635,1,2,2:0:0:0:
109,192,127703,1,0,0:0:0:0:
36,192,127703,1,2,2:0:0:0:
475,192,127772,1,2,2:0:0:0:
256,192,127772,1,0,0:0:0:0:
329,192,127772,1,0,1:0:0:0:
402,192,127772,1,0,1:0:0:0:
109,192,127840,1,0,0:0:0:0:
36,192,127840,1,2,2:0:0:0:
475,192,127909,1,8,0:0:0:0:
182,192,127909,1,0,0:0:0:0:
256,192,127909,1,2,2:0:0:0:
402,192,127909,1,8,0:0:0:0:
36,192,127977,1,0,0:0:0:0:
329,192,127977,1,2,2:0:0:0:
109,192,128046,1,0,0:0:0:0:
402,192,128114,1,0,0:0:0:0:
475,192,128114,1,2,2:0:0:0:
109,192,128183,1,0,1:0:0:0:
182,192,128183,1,0,1:0:0:0:
329,192,128183,1,2,2:0:0:0:
256,192,128251,1,0,0:0:0:0:
36,192,128320,1,2,2:0:0:0:
329,192,128320,1,0,0:0:0:0:
402,192,128320,1,0,1:0:0:0:
475,192,128320,1,0,1:0:0:0:
256,192,128388,1,0,0:0:0:0:
109,192,128388,1,2,2:0:0:0:
182,192,128457,1,0,0:0:0:0:
402,192,128457,1,2,2:0:0:0:
329,192,128525,1,0,0:0:0:0:
475,192,128525,1,2,2:0:0:0:
109,192,128594,1,8,0:0:0:0:
256,192,128594,1,0,0:0:0:0:
36,192,128594,1,8,0:0:0:0:
402,192,128594,1,2,2:0:0:0:
182,192,128662,1,0,0:0:0:0:
475,192,128662,1,2,2:0:0:0:
109,192,128731,1,0,0:0:0:0:
256,192,128731,1,2,2:0:0:0:
402,192,128799,1,0,0:0:0:0:
329,192,128799,1,2,2:0:0:0:
475,192,128868,1,0,1:0:0:0:
256,192,128868,1,0,0:0:0:0:
36,192,128868,1,0,1:0:0:0:
182,192,128868,1,2,2:0:0:0:
402,192,128936,1,0,0:0:0:0:
109,192,128936,1,2,2:0:0:0:
182,192,129005,1,8,0:0:0:0:
329,192,129005,1,0,0:0:0:0:
475,192,129005,1,2,2:0:0:0:
256,192,129005,1,8,0:0:0:0:
402,192,129073,1,0,0:0:0:0:
109,192,129073,1,2,2:0:0:0:
36,192,129142,1,0,0:0:0:0:
329,192,129142,1,0,1:0:0:0:
182,192,129142,1,0,1:0:0:0:
402,192,129210,1,0,0:0:0:0:
475,192,129210,1,2,2:0:0:0:
109,192,129279,1,0,0:0:0:0:
256,192,129279,1,2,2:0:0:0:
329,192,129347,1,0,0:0:0:0:
36,192,129416,1,2,2:0:0:0:
109,192,129416,1,0,0:0:0:0:
475,192,129416,1,0,1:0:0:0:
402,192,129416,1,0,1:0:0:0:
329,192,129484,1,0,0:0:0:0:
182,192,129484,1,2,2:0:0:0:
36,192,129553,1,0,0:0:0:0:
475,192,129553,1,2,2:0:0:0:
109,192,129621,1,0,0:0:0:0:
402,192,129621,1,2,2:0:0:0:
182,192,129690,1,2,2:0:0:0:
329,192,129690,1,0,0:0:0:0:
475,192,129690,1,8,0:0:0:0:
36,192,129690,1,8,0:0:0:0:
109,192,129758,1,0,0:0:0:0:
402,192,129758,1,2,2:0:0:0:
329,192,129827,1,0,0:0:0:0:
475,192,129827,1,2,2:0:0:0:
36,192,129895,1,0,0:0:0:0:
256,192,129895,1,2,2:0:0:0:
109,192,129964,1,2,2:0:0:0:
329,192,129964,1,0,0:0:0:0:
402,192,129964,1,0,1:0:0:0:
182,192,129964,1,0,1:0:0:0:
475,192,130032,1,0,0:0:0:0:
36,192,130032,1,2,2:0:0:0:
402,192,130101,1,2,2:0:0:0:
109,192,130101,1,0,0:0:0:0:
329,192,130101,1,8,0:0:0:0:
182,192,130101,1,8,0:0:0:0:
475,192,130169,1,0,0:0:0:0:
256,192,130169,1,2,2:0:0:0:
402,192,130237,1,0,0:0:0:0:
182,192,130306,1,0,0:0:0:0:
36,192,130306,1,2,2:0:0:0:
109,192,130374,1,0,1:0:0:0:
402,192,130374,1,0,0:0:0:0:
475,192,130374,1,0,1:0:0:0:
329,192,130374,1,2,2:0:0:0:
256,192,130443,5,0,0:0:0:0:
329,192,130511,5,0,1:0:0:0:
36,192,130511,1,2,2:0:0:0:
182,192,130511,1,0,0:0:0:0:
475,192,130511,1,0,1:0:0:0:
402,192,130580,1,0,0:0:0:0:
109,192,130580,1,2,2:0:0:0:
329,192,130648,1,0,0:0:0:0:
475,192,130648,1,2,2:0:0:0:
109,192,130717,1,0,0:0:0:0:
256,192,130717,1,2,2:0:0:0:
36,192,130785,1,8,0:0:0:0:
475,192,130785,1,0,0:0:0:0:
182,192,130785,1,8,0:0:0:0:
402,192,130785,1,2,2:0:0:0:
256,192,130854,1,0,0:0:0:0:
329,192,130854,1,2,2:0:0:0:
182,192,130922,1,0,0:0:0:0:
36,192,130922,1,2,2:0:0:0:
256,192,130991,1,0,0:0:0:0:
402,192,130991,1,2,2:0:0:0:
36,192,131059,1,0,1:0:0:0:
109,192,131059,1,0,0:0:0:0:
475,192,131059,1,2,2:0:0:0:
329,192,131059,1,0,1:0:0:0:
402,192,131128,1,0,0:0:0:0:
182,192,131128,1,2,2:0:0:0:
475,192,131196,1,2,2:0:0:0:
329,192,131196,1,0,0:0:0:0:
36,192,131196,1,8,0:0:0:0:
256,192,131196,1,8,0:0:0:0:
109,192,131265,1,0,0:0:0:0:
402,192,131265,1,2,2:0:0:0:
329,192,131333,1,0,0:0:0:0:
402,192,131402,1,0,0:0:0:0:
36,192,131402,1,2,2:0:0:0:
329,192,131470,1,2,2:0:0:0:
475,192,131470,1,0,0:0:0:0:
182,192,131470,1,0,1:0:0:0:
109,192,131470,1,0,1:0:0:0:
256,192,131539,1,0,0:0:0:0:
402,192,131539,1,2,2:0:0:0:
109,192,131607,5,0,1:0:0:0:
36,192,131607,1,0,1:0:0:0:
182,192,131607,1,0,1:0:0:0:
475,192,131607,128,0,132429:1:0:0:70:LN HS.wav
182,192,131881,1,0,1:0:0:0:
36,192,131881,1,0,1:0:0:0:
109,192,131881,1,8,0:0:0:0:
36,192,132155,1,0,1:0:0:0:
109,192,132155,1,8,0:0:0:0:
182,192,132155,1,0,1:0:0:0:
182,192,132429,1,0,1:0:0:0:
109,192,132429,1,8,0:0:0:0:
36,192,132429,1,0,1:0:0:0:
256,192,132429,128,0,132566:1:0:0:70:LN HS.wav
329,192,132566,128,0,132703:1:0:0:70:LN HS.wav
36,192,132703,1,0,1:0:0:0:
182,192,132703,1,0,1:0:0:0:
109,192,132703,1,8,0:0:0:0:
475,192,132703,128,0,132840:1:0:0:70:LN HS.wav
402,192,132840,128,0,132977:1:0:0:70:LN HS.wav
182,192,132977,1,0,1:0:0:0:
109,192,132977,1,8,0:0:0:0:
36,192,132977,1,0,1:0:0:0:
256,192,132977,128,0,133114:1:0:0:70:LN HS.wav
329,192,133114,128,0,133251:1:0:0:70:LN HS.wav
182,192,133251,1,0,1:0:0:0:
36,192,133251,1,0,1:0:0:0:
109,192,133251,1,8,0:0:0:0:
402,192,133251,128,0,133388:1:0:0:70:LN HS.wav
256,192,133388,128,0,133525:1:0:0:70:LN HS.wav
36,192,133525,1,0,1:0:0:0:
182,192,133525,1,0,1:0:0:0:
109,192,133525,1,8,0:0:0:0:
475,192,133525,128,0,133662:1:0:0:70:LN HS.wav
329,192,133662,128,0,133799:0:0:0:70:LN HS.wav
36,192,133799,1,0,1:0:0:0:
182,192,133799,1,0,1:0:0:0:
109,192,133799,1,8,0:0:0:0:
256,192,133799,128,0,133936:0:0:0:70:LN HS.wav
402,192,133936,128,0,134073:0:0:0:70:LN HS.wav
182,192,134073,1,0,1:0:0:0:
36,192,134073,1,0,1:0:0:0:
109,192,134073,1,8,0:0:0:0:
329,192,134073,128,0,134210:0:0:0:70:LN HS.wav
475,192,134210,128,0,134347:0:0:0:70:LN HS.wav
182,192,134347,1,0,1:0:0:0:
36,192,134347,1,0,1:0:0:0:
109,192,134347,1,8,0:0:0:0:
402,192,134347,128,0,134484:0:0:0:70:LN HS.wav
256,192,134484,128,0,134621:0:0:0:70:LN HS.wav
182,192,134621,1,0,1:0:0:0:
109,192,134621,1,8,0:0:0:0:
36,192,134621,1,0,1:0:0:0:
475,192,134621,128,0,134758:0:0:0:70:LN HS.wav
329,192,134758,128,0,134895:0:0:0:70:LN HS.wav
36,192,134895,1,0,1:0:0:0:
109,192,134895,1,8,0:0:0:0:
182,192,134895,1,0,1:0:0:0:
256,192,134895,128,0,135032:0:0:0:70:LN HS.wav
329,192,135032,128,0,135169:0:0:0:70:LN HS.wav
36,192,135169,1,0,1:0:0:0:
182,192,135169,1,0,1:0:0:0:
109,192,135169,1,8,0:0:0:0:
402,192,135169,128,0,135306:0:0:0:70:LN HS.wav
256,192,135306,128,0,135443:0:0:0:70:LN HS.wav
36,192,135443,1,0,1:0:0:0:
109,192,135443,1,8,0:0:0:0:
182,192,135443,1,0,1:0:0:0:
475,192,135443,128,0,135580:0:0:0:70:LN HS.wav
329,192,135580,128,0,135717:0:0:0:70:LN HS.wav
36,192,135717,1,0,1:0:0:0:
182,192,135717,1,0,1:0:0:0:
109,192,135717,1,8,0:0:0:0:
256,192,135717,128,0,135854:0:0:0:70:LN HS.wav
402,192,135854,128,0,135991:0:0:0:70:LN HS.wav
109,192,135991,1,8,0:0:0:0:
36,192,135991,1,0,1:0:0:0:
182,192,135991,1,0,1:0:0:0:
329,192,135991,128,0,136813:0:0:0:70:LN HS.wav
36,192,136265,1,0,1:0:0:0:
182,192,136265,1,0,1:0:0:0:
109,192,136265,1,8,0:0:0:0:
109,192,136539,1,8,0:0:0:0:
36,192,136539,1,0,1:0:0:0:
182,192,136539,1,0,1:0:0:0:
109,192,136813,1,8,0:0:0:0:
36,192,136813,1,0,1:0:0:0:
182,192,136813,1,0,1:0:0:0:
475,192,136813,128,0,136950:0:0:0:70:LN HS.wav
402,192,136950,128,0,137087:0:0:0:70:LN HS.wav
182,192,137087,1,0,1:0:0:0:
36,192,137087,1,0,1:0:0:0:
109,192,137087,1,8,0:0:0:0:
256,192,137087,128,0,137224:0:0:0:70:LN HS.wav
329,192,137224,128,0,137361:0:0:0:70:LN HS.wav
182,192,137361,1,0,1:0:0:0:
109,192,137361,1,8,0:0:0:0:
36,192,137361,1,0,1:0:0:0:
475,192,137361,128,0,137498:0:0:0:70:LN HS.wav
402,192,137498,128,0,137635:0:0:0:70:LN HS.wav
182,192,137635,1,0,1:0:0:0:
36,192,137635,1,0,1:0:0:0:
109,192,137635,1,8,0:0:0:0:
256,192,137635,128,0,137772:0:0:0:70:LN HS.wav
402,192,137772,128,0,137909:0:0:0:70:LN HS.wav
109,192,137909,1,8,0:0:0:0:
36,192,137909,1,0,1:0:0:0:
182,192,137909,1,0,1:0:0:0:
329,192,137909,128,0,138046:0:0:0:70:LN HS.wav
475,192,138046,128,0,138183:0:0:0:70:LN HS.wav
182,192,138183,1,0,1:0:0:0:
109,192,138183,1,8,0:0:0:0:
36,192,138183,1,0,1:0:0:0:
402,192,138183,128,0,138320:0:0:0:70:LN HS.wav
256,192,138320,128,0,138457:0:0:0:70:LN HS.wav
36,192,138457,1,0,1:0:0:0:
109,192,138457,1,8,0:0:0:0:
182,192,138457,1,0,1:0:0:0:
475,192,138457,128,0,138594:0:0:0:70:LN HS.wav
329,192,138594,128,0,138731:0:0:0:70:LN HS.wav
182,192,138731,1,0,1:0:0:0:
109,192,138731,1,8,0:0:0:0:
36,192,138731,1,0,1:0:0:0:
402,192,138731,128,0,138868:0:0:0:70:LN HS.wav
256,192,138868,128,0,139005:0:0:0:70:LN HS.wav
36,192,139005,1,0,1:0:0:0:
109,192,139005,1,8,0:0:0:0:
182,192,139005,1,0,1:0:0:0:
475,192,139005,128,0,139142:0:0:0:70:LN HS.wav
402,192,139142,128,0,139279:0:0:0:70:LN HS.wav
36,192,139279,1,0,1:0:0:0:
182,192,139279,1,0,1:0:0:0:
109,192,139279,1,8,0:0:0:0:
329,192,139279,128,0,139416:0:0:0:70:LN HS.wav
256,192,139416,128,0,139553:0:0:0:70:LN HS.wav
36,192,139553,1,0,1:0:0:0:
182,192,139553,1,0,1:0:0:0:
109,192,139553,1,8,0:0:0:0:
402,192,139553,128,0,139690:0:0:0:70:LN HS.wav
329,192,139690,128,0,139827:0:0:0:70:LN HS.wav
182,192,139827,1,0,1:0:0:0:
36,192,139827,1,0,1:0:0:0:
109,192,139827,1,8,0:0:0:0:
475,192,139827,128,0,139964:0:0:0:70:LN HS.wav
256,192,139964,128,0,140101:0:0:0:70:LN HS.wav
182,192,140101,1,0,1:0:0:0:
109,192,140101,1,8,0:0:0:0:
36,192,140101,1,0,1:0:0:0:
329,192,140101,128,0,140237:0:0:0:70:LN HS.wav
402,192,140237,128,0,140374:0:0:0:70:LN HS.wav
109,192,140374,1,8,0:0:0:0:
36,192,140374,1,0,1:0:0:0:
182,192,140374,1,0,1:0:0:0:
475,192,140374,128,0,141196:0:0:0:70:LN HS.wav
182,192,140648,1,0,1:0:0:0:
109,192,140648,1,8,0:0:0:0:
36,192,140648,1,0,1:0:0:0:
36,192,140922,1,0,1:0:0:0:
182,192,140922,1,0,1:0:0:0:
109,192,140922,1,8,0:0:0:0:
36,192,141196,1,0,1:0:0:0:
182,192,141196,1,0,1:0:0:0:
109,192,141196,1,8,0:0:0:0:
256,192,141196,128,0,141333:0:0:0:70:LN HS.wav
329,192,141333,128,0,141470:0:0:0:70:LN HS.wav
36,192,141470,1,0,1:0:0:0:
182,192,141470,1,0,1:0:0:0:
109,192,141470,1,8,0:0:0:0:
475,192,141470,128,0,141607:0:0:0:70:LN HS.wav
402,192,141607,128,0,141744:0:0:0:70:LN HS.wav
36,192,141744,1,0,1:0:0:0:
182,192,141744,1,0,1:0:0:0:
109,192,141744,1,8,0:0:0:0:
329,192,141744,128,0,141881:0:0:0:70:LN HS.wav
256,192,141881,128,0,142018:0:0:0:70:LN HS.wav
182,192,142018,1,0,1:0:0:0:
109,192,142018,1,8,0:0:0:0:
36,192,142018,1,0,1:0:0:0:
402,192,142018,128,0,142155:0:0:0:70:LN HS.wav
329,192,142155,128,0,142292:0:0:0:70:LN HS.wav
36,192,142292,1,0,1:0:0:0:
109,192,142292,1,8,0:0:0:0:
182,192,142292,1,0,1:0:0:0:
256,192,142292,128,0,142429:0:0:0:70:LN HS.wav
402,192,142429,128,0,142566:0:0:0:70:LN HS.wav
109,192,142566,1,8,0:0:0:0:
182,192,142566,1,0,1:0:0:0:
36,192,142566,1,0,1:0:0:0:
329,192,142566,128,0,142703:0:0:0:70:LN HS.wav
475,192,142703,128,0,142840:0:0:0:70:LN HS.wav
182,192,142840,1,0,1:0:0:0:
36,192,142840,1,0,1:0:0:0:
109,192,142840,1,8,0:0:0:0:
256,192,142840,128,0,142977:0:0:0:70:LN HS.wav
402,192,142977,128,0,143114:0:0:0:70:LN HS.wav
182,192,143114,1,0,1:0:0:0:
36,192,143114,1,0,1:0:0:0:
109,192,143114,1,8,0:0:0:0:
329,192,143114,128,0,143251:0:0:0:70:LN HS.wav
256,192,143251,128,0,143388:0:0:0:70:LN HS.wav
109,192,143388,1,8,0:0:0:0:
36,192,143388,1,0,1:0:0:0:
182,192,143388,1,0,1:0:0:0:
475,192,143388,128,0,143525:0:0:0:70:LN HS.wav
402,192,143525,128,0,143662:0:0:0:70:LN HS.wav
36,192,143662,1,0,1:0:0:0:
109,192,143662,1,8,0:0:0:0:
182,192,143662,1,0,1:0:0:0:
329,192,143662,128,0,143799:0:0:0:70:LN HS.wav
475,192,143799,128,0,143936:0:0:0:70:LN HS.wav
109,192,143936,1,8,0:0:0:0:
182,192,143936,1,0,1:0:0:0:
36,192,143936,1,0,1:0:0:0:
256,192,143936,128,0,144073:0:0:0:70:LN HS.wav
402,192,144073,128,0,144210:0:0:0:70:LN HS.wav
182,192,144210,1,0,1:0:0:0:
109,192,144210,1,8,0:0:0:0:
36,192,144210,1,0,1:0:0:0:
329,192,144210,128,0,144347:0:0:0:70:LN HS.wav
475,192,144347,128,0,144484:0:0:0:70:LN HS.wav
182,192,144484,1,0,1:0:0:0:
109,192,144484,1,8,0:0:0:0:
36,192,144484,1,0,1:0:0:0:
402,192,144484,128,0,144621:0:0:0:70:LN HS.wav
256,192,144621,128,0,144758:0:0:0:70:LN HS.wav
109,192,144758,1,8,0:0:0:0:
182,192,144758,1,0,1:0:0:0:
36,192,144758,1,0,1:0:0:0:
329,192,144758,128,0,145580:0:0:0:70:LN HS.wav
109,192,145032,1,8,0:0:0:0:
182,192,145032,1,0,1:0:0:0:
36,192,145032,1,0,1:0:0:0:
109,192,145306,1,8,0:0:0:0:
182,192,145306,1,0,1:0:0:0:
36,192,145306,1,0,1:0:0:0:
109,192,145580,1,8,0:0:0:0:
182,192,145580,1,0,1:0:0:0:
36,192,145580,1,0,1:0:0:0:
475,192,145580,128,0,145717:0:0:0:70:LN HS.wav
402,192,145717,128,0,145854:0:0:0:70:LN HS.wav
36,192,145854,1,0,1:0:0:0:
182,192,145854,1,0,1:0:0:0:
109,192,145854,1,8,0:0:0:0:
256,192,145854,128,0,145991:0:0:0:70:LN HS.wav
329,192,145991,128,0,146128:0:0:0:70:LN HS.wav
36,192,146128,1,0,1:0:0:0:
109,192,146128,1,8,0:0:0:0:
182,192,146128,1,0,1:0:0:0:
475,192,146128,128,0,146265:0:0:0:70:LN HS.wav
402,192,146265,128,0,146402:0:0:0:70:LN HS.wav
182,192,146402,1,0,1:0:0:0:
109,192,146402,1,8,0:0:0:0:
36,192,146402,1,0,1:0:0:0:
256,192,146402,128,0,146539:0:0:0:70:LN HS.wav
475,192,146539,128,0,146676:0:0:0:70:LN HS.wav
109,192,146676,1,8,0:0:0:0:
36,192,146676,1,0,1:0:0:0:
182,192,146676,1,0,1:0:0:0:
329,192,146676,128,0,146813:0:0:0:70:LN HS.wav
402,192,146813,128,0,146950:0:0:0:70:LN HS.wav
182,192,146950,1,0,1:0:0:0:
109,192,146950,1,8,0:0:0:0:
36,192,146950,1,0,1:0:0:0:
256,192,146950,128,0,147087:0:0:0:70:LN HS.wav
475,192,147087,128,0,147224:0:0:0:70:LN HS.wav
109,192,147224,1,8,0:0:0:0:
182,192,147224,1,0,1:0:0:0:
36,192,147224,1,0,1:0:0:0:
402,192,147224,128,0,147361:0:0:0:70:LN HS.wav
475,192,147361,128,0,147498:0:0:0:70:LN HS.wav
182,192,147498,1,0,1:0:0:0:
109,192,147498,1,8,0:0:0:0:
36,192,147498,1,0,1:0:0:0:
256,192,147498,128,0,147635:0:0:0:70:LN HS.wav
329,192,147635,128,0,147772:0:0:0:70:LN HS.wav
36,192,147772,1,0,1:0:0:0:
182,192,147772,1,0,1:0:0:0:
109,192,147772,1,8,0:0:0:0:
402,192,147772,128,0,147909:0:0:0:70:LN HS.wav
256,192,147909,128,0,148046:0:0:0:70:LN HS.wav
109,192,148046,1,8,0:0:0:0:
182,192,148046,1,0,1:0:0:0:
36,192,148046,1,0,1:0:0:0:
329,192,149142,128,0,149964:0:0:0:0:
36,192,149142,128,0,149964:0:0:0:0:
475,192,149964,128,0,150101:0:0:0:0:
256,192,149964,128,0,150101:0:0:0:0:
402,192,150101,128,0,150237:0:0:0:0:
182,192,150101,128,0,150237:0:0:0:0:
36,192,150237,128,0,150374:0:0:0:0:
109,192,150237,128,0,150374:0:0:0:0:
256,192,150374,128,0,150511:0:0:0:0:
329,192,150374,128,0,150511:0:0:0:0:
475,192,150511,128,0,150648:0:0:0:0:
182,192,150511,128,0,150648:0:0:0:0:
402,192,150648,128,0,150785:0:0:0:0:
109,192,150648,128,0,150785:0:0:0:0:
256,192,150785,128,0,150922:0:0:0:0:
36,192,150785,128,0,150922:0:0:0:0:
182,192,150922,128,0,151059:0:0:0:0:
475,192,150922,128,0,151059:0:0:0:0:
402,192,151059,128,0,151196:0:0:0:0:
109,192,151059,128,0,151196:0:0:0:0:
256,192,151196,128,0,151333:0:0:0:0:
36,192,151196,128,0,151333:0:0:0:0:
475,192,151333,128,0,151607:0:0:0:75:soft-hitnormal.wav
329,192,151470,128,0,151607:0:0:0:75:soft-hitnormal.wav
36,192,151607,128,0,151881:0:0:0:75:soft-hitnormal.wav
182,192,151744,128,0,151881:0:0:0:75:soft-hitnormal.wav
402,192,151881,128,0,152155:0:0:0:75:soft-hitnormal.wav
329,192,152018,128,0,152155:0:0:0:75:soft-hitnormal.wav
109,192,152155,128,0,152429:0:0:0:75:soft-hitnormal.wav
182,192,152292,128,0,152429:0:0:0:75:soft-hitnormal.wav
475,192,152429,128,0,152703:0:0:0:75:soft-hitnormal.wav
256,192,152566,128,0,152703:0:0:0:75:soft-hitnormal.wav
36,192,152703,128,0,152977:0:0:0:75:soft-hitnormal.wav
329,192,152840,128,0,152977:0:0:0:75:soft-hitnormal.wav
402,192,152977,128,0,153251:0:0:0:75:soft-hitnormal.wav
182,192,153114,128,0,153251:0:0:0:75:soft-hitnormal.wav
109,192,153251,128,0,153525:0:0:0:75:soft-hitnormal.wav
475,192,153388,128,0,153525:0:0:0:75:soft-hitnormal.wav
36,192,153525,128,0,154347:0:0:0:0:
182,192,153525,128,0,154347:0:0:0:0:
475,192,154347,128,0,154484:0:0:0:0:
329,192,154347,128,0,154484:0:0:0:0:
109,192,154484,128,0,154621:0:0:0:0:
402,192,154484,128,0,154621:0:0:0:0:
182,192,154621,128,0,154758:0:0:0:0:
36,192,154621,128,0,154758:0:0:0:0:
256,192,154758,128,0,154895:0:0:0:0:
109,192,154758,128,0,154895:0:0:0:0:
329,192,154895,128,0,155032:0:0:0:0:
475,192,154895,128,0,155032:0:0:0:0:
182,192,155032,128,0,155169:0:0:0:0:
36,192,155032,128,0,155169:0:0:0:0:
402,192,155169,128,0,155306:0:0:0:0:
109,192,155169,128,0,155306:0:0:0:0:
182,192,155306,128,0,155443:0:0:0:0:
475,192,155306,128,0,155443:0:0:0:0:
36,192,155443,128,0,155580:0:0:0:0:
256,192,155443,128,0,155580:0:0:0:0:
109,192,155580,128,0,155717:0:0:0:0:
329,192,155580,128,0,155717:0:0:0:0:
475,192,155717,128,0,155991:0:0:0:75:soft-hitnormal.wav
36,192,155854,128,0,155991:0:0:0:75:soft-hitnormal.wav
109,192,155991,128,0,156265:0:0:0:75:soft-hitnormal.wav
402,192,156128,128,0,156265:0:0:0:75:soft-hitnormal.wav
329,192,156265,128,0,156539:0:0:0:75:soft-hitnormal.wav
182,192,156402,128,0,156539:0:0:0:75:soft-hitnormal.wav
109,192,156539,128,0,156813:0:0:0:75:soft-hitnormal.wav
475,192,156676,128,0,156813:0:0:0:75:soft-hitnormal.wav
402,192,156813,128,0,157087:0:0:0:75:soft-hitnormal.wav
36,192,156950,128,0,157087:0:0:0:75:soft-hitnormal.wav
182,192,157087,128,0,157361:0:0:0:75:soft-hitnormal.wav
256,192,157224,128,0,157361:0:0:0:75:soft-hitnormal.wav
475,192,157361,128,0,157635:0:0:0:75:soft-hitnormal.wav
329,192,157498,128,0,157635:0:0:0:75:soft-hitnormal.wav
36,192,157635,128,0,157909:0:0:0:75:soft-hitnormal.wav
182,192,157772,128,0,157909:0:0:0:75:soft-hitnormal.wav
256,192,157909,1,0,0:0:0:0:
402,192,157909,1,0,0:0:0:0:
475,192,157909,1,0,0:0:0:0:
36,192,158046,1,0,0:0:0:0:
109,192,158114,1,0,0:0:0:0:
475,192,158183,1,0,0:0:0:0:
402,192,158183,1,0,0:0:0:0:
182,192,158183,1,0,0:0:0:0:
329,192,158320,1,0,0:0:0:0:
256,192,158320,1,0,0:0:0:0:
329,192,158594,1,0,0:0:0:0:
256,192,158594,1,0,0:0:0:0:
402,192,158731,1,0,0:0:0:0:
475,192,158731,1,0,0:0:0:0:
36,192,158868,1,0,0:0:0:0:
182,192,158868,1,0,0:0:0:0:
36,192,159005,1,0,0:0:0:0:
182,192,159005,1,0,0:0:0:0:
475,192,159142,1,0,0:0:0:0:
402,192,159210,1,0,0:0:0:0:
36,192,159279,1,0,0:0:0:0:
109,192,159279,1,0,0:0:0:0:
182,192,159416,1,0,0:0:0:0:
256,192,159416,1,0,0:0:0:0:
182,192,159690,1,0,0:0:0:0:
256,192,159690,1,0,0:0:0:0:
109,192,159827,1,0,0:0:0:0:
36,192,159827,1,0,0:0:0:0:
329,192,160101,1,0,0:0:0:0:
475,192,160101,1,0,0:0:0:0:
36,192,160237,1,0,0:0:0:0:
109,192,160306,1,0,0:0:0:0:
182,192,160374,1,0,0:0:0:0:
475,192,160374,1,0,0:0:0:0:
402,192,160374,1,0,0:0:0:0:
329,192,160511,1,0,0:0:0:0:
256,192,160511,1,0,0:0:0:0:
256,192,160785,1,0,0:0:0:0:
329,192,160785,1,0,0:0:0:0:
402,192,160922,1,0,0:0:0:0:
475,192,160922,1,0,0:0:0:0:
36,192,161059,1,0,0:0:0:0:
109,192,161128,1,0,0:0:0:0:
182,192,161196,1,0,0:0:0:0:
329,192,161196,1,0,0:0:0:0:
475,192,161196,1,0,0:0:0:0:
402,192,161333,1,0,0:0:0:0:
256,192,161333,1,0,0:0:0:0:
36,192,161470,1,2,3:0:0:0:
109,192,161505,1,2,3:0:0:0:
182,192,161539,1,2,3:0:0:0:
256,192,161573,1,2,3:0:0:0:
329,192,161607,1,2,3:0:0:0:
182,192,161744,1,0,0:0:0:0:
256,192,161744,1,0,0:0:0:0:
329,192,161881,1,0,0:0:0:0:
402,192,161881,1,0,0:0:0:0:
182,192,162018,1,0,0:0:0:0:
36,192,162018,1,0,0:0:0:0:
109,192,162155,1,0,0:0:0:0:
256,192,162155,1,0,0:0:0:0:
475,192,162292,1,0,0:0:0:0:
402,192,162292,1,0,0:0:0:0:
36,192,162429,1,0,0:0:0:0:
109,192,162498,1,0,0:0:0:0:
182,192,162566,1,0,0:0:0:0:
475,192,162566,1,0,0:0:0:0:
402,192,162566,1,0,0:0:0:0:
329,192,162703,1,0,0:0:0:0:
256,192,162703,1,0,0:0:0:0:
182,192,162840,1,0,0:0:0:0:
36,192,162840,1,0,0:0:0:0:
256,192,163114,1,0,0:0:0:0:
329,192,163114,1,0,0:0:0:0:
402,192,163251,1,0,0:0:0:0:
475,192,163251,1,0,0:0:0:0:
109,192,163388,1,0,0:0:0:0:
36,192,163388,1,0,0:0:0:0:
475,192,163525,1,0,0:0:0:0:
402,192,163594,1,0,0:0:0:0:
329,192,163662,1,0,0:0:0:0:
109,192,163662,1,0,0:0:0:0:
36,192,163662,1,0,0:0:0:0:
182,192,163799,1,0,0:0:0:0:
256,192,163799,1,0,0:0:0:0:
329,192,163936,1,0,0:0:0:0:
402,192,163936,1,0,0:0:0:0:
182,192,164073,1,0,0:0:0:0:
109,192,164073,1,0,0:0:0:0:
256,192,164210,1,0,0:0:0:0:
329,192,164210,1,0,0:0:0:0:
402,192,164347,1,0,0:0:0:0:
475,192,164347,1,0,0:0:0:0:
109,192,164484,1,0,0:0:0:0:
36,192,164484,1,0,0:0:0:0:
475,192,164621,1,0,0:0:0:0:
402,192,164690,1,0,0:0:0:0:
329,192,164758,1,0,0:0:0:0:
109,192,164758,1,0,0:0:0:0:
36,192,164758,1,0,0:0:0:0:
182,192,164895,1,0,0:0:0:0:
256,192,164895,1,0,0:0:0:0:
329,192,165032,1,0,0:0:0:0:
475,192,165032,1,0,0:0:0:0:
256,192,165169,1,0,0:0:0:0:
402,192,165169,1,0,0:0:0:0:
329,192,165306,1,0,0:0:0:0:
182,192,165306,1,0,0:0:0:0:
256,192,165443,1,0,0:0:0:0:
109,192,165443,1,0,0:0:0:0:
36,192,165580,1,0,0:0:0:0:
182,192,165580,1,0,0:0:0:0:
329,192,165717,1,0,0:0:0:0:
475,192,165717,1,0,0:0:0:0:
182,192,165854,1,0,0:0:0:0:
109,192,165854,1,0,0:0:0:0:
36,192,165854,1,0,0:0:0:0:
475,192,165991,1,0,0:0:0:0:
402,192,165991,1,0,0:0:0:0:
36,192,166128,1,0,0:0:0:0:
329,192,166128,1,0,0:0:0:0:
256,192,166265,1,0,0:0:0:0:
475,192,166402,1,0,0:0:0:0:
182,192,166402,1,0,0:0:0:0:
402,192,166539,1,0,0:0:0:0:
36,192,166676,1,0,0:0:0:0:
109,192,166676,1,0,0:0:0:0:
475,192,166813,1,0,0:0:0:0:
402,192,166881,1,0,0:0:0:0:
329,192,166950,1,0,0:0:0:0:
109,192,166950,1,0,0:0:0:0:
36,192,166950,1,0,0:0:0:0:
182,192,167087,1,0,0:0:0:0:
256,192,167087,1,0,0:0:0:0:
182,192,167361,1,0,0:0:0:0:
256,192,167361,1,0,0:0:0:0:
109,192,167498,1,0,0:0:0:0:
36,192,167498,1,0,0:0:0:0:
402,192,167635,1,0,0:0:0:0:
475,192,167635,1,0,0:0:0:0:
109,192,167772,1,0,0:0:0:0:
36,192,167772,1,0,0:0:0:0:
475,192,167909,1,0,0:0:0:0:
402,192,167977,1,0,0:0:0:0:
329,192,168046,1,0,0:0:0:0:
109,192,168046,1,0,0:0:0:0:
36,192,168046,1,0,0:0:0:0:
182,192,168183,1,0,0:0:0:0:
256,192,168183,1,0,0:0:0:0:
329,192,168457,1,0,0:0:0:0:
402,192,168457,1,0,0:0:0:0:
109,192,168594,1,0,0:0:0:0:
256,192,168594,1,0,0:0:0:0:
182,192,168868,1,0,0:0:0:0:
36,192,168868,1,0,0:0:0:0:
402,192,169005,1,0,0:0:0:0:
329,192,169073,1,0,0:0:0:0:
256,192,169142,1,0,0:0:0:0:
36,192,169142,1,0,0:0:0:0:
182,192,169142,1,0,0:0:0:0:
475,192,169279,1,0,0:0:0:0:
402,192,169279,1,0,0:0:0:0:
182,192,169553,1,0,0:0:0:0:
36,192,169553,1,0,0:0:0:0:
256,192,169690,5,0,0:0:0:0:
329,192,169690,1,0,0:0:0:0:
402,192,169827,1,0,0:0:0:0:
475,192,169827,1,0,0:0:0:0:
182,192,169964,1,0,0:0:0:0:
36,192,169964,1,0,0:0:0:0:
329,192,170101,1,0,0:0:0:0:
475,192,170101,1,0,0:0:0:0:
256,192,170237,1,0,0:0:0:0:
109,192,170237,1,0,0:0:0:0:
36,192,170237,1,0,0:0:0:0:
182,192,170374,1,0,0:0:0:0:
329,192,170374,1,0,0:0:0:0:
402,192,170511,1,0,0:0:0:0:
475,192,170511,1,0,0:0:0:0:
329,192,170648,1,0,0:0:0:0:
256,192,170648,1,0,0:0:0:0:
36,192,170785,5,2,3:0:0:0:
109,192,170808,1,2,3:0:0:0:
182,192,170831,1,2,3:0:0:0:
256,192,170854,1,2,3:0:0:0:
329,192,170877,1,2,3:0:0:0:
402,192,170900,1,2,3:0:0:0:
475,192,170922,1,2,3:0:0:0:
36,192,170945,1,2,3:0:0:0:
109,192,170968,1,2,3:0:0:0:
182,192,170991,1,2,3:0:0:0:
256,192,171014,1,2,3:0:0:0:
329,192,171037,1,2,3:0:0:0:
402,192,171059,1,2,3:0:0:0:
475,192,171059,1,2,3:0:0:0:
36,192,171128,1,0,0:0:0:0:
109,192,171196,1,0,0:0:0:0:
256,192,171265,1,0,0:0:0:0:
182,192,171333,1,0,0:0:0:0:
256,192,171402,1,0,0:0:0:0:
402,192,171470,1,0,0:0:0:0:
329,192,171539,1,0,0:0:0:0:
402,192,171607,1,0,0:0:0:0:
109,192,171607,1,0,0:0:0:0:
36,192,171676,1,0,0:0:0:0:
109,192,171744,1,0,0:0:0:0:
182,192,171813,1,0,0:0:0:0:
256,192,171881,1,0,0:0:0:0:
182,192,171950,1,0,0:0:0:0:
256,192,172018,1,0,0:0:0:0:
329,192,172087,1,0,0:0:0:0:
256,192,172155,1,0,0:0:0:0:
329,192,172224,1,0,0:0:0:0:
402,192,172292,1,0,0:0:0:0:
329,192,172361,1,0,0:0:0:0:
256,192,172429,1,0,0:0:0:0:
329,192,172498,1,0,0:0:0:0:
256,192,172566,1,0,0:0:0:0:
182,192,172635,1,0,0:0:0:0:
109,192,172703,1,0,0:0:0:0:
182,192,172772,1,0,0:0:0:0:
36,192,172840,1,0,0:0:0:0:
109,192,172909,1,0,0:0:0:0:
182,192,172977,1,0,0:0:0:0:
402,192,173046,1,0,0:0:0:0:
475,192,173114,1,0,0:0:0:0:
36,192,173183,1,0,0:0:0:0:
109,192,173251,128,2,173388:2:0:0:0:
256,192,173251,1,0,0:0:0:0:
182,192,173388,128,2,173525:2:0:0:0:
256,192,173388,1,0,0:0:0:0:
402,192,173525,128,2,173662:2:0:0:0:
256,192,173525,1,0,0:0:0:0:
329,192,173662,128,2,173799:2:0:0:0:
256,192,173662,1,0,0:0:0:0:
36,192,173799,128,2,173936:2:0:0:0:
256,192,173799,1,0,0:0:0:0:
182,192,173936,128,2,174073:2:0:0:0:
256,192,173936,1,0,0:0:0:0:
475,192,174073,128,2,174210:2:0:0:0:
256,192,174073,1,0,0:0:0:0:
329,192,174210,128,2,174347:2:0:0:0:
256,192,174210,1,0,0:0:0:0:
109,192,174347,128,2,174484:2:0:0:0:
256,192,174347,1,0,0:0:0:0:
182,192,174484,128,2,174621:2:0:0:0:
256,192,174484,1,0,0:0:0:0:
402,192,174621,128,2,174758:2:0:0:0:
256,192,174621,1,0,0:0:0:0:
329,192,174758,128,2,174895:2:0:0:0:
256,192,174758,1,0,0:0:0:0:
36,192,174895,128,2,175032:2:0:0:0:
256,192,174895,1,0,0:0:0:0:
182,192,175032,128,2,175169:2:0:0:0:
256,192,175032,1,0,0:0:0:0:
475,192,175169,128,2,175306:2:0:0:0:
256,192,175169,1,0,0:0:0:0:
329,192,175306,128,2,175443:2:0:0:0:
256,192,175306,1,0,0:0:0:0:
36,192,175443,1,0,1:0:0:0:
475,192,175443,1,2,2:0:0:0:
182,192,175443,1,0,0:0:0:0:
402,192,175443,1,0,1:0:0:0:
109,192,175511,1,0,0:0:0:0:
182,192,175580,1,0,0:0:0:0:
36,192,175580,1,2,2:0:0:0:
402,192,175648,1,0,0:0:0:0:
329,192,175717,1,0,0:0:0:0:
256,192,175717,1,2,2:0:0:0:
36,192,175717,1,8,0:0:0:0:
475,192,175717,1,8,0:0:0:0:
109,192,175785,1,0,0:0:0:0:
475,192,175854,1,0,0:0:0:0:
36,192,175854,1,2,2:0:0:0:
256,192,175922,1,0,0:0:0:0:
402,192,175991,1,0,1:0:0:0:
182,192,175991,1,2,2:0:0:0:
329,192,175991,1,0,1:0:0:0:
36,192,175991,1,0,0:0:0:0:
109,192,176059,1,0,0:0:0:0:
182,192,176128,1,0,0:0:0:0:
475,192,176128,1,2,2:0:0:0:
36,192,176128,1,8,0:0:0:0:
329,192,176128,1,8,0:0:0:0:
256,192,176196,1,0,0:0:0:0:
402,192,176265,1,2,2:0:0:0:
109,192,176265,1,0,1:0:0:0:
182,192,176265,1,0,1:0:0:0:
36,192,176402,1,2,0:0:0:0:
475,192,176539,1,0,1:0:0:0:
256,192,176539,1,2,0:0:0:0:
402,192,176539,1,0,1:0:0:0:
182,192,176539,1,0,0:0:0:0:
109,192,176607,1,0,0:0:0:0:
182,192,176676,1,2,0:0:0:0:
329,192,176676,1,0,0:0:0:0:
36,192,176744,1,0,0:0:0:0:
402,192,176813,1,8,0:0:0:0:
256,192,176813,1,2,0:0:0:0:
109,192,176813,1,0,0:0:0:0:
475,192,176813,1,8,0:0:0:0:
329,192,176881,1,0,0:0:0:0:
109,192,176950,1,0,0:0:0:0:
36,192,176950,1,2,0:0:0:0:
475,192,177018,1,0,0:0:0:0:
402,192,177087,1,2,0:0:0:0:
256,192,177087,1,0,0:0:0:0:
109,192,177087,1,0,1:0:0:0:
36,192,177087,1,0,1:0:0:0:
182,192,177155,1,0,0:0:0:0:
329,192,177224,1,0,0:0:0:0:
36,192,177224,1,2,0:0:0:0:
256,192,177224,1,8,0:0:0:0:
402,192,177224,1,8,0:0:0:0:
475,192,177292,1,0,0:0:0:0:
182,192,177361,1,2,0:0:0:0:
256,192,177361,1,0,1:0:0:0:
109,192,177361,1,0,1:0:0:0:
402,192,177498,1,2,0:0:0:0:
36,192,177498,1,0,1:0:0:0:
475,192,177498,1,0,1:0:0:0:
36,192,177635,1,2,0:0:0:0:
256,192,177635,1,0,1:0:0:0:
182,192,177635,1,0,1:0:0:0:
475,192,177635,1,0,0:0:0:0:
329,192,177703,1,0,0:0:0:0:
182,192,177772,1,2,0:0:0:0:
109,192,177772,1,0,0:0:0:0:
475,192,177840,1,0,0:0:0:0:
402,192,177909,1,0,0:0:0:0:
256,192,177909,1,2,0:0:0:0:
36,192,177909,1,8,0:0:0:0:
182,192,177909,1,8,0:0:0:0:
329,192,177977,1,0,0:0:0:0:
109,192,178046,1,0,0:0:0:0:
475,192,178046,1,2,0:0:0:0:
182,192,178114,1,0,0:0:0:0:
36,192,178183,1,2,0:0:0:0:
402,192,178183,1,0,0:0:0:0:
256,192,178183,1,0,1:0:0:0:
475,192,178183,1,0,1:0:0:0:
329,192,178251,1,0,0:0:0:0:
182,192,178320,1,2,0:0:0:0:
109,192,178320,1,0,0:0:0:0:
402,192,178320,1,8,0:0:0:0:
256,192,178320,1,8,0:0:0:0:
475,192,178388,1,0,0:0:0:0:
256,192,178457,1,2,0:0:0:0:
182,192,178457,1,0,1:0:0:0:
36,192,178457,1,0,1:0:0:0:
402,192,178594,1,2,0:0:0:0:
36,192,178731,1,0,0:0:0:0:
182,192,178731,1,2,0:0:0:0:
475,192,178731,1,0,1:0:0:0:
256,192,178731,1,0,1:0:0:0:
329,192,178799,1,0,0:0:0:0:
109,192,178868,1,0,0:0:0:0:
256,192,178868,1,2,0:0:0:0:
475,192,178936,1,0,0:0:0:0:
402,192,179005,1,2,0:0:0:0:
36,192,179005,1,8,0:0:0:0:
329,192,179005,1,0,0:0:0:0:
109,192,179005,1,8,0:0:0:0:
182,192,179073,1,0,0:0:0:0:
329,192,179142,1,0,0:0:0:0:
109,192,179142,1,2,0:0:0:0:
36,192,179210,1,0,0:0:0:0:
182,192,179279,1,2,0:0:0:0:
475,192,179279,1,0,0:0:0:0:
109,192,179279,1,0,1:0:0:0:
402,192,179279,1,0,1:0:0:0:
329,192,179347,1,0,0:0:0:0:
256,192,179416,1,0,0:0:0:0:
402,192,179416,1,2,0:0:0:0:
36,192,179416,1,8,0:0:0:0:
182,192,179416,1,8,0:0:0:0:
475,192,179484,1,0,0:0:0:0:
329,192,179553,1,2,0:0:0:0:
109,192,179553,1,0,1:0:0:0:
182,192,179553,1,0,1:0:0:0:
36,192,179690,1,2,0:0:0:0:
256,192,179690,1,0,1:0:0:0:
475,192,179690,1,0,1:0:0:0:
402,192,179827,1,0,0:0:0:0:
182,192,179827,1,2,0:0:0:0:
329,192,179827,1,0,1:0:0:0:
36,192,179827,1,0,1:0:0:0:
109,192,179895,1,0,0:0:0:0:
256,192,179964,1,2,0:0:0:0:
475,192,179964,1,0,0:0:0:0:
36,192,180032,1,0,0:0:0:0:
329,192,180101,1,8,0:0:0:0:
109,192,180101,1,2,0:0:0:0:
402,192,180101,1,0,0:0:0:0:
475,192,180101,1,8,0:0:0:0:
182,192,180169,1,0,0:0:0:0:
475,192,180237,1,2,0:0:0:0:
256,192,180237,1,0,0:0:0:0:
402,192,180306,1,0,0:0:0:0:
329,192,180374,1,2,0:0:0:0:
36,192,180374,1,0,0:0:0:0:
182,192,180374,1,0,1:0:0:0:
475,192,180374,1,0,1:0:0:0:
109,192,180443,1,0,0:0:0:0:
329,192,180511,1,0,0:0:0:0:
182,192,180511,1,2,0:0:0:0:
402,192,180511,1,8,0:0:0:0:
36,192,180511,1,8,0:0:0:0:
475,192,180580,1,0,0:0:0:0:
256,192,180648,1,2,0:0:0:0:
109,192,180648,1,0,1:0:0:0:
329,192,180648,1,0,1:0:0:0:
402,192,180785,1,2,0:0:0:0:
36,192,180922,1,2,0:0:0:0:
475,192,180922,1,0,0:0:0:0:
329,192,180922,1,0,1:0:0:0:
182,192,180922,1,0,1:0:0:0:
256,192,180991,1,0,0:0:0:0:
109,192,181059,1,0,0:0:0:0:
329,192,181059,1,2,0:0:0:0:
475,192,181128,1,0,0:0:0:0:
402,192,181196,1,2,0:0:0:0:
182,192,181196,1,0,0:0:0:0:
36,192,181196,1,8,0:0:0:0:
329,192,181196,1,8,0:0:0:0:
256,192,181265,1,0,0:0:0:0:
329,192,181333,1,0,0:0:0:0:
109,192,181333,1,2,0:0:0:0:
36,192,181402,1,0,0:0:0:0:
109,192,181470,1,0,1:0:0:0:
475,192,181470,1,2,0:0:0:0:
256,192,181470,1,0,0:0:0:0:
402,192,181470,1,0,1:0:0:0:
182,192,181539,1,0,0:0:0:0:
402,192,181607,1,0,0:0:0:0:
36,192,181607,1,2,0:0:0:0:
329,192,181607,1,8,0:0:0:0:
109,192,181607,1,8,0:0:0:0:
256,192,181676,1,0,0:0:0:0:
182,192,181744,1,2,0:0:0:0:
402,192,181744,1,0,1:0:0:0:
475,192,181744,1,0,1:0:0:0:
329,192,181881,1,2,0:0:0:0:
36,192,181881,1,0,1:0:0:0:
256,192,181881,1,0,1:0:0:0:
475,192,182018,1,2,0:0:0:0:
109,192,182018,1,0,0:0:0:0:
182,192,182018,1,0,1:0:0:0:
329,192,182018,1,0,1:0:0:0:
36,192,182087,1,0,0:0:0:0:
182,192,182155,1,2,0:0:0:0:
329,192,182155,1,0,0:0:0:0:
402,192,182224,1,0,0:0:0:0:
109,192,182292,1,2,0:0:0:0:
475,192,182292,1,0,0:0:0:0:
36,192,182292,1,8,0:0:0:0:
256,192,182292,1,8,0:0:0:0:
182,192,182361,1,0,0:0:0:0:
329,192,182429,1,0,0:0:0:0:
256,192,182429,1,2,0:0:0:0:
36,192,182498,1,0,0:0:0:0:
475,192,182566,1,0,0:0:0:0:
109,192,182566,1,2,0:0:0:0:
182,192,182566,1,0,1:0:0:0:
329,192,182566,1,0,1:0:0:0:
402,192,182635,1,0,0:0:0:0:
256,192,182703,1,2,0:0:0:0:
36,192,182703,1,8,0:0:0:0:
329,192,182703,1,8,0:0:0:0:
109,192,182703,1,0,0:0:0:0:
182,192,182772,1,0,0:0:0:0:
329,192,182840,1,2,0:0:0:0:
402,192,182840,1,0,1:0:0:0:
475,192,182840,1,0,1:0:0:0:
402,192,182977,1,2,0:0:0:0:
475,192,183114,1,0,1:0:0:0:
109,192,183114,1,2,0:0:0:0:
256,192,183114,1,0,1:0:0:0:
36,192,183114,1,0,1:0:0:0:
329,192,183183,1,0,0:0:0:0:
256,192,183251,1,2,0:0:0:0:
182,192,183251,1,0,1:0:0:0:
402,192,183251,1,0,1:0:0:0:
475,192,183251,1,0,0:0:0:0:
36,192,183320,1,0,0:0:0:0:
475,192,183388,1,2,0:0:0:0:
329,192,183388,1,8,0:0:0:0:
109,192,183388,1,8,0:0:0:0:
402,192,183388,1,0,0:0:0:0:
182,192,183457,1,0,0:0:0:0:
329,192,183525,1,2,0:0:0:0:
256,192,183525,1,0,1:0:0:0:
36,192,183525,1,0,0:0:0:0:
109,192,183525,1,0,1:0:0:0:
402,192,183594,1,0,0:0:0:0:
109,192,183662,1,2,0:0:0:0:
36,192,183662,1,0,0:0:0:0:
256,192,183662,1,0,1:0:0:0:
475,192,183662,1,0,1:0:0:0:
182,192,183731,1,0,0:0:0:0:
402,192,183799,1,0,0:0:0:0:
256,192,183799,1,2,0:0:0:0:
109,192,183799,1,0,1:0:0:0:
329,192,183868,1,0,0:0:0:0:
182,192,183868,1,0,1:0:0:0:
475,192,183936,1,2,0:0:0:0:
36,192,183936,1,0,1:0:0:0:
256,192,183936,1,0,1:0:0:0:
402,192,184073,1,2,0:0:0:0:
182,192,184073,1,0,1:0:0:0:
109,192,184073,1,0,1:0:0:0:
109,192,184210,1,0,0:0:0:0:
329,192,184210,1,2,0:0:0:0:
475,192,184210,1,0,1:0:0:0:
256,192,184210,1,0,1:0:0:0:
256,192,184347,1,0,0:0:0:0:
36,192,184347,1,2,0:0:0:0:
475,192,184416,1,0,0:0:0:0:
329,192,184484,1,0,0:0:0:0:
182,192,184484,1,2,0:0:0:0:
36,192,184484,1,8,0:0:0:0:
402,192,184484,1,8,0:0:0:0:
109,192,184553,1,0,0:0:0:0:
402,192,184621,1,0,0:0:0:0:
256,192,184621,1,2,0:0:0:0:
329,192,184690,1,0,0:0:0:0:
182,192,184758,1,2,0:0:0:0:
475,192,184758,1,0,0:0:0:0:
109,192,184758,1,0,1:0:0:0:
36,192,184827,1,0,0:0:0:0:
256,192,184895,1,0,0:0:0:0:
329,192,184895,1,2,0:0:0:0:
475,192,184895,1,8,0:0:0:0:
182,192,184895,1,8,0:0:0:0:
402,192,184964,1,0,0:0:0:0:
109,192,185032,1,2,0:0:0:0:
36,192,185032,1,0,1:0:0:0:
182,192,185169,1,0,0:0:0:0:
36,192,185306,1,0,0:0:0:0:
329,192,185306,1,2,0:0:0:0:
402,192,185306,1,0,1:0:0:0:
475,192,185443,1,0,0:0:0:0:
256,192,185443,1,2,0:0:0:0:
402,192,185511,1,0,0:0:0:0:
109,192,185580,1,2,0:0:0:0:
36,192,185580,1,0,0:0:0:0:
182,192,185580,1,8,0:0:0:0:
475,192,185580,1,8,0:0:0:0:
329,192,185648,1,0,0:0:0:0:
182,192,185717,1,0,0:0:0:0:
256,192,185717,1,2,0:0:0:0:
475,192,185785,1,0,0:0:0:0:
402,192,185854,1,2,0:0:0:0:
36,192,185854,1,0,0:0:0:0:
109,192,185854,1,0,1:0:0:0:
256,192,185922,1,0,0:0:0:0:
329,192,185991,1,0,0:0:0:0:
182,192,185991,1,2,0:0:0:0:
475,192,185991,1,8,0:0:0:0:
402,192,185991,1,8,0:0:0:0:
109,192,186059,1,0,0:0:0:0:
256,192,186128,1,2,0:0:0:0:
36,192,186128,1,0,1:0:0:0:
402,192,186265,1,2,0:0:0:0:
182,192,186265,1,0,1:0:0:0:
36,192,186402,1,0,0:0:0:0:
109,192,186402,1,2,0:0:0:0:
475,192,186402,1,0,1:0:0:0:
329,192,186470,1,0,0:0:0:0:
256,192,186539,1,2,0:0:0:0:
402,192,186539,1,0,0:0:0:0:
475,192,186607,1,0,0:0:0:0:
109,192,186676,1,2,0:0:0:0:
36,192,186676,1,0,0:0:0:0:
402,192,186676,1,8,0:0:0:0:
182,192,186676,1,8,0:0:0:0:
256,192,186744,1,0,0:0:0:0:
329,192,186813,1,0,0:0:0:0:
475,192,186813,1,2,0:0:0:0:
182,192,186881,1,0,0:0:0:0:
402,192,186950,1,2,0:0:0:0:
109,192,186950,1,0,0:0:0:0:
36,192,186950,1,0,1:0:0:0:
329,192,187018,1,0,0:0:0:0:
475,192,187087,1,0,0:0:0:0:
182,192,187087,1,2,0:0:0:0:
256,192,187087,1,8,0:0:0:0:
402,192,187087,1,8,0:0:0:0:
36,192,187155,1,0,0:0:0:0:
402,192,187224,1,2,0:0:0:0:
109,192,187224,1,0,1:0:0:0:
256,192,187361,1,2,0:0:0:0:
109,192,187498,1,0,0:0:0:0:
329,192,187498,1,2,0:0:0:0:
475,192,187498,1,0,1:0:0:0:
402,192,187566,1,0,0:0:0:0:
36,192,187635,1,2,0:0:0:0:
256,192,187635,1,0,0:0:0:0:
182,192,187703,1,0,0:0:0:0:
329,192,187772,1,2,0:0:0:0:
109,192,187772,1,0,0:0:0:0:
402,192,187772,1,8,0:0:0:0:
36,192,187772,1,8,0:0:0:0:
475,192,187840,1,0,0:0:0:0:
109,192,187909,1,2,0:0:0:0:
256,192,187909,1,0,0:0:0:0:
402,192,187977,1,0,0:0:0:0:
475,192,188046,1,0,0:0:0:0:
182,192,188046,1,2,0:0:0:0:
329,192,188046,1,0,1:0:0:0:
36,192,188114,1,0,0:0:0:0:
256,192,188183,1,2,0:0:0:0:
109,192,188183,1,0,0:0:0:0:
475,192,188183,1,8,0:0:0:0:
402,192,188183,1,8,0:0:0:0:
329,192,188251,1,0,0:0:0:0:
182,192,188320,1,2,0:0:0:0:
36,192,188320,1,0,1:0:0:0:
475,192,188457,1,2,0:0:0:0:
256,192,188457,1,0,1:0:0:0:
109,192,188594,1,0,0:0:0:0:
329,192,188594,1,2,0:0:0:0:
36,192,188594,1,0,1:0:0:0:
475,192,188731,1,0,0:0:0:0:
182,192,188731,1,2,0:0:0:0:
402,192,188799,1,0,0:0:0:0:
329,192,188868,1,2,0:0:0:0:
36,192,188868,1,0,0:0:0:0:
256,192,188868,1,8,0:0:0:0:
109,192,188868,1,8,0:0:0:0:
475,192,188936,1,0,0:0:0:0:
402,192,189005,1,2,0:0:0:0:
182,192,189005,1,0,0:0:0:0:
329,192,189073,1,0,0:0:0:0:
256,192,189142,1,2,0:0:0:0:
402,192,189142,1,0,0:0:0:0:
109,192,189142,1,0,1:0:0:0:
36,192,189210,1,0,0:0:0:0:
109,192,189279,1,0,0:0:0:0:
329,192,189279,1,2,0:0:0:0:
475,192,189279,1,8,0:0:0:0:
182,192,189279,1,8,0:0:0:0:
256,192,189347,1,0,0:0:0:0:
182,192,189416,1,2,0:0:0:0:
402,192,189416,1,0,1:0:0:0:
36,192,189553,1,2,0:0:0:0:
475,192,189690,1,0,0:0:0:0:
182,192,189690,1,2,0:0:0:0:
109,192,189690,1,0,1:0:0:0:
329,192,189758,1,0,0:0:0:0:
402,192,189827,1,2,0:0:0:0:
109,192,189895,1,0,0:0:0:0:
256,192,189964,1,2,0:0:0:0:
475,192,189964,1,8,0:0:0:0:
402,192,189964,1,8,0:0:0:0:
182,192,189964,1,0,0:0:0:0:
36,192,190032,1,0,0:0:0:0:
182,192,190101,1,0,0:0:0:0:
329,192,190101,1,2,0:0:0:0:
402,192,190169,1,0,0:0:0:0:
109,192,190237,1,2,0:0:0:0:
256,192,190237,1,0,0:0:0:0:
329,192,190237,1,0,1:0:0:0:
475,192,190306,1,0,0:0:0:0:
402,192,190374,1,2,0:0:0:0:
36,192,190374,1,0,0:0:0:0:
182,192,190374,1,8,0:0:0:0:
329,192,190374,1,8,0:0:0:0:
256,192,190443,1,0,0:0:0:0:
109,192,190511,1,2,0:0:0:0:
475,192,190511,1,0,1:0:0:0:
402,192,190648,1,2,0:0:0:0:
182,192,190648,1,0,1:0:0:0:
36,192,190785,1,0,0:0:0:0:
256,192,190785,1,2,0:0:0:0:
475,192,190785,1,0,1:0:0:0:
329,192,190854,1,0,0:0:0:0:
109,192,190922,1,2,0:0:0:0:
182,192,190922,1,0,0:0:0:0:
475,192,190991,1,0,0:0:0:0:
402,192,191059,1,2,0:0:0:0:
36,192,191059,1,0,0:0:0:0:
109,192,191059,1,8,0:0:0:0:
329,192,191059,1,8,0:0:0:0:
256,192,191128,1,0,0:0:0:0:
402,192,191196,1,0,0:0:0:0:
182,192,191196,1,2,0:0:0:0:
109,192,191265,1,0,0:0:0:0:
256,192,191333,1,2,0:0:0:0:
475,192,191333,1,0,0:0:0:0:
182,192,191333,1,0,1:0:0:0:
329,192,191402,1,0,0:0:0:0:
36,192,191470,1,0,0:0:0:0:
402,192,191470,1,2,0:0:0:0:
256,192,191470,1,8,0:0:0:0:
109,192,191470,1,8,0:0:0:0:
182,192,191539,1,0,0:0:0:0:
329,192,191607,1,2,0:0:0:0:
475,192,191607,1,0,1:0:0:0:
109,192,191744,5,2,0:0:0:0:
475,192,191881,5,0,1:0:0:0:
256,192,191881,1,2,0:0:0:0:
329,192,191881,1,0,1:0:0:0:
182,192,191950,1,0,0:0:0:0:
402,192,192018,1,2,0:0:0:0:
36,192,192018,1,0,1:0:0:0:
109,192,192018,1,0,1:0:0:0:
256,192,192018,1,0,0:0:0:0:
329,192,192087,1,0,0:0:0:0:
109,192,192155,1,0,1:0:0:0:
256,192,192155,1,2,0:0:0:0:
475,192,192155,1,0,0:0:0:0:
182,192,192155,1,0,1:0:0:0:
36,192,192224,1,0,0:0:0:0:
475,192,192292,1,2,0:0:0:0:
402,192,192292,1,0,1:0:0:0:
329,192,192292,1,0,1:0:0:0:
109,192,192292,1,0,0:0:0:0:
182,192,192361,1,0,0:0:0:0:
329,192,192429,1,0,1:0:0:0:
36,192,192429,1,2,0:0:0:0:
256,192,192429,1,0,1:0:0:0:
475,192,192429,1,0,0:0:0:0:
109,192,192498,1,0,0:0:0:0:
182,192,192566,1,2,0:0:0:0:
256,192,192566,1,0,1:0:0:0:
36,192,192566,1,0,0:0:0:0:
475,192,192566,1,0,1:0:0:0:
402,192,192635,1,0,1:0:0:0:
329,192,192635,1,0,1:0:0:0:
109,192,192703,1,2,0:0:0:0:
182,192,192703,1,0,0:0:0:0:
36,192,192703,1,0,1:0:0:0:
475,192,192840,1,2,0:0:0:0:
256,192,192840,1,0,1:0:0:0:
329,192,192840,1,0,1:0:0:0:
36,192,192977,1,0,0:0:0:0:
109,192,193046,1,0,0:0:0:0:
475,192,193114,1,0,0:0:0:0:
402,192,193183,1,0,0:0:0:0:
109,192,193251,1,0,0:0:0:0:
182,192,193320,1,0,0:0:0:0:
402,192,193388,1,0,0:0:0:0:
329,192,193457,1,0,0:0:0:0:
36,192,193525,1,0,0:0:0:0:
109,192,193594,1,0,0:0:0:0:
182,192,193662,1,0,0:0:0:0:
256,192,193731,1,0,0:0:0:0:
475,192,193799,1,0,0:0:0:0:
402,192,193868,1,0,0:0:0:0:
329,192,193936,1,0,0:0:0:0:
256,192,194005,1,0,0:0:0:0:
36,192,194073,1,0,0:0:0:0:
109,192,194142,1,0,0:0:0:0:
475,192,194210,1,0,0:0:0:0:
402,192,194279,1,0,0:0:0:0:
109,192,194347,1,0,0:0:0:0:
182,192,194416,1,0,0:0:0:0:
402,192,194484,1,0,0:0:0:0:
329,192,194553,1,0,0:0:0:0:
475,192,194621,1,0,0:0:0:0:
402,192,194690,1,0,0:0:0:0:
329,192,194758,1,0,0:0:0:0:
256,192,194827,1,0,0:0:0:0:
36,192,194895,1,0,0:0:0:0:
109,192,194964,1,0,0:0:0:0:
182,192,195032,1,0,0:0:0:0:
256,192,195101,1,0,0:0:0:0:
36,192,195169,1,0,0:0:0:0:
109,192,195237,1,0,0:0:0:0:
475,192,195306,1,0,0:0:0:0:
402,192,195374,1,0,0:0:0:0:
109,192,195443,1,0,0:0:0:0:
182,192,195511,1,0,0:0:0:0:
402,192,195580,1,0,0:0:0:0:
329,192,195648,1,0,0:0:0:0:
36,192,195717,1,0,0:0:0:0:
109,192,195785,1,0,0:0:0:0:
182,192,195854,1,0,0:0:0:0:
256,192,195922,1,0,0:0:0:0:
475,192,195991,1,0,0:0:0:0:
402,192,196059,1,0,0:0:0:0:
329,192,196128,1,0,0:0:0:0:
256,192,196196,1,0,0:0:0:0:
36,192,196265,1,0,0:0:0:0:
109,192,196333,1,0,0:0:0:0:
475,192,196402,1,0,0:0:0:0:
402,192,196470,1,0,0:0:0:0:
109,192,196539,1,0,0:0:0:0:
182,192,196607,1,0,0:0:0:0:
402,192,196676,1,0,0:0:0:0:
329,192,196744,1,0,0:0:0:0:
475,192,196813,1,0,0:0:0:0:
402,192,196881,1,0,0:0:0:0:
329,192,196950,1,0,0:0:0:0:
256,192,197018,1,0,0:0:0:0:
36,192,197087,1,0,0:0:0:0:
109,192,197155,1,0,0:0:0:0:
182,192,197224,1,0,0:0:0:0:
256,192,197292,1,0,0:0:0:0:
36,192,197361,1,0,0:0:0:0:
109,192,197429,1,0,0:0:0:0:
475,192,197498,1,0,0:0:0:0:
402,192,197566,1,0,0:0:0:0:
109,192,197635,1,0,0:0:0:0:
182,192,197703,1,0,0:0:0:0:
402,192,197772,1,0,0:0:0:0:
329,192,197840,1,0,0:0:0:0:
36,192,197909,1,0,0:0:0:0:
109,192,197977,1,0,0:0:0:0:
182,192,198046,1,0,0:0:0:0:
256,192,198114,1,0,0:0:0:0:
475,192,198183,1,0,0:0:0:0:
402,192,198251,1,0,0:0:0:0:
329,192,198320,1,0,0:0:0:0:
256,192,198388,1,0,0:0:0:0:
36,192,198457,1,0,0:0:0:0:
109,192,198525,1,0,0:0:0:0:
475,192,198594,1,0,0:0:0:0:
402,192,198662,1,0,0:0:0:0:
109,192,198731,1,0,0:0:0:0:
182,192,198799,1,0,0:0:0:0:
402,192,198868,1,0,0:0:0:0:
329,192,198936,1,0,0:0:0:0:
475,192,199005,1,0,0:0:0:0:
402,192,199073,1,0,0:0:0:0:
329,192,199142,1,0,0:0:0:0:
256,192,199210,1,0,0:0:0:0:
36,192,199279,1,0,0:0:0:0:
109,192,199347,1,0,0:0:0:0:
182,192,199416,1,0,0:0:0:0:
256,192,199484,1,0,0:0:0:0:
36,192,199553,1,0,0:0:0:0:
109,192,199621,1,0,0:0:0:0:
475,192,199690,1,0,0:0:0:0:
402,192,199758,1,0,0:0:0:0:
109,192,199827,1,0,0:0:0:0:
182,192,199895,1,0,0:0:0:0:
402,192,199964,1,0,0:0:0:0:
329,192,200032,1,0,0:0:0:0:
36,192,200101,1,0,0:0:0:0:
109,192,200169,1,0,0:0:0:0:
182,192,200237,1,0,0:0:0:0:
256,192,200306,1,0,0:0:0:0:
475,192,200374,1,0,0:0:0:0:
402,192,200443,1,0,0:0:0:0:
329,192,200511,1,0,0:0:0:0:
256,192,200580,1,0,0:0:0:0:
36,192,200648,1,0,0:0:0:0:
109,192,200717,1,0,0:0:0:0:
475,192,200785,1,0,0:0:0:0:
402,192,200854,1,0,0:0:0:0:
109,192,200922,1,0,0:0:0:0:
182,192,200991,1,0,0:0:0:0:
402,192,201059,1,0,0:0:0:0:
329,192,201128,1,0,0:0:0:0:
475,192,201196,1,0,0:0:0:0:
402,192,201265,1,0,0:0:0:0:
329,192,201333,1,0,0:0:0:0:
256,192,201402,1,0,0:0:0:0:
36,192,201470,1,0,0:0:0:0:
109,192,201539,1,0,0:0:0:0:
182,192,201607,1,0,0:0:0:0:
256,192,201676,1,0,0:0:0:0:
36,192,201744,1,0,0:0:0:0:
182,192,201813,1,0,0:0:0:0:
475,192,201881,1,0,0:0:0:0:
329,192,201950,1,0,0:0:0:0:
36,192,202018,1,0,0:0:0:0:
182,192,202087,1,0,0:0:0:0:
475,192,202155,1,0,0:0:0:0:
329,192,202224,1,0,0:0:0:0:
36,192,202292,1,0,0:0:0:0:
109,192,202361,1,0,0:0:0:0:
182,192,202429,1,0,0:0:0:0:
256,192,202498,1,0,0:0:0:0:
475,192,202566,1,0,0:0:0:0:
402,192,202635,1,0,0:0:0:0:
329,192,202703,1,0,0:0:0:0:
256,192,202772,1,0,0:0:0:0:
36,192,202840,1,0,0:0:0:0:
182,192,202909,1,0,0:0:0:0:
475,192,202977,1,0,0:0:0:0:
329,192,203046,1,0,0:0:0:0:
36,192,203114,1,0,0:0:0:0:
182,192,203183,1,0,0:0:0:0:
475,192,203251,1,0,0:0:0:0:
329,192,203320,1,0,0:0:0:0:
475,192,203388,1,0,0:0:0:0:
402,192,203457,1,0,0:0:0:0:
329,192,203525,1,0,0:0:0:0:
256,192,203594,1,0,0:0:0:0:
36,192,203662,1,0,0:0:0:0:
109,192,203731,1,0,0:0:0:0:
182,192,203799,1,0,0:0:0:0:
256,192,203868,1,0,0:0:0:0:
36,192,203936,1,0,0:0:0:0:
182,192,204005,1,0,0:0:0:0:
475,192,204073,1,0,0:0:0:0:
329,192,204142,1,0,0:0:0:0:
36,192,204210,1,0,0:0:0:0:
182,192,204279,1,0,0:0:0:0:
475,192,204347,1,0,0:0:0:0:
329,192,204416,1,0,0:0:0:0:
36,192,204484,1,0,0:0:0:0:
109,192,204553,1,0,0:0:0:0:
182,192,204621,1,0,0:0:0:0:
256,192,204690,1,0,0:0:0:0:
475,192,204758,1,0,0:0:0:0:
402,192,204827,1,0,0:0:0:0:
329,192,204895,1,0,0:0:0:0:
256,192,204964,1,0,0:0:0:0:
36,192,205032,1,0,0:0:0:0:
182,192,205101,1,0,0:0:0:0:
475,192,205169,1,0,0:0:0:0:
329,192,205237,1,0,0:0:0:0:
36,192,205306,1,0,0:0:0:0:
182,192,205374,1,0,0:0:0:0:
475,192,205443,1,0,0:0:0:0:
329,192,205511,1,0,0:0:0:0:
475,192,205580,1,0,0:0:0:0:
402,192,205648,1,0,0:0:0:0:
329,192,205717,1,0,0:0:0:0:
256,192,205785,1,0,0:0:0:0:
36,192,205854,1,0,0:0:0:0:
109,192,205922,1,0,0:0:0:0:
182,192,205991,1,0,0:0:0:0:
256,192,206059,1,0,0:0:0:0:
36,192,206128,1,0,0:0:0:0:
182,192,206196,1,0,0:0:0:0:
475,192,206265,1,0,0:0:0:0:
329,192,206333,1,0,0:0:0:0:
36,192,206402,1,0,0:0:0:0:
182,192,206470,1,0,0:0:0:0:
475,192,206539,1,0,0:0:0:0:
329,192,206607,1,0,0:0:0:0:
36,192,206676,1,0,0:0:0:0:
109,192,206744,1,0,0:0:0:0:
182,192,206813,1,0,0:0:0:0:
256,192,206881,1,0,0:0:0:0:
475,192,206950,1,0,0:0:0:0:
402,192,207018,1,0,0:0:0:0:
329,192,207087,1,0,0:0:0:0:
256,192,207155,1,0,0:0:0:0:
36,192,207224,1,0,0:0:0:0:
182,192,207292,1,0,0:0:0:0:
475,192,207361,1,0,0:0:0:0:
329,192,207429,1,0,0:0:0:0:
36,192,207498,1,0,0:0:0:0:
182,192,207566,1,0,0:0:0:0:
475,192,207635,1,0,0:0:0:0:
329,192,207703,1,0,0:0:0:0:
475,192,207772,1,0,0:0:0:0:
402,192,207840,1,0,0:0:0:0:
329,192,207909,1,0,0:0:0:0:
256,192,207977,1,0,0:0:0:0:
36,192,208046,1,0,0:0:0:0:
109,192,208114,1,0,0:0:0:0:
182,192,208183,1,0,0:0:0:0:
256,192,208251,1,0,0:0:0:0:
36,192,208320,1,0,0:0:0:0:
182,192,208388,1,0,0:0:0:0:
475,192,208457,1,0,0:0:0:0:
329,192,208525,1,0,0:0:0:0:
36,192,208594,1,0,0:0:0:0:
182,192,208662,1,0,0:0:0:0:
475,192,208731,1,0,0:0:0:0:
329,192,208799,1,0,0:0:0:0:
36,192,208868,1,0,0:0:0:0:
109,192,208936,1,0,0:0:0:0:
182,192,209005,1,0,0:0:0:0:
256,192,209073,1,0,0:0:0:0:
475,192,209142,1,0,0:0:0:0:
402,192,209210,1,0,0:0:0:0:
329,192,209279,1,0,0:0:0:0:
256,192,209347,1,0,0:0:0:0:
36,192,209416,1,0,0:0:0:0:
182,192,209484,1,0,0:0:0:0:
475,192,209553,1,0,0:0:0:0:
329,192,209621,1,0,0:0:0:0:
36,192,209690,1,0,0:0:0:0:
182,192,209758,1,0,0:0:0:0:
475,192,209827,1,0,0:0:0:0:
329,192,209895,1,0,0:0:0:0:
475,192,209964,1,0,0:0:0:0:
402,192,210032,1,0,0:0:0:0:
329,192,210101,1,0,0:0:0:0:
256,192,210169,1,0,0:0:0:0:
182,192,210237,1,2,3:0:0:0:
109,192,210237,1,2,3:0:0:0:
36,192,210237,1,2,3:0:0:0:
329,192,210237,1,2,3:0:0:0:
402,192,210237,1,2,3:0:0:0:
475,192,210237,1,2,3:0:0:0:
