osu file format v14

[General]
AudioFilename: audio.mp3
AudioLeadIn: 0
PreviewTime: 79088
Countdown: 0
SampleSet: Normal
StackLeniency: 0.7
Mode: 1
LetterboxInBreaks: 0
WidescreenStoryboard: 1

[Editor]
Bookmarks: 61553,96485
DistanceSpacing: 0.9
BeatDivisor: 4
GridSize: 32
TimelineZoom: 2.1

[Metadata]
Title:toromi hearts 2
TitleUnicode:toromi hearts 2
Artist:goreshit
ArtistUnicode:goreshit
Creator:Horiiizon
Version:futsuu
Source:
Tags:my love feels all wrong. lolicore breakcore electronic instrumental
BeatmapID:4207261
BeatmapSetID:2020210

[Difficulty]
HPDrainRate:7
CircleSize:5
OverallDifficulty:4
ApproachRate:5
SliderMultiplier:1.4
SliderTickRate:1

[Events]
//Background and Video events
0,0,"love.png",0,-80
//Break Periods
//Storyboard Layer 0 (Background)
//Storyboard Layer 1 (Fail)
//Storyboard Layer 2 (Pass)
//Storyboard Layer 3 (Foreground)
//Storyboard Layer 4 (Overlay)
//Storyboard Sound Samples

[TimingPoints]
184,273.972602739726,4,1,0,100,1,0
79088,-100,4,1,0,100,0,1
95526,-100,4,1,0,100,0,0
131690,-100,4,1,0,100,0,1
148129,-100,4,1,0,100,0,0

[HitObjects]
144,254,8951,5,0,0:0:0:0:
148,224,9225,1,0,0:0:0:0:
148,224,9362,1,8,0:0:0:0:
151,226,9636,1,8,0:0:0:0:
135,242,10047,1,0,0:0:0:0:
155,243,10184,1,8,0:0:0:0:
146,284,10320,1,0,0:0:0:0:
157,213,10594,1,0,0:0:0:0:
137,223,10731,1,8,0:0:0:0:
139,228,10868,1,0,0:0:0:0:
174,223,11005,1,8,0:0:0:0:
166,243,11142,1,0,0:0:0:0:
148,224,11416,1,0,0:0:0:0:
148,224,11553,1,8,0:0:0:0:
151,226,11827,1,8,0:0:0:0:
157,206,12375,1,8,0:0:0:0:
156,247,12512,1,0,0:0:0:0:
181,218,12785,1,0,0:0:0:0:
156,210,12923,1,8,0:0:0:0:
152,242,13060,1,0,0:0:0:0:
156,212,13197,1,8,0:0:0:0:
157,226,13334,1,0,0:0:0:0:
148,224,13608,1,0,0:0:0:0:
148,224,13745,1,8,0:0:0:0:
151,226,14019,1,8,0:0:0:0:
155,205,14430,1,0,0:0:0:0:
152,242,14567,1,8,0:0:0:0:
156,247,14704,1,0,0:0:0:0:
181,218,14977,1,0,0:0:0:0:
137,223,15114,1,8,0:0:0:0:
152,242,15252,1,0,0:0:0:0:
174,223,15389,1,8,0:0:0:0:
166,243,15526,1,0,0:0:0:0:
148,224,15800,1,0,0:0:0:0:
148,224,15937,1,8,0:0:0:0:
151,226,16211,1,8,0:0:0:0:
190,212,16759,1,8,0:0:0:0:
156,247,16896,1,0,0:0:0:0:
181,218,17169,1,0,0:0:0:0:
186,225,17307,1,8,0:0:0:0:
152,242,17444,1,0,0:0:0:0:
186,231,17581,1,8,0:0:0:0:
166,255,17718,1,0,0:0:0:0:
150,186,17992,1,8,0:0:0:0:
132,266,18266,1,0,0:0:0:0:
134,271,18403,1,8,0:0:0:0:
156,268,18677,1,8,0:0:0:0:
156,273,18814,1,0,0:0:0:0:
156,273,18951,1,0,0:0:0:0:
156,273,19088,1,8,0:0:0:0:
145,232,19225,1,0,0:0:0:0:
141,242,19362,1,0,0:0:0:0:
139,170,19636,1,8,0:0:0:0:
167,207,19773,1,0,0:0:0:0:
138,181,19910,1,8,0:0:0:0:
126,221,20047,1,8,0:0:0:0:
130,222,20184,1,0,0:0:0:0:
164,238,20457,1,8,0:0:0:0:
152,197,20594,1,0,0:0:0:0:
143,193,20868,1,8,0:0:0:0:
184,151,21005,1,0,0:0:0:0:
161,191,21142,1,0,0:0:0:0:
147,192,21279,1,8,0:0:0:0:
146,227,21416,1,8,0:0:0:0:
145,228,21553,1,0,0:0:0:0:
166,255,22101,1,0,0:0:0:0:
150,186,22375,1,8,0:0:0:0:
132,266,22649,1,0,0:0:0:0:
134,271,22786,1,8,0:0:0:0:
156,268,23060,1,8,0:0:0:0:
156,273,23197,1,0,0:0:0:0:
156,273,23334,1,0,0:0:0:0:
156,273,23471,1,8,0:0:0:0:
145,232,23608,1,0,0:0:0:0:
141,242,23745,1,0,0:0:0:0:
139,170,24019,1,8,0:0:0:0:
167,207,24156,1,0,0:0:0:0:
138,181,24293,1,8,0:0:0:0:
126,221,24430,1,8,0:0:0:0:
130,222,24567,1,0,0:0:0:0:
164,238,24840,1,8,0:0:0:0:
152,197,24977,1,0,0:0:0:0:
143,193,25251,1,8,0:0:0:0:
184,151,25388,1,0,0:0:0:0:
161,191,25525,1,0,0:0:0:0:
147,192,25662,1,8,0:0:0:0:
146,227,25799,1,8,0:0:0:0:
145,228,25936,1,0,0:0:0:0:
123,274,26485,5,0,0:0:0:0:
179,172,26622,1,0,0:0:0:0:
134,290,26759,1,8,0:0:0:0:
131,302,26896,1,0,0:0:0:0:
155,253,27170,1,8,0:0:0:0:
160,229,27444,1,0,0:0:0:0:
152,236,27581,1,0,0:0:0:0:
155,253,27855,1,8,0:0:0:0:
155,234,27992,1,0,0:0:0:0:
149,214,28266,1,0,0:0:0:0:
160,253,28403,1,8,0:0:0:0:
163,256,28540,1,8,0:0:0:0:
164,254,28677,1,0,0:0:0:0:
121,223,28951,1,8,0:0:0:0:
131,302,29088,1,0,0:0:0:0:
146,187,29362,1,8,0:0:0:0:
136,257,29499,1,8,0:0:0:0:
145,275,29636,1,0,0:0:0:0:
152,236,29773,1,0,0:0:0:0:
158,232,29910,1,8,0:0:0:0:
178,208,30047,1,8,0:0:0:0:
172,161,30594,1,8,0:0:0:0:
188,220,30732,1,8,0:0:0:0:
123,274,30868,5,0,0:0:0:0:
179,172,31005,1,0,0:0:0:0:
134,290,31142,1,8,0:0:0:0:
131,302,31279,1,0,0:0:0:0:
155,253,31553,1,8,0:0:0:0:
160,229,31827,1,0,0:0:0:0:
152,236,31964,1,0,0:0:0:0:
155,253,32238,1,8,0:0:0:0:
155,234,32375,1,0,0:0:0:0:
149,214,32649,1,0,0:0:0:0:
160,253,32786,1,8,0:0:0:0:
163,256,32923,1,8,0:0:0:0:
164,254,33060,1,0,0:0:0:0:
121,223,33334,1,8,0:0:0:0:
131,302,33471,1,0,0:0:0:0:
146,187,33745,1,8,0:0:0:0:
136,257,33882,1,8,0:0:0:0:
145,275,34019,1,0,0:0:0:0:
152,236,34156,1,0,0:0:0:0:
158,232,34293,1,8,0:0:0:0:
131,158,34430,1,8,0:0:0:0:
141,206,34978,1,8,0:0:0:0:
141,206,35115,1,8,0:0:0:0:
123,274,35252,5,0,0:0:0:0:
179,172,35389,1,0,0:0:0:0:
134,290,35526,1,8,0:0:0:0:
131,302,35663,1,0,0:0:0:0:
155,253,35937,1,8,0:0:0:0:
160,229,36211,1,0,0:0:0:0:
152,236,36348,1,0,0:0:0:0:
155,253,36622,1,8,0:0:0:0:
155,234,36759,1,0,0:0:0:0:
149,214,37033,1,0,0:0:0:0:
160,253,37170,1,8,0:0:0:0:
163,256,37307,1,8,0:0:0:0:
164,254,37444,1,0,0:0:0:0:
121,223,37718,1,8,0:0:0:0:
131,302,37855,1,0,0:0:0:0:
146,187,38129,1,8,0:0:0:0:
136,257,38266,1,8,0:0:0:0:
145,275,38403,1,0,0:0:0:0:
152,236,38540,5,0,0:0:0:0:
158,232,38677,1,8,0:0:0:0:
178,208,38814,1,8,0:0:0:0:
128,197,39362,1,0,0:0:0:0:
127,206,39499,1,0,0:0:0:0:
166,255,39636,1,0,0:0:0:0:
150,186,39910,1,8,0:0:0:0:
132,266,40184,1,0,0:0:0:0:
134,271,40321,1,8,0:0:0:0:
156,268,40595,1,8,0:0:0:0:
156,273,40732,1,0,0:0:0:0:
156,273,40869,1,0,0:0:0:0:
156,273,41006,1,8,0:0:0:0:
145,232,41143,1,0,0:0:0:0:
141,242,41280,1,0,0:0:0:0:
139,170,41554,1,8,0:0:0:0:
167,207,41691,1,0,0:0:0:0:
138,181,41828,1,8,0:0:0:0:
126,221,41965,1,8,0:0:0:0:
130,222,42102,1,0,0:0:0:0:
164,238,42375,1,8,0:0:0:0:
152,197,42512,1,0,0:0:0:0:
143,193,42786,1,8,0:0:0:0:
190,304,44019,5,0,0:0:0:0:
180,305,44156,1,0,0:0:0:0:
185,267,44293,1,8,0:0:0:0:
145,273,44430,1,0,0:0:0:0:
168,267,44567,1,8,0:0:0:0:
142,223,44704,1,8,0:0:0:0:
142,223,44841,1,0,0:0:0:0:
155,214,45389,1,8,0:0:0:0:
155,227,45526,1,0,0:0:0:0:
136,268,45663,1,0,0:0:0:0:
170,199,45800,1,8,0:0:0:0:
134,183,45937,1,0,0:0:0:0:
166,218,46211,1,0,0:0:0:0:
161,216,46348,1,0,0:0:0:0:
174,206,46485,1,8,0:0:0:0:
146,244,46622,1,8,0:0:0:0:
138,214,46759,1,0,0:0:0:0:
132,233,47307,1,8,0:0:0:0:
146,237,47444,1,0,0:0:0:0:
136,218,47581,1,8,0:0:0:0:
138,234,47718,1,8,0:0:0:0:
153,202,47855,1,0,0:0:0:0:
190,304,48403,5,0,0:0:0:0:
180,305,48540,1,0,0:0:0:0:
185,267,48677,1,8,0:0:0:0:
145,273,48814,1,0,0:0:0:0:
168,267,48951,1,8,0:0:0:0:
142,223,49088,1,8,0:0:0:0:
142,223,49225,1,0,0:0:0:0:
155,214,49773,1,8,0:0:0:0:
155,227,49910,1,0,0:0:0:0:
136,268,50047,1,0,0:0:0:0:
170,199,50184,1,8,0:0:0:0:
134,183,50321,1,0,0:0:0:0:
166,218,50595,1,0,0:0:0:0:
161,216,50732,1,0,0:0:0:0:
174,206,50869,1,8,0:0:0:0:
146,244,51006,1,8,0:0:0:0:
138,214,51143,1,0,0:0:0:0:
132,233,51691,1,8,0:0:0:0:
146,237,51828,1,0,0:0:0:0:
136,218,51965,1,8,0:0:0:0:
138,234,52102,1,8,0:0:0:0:
153,202,52239,1,0,0:0:0:0:
190,304,52786,5,0,0:0:0:0:
180,305,52923,1,0,0:0:0:0:
185,267,53060,1,8,0:0:0:0:
145,273,53197,1,0,0:0:0:0:
168,267,53334,1,8,0:0:0:0:
142,223,53471,1,8,0:0:0:0:
142,223,53608,1,0,0:0:0:0:
155,214,54156,1,8,0:0:0:0:
155,227,54293,1,0,0:0:0:0:
136,268,54430,1,0,0:0:0:0:
170,199,54567,1,8,0:0:0:0:
134,183,54704,1,0,0:0:0:0:
166,218,54978,1,0,0:0:0:0:
161,216,55115,1,0,0:0:0:0:
174,206,55252,1,8,0:0:0:0:
146,244,55389,1,8,0:0:0:0:
138,214,55526,1,0,0:0:0:0:
132,233,56074,1,8,0:0:0:0:
146,237,56211,1,0,0:0:0:0:
136,218,56348,1,8,0:0:0:0:
138,234,56485,1,8,0:0:0:0:
153,202,56622,1,0,0:0:0:0:
190,304,57170,5,0,0:0:0:0:
180,305,57307,1,0,0:0:0:0:
185,267,57444,1,8,0:0:0:0:
145,273,57581,1,0,0:0:0:0:
168,267,57718,1,8,0:0:0:0:
142,223,57855,1,8,0:0:0:0:
142,223,57992,1,0,0:0:0:0:
155,214,58540,1,8,0:0:0:0:
155,227,58677,1,0,0:0:0:0:
136,268,58814,1,0,0:0:0:0:
170,199,58951,1,8,0:0:0:0:
134,183,59088,1,0,0:0:0:0:
166,218,59362,1,0,0:0:0:0:
161,216,59499,1,0,0:0:0:0:
174,206,59636,1,8,0:0:0:0:
146,244,59773,1,8,0:0:0:0:
138,214,59910,1,0,0:0:0:0:
132,233,60458,1,8,0:0:0:0:
146,237,60595,1,0,0:0:0:0:
136,218,60732,1,8,0:0:0:0:
138,234,60869,1,8,0:0:0:0:
153,202,61006,1,0,0:0:0:0:
149,242,61553,5,0,0:0:0:0:
151,237,61827,1,8,0:0:0:0:
136,268,61964,1,8,0:0:0:0:
136,268,62101,1,0,0:0:0:0:
161,233,62375,1,8,0:0:0:0:
157,197,62649,1,0,0:0:0:0:
154,226,62923,1,8,0:0:0:0:
168,263,63060,1,0,0:0:0:0:
160,213,63197,1,8,0:0:0:0:
164,268,63334,1,8,0:0:0:0:
140,270,63471,1,0,0:0:0:0:
146,237,63608,1,0,0:0:0:0:
152,242,63745,1,8,0:0:0:0:
158,234,64019,1,0,0:0:0:0:
164,199,64156,1,8,0:0:0:0:
138,214,64293,1,0,0:0:0:0:
162,209,64567,1,8,0:0:0:0:
144,218,64841,1,0,0:0:0:0:
126,214,64978,1,0,0:0:0:0:
138,190,65115,1,8,0:0:0:0:
126,225,65252,1,8,0:0:0:0:
133,222,65389,1,0,0:0:0:0:
145,193,65937,1,0,0:0:0:0:
158,262,66211,1,8,0:0:0:0:
175,209,66348,1,8,0:0:0:0:
171,263,66485,1,0,0:0:0:0:
175,198,66759,1,8,0:0:0:0:
175,198,67033,1,0,0:0:0:0:
154,226,67307,1,8,0:0:0:0:
167,187,67444,1,8,0:0:0:0:
159,222,67581,1,0,0:0:0:0:
158,222,67718,1,0,0:0:0:0:
153,207,67855,1,8,0:0:0:0:
153,208,67992,1,0,0:0:0:0:
151,208,68129,1,8,0:0:0:0:
160,243,68403,1,8,0:0:0:0:
175,260,68677,1,8,0:0:0:0:
162,219,68951,1,8,0:0:0:0:
146,200,69088,1,8,0:0:0:0:
154,226,69225,1,0,0:0:0:0:
153,204,69773,1,0,0:0:0:0:
153,193,69910,1,8,0:0:0:0:
143,277,70047,1,0,0:0:0:0:
151,218,70184,1,8,0:0:0:0:
152,220,70320,1,0,0:0:0:0:
151,237,70594,1,8,0:0:0:0:
136,268,70868,1,0,0:0:0:0:
164,201,71005,1,0,0:0:0:0:
170,238,71142,1,8,0:0:0:0:
164,216,71279,1,8,0:0:0:0:
164,216,71416,1,0,0:0:0:0:
154,226,71690,1,8,0:0:0:0:
152,197,71964,1,8,0:0:0:0:
166,220,72101,1,8,0:0:0:0:
145,218,72238,1,0,0:0:0:0:
157,204,72375,1,8,0:0:0:0:
156,203,72512,1,0,0:0:0:0:
128,202,72786,1,8,0:0:0:0:
138,214,73060,1,0,0:0:0:0:
152,213,73197,1,0,0:0:0:0:
152,213,73334,1,8,0:0:0:0:
143,197,73471,1,0,0:0:0:0:
143,197,73745,1,8,0:0:0:0:
143,219,74019,1,0,0:0:0:0:
146,242,74704,1,8,0:0:0:0:
149,189,74978,1,0,0:0:0:0:
171,203,75115,1,0,0:0:0:0:
152,210,75252,1,8,0:0:0:0:
146,226,75526,1,0,0:0:0:0:
134,243,75663,1,8,0:0:0:0:
146,183,76074,1,8,0:0:0:0:
155,212,76211,1,8,0:0:0:0:
134,230,76348,1,0,0:0:0:0:
147,242,76485,1,0,0:0:0:0:
134,232,76622,1,8,0:0:0:0:
125,200,76896,1,0,0:0:0:0:
136,223,77170,1,0,0:0:0:0:
136,204,77444,1,8,0:0:0:0:
151,184,77718,1,0,0:0:0:0:
151,224,77992,1,8,0:0:0:0:
140,276,78129,1,0,0:0:0:0:
145,220,78403,1,0,0:0:0:0:
143,217,78540,1,8,0:0:0:0:
175,221,79088,1,12,0:0:0:0:
143,197,79362,1,12,0:0:0:0:
144,207,79636,1,12,0:0:0:0:
144,211,79910,1,12,0:0:0:0:
143,219,80184,1,4,0:0:0:0:
143,219,80457,1,4,0:0:0:0:
142,220,80731,1,4,0:0:0:0:
143,219,81005,1,4,0:0:0:0:
143,219,81279,1,12,0:0:0:0:
142,220,81553,1,12,0:0:0:0:
143,219,81827,1,12,0:0:0:0:
143,219,82101,1,12,0:0:0:0:
142,220,82375,1,4,0:0:0:0:
142,212,82649,1,4,0:0:0:0:
143,219,82923,1,12,0:0:0:0:
175,221,83471,1,12,0:0:0:0:
143,197,83745,1,12,0:0:0:0:
144,207,84019,1,12,0:0:0:0:
144,211,84293,1,12,0:0:0:0:
143,219,84567,1,4,0:0:0:0:
143,219,84840,1,4,0:0:0:0:
142,220,85114,1,4,0:0:0:0:
143,219,85388,1,4,0:0:0:0:
143,219,85662,1,12,0:0:0:0:
142,220,85936,1,12,0:0:0:0:
143,219,86210,1,12,0:0:0:0:
143,219,86484,1,12,0:0:0:0:
142,220,86758,1,4,0:0:0:0:
142,212,87032,1,4,0:0:0:0:
143,219,87306,1,12,0:0:0:0:
175,221,87855,1,12,0:0:0:0:
143,197,88129,1,12,0:0:0:0:
144,207,88403,1,12,0:0:0:0:
144,211,88677,1,12,0:0:0:0:
143,219,88951,1,4,0:0:0:0:
143,219,89224,1,4,0:0:0:0:
142,220,89498,1,4,0:0:0:0:
143,219,89772,1,4,0:0:0:0:
143,219,90046,1,12,0:0:0:0:
142,220,90320,1,12,0:0:0:0:
143,219,90594,1,12,0:0:0:0:
143,219,90868,1,12,0:0:0:0:
142,220,91142,1,4,0:0:0:0:
142,212,91416,1,4,0:0:0:0:
143,219,91690,1,12,0:0:0:0:
175,221,92238,1,12,0:0:0:0:
143,197,92512,1,12,0:0:0:0:
144,207,92786,1,12,0:0:0:0:
144,211,93060,1,12,0:0:0:0:
143,219,93334,1,4,0:0:0:0:
143,219,93607,1,4,0:0:0:0:
142,220,93881,1,4,0:0:0:0:
143,219,94155,1,4,0:0:0:0:
143,219,94429,1,12,0:0:0:0:
142,220,94703,1,12,0:0:0:0:
143,219,94977,1,12,0:0:0:0:
143,219,95251,1,12,0:0:0:0:
137,210,95526,1,0,0:0:0:0:
146,205,95663,1,0,0:0:0:0:
134,199,95800,1,8,0:0:0:0:
133,201,95937,1,8,0:0:0:0:
141,199,96074,1,0,0:0:0:0:
144,234,96348,1,0,0:0:0:0:
190,304,96622,5,0,0:0:0:0:
180,305,96759,1,0,0:0:0:0:
185,267,96896,1,8,0:0:0:0:
145,273,97033,1,0,0:0:0:0:
168,267,97170,1,8,0:0:0:0:
142,223,97307,1,8,0:0:0:0:
142,223,97444,1,0,0:0:0:0:
155,214,97992,1,8,0:0:0:0:
155,227,98129,1,0,0:0:0:0:
136,268,98266,1,0,0:0:0:0:
170,199,98403,1,8,0:0:0:0:
134,183,98540,1,0,0:0:0:0:
166,218,98814,1,0,0:0:0:0:
161,216,98951,1,0,0:0:0:0:
174,206,99088,1,8,0:0:0:0:
146,244,99225,1,8,0:0:0:0:
138,214,99362,1,0,0:0:0:0:
132,233,99910,1,8,0:0:0:0:
146,237,100047,1,0,0:0:0:0:
136,218,100184,1,8,0:0:0:0:
138,234,100321,1,8,0:0:0:0:
153,202,100458,1,0,0:0:0:0:
190,304,101006,5,0,0:0:0:0:
180,305,101143,1,0,0:0:0:0:
185,267,101280,1,8,0:0:0:0:
145,273,101417,1,0,0:0:0:0:
168,267,101554,1,8,0:0:0:0:
142,223,101691,1,8,0:0:0:0:
142,223,101828,1,0,0:0:0:0:
155,214,102376,1,8,0:0:0:0:
155,227,102513,1,0,0:0:0:0:
136,268,102650,1,0,0:0:0:0:
170,199,102787,1,8,0:0:0:0:
134,183,102924,1,0,0:0:0:0:
166,218,103198,1,0,0:0:0:0:
161,216,103335,1,0,0:0:0:0:
174,206,103472,1,8,0:0:0:0:
146,244,103609,1,8,0:0:0:0:
138,214,103746,1,0,0:0:0:0:
132,233,104294,1,8,0:0:0:0:
146,237,104431,1,0,0:0:0:0:
136,218,104568,1,8,0:0:0:0:
138,234,104705,1,8,0:0:0:0:
153,202,104842,1,0,0:0:0:0:
190,304,105389,5,0,0:0:0:0:
180,305,105526,1,0,0:0:0:0:
185,267,105663,1,8,0:0:0:0:
145,273,105800,1,0,0:0:0:0:
168,267,105937,1,8,0:0:0:0:
142,223,106074,1,8,0:0:0:0:
142,223,106211,1,0,0:0:0:0:
155,214,106759,1,8,0:0:0:0:
155,227,106896,1,0,0:0:0:0:
136,268,107033,1,0,0:0:0:0:
170,199,107170,1,8,0:0:0:0:
134,183,107307,1,0,0:0:0:0:
166,218,107581,1,0,0:0:0:0:
161,216,107718,1,0,0:0:0:0:
174,206,107855,1,8,0:0:0:0:
146,244,107992,1,8,0:0:0:0:
138,214,108129,1,0,0:0:0:0:
132,233,108677,1,8,0:0:0:0:
146,237,108814,1,0,0:0:0:0:
136,218,108951,1,8,0:0:0:0:
138,234,109088,1,8,0:0:0:0:
153,202,109225,1,0,0:0:0:0:
190,304,109773,5,0,0:0:0:0:
180,305,109910,1,0,0:0:0:0:
185,267,110047,1,8,0:0:0:0:
145,273,110184,1,0,0:0:0:0:
168,267,110321,1,8,0:0:0:0:
142,223,110458,1,8,0:0:0:0:
142,223,110595,1,0,0:0:0:0:
155,214,111143,1,8,0:0:0:0:
155,227,111280,1,0,0:0:0:0:
136,268,111417,1,0,0:0:0:0:
170,199,111554,1,8,0:0:0:0:
134,183,111691,1,0,0:0:0:0:
166,218,111965,1,0,0:0:0:0:
161,216,112102,1,0,0:0:0:0:
174,206,112239,1,8,0:0:0:0:
146,244,112376,1,8,0:0:0:0:
138,214,112513,1,0,0:0:0:0:
132,233,113061,1,8,0:0:0:0:
146,237,113198,1,0,0:0:0:0:
136,218,113335,1,8,0:0:0:0:
138,234,113472,1,8,0:0:0:0:
153,202,113609,1,0,0:0:0:0:
149,242,114156,5,0,0:0:0:0:
151,237,114430,1,8,0:0:0:0:
136,268,114567,1,8,0:0:0:0:
136,268,114704,1,0,0:0:0:0:
161,233,114978,1,8,0:0:0:0:
157,197,115252,1,0,0:0:0:0:
154,226,115526,1,8,0:0:0:0:
168,263,115663,1,0,0:0:0:0:
160,213,115800,1,8,0:0:0:0:
164,268,115937,1,8,0:0:0:0:
140,270,116074,1,0,0:0:0:0:
146,237,116211,1,0,0:0:0:0:
152,242,116348,1,8,0:0:0:0:
158,234,116622,1,0,0:0:0:0:
164,199,116759,1,8,0:0:0:0:
138,214,116896,1,0,0:0:0:0:
162,209,117170,1,8,0:0:0:0:
144,218,117444,1,0,0:0:0:0:
126,214,117581,1,0,0:0:0:0:
138,190,117718,1,8,0:0:0:0:
126,225,117855,1,8,0:0:0:0:
133,222,117992,1,0,0:0:0:0:
145,193,118540,1,0,0:0:0:0:
158,262,118814,1,8,0:0:0:0:
175,209,118951,1,8,0:0:0:0:
171,263,119088,1,0,0:0:0:0:
175,198,119362,1,8,0:0:0:0:
175,198,119636,1,0,0:0:0:0:
154,226,119910,1,8,0:0:0:0:
167,187,120047,1,8,0:0:0:0:
159,222,120184,1,0,0:0:0:0:
158,222,120321,1,0,0:0:0:0:
153,207,120458,1,8,0:0:0:0:
153,208,120595,1,0,0:0:0:0:
151,208,120732,1,8,0:0:0:0:
160,243,121006,1,8,0:0:0:0:
175,260,121280,1,8,0:0:0:0:
162,219,121554,1,8,0:0:0:0:
146,200,121691,1,8,0:0:0:0:
154,226,121828,1,0,0:0:0:0:
153,204,122376,1,0,0:0:0:0:
153,193,122513,1,8,0:0:0:0:
143,277,122650,1,0,0:0:0:0:
151,218,122787,1,8,0:0:0:0:
152,220,122923,1,0,0:0:0:0:
151,237,123197,1,8,0:0:0:0:
136,268,123471,1,0,0:0:0:0:
164,201,123608,1,0,0:0:0:0:
170,238,123745,1,8,0:0:0:0:
164,216,123882,1,8,0:0:0:0:
164,216,124019,1,0,0:0:0:0:
154,226,124293,1,8,0:0:0:0:
152,197,124567,1,8,0:0:0:0:
166,220,124704,1,8,0:0:0:0:
145,218,124841,1,0,0:0:0:0:
157,204,124978,1,8,0:0:0:0:
156,203,125115,1,0,0:0:0:0:
128,202,125389,1,8,0:0:0:0:
138,214,125663,1,0,0:0:0:0:
152,213,125800,1,0,0:0:0:0:
152,213,125937,1,8,0:0:0:0:
143,197,126074,1,0,0:0:0:0:
143,197,126348,1,8,0:0:0:0:
143,219,126622,1,0,0:0:0:0:
146,242,127307,1,8,0:0:0:0:
149,189,127581,1,0,0:0:0:0:
171,203,127718,1,0,0:0:0:0:
152,210,127855,1,8,0:0:0:0:
146,226,128129,1,0,0:0:0:0:
134,243,128266,1,8,0:0:0:0:
146,183,128677,1,8,0:0:0:0:
155,212,128814,1,8,0:0:0:0:
134,230,128951,1,0,0:0:0:0:
147,242,129088,1,0,0:0:0:0:
134,232,129225,1,8,0:0:0:0:
125,200,129499,1,0,0:0:0:0:
136,223,129773,1,0,0:0:0:0:
136,204,130047,1,8,0:0:0:0:
151,184,130321,1,0,0:0:0:0:
151,224,130595,1,8,0:0:0:0:
140,276,130732,1,0,0:0:0:0:
145,220,131006,1,0,0:0:0:0:
143,217,131143,1,8,0:0:0:0:
175,221,131691,1,12,0:0:0:0:
143,197,131965,1,12,0:0:0:0:
144,207,132239,1,12,0:0:0:0:
144,211,132513,1,12,0:0:0:0:
143,219,132787,1,4,0:0:0:0:
143,219,133060,1,4,0:0:0:0:
142,220,133334,1,4,0:0:0:0:
143,219,133608,1,4,0:0:0:0:
143,219,133882,1,12,0:0:0:0:
142,220,134156,1,12,0:0:0:0:
143,219,134430,1,12,0:0:0:0:
143,219,134704,1,12,0:0:0:0:
142,220,134978,1,4,0:0:0:0:
142,212,135252,1,4,0:0:0:0:
143,219,135526,1,12,0:0:0:0:
175,221,136074,1,12,0:0:0:0:
143,197,136348,1,12,0:0:0:0:
144,207,136622,1,12,0:0:0:0:
144,211,136896,1,12,0:0:0:0:
143,219,137170,1,4,0:0:0:0:
143,219,137443,1,4,0:0:0:0:
142,220,137717,1,4,0:0:0:0:
143,219,137991,1,4,0:0:0:0:
143,219,138265,1,12,0:0:0:0:
142,220,138539,1,12,0:0:0:0:
143,219,138813,1,12,0:0:0:0:
143,219,139087,1,12,0:0:0:0:
142,220,139361,1,4,0:0:0:0:
142,212,139635,1,4,0:0:0:0:
143,219,139909,1,12,0:0:0:0:
175,221,140458,1,12,0:0:0:0:
143,197,140732,1,12,0:0:0:0:
144,207,141006,1,12,0:0:0:0:
144,211,141280,1,12,0:0:0:0:
143,219,141554,1,4,0:0:0:0:
143,219,141827,1,4,0:0:0:0:
142,220,142101,1,4,0:0:0:0:
143,219,142375,1,4,0:0:0:0:
143,219,142649,1,12,0:0:0:0:
142,220,142923,1,12,0:0:0:0:
143,219,143197,1,12,0:0:0:0:
143,219,143471,1,12,0:0:0:0:
142,220,143745,1,4,0:0:0:0:
142,212,144019,1,4,0:0:0:0:
143,219,144293,1,12,0:0:0:0:
175,221,144841,1,12,0:0:0:0:
143,197,145115,1,12,0:0:0:0:
144,207,145389,1,12,0:0:0:0:
144,211,145663,1,12,0:0:0:0:
143,219,145937,1,4,0:0:0:0:
143,219,146210,1,4,0:0:0:0:
142,220,146484,1,4,0:0:0:0:
143,219,146758,1,4,0:0:0:0:
143,219,147032,1,12,0:0:0:0:
142,220,147306,1,12,0:0:0:0:
143,219,147580,1,12,0:0:0:0:
143,219,147854,1,12,0:0:0:0:
146,202,148129,1,4,0:0:0:0:
145,224,149225,5,0,0:0:0:0:
145,206,150047,1,0,0:0:0:0:
148,216,150184,1,8,0:0:0:0:
140,241,150320,1,0,0:0:0:0:
151,201,150594,1,0,0:0:0:0:
151,211,150868,1,0,0:0:0:0:
162,202,151142,1,8,0:0:0:0:
151,200,151416,1,8,0:0:0:0:
164,171,151690,1,8,0:0:0:0:
150,168,151827,1,8,0:0:0:0:
158,245,151964,1,0,0:0:0:0:
145,271,152238,1,8,0:0:0:0:
149,176,152512,1,0,0:0:0:0:
152,225,152649,1,0,0:0:0:0:
150,250,152786,1,0,0:0:0:0:
161,203,153060,1,0,0:0:0:0:
147,236,153334,1,8,0:0:0:0:
133,243,153608,1,0,0:0:0:0:
145,206,154430,1,0,0:0:0:0:
148,216,154567,1,8,0:0:0:0:
140,241,154703,1,0,0:0:0:0:
151,201,154977,1,0,0:0:0:0:
151,211,155251,1,0,0:0:0:0:
162,202,155525,1,8,0:0:0:0:
151,200,155799,1,8,0:0:0:0:
164,171,156073,1,8,0:0:0:0:
150,168,156210,1,8,0:0:0:0:
158,245,156347,1,0,0:0:0:0:
145,271,156621,1,8,0:0:0:0:
149,176,156895,1,0,0:0:0:0:
152,225,157032,1,0,0:0:0:0:
150,250,157169,1,0,0:0:0:0:
161,203,157443,1,0,0:0:0:0:
123,274,157992,5,0,0:0:0:0:
179,172,158129,1,0,0:0:0:0:
134,290,158266,1,8,0:0:0:0:
131,302,158403,1,0,0:0:0:0:
155,253,158677,1,8,0:0:0:0:
160,229,158951,1,0,0:0:0:0:
152,236,159088,1,0,0:0:0:0:
155,253,159362,1,8,0:0:0:0:
155,234,159499,1,0,0:0:0:0:
149,214,159773,1,0,0:0:0:0:
160,253,159910,1,8,0:0:0:0:
163,256,160047,1,8,0:0:0:0:
164,254,160184,1,0,0:0:0:0:
121,223,160458,1,8,0:0:0:0:
131,302,160595,1,0,0:0:0:0:
146,187,160869,1,8,0:0:0:0:
136,257,161006,1,8,0:0:0:0:
145,275,161143,1,0,0:0:0:0:
152,236,161280,1,0,0:0:0:0:
158,232,161417,1,8,0:0:0:0:
178,208,161554,1,8,0:0:0:0:
172,161,162101,1,8,0:0:0:0:
188,220,162239,1,8,0:0:0:0:
123,274,162375,5,0,0:0:0:0:
179,172,162512,1,0,0:0:0:0:
134,290,162649,1,8,0:0:0:0:
131,302,162786,1,0,0:0:0:0:
155,253,163060,1,8,0:0:0:0:
160,229,163334,1,0,0:0:0:0:
152,236,163471,1,0,0:0:0:0:
155,253,163745,1,8,0:0:0:0:
155,234,163882,1,0,0:0:0:0:
149,214,164156,1,0,0:0:0:0:
160,253,164293,1,8,0:0:0:0:
163,256,164430,1,8,0:0:0:0:
164,254,164567,1,0,0:0:0:0:
121,223,164841,1,8,0:0:0:0:
131,302,164978,1,0,0:0:0:0:
146,187,165252,1,8,0:0:0:0:
136,257,165389,1,8,0:0:0:0:
145,275,165526,1,0,0:0:0:0:
152,236,165663,1,0,0:0:0:0:
158,232,165800,1,8,0:0:0:0:
131,158,165937,1,8,0:0:0:0:
141,206,166485,1,8,0:0:0:0:
141,206,166622,1,8,0:0:0:0:
123,274,166759,5,0,0:0:0:0:
179,172,166896,1,0,0:0:0:0:
134,290,167033,1,8,0:0:0:0:
131,302,167170,1,0,0:0:0:0:
155,253,167444,1,8,0:0:0:0:
160,229,167718,1,0,0:0:0:0:
152,236,167855,1,0,0:0:0:0:
155,253,168129,1,8,0:0:0:0:
155,234,168266,1,0,0:0:0:0:
149,214,168540,1,0,0:0:0:0:
160,253,168677,1,8,0:0:0:0:
163,256,168814,1,8,0:0:0:0:
164,254,168951,1,0,0:0:0:0:
121,223,169225,1,8,0:0:0:0:
131,302,169362,1,0,0:0:0:0:
146,187,169636,1,8,0:0:0:0:
136,257,169773,1,8,0:0:0:0:
145,275,169910,1,0,0:0:0:0:
152,236,170047,5,0,0:0:0:0:
158,232,170184,1,8,0:0:0:0:
178,208,170321,1,8,0:0:0:0:
128,197,170869,1,0,0:0:0:0:
127,206,171006,1,0,0:0:0:0:
166,255,171143,1,0,0:0:0:0:
145,206,171964,1,0,0:0:0:0:
148,216,172101,1,8,0:0:0:0:
140,241,172237,1,0,0:0:0:0:
151,201,172511,1,0,0:0:0:0:
151,211,172785,1,0,0:0:0:0:
162,202,173059,1,8,0:0:0:0:
161,229,173334,1,8,0:0:0:0:
161,229,173608,1,0,0:0:0:0:
159,229,173745,1,0,0:0:0:0:
138,236,173882,1,0,0:0:0:0:
141,251,174156,1,8,0:0:0:0:
136,254,174430,1,0,0:0:0:0:
129,251,174567,1,0,0:0:0:0:
128,250,174704,1,0,0:0:0:0:
134,232,174978,1,8,0:0:0:0:
136,236,175252,1,8,0:0:0:0:
134,205,175526,1,0,0:0:0:0:
154,212,175800,1,8,0:0:0:0:
156,209,175937,1,8,0:0:0:0:
145,238,176074,1,0,0:0:0:0:
121,206,176348,1,0,0:0:0:0:
121,207,176485,1,0,0:0:0:0:
147,210,176622,1,8,0:0:0:0:
147,211,176759,1,8,0:0:0:0:
140,247,176896,1,0,0:0:0:0:
137,256,177170,1,0,0:0:0:0:
138,261,177444,1,8,0:0:0:0:
134,205,177718,1,0,0:0:0:0:
145,238,178266,1,0,0:0:0:0:
121,206,178540,1,0,0:0:0:0:
121,207,178677,1,0,0:0:0:0:
147,210,178814,1,8,0:0:0:0:
147,211,178951,1,8,0:0:0:0:
140,247,179088,1,0,0:0:0:0:
137,256,179362,1,0,0:0:0:0:
138,261,179636,1,8,0:0:0:0:
134,205,179910,1,0,0:0:0:0:
154,212,180184,1,8,0:0:0:0:
156,209,180321,1,8,0:0:0:0:
145,238,180458,1,0,0:0:0:0:
121,206,180732,1,0,0:0:0:0:
121,207,180869,1,0,0:0:0:0:
147,210,181006,1,8,0:0:0:0:
147,211,181143,1,8,0:0:0:0:
140,247,181280,1,0,0:0:0:0:
137,256,181554,1,0,0:0:0:0:
138,261,181828,1,8,0:0:0:0:
134,205,182101,1,0,0:0:0:0:
145,238,182649,1,0,0:0:0:0:
121,206,182923,1,0,0:0:0:0:
121,207,183060,1,0,0:0:0:0:
147,210,183197,1,8,0:0:0:0:
147,211,183334,1,8,0:0:0:0:
140,247,183471,1,0,0:0:0:0:
137,256,183745,1,0,0:0:0:0:
138,261,184019,1,8,0:0:0:0:
134,205,184293,1,0,0:0:0:0:
154,212,184567,1,8,0:0:0:0:
156,209,184704,1,8,0:0:0:0:
145,238,184841,1,0,0:0:0:0:
121,206,185115,1,0,0:0:0:0:
121,207,185252,1,0,0:0:0:0:
147,210,185389,1,8,0:0:0:0:
147,211,185526,1,8,0:0:0:0:
140,247,185663,1,0,0:0:0:0:
144,180,185800,1,8,0:0:0:0:
137,256,185937,1,0,0:0:0:0:
138,261,186211,1,8,0:0:0:0:
134,205,186485,1,0,0:0:0:0:
145,238,187033,1,0,0:0:0:0:
149,221,187307,1,8,0:0:0:0:
147,188,187444,1,8,0:0:0:0:
147,188,187581,1,0,0:0:0:0:
147,211,187718,1,8,0:0:0:0:
140,247,187855,1,0,0:0:0:0:
151,216,187992,1,0,0:0:0:0:
149,221,188129,1,8,0:0:0:0:
134,205,188677,1,0,0:0:0:0:
154,212,188951,1,8,0:0:0:0:
156,209,189088,1,8,0:0:0:0:
145,238,189225,1,0,0:0:0:0:
121,206,189499,1,0,0:0:0:0:
121,207,189636,1,0,0:0:0:0:
147,210,189773,1,8,0:0:0:0:
147,211,189910,1,8,0:0:0:0:
140,247,190047,1,0,0:0:0:0:
144,180,190184,1,8,0:0:0:0:
137,256,190321,1,0,0:0:0:0:
138,261,190595,1,8,0:0:0:0:
134,205,190868,1,0,0:0:0:0:
145,238,191416,1,0,0:0:0:0:
134,205,191690,1,8,0:0:0:0:
133,210,191827,1,8,0:0:0:0:
146,214,191964,1,0,0:0:0:0:
161,189,192101,1,8,0:0:0:0:
161,189,192238,1,0,0:0:0:0:
140,194,192375,1,0,0:0:0:0:
135,195,192512,1,8,0:0:0:0:
138,261,192786,1,8,0:0:0:0:
134,290,193334,1,8,0:0:0:0:
131,302,193471,1,0,0:0:0:0:
159,271,193608,1,0,0:0:0:0:
141,219,193745,1,8,0:0:0:0:
152,236,194156,1,0,0:0:0:0:
155,253,194430,1,8,0:0:0:0:
147,204,194704,1,0,0:0:0:0:
157,212,194841,1,0,0:0:0:0:
157,213,194978,1,8,0:0:0:0:
156,179,195252,1,0,0:0:0:0:
121,223,195526,1,8,0:0:0:0:
167,224,195663,1,8,0:0:0:0:
159,253,195800,1,0,0:0:0:0:
158,260,195937,1,8,0:0:0:0:
155,253,196622,1,8,0:0:0:0:
169,225,196896,1,0,0:0:0:0:
168,227,197033,1,8,0:0:0:0:
166,227,197170,1,8,0:0:0:0:
150,241,197444,5,0,0:0:0:0:
134,290,197718,1,8,0:0:0:0:
131,302,197855,1,0,0:0:0:0:
159,271,197992,1,0,0:0:0:0:
141,219,198129,1,8,0:0:0:0:
152,236,198540,1,0,0:0:0:0:
155,253,198814,1,8,0:0:0:0:
147,204,199088,1,0,0:0:0:0:
157,212,199225,1,0,0:0:0:0:
157,213,199362,1,8,0:0:0:0:
156,179,199636,1,0,0:0:0:0:
121,223,199910,1,8,0:0:0:0:
167,224,200047,1,8,0:0:0:0:
159,253,200184,1,0,0:0:0:0:
158,260,200321,1,8,0:0:0:0:
155,253,201006,1,8,0:0:0:0:
169,225,201280,1,0,0:0:0:0:
168,227,201417,1,8,0:0:0:0:
166,227,201554,1,8,0:0:0:0:
150,241,201827,5,0,0:0:0:0:
134,290,202101,1,8,0:0:0:0:
131,302,202238,1,0,0:0:0:0:
159,271,202375,1,0,0:0:0:0:
141,219,202512,1,8,0:0:0:0:
152,236,202923,1,0,0:0:0:0:
155,253,203197,1,8,0:0:0:0:
147,204,203471,1,0,0:0:0:0:
157,212,203608,1,0,0:0:0:0:
157,213,203745,1,8,0:0:0:0:
156,179,204019,1,0,0:0:0:0:
121,223,204293,1,8,0:0:0:0:
167,224,204430,1,8,0:0:0:0:
159,253,204567,1,0,0:0:0:0:
158,260,204704,1,8,0:0:0:0:
155,253,205389,1,8,0:0:0:0:
169,225,205663,1,0,0:0:0:0:
168,227,205800,1,8,0:0:0:0:
166,227,205937,1,8,0:0:0:0:
151,210,206211,1,0,0:0:0:0:
157,182,206485,1,8,0:0:0:0:
151,167,206622,1,0,0:0:0:0:
134,165,206896,1,8,0:0:0:0:
132,164,207307,1,0,0:0:0:0:
156,170,207581,1,8,0:0:0:0:
155,168,207718,1,0,0:0:0:0:
159,165,207992,1,8,0:0:0:0:
148,163,208266,1,0,0:0:0:0:
146,163,208403,1,0,0:0:0:0:
163,255,208677,1,0,0:0:0:0:
172,233,208814,1,0,0:0:0:0:
164,235,208951,1,8,0:0:0:0:
162,263,209773,1,0,0:0:0:0:
158,266,209910,1,0,0:0:0:0:
149,196,210047,1,8,0:0:0:0:
171,198,210320,1,4,0:0:0:0:
