osu file format v14

[General]
AudioFilename: audio.mp3
AudioLeadIn: 0
PreviewTime: 79088
Countdown: 0
SampleSet: None
StackLeniency: 0.7
Mode: 1
LetterboxInBreaks: 0
WidescreenStoryboard: 1

[Editor]
Bookmarks: 61553,96485
DistanceSpacing: 0.9
BeatDivisor: 4
GridSize: 32
TimelineZoom: 2.4

[Metadata]
Title:toromi hearts 2
TitleUnicode:toromi hearts 2
Artist:goreshit
ArtistUnicode:goreshit
Creator:Horiiizon
Version:hell oni
Source:
Tags:my love feels all wrong. lolicore breakcore electronic instrumental
BeatmapID:4207262
BeatmapSetID:2020210

[Difficulty]
HPDrainRate:5.5
CircleSize:5
OverallDifficulty:6.5
ApproachRate:5
SliderMultiplier:1.4
SliderTickRate:1

[Events]
//Background and Video events
0,0,"love.png",0,-80
//Break Periods
//Storyboard Layer 0 (Background)
//Storyboard Layer 1 (Fail)
//Storyboard Layer 2 (Pass)
//Storyboard Layer 3 (Foreground)
//Storyboard Layer 4 (Overlay)
//Storyboard Sound Samples

[TimingPoints]
184,273.972602739726,4,1,0,100,1,0
76756,-99.4475138121547,4,1,0,100,0,0
76893,-98.9010989010989,4,1,0,100,0,0
76961,-98.6321094312455,4,1,0,100,0,0
77030,-98.3606557377049,4,1,0,100,0,0
77167,-97.8260869565217,4,1,0,100,0,0
77304,-97.2972972972973,4,1,0,100,0,0
77441,-96.7741935483871,4,1,0,100,0,0
77509,-96.5166340508806,4,1,0,100,0,0
77578,-96.2566844919786,4,1,0,100,0,0
77715,-95.7446808510638,4,1,0,100,0,0
77852,-95.2380952380952,4,1,0,100,0,0
77989,-94.7368421052632,4,1,0,100,0,0
78057,-94.4899992336578,4,1,0,100,0,0
78126,-94.2408376963351,4,1,0,100,0,0
78400,-93.2642487046632,4,1,0,100,0,0
78537,-92.7835051546392,4,1,0,100,0,0
79088,-90.9090909090909,4,1,0,100,0,1
95526,-90.9090909090909,4,1,0,100,0,0
95660,-91.9540229885057,4,1,0,100,0,0
95797,-93.0232558139535,4,1,0,100,0,0
95865,-93.5632576404303,4,1,0,100,0,0
95934,-94.1176470588235,4,1,0,100,0,0
96002,-94.6704673058651,4,1,0,100,0,0
96071,-95.2380952380952,4,1,0,100,0,0
96208,-96.3855421686747,4,1,0,100,0,0
96345,-97.5609756097561,4,1,0,100,0,0
96413,-98.1551137381336,4,1,0,100,0,0
96482,-98.7654320987654,4,1,0,100,0,0
96550,-99.3743766433947,4,1,0,100,0,0
96619,-100,4,1,0,100,0,0
129344,-99.4475138121547,4,1,0,100,0,0
129481,-98.9010989010989,4,1,0,100,0,0
129549,-98.6321094312455,4,1,0,100,0,0
129618,-98.3606557377049,4,1,0,100,0,0
129755,-97.8260869565217,4,1,0,100,0,0
129892,-97.2972972972973,4,1,0,100,0,0
130029,-96.7741935483871,4,1,0,100,0,0
130097,-96.5166340508806,4,1,0,100,0,0
130166,-96.2566844919786,4,1,0,100,0,0
130303,-95.7446808510638,4,1,0,100,0,0
130440,-95.2380952380952,4,1,0,100,0,0
130577,-94.7368421052632,4,1,0,100,0,0
130645,-94.4899992336578,4,1,0,100,0,0
130714,-94.2408376963351,4,1,0,100,0,0
130988,-93.2642487046632,4,1,0,100,0,0
131125,-92.7835051546392,4,1,0,100,0,0
131690,-90.9090909090909,4,1,0,100,0,1
148129,-90.9090909090909,4,1,0,100,0,0
149225,-100,4,1,0,100,0,0

[HitObjects]
144,254,8951,5,0,0:0:0:0:
140,248,9088,1,8,0:0:0:0:
144,282,9156,1,8,0:0:0:0:
148,224,9225,1,0,0:0:0:0:
148,224,9362,1,8,0:0:0:0:
151,226,9636,1,8,0:0:0:0:
135,242,10047,1,0,0:0:0:0:
155,243,10184,1,8,0:0:0:0:
141,229,10252,1,8,0:0:0:0:
146,284,10320,1,0,0:0:0:0:
157,213,10594,1,0,0:0:0:0:
173,222,10663,1,0,0:0:0:0:
137,223,10731,1,8,0:0:0:0:
139,228,10800,1,8,0:0:0:0:
139,228,10868,1,0,0:0:0:0:
174,223,11005,1,8,0:0:0:0:
161,200,11074,1,8,0:0:0:0:
166,243,11142,1,0,0:0:0:0:
140,248,11279,1,8,0:0:0:0:
144,282,11347,1,8,0:0:0:0:
148,224,11416,1,0,0:0:0:0:
148,224,11553,1,8,0:0:0:0:
151,226,11827,1,8,0:0:0:0:
155,205,12238,1,0,0:0:0:0:
152,242,12375,1,8,0:0:0:0:
152,243,12444,1,8,0:0:0:0:
156,247,12512,1,0,0:0:0:0:
181,218,12785,1,0,0:0:0:0:
173,222,12854,1,0,0:0:0:0:
137,223,12922,1,8,0:0:0:0:
152,242,12992,1,8,0:0:0:0:
152,242,13060,1,0,0:0:0:0:
174,223,13197,1,8,0:0:0:0:
161,200,13266,1,8,0:0:0:0:
171,217,13334,1,0,0:0:0:0:
172,218,13471,1,8,0:0:0:0:
172,217,13540,1,8,0:0:0:0:
148,224,13608,1,0,0:0:0:0:
148,224,13745,1,8,0:0:0:0:
151,226,14019,1,8,0:0:0:0:
155,205,14430,1,0,0:0:0:0:
152,242,14567,1,8,0:0:0:0:
152,243,14636,1,8,0:0:0:0:
156,247,14704,1,0,0:0:0:0:
181,218,14977,1,0,0:0:0:0:
173,222,15046,1,0,0:0:0:0:
137,223,15114,1,8,0:0:0:0:
152,242,15184,1,8,0:0:0:0:
152,242,15252,1,0,0:0:0:0:
174,223,15389,1,8,0:0:0:0:
161,200,15458,1,8,0:0:0:0:
166,243,15526,1,0,0:0:0:0:
140,248,15663,1,8,0:0:0:0:
144,282,15731,1,8,0:0:0:0:
148,224,15800,1,0,0:0:0:0:
148,224,15937,1,8,0:0:0:0:
151,226,16211,1,8,0:0:0:0:
155,205,16622,1,0,0:0:0:0:
152,242,16759,1,8,0:0:0:0:
152,243,16828,1,8,0:0:0:0:
156,247,16896,1,0,0:0:0:0:
181,218,17169,1,0,0:0:0:0:
173,222,17238,1,0,0:0:0:0:
137,223,17306,1,8,0:0:0:0:
152,242,17376,1,8,0:0:0:0:
152,242,17444,1,0,0:0:0:0:
145,238,17581,1,8,0:0:0:0:
129,207,17718,1,0,0:0:0:0:
141,218,17786,1,8,0:0:0:0:
141,215,17855,1,0,0:0:0:0:
142,212,17923,1,0,0:0:0:0:
141,209,17992,1,8,0:0:0:0:
145,207,18129,1,0,0:0:0:0:
160,215,18197,1,8,0:0:0:0:
160,215,18266,1,0,0:0:0:0:
160,215,18334,1,0,0:0:0:0:
145,221,18403,1,8,0:0:0:0:
148,222,18540,1,0,0:0:0:0:
166,232,18608,1,0,0:0:0:0:
159,223,18677,1,8,0:0:0:0:
130,232,18814,1,8,0:0:0:0:
130,233,18882,1,8,0:0:0:0:
155,231,18951,1,0,0:0:0:0:
155,231,19019,1,0,0:0:0:0:
156,231,19088,1,8,0:0:0:0:
112,228,19225,1,8,0:0:0:0:
131,222,19293,1,8,0:0:0:0:
135,217,19362,1,0,0:0:0:0:
137,227,19499,1,8,0:0:0:0:
136,261,19567,1,8,0:0:0:0:
126,248,19636,1,0,0:0:0:0:
127,258,19773,1,0,0:0:0:0:
138,181,19910,1,8,0:0:0:0:
126,207,19978,1,8,0:0:0:0:
126,221,20047,1,8,0:0:0:0:
129,222,20115,1,8,0:0:0:0:
130,222,20184,1,0,0:0:0:0:
117,229,20320,1,8,0:0:0:0:
117,229,20389,1,8,0:0:0:0:
140,234,20457,1,0,0:0:0:0:
139,238,20526,1,0,0:0:0:0:
139,238,20594,1,8,0:0:0:0:
150,206,20731,1,0,0:0:0:0:
150,207,20800,1,0,0:0:0:0:
150,210,20868,1,8,0:0:0:0:
179,238,21005,1,0,0:0:0:0:
179,238,21074,1,0,0:0:0:0:
179,238,21142,1,0,0:0:0:0:
179,238,21211,1,0,0:0:0:0:
179,238,21279,1,8,0:0:0:0:
146,227,21416,1,8,0:0:0:0:
146,228,21485,1,8,0:0:0:0:
145,228,21553,1,0,0:0:0:0:
137,227,21690,1,8,0:0:0:0:
137,227,21759,1,8,0:0:0:0:
137,227,21827,1,0,0:0:0:0:
146,227,21964,1,8,0:0:0:0:
129,207,22101,1,0,0:0:0:0:
141,218,22169,1,8,0:0:0:0:
141,215,22238,1,0,0:0:0:0:
142,212,22306,1,0,0:0:0:0:
141,209,22375,1,8,0:0:0:0:
145,207,22512,1,0,0:0:0:0:
160,215,22580,1,8,0:0:0:0:
160,215,22649,1,0,0:0:0:0:
160,215,22717,1,0,0:0:0:0:
145,221,22786,1,8,0:0:0:0:
148,222,22923,1,0,0:0:0:0:
166,232,22991,1,0,0:0:0:0:
159,223,23060,1,8,0:0:0:0:
130,232,23197,1,8,0:0:0:0:
130,233,23265,1,8,0:0:0:0:
155,231,23334,1,0,0:0:0:0:
155,231,23402,1,0,0:0:0:0:
156,231,23471,1,8,0:0:0:0:
112,228,23608,1,8,0:0:0:0:
131,222,23676,1,8,0:0:0:0:
135,217,23745,1,0,0:0:0:0:
137,227,23882,1,8,0:0:0:0:
136,261,23950,1,8,0:0:0:0:
126,248,24019,1,0,0:0:0:0:
127,258,24156,1,0,0:0:0:0:
138,181,24293,1,8,0:0:0:0:
126,207,24361,1,8,0:0:0:0:
126,221,24430,1,8,0:0:0:0:
129,222,24498,1,8,0:0:0:0:
130,222,24567,1,0,0:0:0:0:
117,229,24703,1,8,0:0:0:0:
117,229,24772,1,8,0:0:0:0:
140,234,24840,1,0,0:0:0:0:
139,238,24909,1,0,0:0:0:0:
139,238,24977,1,8,0:0:0:0:
150,206,25114,1,0,0:0:0:0:
150,207,25183,1,0,0:0:0:0:
150,210,25251,1,8,0:0:0:0:
179,238,25388,5,0,0:0:0:0:
179,238,25457,1,0,0:0:0:0:
179,238,25525,1,0,0:0:0:0:
179,238,25594,1,0,0:0:0:0:
179,238,25662,1,8,0:0:0:0:
146,227,25799,1,8,0:0:0:0:
146,228,25868,1,8,0:0:0:0:
145,228,25936,1,0,0:0:0:0:
137,227,26073,1,8,0:0:0:0:
137,227,26142,1,8,0:0:0:0:
137,227,26210,1,0,0:0:0:0:
146,227,26347,1,8,0:0:0:0:
123,274,26485,5,0,0:0:0:0:
133,283,26622,1,0,0:0:0:0:
133,284,26690,1,0,0:0:0:0:
134,290,26759,1,8,0:0:0:0:
131,302,26896,1,0,0:0:0:0:
155,253,27170,1,8,0:0:0:0:
158,229,27307,1,8,0:0:0:0:
158,231,27375,1,8,0:0:0:0:
160,229,27444,1,0,0:0:0:0:
152,236,27581,1,0,0:0:0:0:
161,240,27718,1,8,0:0:0:0:
155,253,27855,1,8,0:0:0:0:
155,234,27992,1,0,0:0:0:0:
150,212,28129,1,8,0:0:0:0:
158,261,28197,1,0,0:0:0:0:
169,273,28266,1,8,0:0:0:0:
164,251,28403,1,0,0:0:0:0:
164,251,28471,1,0,0:0:0:0:
188,220,28540,1,8,0:0:0:0:
162,204,28608,1,8,0:0:0:0:
123,274,28677,1,0,0:0:0:0:
153,188,28814,1,0,0:0:0:0:
155,190,28882,1,0,0:0:0:0:
121,223,28951,1,8,0:0:0:0:
131,302,29088,1,0,0:0:0:0:
146,187,29362,1,8,0:0:0:0:
151,197,29499,1,0,0:0:0:0:
152,199,29567,1,0,0:0:0:0:
148,217,29636,1,8,0:0:0:0:
152,236,29773,1,0,0:0:0:0:
158,232,29910,1,8,0:0:0:0:
172,236,30047,1,0,0:0:0:0:
164,265,30092,1,8,0:0:0:0:
171,271,30138,1,8,0:0:0:0:
151,274,30184,1,0,0:0:0:0:
162,214,30320,1,8,0:0:0:0:
162,214,30389,1,8,0:0:0:0:
165,221,30457,1,0,0:0:0:0:
172,161,30594,1,8,0:0:0:0:
138,176,30663,1,0,0:0:0:0:
188,220,30732,1,8,0:0:0:0:
145,225,30800,1,8,0:0:0:0:
123,274,30868,5,0,0:0:0:0:
133,283,31005,1,0,0:0:0:0:
133,284,31073,1,0,0:0:0:0:
134,290,31142,1,8,0:0:0:0:
131,302,31279,1,0,0:0:0:0:
151,224,31416,1,0,0:0:0:0:
155,253,31553,1,8,0:0:0:0:
158,229,31690,1,8,0:0:0:0:
158,231,31758,1,8,0:0:0:0:
160,229,31827,1,0,0:0:0:0:
152,236,31964,1,0,0:0:0:0:
161,240,32101,1,8,0:0:0:0:
155,253,32238,1,8,0:0:0:0:
155,234,32375,1,0,0:0:0:0:
150,212,32512,1,8,0:0:0:0:
158,261,32580,1,0,0:0:0:0:
169,273,32649,1,8,0:0:0:0:
164,251,32786,1,0,0:0:0:0:
164,251,32854,1,0,0:0:0:0:
188,220,32923,1,8,0:0:0:0:
162,204,32991,1,8,0:0:0:0:
123,274,33060,1,0,0:0:0:0:
153,188,33197,1,0,0:0:0:0:
155,190,33265,1,0,0:0:0:0:
121,223,33334,1,8,0:0:0:0:
131,302,33471,1,0,0:0:0:0:
146,187,33745,1,8,0:0:0:0:
151,197,33882,1,0,0:0:0:0:
152,199,33950,1,0,0:0:0:0:
148,217,34019,1,8,0:0:0:0:
152,236,34156,1,0,0:0:0:0:
158,232,34293,1,8,0:0:0:0:
172,236,34430,1,0,0:0:0:0:
180,192,34499,1,8,0:0:0:0:
151,274,34567,1,0,0:0:0:0:
162,214,34703,1,8,0:0:0:0:
162,214,34772,1,8,0:0:0:0:
165,221,34840,1,0,0:0:0:0:
172,161,34977,1,8,0:0:0:0:
138,176,35046,1,0,0:0:0:0:
188,220,35115,1,8,0:0:0:0:
145,225,35183,1,8,0:0:0:0:
123,274,35252,5,0,0:0:0:0:
133,283,35389,1,0,0:0:0:0:
133,284,35457,1,0,0:0:0:0:
134,290,35526,1,8,0:0:0:0:
131,302,35663,1,0,0:0:0:0:
155,253,35937,1,8,0:0:0:0:
158,229,36074,1,8,0:0:0:0:
158,231,36142,1,8,0:0:0:0:
160,229,36211,1,0,0:0:0:0:
152,236,36348,1,0,0:0:0:0:
161,240,36485,1,8,0:0:0:0:
155,253,36622,1,8,0:0:0:0:
155,234,36759,1,0,0:0:0:0:
150,212,36896,1,8,0:0:0:0:
158,261,36964,1,0,0:0:0:0:
169,273,37033,1,8,0:0:0:0:
164,251,37170,1,0,0:0:0:0:
164,251,37238,1,0,0:0:0:0:
188,220,37307,1,8,0:0:0:0:
162,204,37375,1,8,0:0:0:0:
123,274,37444,1,0,0:0:0:0:
153,188,37581,1,0,0:0:0:0:
155,190,37649,1,0,0:0:0:0:
121,223,37718,1,8,0:0:0:0:
131,302,37855,1,0,0:0:0:0:
146,187,38129,1,8,0:0:0:0:
151,197,38266,1,0,0:0:0:0:
152,199,38334,1,0,0:0:0:0:
148,217,38403,1,8,0:0:0:0:
152,236,38540,1,0,0:0:0:0:
158,232,38677,1,8,0:0:0:0:
172,236,38814,1,0,0:0:0:0:
158,162,38882,1,8,0:0:0:0:
151,274,38951,1,0,0:0:0:0:
162,214,39087,1,8,0:0:0:0:
162,214,39156,1,8,0:0:0:0:
165,221,39224,1,0,0:0:0:0:
146,229,39362,1,8,0:0:0:0:
145,234,39430,1,8,0:0:0:0:
151,230,39499,1,0,0:0:0:0:
151,249,39544,1,8,0:0:0:0:
162,227,39590,1,8,0:0:0:0:
152,249,39636,1,0,0:0:0:0:
190,197,39773,1,8,0:0:0:0:
147,200,39841,1,8,0:0:0:0:
150,196,39910,1,0,0:0:0:0:
139,260,40047,1,8,0:0:0:0:
194,181,40115,1,8,0:0:0:0:
145,228,40184,1,0,0:0:0:0:
145,228,40252,1,0,0:0:0:0:
142,218,40320,1,8,0:0:0:0:
146,218,40457,1,0,0:0:0:0:
153,232,40526,1,0,0:0:0:0:
152,232,40594,1,8,0:0:0:0:
153,186,40731,1,8,0:0:0:0:
159,180,40800,1,0,0:0:0:0:
144,216,40868,1,8,0:0:0:0:
157,193,40937,1,8,0:0:0:0:
157,193,41005,1,0,0:0:0:0:
148,206,41142,1,8,0:0:0:0:
133,234,41211,1,8,0:0:0:0:
127,228,41279,1,0,0:0:0:0:
131,231,41416,1,8,0:0:0:0:
133,250,41485,1,8,0:0:0:0:
130,243,41553,1,0,0:0:0:0:
144,216,41690,1,0,0:0:0:0:
92,260,41827,1,8,0:0:0:0:
154,230,41896,1,8,0:0:0:0:
140,235,41964,1,8,0:0:0:0:
140,235,42033,1,8,0:0:0:0:
148,226,42101,1,0,0:0:0:0:
148,230,42238,1,8,0:0:0:0:
147,231,42307,1,8,0:0:0:0:
146,229,42375,1,0,0:0:0:0:
158,240,42444,1,0,0:0:0:0:
158,239,42512,1,8,0:0:0:0:
164,239,42649,1,0,0:0:0:0:
166,241,42718,1,0,0:0:0:0:
166,241,42786,1,8,0:0:0:0:
190,304,44019,5,0,0:0:0:0:
184,259,44088,1,0,0:0:0:0:
180,305,44156,1,0,0:0:0:0:
184,259,44225,1,0,0:0:0:0:
185,267,44293,1,8,0:0:0:0:
158,233,44362,1,8,0:0:0:0:
145,273,44430,1,0,0:0:0:0:
148,253,44499,1,0,0:0:0:0:
168,267,44567,1,8,0:0:0:0:
152,237,44704,1,0,0:0:0:0:
168,244,44773,1,8,0:0:0:0:
159,205,44910,1,0,0:0:0:0:
139,274,44978,1,8,0:0:0:0:
162,261,45115,1,0,0:0:0:0:
149,196,45184,1,8,0:0:0:0:
138,291,45252,1,0,0:0:0:0:
131,246,45320,1,0,0:0:0:0:
185,267,45389,1,8,0:0:0:0:
140,251,45458,1,8,0:0:0:0:
145,273,45526,1,0,0:0:0:0:
126,210,45594,1,8,0:0:0:0:
139,214,45663,1,0,0:0:0:0:
130,192,45800,1,8,0:0:0:0:
159,205,45868,1,8,0:0:0:0:
133,207,46005,1,0,0:0:0:0:
128,269,46074,1,8,0:0:0:0:
142,237,46211,1,0,0:0:0:0:
142,237,46279,1,0,0:0:0:0:
141,237,46348,1,0,0:0:0:0:
141,238,46416,1,0,0:0:0:0:
145,262,46485,1,8,0:0:0:0:
167,229,46553,1,8,0:0:0:0:
166,232,46622,1,0,0:0:0:0:
145,225,46690,1,8,0:0:0:0:
136,214,46759,1,0,0:0:0:0:
136,214,46896,1,8,0:0:0:0:
141,213,46964,1,0,0:0:0:0:
153,225,47101,1,0,0:0:0:0:
161,273,47170,1,8,0:0:0:0:
158,231,47307,1,0,0:0:0:0:
158,232,47375,1,8,0:0:0:0:
156,232,47444,1,0,0:0:0:0:
155,232,47512,1,0,0:0:0:0:
145,262,47581,1,8,0:0:0:0:
167,229,47649,1,8,0:0:0:0:
166,232,47718,1,0,0:0:0:0:
166,232,47786,1,0,0:0:0:0:
146,259,47855,1,8,0:0:0:0:
179,198,47992,1,8,0:0:0:0:
175,227,48060,1,0,0:0:0:0:
145,136,48197,1,0,0:0:0:0:
161,273,48266,1,8,0:0:0:0:
190,304,48403,5,0,0:0:0:0:
184,259,48472,1,0,0:0:0:0:
180,305,48540,1,0,0:0:0:0:
184,259,48609,1,0,0:0:0:0:
185,267,48677,1,8,0:0:0:0:
158,233,48746,1,8,0:0:0:0:
145,273,48814,1,0,0:0:0:0:
148,253,48883,1,0,0:0:0:0:
168,267,48951,1,8,0:0:0:0:
152,237,49088,1,0,0:0:0:0:
168,244,49157,1,8,0:0:0:0:
159,205,49294,1,0,0:0:0:0:
139,274,49362,1,8,0:0:0:0:
162,261,49499,1,0,0:0:0:0:
149,196,49568,1,8,0:0:0:0:
138,291,49636,1,0,0:0:0:0:
131,246,49704,1,0,0:0:0:0:
185,267,49773,1,8,0:0:0:0:
140,251,49842,1,8,0:0:0:0:
145,273,49910,1,0,0:0:0:0:
126,210,49978,1,8,0:0:0:0:
139,214,50047,1,0,0:0:0:0:
130,192,50184,1,8,0:0:0:0:
159,205,50252,1,8,0:0:0:0:
133,207,50389,1,0,0:0:0:0:
128,269,50458,1,8,0:0:0:0:
142,237,50595,1,0,0:0:0:0:
142,237,50663,1,0,0:0:0:0:
141,237,50732,1,0,0:0:0:0:
141,238,50800,1,0,0:0:0:0:
145,262,50869,1,8,0:0:0:0:
167,229,50937,1,8,0:0:0:0:
166,232,51006,1,0,0:0:0:0:
145,225,51074,1,8,0:0:0:0:
136,214,51143,1,0,0:0:0:0:
136,214,51280,1,8,0:0:0:0:
141,213,51348,1,0,0:0:0:0:
153,225,51485,1,0,0:0:0:0:
161,273,51554,1,8,0:0:0:0:
158,231,51691,1,0,0:0:0:0:
158,232,51759,1,8,0:0:0:0:
156,232,51828,1,0,0:0:0:0:
155,232,51896,1,0,0:0:0:0:
145,262,51965,1,8,0:0:0:0:
167,229,52033,1,8,0:0:0:0:
166,232,52102,1,0,0:0:0:0:
166,232,52170,1,0,0:0:0:0:
146,259,52239,1,8,0:0:0:0:
179,198,52376,1,8,0:0:0:0:
175,227,52444,1,0,0:0:0:0:
145,136,52581,1,0,0:0:0:0:
161,273,52650,1,8,0:0:0:0:
190,304,52786,5,0,0:0:0:0:
184,259,52855,1,0,0:0:0:0:
180,305,52923,1,0,0:0:0:0:
184,259,52992,1,0,0:0:0:0:
185,267,53060,1,8,0:0:0:0:
158,233,53129,1,8,0:0:0:0:
145,273,53197,1,0,0:0:0:0:
148,253,53266,1,0,0:0:0:0:
168,267,53334,1,8,0:0:0:0:
152,237,53471,1,0,0:0:0:0:
168,244,53540,1,8,0:0:0:0:
159,205,53677,1,0,0:0:0:0:
139,274,53745,1,8,0:0:0:0:
162,261,53882,1,0,0:0:0:0:
149,196,53951,1,8,0:0:0:0:
138,291,54019,1,0,0:0:0:0:
131,246,54087,1,0,0:0:0:0:
185,267,54156,1,8,0:0:0:0:
140,251,54225,1,8,0:0:0:0:
145,273,54293,1,0,0:0:0:0:
126,210,54361,1,8,0:0:0:0:
139,214,54430,1,0,0:0:0:0:
130,192,54567,1,8,0:0:0:0:
159,205,54635,1,8,0:0:0:0:
133,207,54772,1,0,0:0:0:0:
128,269,54841,1,8,0:0:0:0:
142,237,54978,1,0,0:0:0:0:
142,237,55046,1,0,0:0:0:0:
141,237,55115,1,0,0:0:0:0:
141,238,55183,1,0,0:0:0:0:
145,262,55252,1,8,0:0:0:0:
167,229,55320,1,8,0:0:0:0:
166,232,55389,1,0,0:0:0:0:
145,225,55457,1,8,0:0:0:0:
136,214,55526,1,0,0:0:0:0:
136,214,55663,1,8,0:0:0:0:
141,213,55731,1,0,0:0:0:0:
153,225,55868,1,0,0:0:0:0:
161,273,55937,1,8,0:0:0:0:
158,231,56074,1,0,0:0:0:0:
158,232,56142,1,8,0:0:0:0:
156,232,56211,1,0,0:0:0:0:
155,232,56279,1,0,0:0:0:0:
145,262,56348,1,8,0:0:0:0:
167,229,56416,1,8,0:0:0:0:
166,232,56485,1,0,0:0:0:0:
166,232,56553,1,0,0:0:0:0:
146,259,56622,1,8,0:0:0:0:
179,198,56759,1,8,0:0:0:0:
175,227,56827,1,0,0:0:0:0:
145,136,56964,1,0,0:0:0:0:
161,273,57033,1,8,0:0:0:0:
190,304,57170,5,0,0:0:0:0:
184,259,57239,1,0,0:0:0:0:
180,305,57307,1,0,0:0:0:0:
184,259,57376,1,0,0:0:0:0:
185,267,57444,1,8,0:0:0:0:
158,233,57513,1,8,0:0:0:0:
145,273,57581,1,0,0:0:0:0:
148,253,57650,1,0,0:0:0:0:
168,267,57718,1,8,0:0:0:0:
152,237,57855,1,0,0:0:0:0:
168,244,57924,1,8,0:0:0:0:
159,205,58061,1,0,0:0:0:0:
139,274,58129,1,8,0:0:0:0:
162,261,58266,1,0,0:0:0:0:
149,196,58335,1,8,0:0:0:0:
138,291,58403,1,0,0:0:0:0:
131,246,58471,1,0,0:0:0:0:
185,267,58540,1,8,0:0:0:0:
140,251,58609,1,8,0:0:0:0:
145,273,58677,1,0,0:0:0:0:
126,210,58745,1,8,0:0:0:0:
139,214,58814,1,0,0:0:0:0:
130,192,58951,1,8,0:0:0:0:
159,205,59019,1,8,0:0:0:0:
133,207,59156,1,0,0:0:0:0:
128,269,59225,1,8,0:0:0:0:
142,237,59362,1,0,0:0:0:0:
142,237,59430,1,0,0:0:0:0:
141,237,59499,1,0,0:0:0:0:
141,238,59567,1,0,0:0:0:0:
145,262,59636,1,8,0:0:0:0:
167,229,59704,1,8,0:0:0:0:
166,232,59773,1,0,0:0:0:0:
145,225,59841,1,8,0:0:0:0:
136,214,59910,1,0,0:0:0:0:
136,214,60047,1,8,0:0:0:0:
141,213,60115,1,0,0:0:0:0:
153,225,60252,1,0,0:0:0:0:
161,273,60321,5,8,0:0:0:0:
158,231,60458,1,0,0:0:0:0:
158,232,60526,1,8,0:0:0:0:
156,232,60595,1,0,0:0:0:0:
155,232,60663,1,0,0:0:0:0:
145,262,60732,1,8,0:0:0:0:
167,229,60800,1,8,0:0:0:0:
166,232,60869,1,0,0:0:0:0:
166,232,60937,1,0,0:0:0:0:
146,259,61006,1,8,0:0:0:0:
179,198,61143,1,8,0:0:0:0:
175,227,61211,1,0,0:0:0:0:
145,136,61348,1,0,0:0:0:0:
161,273,61417,1,8,0:0:0:0:
139,265,61553,5,0,0:0:0:0:
124,268,61690,1,8,0:0:0:0:
124,268,61759,1,8,0:0:0:0:
136,268,61827,1,0,0:0:0:0:
136,268,61964,1,8,0:0:0:0:
136,268,62101,1,0,0:0:0:0:
163,236,62170,1,0,0:0:0:0:
163,237,62238,1,8,0:0:0:0:
138,209,62307,1,0,0:0:0:0:
137,214,62375,1,8,0:0:0:0:
136,214,62444,1,8,0:0:0:0:
128,241,62512,1,0,0:0:0:0:
128,241,62649,1,8,0:0:0:0:
149,257,62786,1,0,0:0:0:0:
154,226,62923,1,8,0:0:0:0:
145,206,62992,1,0,0:0:0:0:
160,255,63060,1,8,0:0:0:0:
144,261,63129,1,8,0:0:0:0:
148,253,63197,1,0,0:0:0:0:
165,282,63266,1,0,0:0:0:0:
164,268,63334,1,8,0:0:0:0:
140,270,63471,1,0,0:0:0:0:
143,272,63540,1,0,0:0:0:0:
143,275,63608,1,8,0:0:0:0:
181,318,63745,1,0,0:0:0:0:
139,268,63882,1,8,0:0:0:0:
147,225,63951,1,8,0:0:0:0:
146,228,64019,1,0,0:0:0:0:
158,230,64156,1,8,0:0:0:0:
151,266,64225,1,0,0:0:0:0:
156,292,64293,1,8,0:0:0:0:
142,217,64362,1,0,0:0:0:0:
146,297,64430,1,0,0:0:0:0:
148,282,64499,1,8,0:0:0:0:
172,217,64636,1,0,0:0:0:0:
143,246,64704,1,8,0:0:0:0:
174,229,64841,1,0,0:0:0:0:
174,229,64910,1,0,0:0:0:0:
146,267,64978,1,8,0:0:0:0:
132,257,65047,1,8,0:0:0:0:
146,267,65115,1,0,0:0:0:0:
143,268,65252,1,8,0:0:0:0:
136,232,65320,1,8,0:0:0:0:
136,242,65389,1,0,0:0:0:0:
170,256,65526,1,0,0:0:0:0:
170,256,65594,1,8,0:0:0:0:
162,263,65731,1,8,0:0:0:0:
161,263,65800,1,0,0:0:0:0:
161,263,65937,1,8,0:0:0:0:
159,262,66074,1,0,0:0:0:0:
136,232,66142,1,0,0:0:0:0:
158,262,66211,1,8,0:0:0:0:
151,227,66348,1,0,0:0:0:0:
158,227,66416,1,0,0:0:0:0:
151,227,66485,1,8,0:0:0:0:
163,236,66554,1,0,0:0:0:0:
163,237,66622,1,8,0:0:0:0:
154,260,66691,1,8,0:0:0:0:
154,261,66759,1,0,0:0:0:0:
136,243,66896,1,8,0:0:0:0:
150,247,67033,1,8,0:0:0:0:
127,246,67101,1,8,0:0:0:0:
149,257,67170,1,0,0:0:0:0:
154,226,67307,1,8,0:0:0:0:
163,273,67375,1,8,0:0:0:0:
139,229,67444,1,0,0:0:0:0:
144,261,67513,1,8,0:0:0:0:
148,253,67581,1,0,0:0:0:0:
153,284,67649,1,0,0:0:0:0:
134,251,67718,1,8,0:0:0:0:
140,270,67855,1,0,0:0:0:0:
143,272,67924,1,0,0:0:0:0:
133,246,67992,1,0,0:0:0:0:
164,234,68129,1,8,0:0:0:0:
154,226,68266,1,0,0:0:0:0:
176,246,68334,1,0,0:0:0:0:
160,243,68403,1,8,0:0:0:0:
152,278,68540,1,0,0:0:0:0:
175,260,68608,1,0,0:0:0:0:
175,260,68677,1,8,0:0:0:0:
146,297,68814,1,0,0:0:0:0:
188,223,68882,1,0,0:0:0:0:
162,219,68951,1,8,0:0:0:0:
143,246,69088,1,8,0:0:0:0:
174,229,69225,1,0,0:0:0:0:
174,229,69294,1,0,0:0:0:0:
137,269,69362,1,8,0:0:0:0:
153,266,69430,1,8,0:0:0:0:
131,253,69499,1,0,0:0:0:0:
131,253,69567,1,8,0:0:0:0:
153,290,69636,1,0,0:0:0:0:
144,238,69773,1,8,0:0:0:0:
154,259,69910,1,8,0:0:0:0:
170,256,69978,1,8,0:0:0:0:
143,288,70047,1,0,0:0:0:0:
138,306,70184,1,8,0:0:0:0:
141,278,70320,1,0,0:0:0:0:
124,236,70457,1,8,0:0:0:0:
137,282,70526,1,8,0:0:0:0:
117,290,70594,1,0,0:0:0:0:
139,221,70731,1,8,0:0:0:0:
147,262,70800,1,0,0:0:0:0:
164,282,70868,1,8,0:0:0:0:
165,286,70937,1,8,0:0:0:0:
149,271,71005,1,0,0:0:0:0:
149,275,71074,1,0,0:0:0:0:
138,301,71142,1,8,0:0:0:0:
171,259,71279,1,0,0:0:0:0:
171,261,71416,1,8,0:0:0:0:
143,237,71485,1,8,0:0:0:0:
159,249,71553,1,0,0:0:0:0:
152,224,71690,1,8,0:0:0:0:
131,265,71759,1,0,0:0:0:0:
148,232,71827,1,8,0:0:0:0:
142,234,71896,1,0,0:0:0:0:
141,234,71964,1,8,0:0:0:0:
147,239,72033,1,8,0:0:0:0:
146,243,72101,1,0,0:0:0:0:
146,205,72238,1,8,0:0:0:0:
151,281,72307,1,0,0:0:0:0:
149,282,72375,1,8,0:0:0:0:
149,282,72512,1,0,0:0:0:0:
167,285,72649,1,8,0:0:0:0:
161,317,72786,1,0,0:0:0:0:
161,317,72855,1,0,0:0:0:0:
161,317,72923,1,0,0:0:0:0:
161,317,72992,1,0,0:0:0:0:
144,302,73060,1,8,0:0:0:0:
118,291,73197,1,8,0:0:0:0:
147,237,73266,1,0,0:0:0:0:
165,242,73403,1,0,0:0:0:0:
181,249,73471,1,8,0:0:0:0:
141,279,73608,1,0,0:0:0:0:
145,279,73745,1,8,0:0:0:0:
167,230,73882,1,0,0:0:0:0:
145,220,73951,1,0,0:0:0:0:
166,230,74019,1,8,0:0:0:0:
142,253,74088,1,8,0:0:0:0:
142,253,74156,1,0,0:0:0:0:
156,227,74293,1,0,0:0:0:0:
149,256,74362,1,8,0:0:0:0:
147,239,74499,1,8,0:0:0:0:
146,241,74567,1,0,0:0:0:0:
136,234,74704,1,8,0:0:0:0:
160,205,74841,1,0,0:0:0:0:
160,205,74978,1,8,0:0:0:0:
160,205,75047,1,8,0:0:0:0:
150,231,75115,1,0,0:0:0:0:
152,194,75184,1,8,0:0:0:0:
150,197,75252,1,0,0:0:0:0:
162,208,75320,1,0,0:0:0:0:
154,197,75389,1,8,0:0:0:0:
122,271,75526,1,0,0:0:0:0:
148,240,75663,1,8,0:0:0:0:
170,242,75800,1,0,0:0:0:0:
152,217,75868,1,0,0:0:0:0:
151,219,75937,1,8,0:0:0:0:
156,267,76074,1,0,0:0:0:0:
156,268,76142,1,8,0:0:0:0:
146,238,76211,1,0,0:0:0:0:
153,248,76279,1,8,0:0:0:0:
148,240,76348,1,0,0:0:0:0:
151,246,76416,1,0,0:0:0:0:
137,208,76485,1,8,0:0:0:0:
137,212,76622,1,0,0:0:0:0:
170,184,76759,1,0,0:0:0:0:
147,192,76896,1,8,0:0:0:0:
120,224,76964,1,8,0:0:0:0:
150,224,77033,1,0,0:0:0:0:
152,232,77170,1,8,0:0:0:0:
126,194,77307,1,0,0:0:0:0:
136,204,77444,1,8,0:0:0:0:
150,187,77512,1,0,0:0:0:0:
150,188,77581,1,8,0:0:0:0:
151,184,77718,1,0,0:0:0:0:
148,160,77855,1,8,0:0:0:0:
151,238,77992,1,0,0:0:0:0:
131,248,78060,1,0,0:0:0:0:
152,237,78129,1,8,0:0:0:0:
145,220,78403,1,0,0:0:0:0:
143,217,78540,1,8,0:0:0:0:
148,283,79088,1,8,0:0:0:0:
132,272,79156,1,0,0:0:0:0:
132,272,79225,1,0,0:0:0:0:
154,235,79362,1,8,0:0:0:0:
154,235,79430,1,0,0:0:0:0:
154,235,79499,1,0,0:0:0:0:
154,235,79636,1,8,0:0:0:0:
154,239,79704,1,0,0:0:0:0:
157,243,79773,1,0,0:0:0:0:
154,239,79910,1,8,0:0:0:0:
158,219,79978,1,0,0:0:0:0:
158,223,80047,1,0,0:0:0:0:
155,283,80184,1,8,0:0:0:0:
148,284,80252,1,8,0:0:0:0:
147,283,80320,1,0,0:0:0:0:
176,303,80457,1,8,0:0:0:0:
149,244,80526,1,8,0:0:0:0:
139,301,80594,1,0,0:0:0:0:
176,273,80731,1,8,0:0:0:0:
176,287,80800,1,8,0:0:0:0:
176,287,80868,1,0,0:0:0:0:
163,325,81005,1,8,0:0:0:0:
171,338,81074,1,8,0:0:0:0:
174,351,81142,1,0,0:0:0:0:
181,277,81279,1,8,0:0:0:0:
172,289,81348,1,0,0:0:0:0:
172,289,81416,1,0,0:0:0:0:
170,318,81553,1,8,0:0:0:0:
171,333,81622,1,8,0:0:0:0:
149,261,81690,1,0,0:0:0:0:
149,261,81827,1,8,0:0:0:0:
166,280,81896,1,0,0:0:0:0:
166,280,81964,1,0,0:0:0:0:
165,275,82101,1,8,0:0:0:0:
171,306,82170,1,8,0:0:0:0:
166,284,82238,1,0,0:0:0:0:
161,254,82375,1,8,0:0:0:0:
147,204,82444,1,0,0:0:0:0:
122,222,82512,1,8,0:0:0:0:
140,226,82649,1,0,0:0:0:0:
155,237,82718,1,0,0:0:0:0:
140,232,82786,1,8,0:0:0:0:
149,191,82923,1,0,0:0:0:0:
149,191,82992,1,8,0:0:0:0:
153,264,83060,1,0,0:0:0:0:
137,264,83197,1,8,0:0:0:0:
137,264,83266,1,8,0:0:0:0:
137,263,83334,1,0,0:0:0:0:
148,283,83471,1,8,0:0:0:0:
132,272,83539,1,0,0:0:0:0:
132,272,83608,1,0,0:0:0:0:
154,235,83745,1,8,0:0:0:0:
154,235,83813,1,0,0:0:0:0:
154,235,83882,1,0,0:0:0:0:
154,235,84019,1,8,0:0:0:0:
154,239,84087,1,0,0:0:0:0:
157,243,84156,1,0,0:0:0:0:
154,239,84293,1,8,0:0:0:0:
158,219,84361,1,0,0:0:0:0:
158,223,84430,1,0,0:0:0:0:
155,283,84567,1,8,0:0:0:0:
148,284,84635,1,8,0:0:0:0:
147,283,84703,1,0,0:0:0:0:
176,303,84840,1,8,0:0:0:0:
149,244,84909,1,8,0:0:0:0:
139,301,84977,1,0,0:0:0:0:
176,273,85114,1,8,0:0:0:0:
176,287,85183,1,8,0:0:0:0:
176,287,85251,1,0,0:0:0:0:
163,325,85388,1,8,0:0:0:0:
171,338,85457,1,8,0:0:0:0:
174,351,85525,1,0,0:0:0:0:
181,277,85662,1,8,0:0:0:0:
172,289,85731,1,0,0:0:0:0:
172,289,85799,1,0,0:0:0:0:
170,318,85936,1,8,0:0:0:0:
171,333,86005,1,8,0:0:0:0:
149,261,86073,1,0,0:0:0:0:
149,261,86210,1,8,0:0:0:0:
166,280,86279,1,0,0:0:0:0:
166,280,86347,1,0,0:0:0:0:
165,275,86484,1,8,0:0:0:0:
171,306,86553,1,8,0:0:0:0:
166,284,86621,1,0,0:0:0:0:
161,254,86758,1,8,0:0:0:0:
147,204,86827,1,0,0:0:0:0:
122,222,86895,1,8,0:0:0:0:
140,226,87032,1,0,0:0:0:0:
155,237,87101,1,0,0:0:0:0:
140,232,87169,1,8,0:0:0:0:
149,191,87306,1,0,0:0:0:0:
149,191,87375,1,8,0:0:0:0:
153,264,87443,1,0,0:0:0:0:
137,264,87580,1,8,0:0:0:0:
137,264,87649,1,8,0:0:0:0:
137,263,87717,1,0,0:0:0:0:
148,283,87855,1,8,0:0:0:0:
132,272,87923,1,0,0:0:0:0:
132,272,87992,1,0,0:0:0:0:
154,235,88129,1,8,0:0:0:0:
154,235,88197,1,0,0:0:0:0:
154,235,88266,1,0,0:0:0:0:
154,235,88403,1,8,0:0:0:0:
154,239,88471,1,0,0:0:0:0:
157,243,88540,1,0,0:0:0:0:
154,239,88677,1,8,0:0:0:0:
158,219,88745,1,0,0:0:0:0:
158,223,88814,1,0,0:0:0:0:
155,283,88951,1,8,0:0:0:0:
148,284,89019,1,8,0:0:0:0:
147,283,89087,1,0,0:0:0:0:
176,303,89224,1,8,0:0:0:0:
149,244,89293,1,8,0:0:0:0:
139,301,89361,1,0,0:0:0:0:
176,273,89498,1,8,0:0:0:0:
176,287,89567,1,8,0:0:0:0:
176,287,89635,1,0,0:0:0:0:
163,325,89772,1,8,0:0:0:0:
171,338,89841,1,8,0:0:0:0:
174,351,89909,1,0,0:0:0:0:
181,277,90046,1,8,0:0:0:0:
172,289,90115,1,0,0:0:0:0:
172,289,90183,1,0,0:0:0:0:
170,318,90320,1,8,0:0:0:0:
171,333,90389,1,8,0:0:0:0:
149,261,90457,1,0,0:0:0:0:
149,261,90594,1,8,0:0:0:0:
166,280,90663,1,0,0:0:0:0:
166,280,90731,1,0,0:0:0:0:
165,275,90868,1,8,0:0:0:0:
171,306,90937,1,8,0:0:0:0:
166,284,91005,1,0,0:0:0:0:
161,254,91142,1,8,0:0:0:0:
147,204,91211,1,0,0:0:0:0:
122,222,91279,1,8,0:0:0:0:
140,226,91416,1,0,0:0:0:0:
155,237,91485,1,0,0:0:0:0:
140,232,91553,1,8,0:0:0:0:
149,191,91690,1,0,0:0:0:0:
149,191,91759,1,8,0:0:0:0:
153,264,91827,1,0,0:0:0:0:
137,264,91964,1,8,0:0:0:0:
137,264,92033,1,8,0:0:0:0:
137,263,92101,1,0,0:0:0:0:
148,283,92238,1,8,0:0:0:0:
132,272,92306,1,0,0:0:0:0:
132,272,92375,1,0,0:0:0:0:
154,235,92512,1,8,0:0:0:0:
154,235,92580,1,0,0:0:0:0:
154,235,92649,1,0,0:0:0:0:
154,235,92786,1,8,0:0:0:0:
154,239,92854,1,0,0:0:0:0:
157,243,92923,1,0,0:0:0:0:
154,239,93060,1,8,0:0:0:0:
158,219,93128,1,0,0:0:0:0:
158,223,93197,1,0,0:0:0:0:
155,283,93334,1,8,0:0:0:0:
148,284,93402,1,8,0:0:0:0:
147,283,93470,1,0,0:0:0:0:
176,303,93607,1,8,0:0:0:0:
149,244,93676,1,8,0:0:0:0:
139,301,93744,1,0,0:0:0:0:
176,273,93881,1,8,0:0:0:0:
176,287,93950,1,8,0:0:0:0:
176,287,94018,1,0,0:0:0:0:
163,325,94155,1,8,0:0:0:0:
171,338,94224,1,8,0:0:0:0:
174,351,94292,1,0,0:0:0:0:
181,277,94429,1,8,0:0:0:0:
172,289,94498,1,0,0:0:0:0:
172,289,94566,1,0,0:0:0:0:
170,318,94703,1,8,0:0:0:0:
171,333,94772,1,8,0:0:0:0:
149,261,94840,1,0,0:0:0:0:
149,261,94977,1,8,0:0:0:0:
166,280,95046,1,0,0:0:0:0:
166,280,95114,1,0,0:0:0:0:
165,275,95251,1,8,0:0:0:0:
171,306,95320,1,8,0:0:0:0:
166,284,95388,1,0,0:0:0:0:
176,207,95526,1,8,0:0:0:0:
151,227,95663,1,8,0:0:0:0:
184,207,95800,1,0,0:0:0:0:
138,207,95937,1,8,0:0:0:0:
132,264,96005,1,8,0:0:0:0:
134,283,96074,1,0,0:0:0:0:
132,268,96211,1,0,0:0:0:0:
132,264,96348,1,8,0:0:0:0:
142,297,96416,1,8,0:0:0:0:
142,299,96485,1,8,0:0:0:0:
190,304,96622,5,0,0:0:0:0:
184,259,96691,1,0,0:0:0:0:
180,305,96759,1,0,0:0:0:0:
184,259,96828,1,0,0:0:0:0:
185,267,96896,1,8,0:0:0:0:
158,233,96965,1,8,0:0:0:0:
145,273,97033,1,0,0:0:0:0:
148,253,97102,1,0,0:0:0:0:
168,267,97170,1,8,0:0:0:0:
152,237,97307,1,0,0:0:0:0:
168,244,97376,1,8,0:0:0:0:
159,205,97513,1,0,0:0:0:0:
139,274,97581,1,8,0:0:0:0:
162,261,97718,1,0,0:0:0:0:
149,196,97787,1,8,0:0:0:0:
138,291,97855,1,0,0:0:0:0:
131,246,97923,1,0,0:0:0:0:
185,267,97992,1,8,0:0:0:0:
140,251,98061,1,8,0:0:0:0:
145,273,98129,1,0,0:0:0:0:
126,210,98197,1,8,0:0:0:0:
139,214,98266,1,0,0:0:0:0:
130,192,98403,1,8,0:0:0:0:
159,205,98471,1,8,0:0:0:0:
133,207,98608,1,0,0:0:0:0:
128,269,98677,1,8,0:0:0:0:
142,237,98814,1,0,0:0:0:0:
142,237,98882,1,0,0:0:0:0:
141,237,98951,1,0,0:0:0:0:
141,238,99019,1,0,0:0:0:0:
145,262,99088,1,8,0:0:0:0:
167,229,99156,1,8,0:0:0:0:
166,232,99225,1,0,0:0:0:0:
145,225,99293,1,8,0:0:0:0:
136,214,99362,1,0,0:0:0:0:
136,214,99499,1,8,0:0:0:0:
141,213,99567,1,0,0:0:0:0:
153,225,99704,1,0,0:0:0:0:
161,273,99773,1,8,0:0:0:0:
158,231,99910,1,0,0:0:0:0:
158,232,99978,1,8,0:0:0:0:
156,232,100047,1,0,0:0:0:0:
155,232,100115,1,0,0:0:0:0:
145,262,100184,1,8,0:0:0:0:
167,229,100252,1,8,0:0:0:0:
166,232,100321,1,0,0:0:0:0:
166,232,100389,1,0,0:0:0:0:
146,259,100458,1,8,0:0:0:0:
179,198,100595,1,8,0:0:0:0:
175,227,100663,1,0,0:0:0:0:
145,136,100800,1,0,0:0:0:0:
161,273,100869,1,8,0:0:0:0:
190,304,101006,5,0,0:0:0:0:
184,259,101075,1,0,0:0:0:0:
180,305,101143,1,0,0:0:0:0:
184,259,101212,1,0,0:0:0:0:
185,267,101280,1,8,0:0:0:0:
158,233,101349,1,8,0:0:0:0:
145,273,101417,1,0,0:0:0:0:
148,253,101486,1,0,0:0:0:0:
168,267,101554,1,8,0:0:0:0:
152,237,101691,1,0,0:0:0:0:
168,244,101760,1,8,0:0:0:0:
159,205,101897,1,0,0:0:0:0:
139,274,101965,1,8,0:0:0:0:
162,261,102102,1,0,0:0:0:0:
149,196,102171,1,8,0:0:0:0:
138,291,102239,1,0,0:0:0:0:
131,246,102307,1,0,0:0:0:0:
185,267,102376,1,8,0:0:0:0:
140,251,102445,1,8,0:0:0:0:
145,273,102513,1,0,0:0:0:0:
126,210,102581,1,8,0:0:0:0:
139,214,102650,1,0,0:0:0:0:
130,192,102787,1,8,0:0:0:0:
159,205,102855,1,8,0:0:0:0:
133,207,102992,1,0,0:0:0:0:
128,269,103061,1,8,0:0:0:0:
142,237,103198,1,0,0:0:0:0:
142,237,103266,1,0,0:0:0:0:
141,237,103335,1,0,0:0:0:0:
141,238,103403,1,0,0:0:0:0:
145,262,103472,1,8,0:0:0:0:
167,229,103540,1,8,0:0:0:0:
166,232,103609,1,0,0:0:0:0:
145,225,103677,1,8,0:0:0:0:
136,214,103746,1,0,0:0:0:0:
136,214,103883,1,8,0:0:0:0:
141,213,103951,1,0,0:0:0:0:
153,225,104088,1,0,0:0:0:0:
161,273,104157,1,8,0:0:0:0:
158,231,104294,1,0,0:0:0:0:
158,232,104362,1,8,0:0:0:0:
156,232,104431,1,0,0:0:0:0:
155,232,104499,1,0,0:0:0:0:
145,262,104568,1,8,0:0:0:0:
167,229,104636,1,8,0:0:0:0:
166,232,104705,1,0,0:0:0:0:
166,232,104773,1,0,0:0:0:0:
146,259,104842,1,8,0:0:0:0:
179,198,104979,1,8,0:0:0:0:
175,227,105047,1,0,0:0:0:0:
145,136,105184,1,0,0:0:0:0:
161,273,105253,1,8,0:0:0:0:
190,304,105389,5,0,0:0:0:0:
184,259,105458,1,0,0:0:0:0:
180,305,105526,1,0,0:0:0:0:
184,259,105595,1,0,0:0:0:0:
185,267,105663,1,8,0:0:0:0:
158,233,105732,1,8,0:0:0:0:
145,273,105800,1,0,0:0:0:0:
148,253,105869,1,0,0:0:0:0:
168,267,105937,1,8,0:0:0:0:
152,237,106074,1,0,0:0:0:0:
168,244,106143,1,8,0:0:0:0:
159,205,106280,1,0,0:0:0:0:
139,274,106348,1,8,0:0:0:0:
162,261,106485,1,0,0:0:0:0:
149,196,106554,1,8,0:0:0:0:
138,291,106622,1,0,0:0:0:0:
131,246,106690,1,0,0:0:0:0:
185,267,106759,1,8,0:0:0:0:
140,251,106828,1,8,0:0:0:0:
145,273,106896,1,0,0:0:0:0:
126,210,106964,1,8,0:0:0:0:
139,214,107033,1,0,0:0:0:0:
130,192,107170,1,8,0:0:0:0:
159,205,107238,1,8,0:0:0:0:
133,207,107375,1,0,0:0:0:0:
128,269,107444,1,8,0:0:0:0:
142,237,107581,1,0,0:0:0:0:
142,237,107649,1,0,0:0:0:0:
141,237,107718,1,0,0:0:0:0:
141,238,107786,1,0,0:0:0:0:
145,262,107855,1,8,0:0:0:0:
167,229,107923,1,8,0:0:0:0:
166,232,107992,1,0,0:0:0:0:
145,225,108060,1,8,0:0:0:0:
136,214,108129,1,0,0:0:0:0:
136,214,108266,1,8,0:0:0:0:
141,213,108334,1,0,0:0:0:0:
153,225,108471,1,0,0:0:0:0:
161,273,108540,1,8,0:0:0:0:
158,231,108677,1,0,0:0:0:0:
158,232,108745,1,8,0:0:0:0:
156,232,108814,1,0,0:0:0:0:
155,232,108882,1,0,0:0:0:0:
145,262,108951,1,8,0:0:0:0:
167,229,109019,1,8,0:0:0:0:
166,232,109088,1,0,0:0:0:0:
166,232,109156,1,0,0:0:0:0:
146,259,109225,1,8,0:0:0:0:
179,198,109362,1,8,0:0:0:0:
175,227,109430,1,0,0:0:0:0:
145,136,109567,1,0,0:0:0:0:
161,273,109636,1,8,0:0:0:0:
190,304,109773,5,0,0:0:0:0:
184,259,109842,1,0,0:0:0:0:
180,305,109910,1,0,0:0:0:0:
184,259,109979,1,0,0:0:0:0:
185,267,110047,1,8,0:0:0:0:
158,233,110116,1,8,0:0:0:0:
145,273,110184,1,0,0:0:0:0:
148,253,110253,1,0,0:0:0:0:
168,267,110321,1,8,0:0:0:0:
152,237,110458,1,0,0:0:0:0:
168,244,110527,1,8,0:0:0:0:
159,205,110664,1,0,0:0:0:0:
139,274,110732,1,8,0:0:0:0:
162,261,110869,1,0,0:0:0:0:
149,196,110938,1,8,0:0:0:0:
138,291,111006,1,0,0:0:0:0:
131,246,111074,1,0,0:0:0:0:
185,267,111143,1,8,0:0:0:0:
140,251,111212,1,8,0:0:0:0:
145,273,111280,1,0,0:0:0:0:
126,210,111348,1,8,0:0:0:0:
139,214,111417,1,0,0:0:0:0:
130,192,111554,1,8,0:0:0:0:
159,205,111622,1,8,0:0:0:0:
133,207,111759,1,0,0:0:0:0:
128,269,111828,1,8,0:0:0:0:
142,237,111965,1,0,0:0:0:0:
142,237,112033,1,0,0:0:0:0:
141,237,112102,1,0,0:0:0:0:
141,238,112170,1,0,0:0:0:0:
145,262,112239,1,8,0:0:0:0:
167,229,112307,1,8,0:0:0:0:
166,232,112376,1,0,0:0:0:0:
145,225,112444,1,8,0:0:0:0:
136,214,112513,1,0,0:0:0:0:
136,214,112650,1,8,0:0:0:0:
141,213,112718,1,0,0:0:0:0:
153,225,112855,1,0,0:0:0:0:
161,273,112924,5,8,0:0:0:0:
158,231,113061,1,0,0:0:0:0:
158,232,113129,1,8,0:0:0:0:
156,232,113198,1,0,0:0:0:0:
155,232,113266,1,0,0:0:0:0:
145,262,113335,1,8,0:0:0:0:
167,229,113403,1,8,0:0:0:0:
166,232,113472,1,0,0:0:0:0:
166,232,113540,1,0,0:0:0:0:
146,259,113609,1,8,0:0:0:0:
179,198,113746,1,8,0:0:0:0:
175,227,113814,1,0,0:0:0:0:
145,136,113951,1,0,0:0:0:0:
161,273,114020,1,8,0:0:0:0:
139,265,114156,5,0,0:0:0:0:
124,268,114293,1,8,0:0:0:0:
124,268,114362,1,8,0:0:0:0:
136,268,114430,1,0,0:0:0:0:
136,268,114567,1,8,0:0:0:0:
136,268,114704,1,0,0:0:0:0:
163,236,114773,1,0,0:0:0:0:
163,237,114841,1,8,0:0:0:0:
138,209,114910,1,0,0:0:0:0:
137,214,114978,1,8,0:0:0:0:
136,214,115047,1,8,0:0:0:0:
128,241,115115,1,0,0:0:0:0:
128,241,115252,1,8,0:0:0:0:
149,257,115389,1,0,0:0:0:0:
154,226,115526,1,8,0:0:0:0:
145,206,115595,1,0,0:0:0:0:
160,255,115663,1,8,0:0:0:0:
144,261,115732,1,8,0:0:0:0:
148,253,115800,1,0,0:0:0:0:
165,282,115869,1,0,0:0:0:0:
164,268,115937,1,8,0:0:0:0:
140,270,116074,1,0,0:0:0:0:
143,272,116143,1,0,0:0:0:0:
143,275,116211,1,8,0:0:0:0:
181,318,116348,1,0,0:0:0:0:
139,268,116485,1,8,0:0:0:0:
147,225,116554,1,8,0:0:0:0:
146,228,116622,1,0,0:0:0:0:
158,230,116759,1,8,0:0:0:0:
151,266,116828,1,0,0:0:0:0:
156,292,116896,1,8,0:0:0:0:
142,217,116965,1,0,0:0:0:0:
146,297,117033,1,0,0:0:0:0:
148,282,117102,1,8,0:0:0:0:
172,217,117239,1,0,0:0:0:0:
143,246,117307,1,8,0:0:0:0:
174,229,117444,1,0,0:0:0:0:
174,229,117513,1,0,0:0:0:0:
146,267,117581,1,8,0:0:0:0:
132,257,117650,1,8,0:0:0:0:
146,267,117718,1,0,0:0:0:0:
143,268,117855,1,8,0:0:0:0:
136,232,117923,1,8,0:0:0:0:
136,242,117992,1,0,0:0:0:0:
170,256,118129,1,0,0:0:0:0:
170,256,118197,1,8,0:0:0:0:
162,263,118334,1,8,0:0:0:0:
161,263,118403,1,0,0:0:0:0:
161,263,118540,1,8,0:0:0:0:
159,262,118677,1,0,0:0:0:0:
136,232,118745,1,0,0:0:0:0:
158,262,118814,1,8,0:0:0:0:
151,227,118951,1,0,0:0:0:0:
158,227,119019,1,0,0:0:0:0:
151,227,119088,1,8,0:0:0:0:
163,236,119157,1,0,0:0:0:0:
163,237,119225,1,8,0:0:0:0:
154,260,119294,1,8,0:0:0:0:
154,261,119362,1,0,0:0:0:0:
136,243,119499,1,8,0:0:0:0:
150,247,119636,1,8,0:0:0:0:
170,263,119704,1,8,0:0:0:0:
149,257,119773,1,0,0:0:0:0:
154,226,119910,1,8,0:0:0:0:
163,273,119978,1,8,0:0:0:0:
139,229,120047,1,0,0:0:0:0:
144,261,120116,1,8,0:0:0:0:
148,253,120184,1,0,0:0:0:0:
153,284,120252,1,0,0:0:0:0:
134,251,120321,1,8,0:0:0:0:
140,270,120458,1,0,0:0:0:0:
143,272,120527,1,0,0:0:0:0:
133,246,120595,1,0,0:0:0:0:
164,234,120732,1,8,0:0:0:0:
154,226,120869,1,0,0:0:0:0:
176,246,120937,1,0,0:0:0:0:
160,243,121006,1,8,0:0:0:0:
152,278,121143,1,0,0:0:0:0:
175,260,121211,1,0,0:0:0:0:
175,260,121280,1,8,0:0:0:0:
146,297,121417,1,0,0:0:0:0:
188,223,121485,1,0,0:0:0:0:
162,219,121554,1,8,0:0:0:0:
143,246,121691,1,8,0:0:0:0:
174,229,121828,1,0,0:0:0:0:
174,229,121897,1,0,0:0:0:0:
137,269,121965,1,8,0:0:0:0:
153,266,122033,1,8,0:0:0:0:
131,253,122102,1,0,0:0:0:0:
131,253,122170,1,8,0:0:0:0:
153,290,122239,1,0,0:0:0:0:
144,238,122376,1,8,0:0:0:0:
154,259,122513,1,8,0:0:0:0:
170,256,122581,1,8,0:0:0:0:
143,288,122650,1,0,0:0:0:0:
138,306,122787,1,8,0:0:0:0:
141,278,122923,1,0,0:0:0:0:
124,236,123060,1,8,0:0:0:0:
137,282,123129,1,8,0:0:0:0:
117,290,123197,1,0,0:0:0:0:
139,221,123334,1,8,0:0:0:0:
147,262,123403,1,0,0:0:0:0:
164,282,123471,1,8,0:0:0:0:
165,286,123540,1,8,0:0:0:0:
149,271,123608,1,0,0:0:0:0:
149,275,123677,1,0,0:0:0:0:
138,301,123745,1,8,0:0:0:0:
171,259,123882,1,0,0:0:0:0:
171,261,124019,1,8,0:0:0:0:
143,220,124088,1,8,0:0:0:0:
159,249,124156,1,0,0:0:0:0:
152,224,124293,1,8,0:0:0:0:
131,265,124362,1,0,0:0:0:0:
148,232,124430,1,8,0:0:0:0:
142,234,124499,1,0,0:0:0:0:
141,234,124567,1,8,0:0:0:0:
147,239,124636,1,8,0:0:0:0:
146,243,124704,1,0,0:0:0:0:
146,205,124841,1,8,0:0:0:0:
151,281,124910,1,0,0:0:0:0:
149,282,124978,1,8,0:0:0:0:
149,282,125115,1,0,0:0:0:0:
167,285,125252,1,8,0:0:0:0:
161,317,125389,1,0,0:0:0:0:
161,317,125458,1,0,0:0:0:0:
161,317,125526,1,0,0:0:0:0:
161,317,125595,1,0,0:0:0:0:
144,302,125663,1,8,0:0:0:0:
118,291,125800,1,8,0:0:0:0:
147,237,125869,1,0,0:0:0:0:
165,242,126006,1,0,0:0:0:0:
181,249,126074,1,8,0:0:0:0:
141,279,126211,1,0,0:0:0:0:
145,279,126348,1,8,0:0:0:0:
167,230,126485,1,0,0:0:0:0:
145,220,126554,1,0,0:0:0:0:
166,230,126622,1,8,0:0:0:0:
142,253,126691,1,8,0:0:0:0:
142,253,126759,1,0,0:0:0:0:
156,227,126896,1,0,0:0:0:0:
149,256,126965,1,8,0:0:0:0:
147,239,127102,1,8,0:0:0:0:
146,241,127170,1,0,0:0:0:0:
136,234,127307,1,8,0:0:0:0:
160,205,127444,1,0,0:0:0:0:
160,205,127581,1,8,0:0:0:0:
160,205,127650,1,8,0:0:0:0:
150,231,127718,1,0,0:0:0:0:
152,194,127787,1,8,0:0:0:0:
150,197,127855,1,0,0:0:0:0:
162,208,127923,1,0,0:0:0:0:
154,197,127992,1,8,0:0:0:0:
122,271,128129,1,0,0:0:0:0:
148,240,128266,1,8,0:0:0:0:
170,242,128403,1,0,0:0:0:0:
152,217,128471,1,0,0:0:0:0:
151,219,128540,1,8,0:0:0:0:
156,267,128677,1,0,0:0:0:0:
156,268,128745,1,8,0:0:0:0:
146,238,128814,1,0,0:0:0:0:
153,248,128882,1,8,0:0:0:0:
148,240,128951,1,0,0:0:0:0:
151,246,129019,1,0,0:0:0:0:
137,208,129088,1,8,0:0:0:0:
137,212,129225,1,0,0:0:0:0:
170,184,129362,1,0,0:0:0:0:
147,192,129499,1,8,0:0:0:0:
120,224,129567,1,8,0:0:0:0:
150,224,129636,1,0,0:0:0:0:
152,232,129773,1,8,0:0:0:0:
126,194,129910,1,0,0:0:0:0:
136,204,130047,1,8,0:0:0:0:
150,187,130115,1,0,0:0:0:0:
150,188,130184,1,8,0:0:0:0:
151,184,130321,1,0,0:0:0:0:
148,160,130458,1,8,0:0:0:0:
151,238,130595,1,0,0:0:0:0:
131,248,130663,1,0,0:0:0:0:
152,237,130732,1,8,0:0:0:0:
145,220,131006,1,0,0:0:0:0:
143,217,131143,1,8,0:0:0:0:
148,283,131691,1,8,0:0:0:0:
132,272,131759,1,0,0:0:0:0:
132,272,131828,1,0,0:0:0:0:
154,235,131965,1,8,0:0:0:0:
154,235,132033,1,0,0:0:0:0:
154,235,132102,1,0,0:0:0:0:
154,235,132239,1,8,0:0:0:0:
154,239,132307,1,0,0:0:0:0:
157,243,132376,1,0,0:0:0:0:
154,239,132513,1,8,0:0:0:0:
158,219,132581,1,0,0:0:0:0:
158,223,132650,1,0,0:0:0:0:
155,283,132787,1,8,0:0:0:0:
148,284,132855,1,8,0:0:0:0:
147,283,132923,1,0,0:0:0:0:
176,303,133060,1,8,0:0:0:0:
149,244,133129,1,8,0:0:0:0:
139,301,133197,1,0,0:0:0:0:
176,273,133334,1,8,0:0:0:0:
176,287,133403,1,8,0:0:0:0:
176,287,133471,1,0,0:0:0:0:
163,325,133608,1,8,0:0:0:0:
171,338,133677,1,8,0:0:0:0:
174,351,133745,1,0,0:0:0:0:
181,277,133882,1,8,0:0:0:0:
172,289,133951,1,0,0:0:0:0:
172,289,134019,1,0,0:0:0:0:
170,318,134156,1,8,0:0:0:0:
171,333,134225,1,8,0:0:0:0:
149,261,134293,1,0,0:0:0:0:
149,261,134430,1,8,0:0:0:0:
166,280,134499,1,0,0:0:0:0:
166,280,134567,1,0,0:0:0:0:
165,275,134704,1,8,0:0:0:0:
171,306,134773,1,8,0:0:0:0:
166,284,134841,1,0,0:0:0:0:
161,254,134978,1,8,0:0:0:0:
147,204,135047,1,0,0:0:0:0:
122,222,135115,1,8,0:0:0:0:
140,226,135252,1,0,0:0:0:0:
155,237,135321,1,0,0:0:0:0:
140,232,135389,1,8,0:0:0:0:
149,191,135526,1,0,0:0:0:0:
149,191,135595,1,8,0:0:0:0:
153,264,135663,1,0,0:0:0:0:
137,264,135800,1,8,0:0:0:0:
137,264,135869,1,8,0:0:0:0:
137,263,135937,1,0,0:0:0:0:
148,283,136074,1,8,0:0:0:0:
132,272,136142,1,0,0:0:0:0:
132,272,136211,1,0,0:0:0:0:
154,235,136348,1,8,0:0:0:0:
154,235,136416,1,0,0:0:0:0:
154,235,136485,1,0,0:0:0:0:
154,235,136622,1,8,0:0:0:0:
154,239,136690,1,0,0:0:0:0:
157,243,136759,1,0,0:0:0:0:
154,239,136896,1,8,0:0:0:0:
158,219,136964,1,0,0:0:0:0:
158,223,137033,1,0,0:0:0:0:
155,283,137170,1,8,0:0:0:0:
148,284,137238,1,8,0:0:0:0:
147,283,137306,1,0,0:0:0:0:
176,303,137443,1,8,0:0:0:0:
149,244,137512,1,8,0:0:0:0:
139,301,137580,1,0,0:0:0:0:
176,273,137717,1,8,0:0:0:0:
176,287,137786,1,8,0:0:0:0:
176,287,137854,1,0,0:0:0:0:
163,325,137991,1,8,0:0:0:0:
171,338,138060,1,8,0:0:0:0:
174,351,138128,1,0,0:0:0:0:
181,277,138265,1,8,0:0:0:0:
172,289,138334,1,0,0:0:0:0:
172,289,138402,1,0,0:0:0:0:
170,318,138539,1,8,0:0:0:0:
171,333,138608,1,8,0:0:0:0:
149,261,138676,1,0,0:0:0:0:
149,261,138813,1,8,0:0:0:0:
166,280,138882,1,0,0:0:0:0:
166,280,138950,1,0,0:0:0:0:
165,275,139087,1,8,0:0:0:0:
171,306,139156,1,8,0:0:0:0:
166,284,139224,1,0,0:0:0:0:
161,254,139361,1,8,0:0:0:0:
147,204,139430,1,0,0:0:0:0:
122,222,139498,1,8,0:0:0:0:
140,226,139635,1,0,0:0:0:0:
155,237,139704,1,0,0:0:0:0:
140,232,139772,1,8,0:0:0:0:
149,191,139909,1,0,0:0:0:0:
149,191,139978,1,8,0:0:0:0:
153,264,140046,1,0,0:0:0:0:
137,264,140183,1,8,0:0:0:0:
137,264,140252,1,8,0:0:0:0:
137,263,140320,1,0,0:0:0:0:
148,283,140458,1,8,0:0:0:0:
132,272,140526,1,0,0:0:0:0:
132,272,140595,1,0,0:0:0:0:
154,235,140732,1,8,0:0:0:0:
154,235,140800,1,0,0:0:0:0:
154,235,140869,1,0,0:0:0:0:
154,235,141006,1,8,0:0:0:0:
154,239,141074,1,0,0:0:0:0:
157,243,141143,1,0,0:0:0:0:
154,239,141280,1,8,0:0:0:0:
158,219,141348,1,0,0:0:0:0:
158,223,141417,1,0,0:0:0:0:
155,283,141554,1,8,0:0:0:0:
148,284,141622,1,8,0:0:0:0:
147,283,141690,1,0,0:0:0:0:
176,303,141827,1,8,0:0:0:0:
149,244,141896,1,8,0:0:0:0:
139,301,141964,1,0,0:0:0:0:
176,273,142101,1,8,0:0:0:0:
176,287,142170,1,8,0:0:0:0:
176,287,142238,1,0,0:0:0:0:
163,325,142375,1,8,0:0:0:0:
171,338,142444,1,8,0:0:0:0:
174,351,142512,1,0,0:0:0:0:
181,277,142649,1,8,0:0:0:0:
172,289,142718,1,0,0:0:0:0:
172,289,142786,1,0,0:0:0:0:
170,318,142923,1,8,0:0:0:0:
171,333,142992,1,8,0:0:0:0:
149,261,143060,1,0,0:0:0:0:
149,261,143197,1,8,0:0:0:0:
166,280,143266,1,0,0:0:0:0:
166,280,143334,1,0,0:0:0:0:
165,275,143471,1,8,0:0:0:0:
171,306,143540,1,8,0:0:0:0:
166,284,143608,1,0,0:0:0:0:
161,254,143745,1,8,0:0:0:0:
147,204,143814,1,0,0:0:0:0:
122,222,143882,1,8,0:0:0:0:
140,226,144019,1,0,0:0:0:0:
155,237,144088,1,0,0:0:0:0:
140,232,144156,1,8,0:0:0:0:
149,191,144293,1,0,0:0:0:0:
149,191,144362,1,8,0:0:0:0:
153,264,144430,1,0,0:0:0:0:
137,264,144567,1,8,0:0:0:0:
137,264,144636,1,8,0:0:0:0:
137,263,144704,1,0,0:0:0:0:
148,283,144841,1,8,0:0:0:0:
132,272,144909,1,0,0:0:0:0:
132,272,144978,1,0,0:0:0:0:
154,235,145115,1,8,0:0:0:0:
154,235,145183,1,0,0:0:0:0:
154,235,145252,1,0,0:0:0:0:
154,235,145389,1,8,0:0:0:0:
154,239,145457,1,0,0:0:0:0:
157,243,145526,1,0,0:0:0:0:
154,239,145663,1,8,0:0:0:0:
158,219,145731,1,0,0:0:0:0:
158,223,145800,1,0,0:0:0:0:
155,283,145937,1,8,0:0:0:0:
148,284,146005,1,8,0:0:0:0:
147,283,146073,1,0,0:0:0:0:
176,303,146210,1,8,0:0:0:0:
149,244,146279,1,8,0:0:0:0:
139,301,146347,1,0,0:0:0:0:
176,273,146484,1,8,0:0:0:0:
176,287,146553,1,8,0:0:0:0:
176,287,146621,1,0,0:0:0:0:
163,325,146758,1,8,0:0:0:0:
171,338,146827,1,8,0:0:0:0:
174,351,146895,1,0,0:0:0:0:
181,277,147032,1,8,0:0:0:0:
172,289,147101,1,0,0:0:0:0:
172,289,147169,1,0,0:0:0:0:
170,318,147306,1,8,0:0:0:0:
171,333,147375,1,8,0:0:0:0:
149,261,147443,1,0,0:0:0:0:
149,261,147580,1,8,0:0:0:0:
166,280,147649,1,0,0:0:0:0:
166,280,147717,1,0,0:0:0:0:
165,275,147854,1,8,0:0:0:0:
171,306,147923,1,8,0:0:0:0:
166,284,147991,1,0,0:0:0:0:
229,228,148129,1,4,0:0:0:0:
180,213,149225,1,0,0:0:0:0:
152,273,150047,1,8,0:0:0:0:
151,216,150184,1,0,0:0:0:0:
140,241,150320,1,0,0:0:0:0:
154,216,150457,1,8,0:0:0:0:
137,227,150594,1,8,0:0:0:0:
154,216,150731,1,0,0:0:0:0:
147,233,150868,1,8,0:0:0:0:
151,252,151005,1,0,0:0:0:0:
162,202,151142,1,8,0:0:0:0:
151,199,151279,1,0,0:0:0:0:
151,200,151416,1,8,0:0:0:0:
141,226,151553,1,8,0:0:0:0:
136,212,151690,1,0,0:0:0:0:
136,215,151827,1,0,0:0:0:0:
158,245,151964,1,0,0:0:0:0:
158,245,152101,1,0,0:0:0:0:
145,271,152238,1,8,0:0:0:0:
137,239,152375,1,0,0:0:0:0:
146,248,152512,1,8,0:0:0:0:
150,249,152649,1,8,0:0:0:0:
150,250,152786,1,0,0:0:0:0:
146,264,152923,1,0,0:0:0:0:
146,265,153060,1,8,0:0:0:0:
147,227,153197,1,0,0:0:0:0:
147,236,153334,1,8,0:0:0:0:
133,243,153608,1,0,0:0:0:0:
152,273,154430,1,8,0:0:0:0:
151,216,154567,1,0,0:0:0:0:
140,241,154703,1,0,0:0:0:0:
154,216,154840,1,8,0:0:0:0:
137,227,154977,1,8,0:0:0:0:
154,216,155114,1,0,0:0:0:0:
147,233,155251,1,8,0:0:0:0:
151,252,155388,1,0,0:0:0:0:
162,202,155525,1,8,0:0:0:0:
151,199,155662,1,0,0:0:0:0:
151,200,155799,1,8,0:0:0:0:
141,226,155936,1,8,0:0:0:0:
136,212,156073,1,0,0:0:0:0:
136,215,156210,1,0,0:0:0:0:
158,245,156347,1,0,0:0:0:0:
158,245,156484,1,0,0:0:0:0:
145,271,156621,1,8,0:0:0:0:
137,239,156758,1,0,0:0:0:0:
146,248,156895,1,8,0:0:0:0:
150,249,157032,1,8,0:0:0:0:
150,250,157169,1,0,0:0:0:0:
146,264,157306,1,0,0:0:0:0:
146,265,157443,1,8,0:0:0:0:
147,227,157580,1,0,0:0:0:0:
147,236,157717,1,8,0:0:0:0:
123,274,157992,1,0,0:0:0:0:
133,283,158129,1,0,0:0:0:0:
133,284,158197,1,0,0:0:0:0:
134,290,158266,1,8,0:0:0:0:
131,302,158403,1,0,0:0:0:0:
155,253,158677,1,8,0:0:0:0:
155,253,158814,1,0,0:0:0:0:
149,260,158882,1,0,0:0:0:0:
143,293,158951,1,0,0:0:0:0:
119,254,159088,1,8,0:0:0:0:
131,265,159225,1,0,0:0:0:0:
155,253,159362,1,8,0:0:0:0:
151,246,159430,1,8,0:0:0:0:
120,279,159499,1,0,0:0:0:0:
143,293,159636,1,8,0:0:0:0:
169,239,159704,1,8,0:0:0:0:
143,273,159773,1,0,0:0:0:0:
143,274,159910,1,8,0:0:0:0:
154,281,159978,1,8,0:0:0:0:
164,277,160047,1,0,0:0:0:0:
115,244,160184,1,8,0:0:0:0:
146,267,160320,1,0,0:0:0:0:
139,278,160389,1,0,0:0:0:0:
125,275,160457,1,8,0:0:0:0:
129,285,160594,1,0,0:0:0:0:
149,241,160731,1,8,0:0:0:0:
149,241,160868,1,0,0:0:0:0:
149,241,161005,1,8,0:0:0:0:
161,219,161074,1,8,0:0:0:0:
143,293,161142,1,0,0:0:0:0:
119,254,161279,1,8,0:0:0:0:
161,241,161416,1,8,0:0:0:0:
143,225,161553,1,0,0:0:0:0:
140,212,161599,1,8,0:0:0:0:
143,235,161645,1,8,0:0:0:0:
120,279,161690,1,0,0:0:0:0:
143,293,161827,1,8,0:0:0:0:
143,301,161964,1,0,0:0:0:0:
146,283,162101,1,8,0:0:0:0:
145,326,162238,1,0,0:0:0:0:
115,244,162375,1,8,0:0:0:0:
146,267,162511,1,0,0:0:0:0:
139,278,162580,1,0,0:0:0:0:
125,275,162648,1,8,0:0:0:0:
129,285,162785,1,0,0:0:0:0:
172,240,162923,1,0,0:0:0:0:
155,253,163060,1,8,0:0:0:0:
155,253,163197,1,0,0:0:0:0:
149,260,163265,1,0,0:0:0:0:
143,293,163334,1,0,0:0:0:0:
119,254,163471,1,8,0:0:0:0:
131,265,163608,1,0,0:0:0:0:
155,253,163745,1,8,0:0:0:0:
152,237,163814,1,0,0:0:0:0:
171,231,163882,1,0,0:0:0:0:
150,288,164019,1,8,0:0:0:0:
151,290,164088,1,0,0:0:0:0:
143,273,164156,1,0,0:0:0:0:
143,274,164293,1,8,0:0:0:0:
159,211,164362,1,0,0:0:0:0:
153,284,164430,1,0,0:0:0:0:
115,244,164567,1,8,0:0:0:0:
146,267,164703,1,0,0:0:0:0:
139,278,164772,1,0,0:0:0:0:
125,275,164840,1,8,0:0:0:0:
129,285,164977,1,0,0:0:0:0:
149,241,165114,1,8,0:0:0:0:
149,241,165251,1,0,0:0:0:0:
149,241,165388,1,8,0:0:0:0:
161,219,165457,1,8,0:0:0:0:
143,293,165525,1,0,0:0:0:0:
119,254,165662,1,8,0:0:0:0:
161,241,165799,1,8,0:0:0:0:
147,212,165937,1,0,0:0:0:0:
143,244,166005,1,0,0:0:0:0:
120,279,166073,1,0,0:0:0:0:
143,293,166210,1,8,0:0:0:0:
143,301,166347,1,0,0:0:0:0:
146,283,166484,1,8,0:0:0:0:
145,326,166621,1,0,0:0:0:0:
115,244,166758,1,8,0:0:0:0:
146,267,166896,1,0,0:0:0:0:
139,278,166964,1,0,0:0:0:0:
125,275,167033,1,8,0:0:0:0:
129,285,167170,1,0,0:0:0:0:
172,240,167307,1,0,0:0:0:0:
155,253,167444,1,8,0:0:0:0:
155,253,167581,1,0,0:0:0:0:
149,260,167649,1,0,0:0:0:0:
143,293,167718,1,0,0:0:0:0:
119,254,167855,1,8,0:0:0:0:
131,265,167992,1,0,0:0:0:0:
155,253,168129,1,8,0:0:0:0:
151,246,168197,1,8,0:0:0:0:
120,279,168266,1,0,0:0:0:0:
143,293,168403,1,8,0:0:0:0:
169,255,168471,1,8,0:0:0:0:
143,273,168540,1,0,0:0:0:0:
143,274,168677,1,8,0:0:0:0:
154,281,168745,1,8,0:0:0:0:
153,284,168814,1,0,0:0:0:0:
115,244,168951,1,8,0:0:0:0:
146,267,169087,1,0,0:0:0:0:
139,278,169156,1,0,0:0:0:0:
125,275,169224,1,8,0:0:0:0:
129,285,169361,1,0,0:0:0:0:
149,241,169498,1,8,0:0:0:0:
149,241,169635,1,0,0:0:0:0:
149,241,169772,1,8,0:0:0:0:
161,219,169841,1,8,0:0:0:0:
143,293,169909,1,0,0:0:0:0:
119,254,170046,1,8,0:0:0:0:
161,241,170183,1,8,0:0:0:0:
143,225,170320,1,0,0:0:0:0:
128,249,170389,1,0,0:0:0:0:
134,252,170457,1,8,0:0:0:0:
133,254,170594,1,0,0:0:0:0:
147,269,170731,1,0,0:0:0:0:
163,248,170868,1,8,0:0:0:0:
158,261,170937,1,8,0:0:0:0:
182,233,171005,1,0,0:0:0:0:
182,232,171051,1,8,0:0:0:0:
182,232,171097,1,8,0:0:0:0:
182,232,171142,1,0,0:0:0:0:
152,273,171964,1,8,0:0:0:0:
151,216,172101,1,0,0:0:0:0:
140,241,172237,1,0,0:0:0:0:
154,216,172374,1,8,0:0:0:0:
137,227,172511,1,8,0:0:0:0:
154,216,172648,1,0,0:0:0:0:
147,233,172785,1,8,0:0:0:0:
151,252,172922,1,0,0:0:0:0:
162,202,173059,1,8,0:0:0:0:
151,199,173196,1,0,0:0:0:0:
151,200,173333,1,8,0:0:0:0:
141,226,173470,1,8,0:0:0:0:
136,212,173607,1,0,0:0:0:0:
136,215,173744,1,0,0:0:0:0:
158,245,173881,1,0,0:0:0:0:
158,245,174018,1,0,0:0:0:0:
145,271,174155,1,8,0:0:0:0:
137,239,174292,1,0,0:0:0:0:
146,248,174429,1,8,0:0:0:0:
150,249,174566,1,8,0:0:0:0:
150,250,174703,1,0,0:0:0:0:
146,264,174840,1,0,0:0:0:0:
146,265,174977,1,8,0:0:0:0:
147,227,175114,1,0,0:0:0:0:
147,236,175251,1,8,0:0:0:0:
150,237,175389,1,0,0:0:0:0:
138,186,175526,1,8,0:0:0:0:
131,205,175663,1,0,0:0:0:0:
121,207,175731,1,0,0:0:0:0:
154,212,175800,1,8,0:0:0:0:
154,217,175937,1,0,0:0:0:0:
136,260,176005,1,0,0:0:0:0:
139,263,176074,1,8,0:0:0:0:
129,241,176142,1,0,0:0:0:0:
129,241,176211,1,8,0:0:0:0:
150,253,176279,1,8,0:0:0:0:
150,252,176348,1,0,0:0:0:0:
128,232,176485,1,8,0:0:0:0:
127,234,176622,1,0,0:0:0:0:
127,234,176690,1,0,0:0:0:0:
160,204,176759,1,8,0:0:0:0:
154,217,176896,1,0,0:0:0:0:
142,210,177033,1,8,0:0:0:0:
137,256,177101,1,8,0:0:0:0:
137,256,177170,1,0,0:0:0:0:
142,241,177238,1,8,0:0:0:0:
142,242,177307,1,0,0:0:0:0:
142,236,177375,1,0,0:0:0:0:
138,261,177444,1,8,0:0:0:0:
149,202,177581,1,0,0:0:0:0:
152,202,177718,1,8,0:0:0:0:
131,205,177855,1,0,0:0:0:0:
121,207,177923,1,0,0:0:0:0:
154,212,177992,1,8,0:0:0:0:
154,217,178129,1,0,0:0:0:0:
163,162,178197,1,8,0:0:0:0:
163,162,178266,1,0,0:0:0:0:
150,192,178334,1,0,0:0:0:0:
141,199,178403,1,8,0:0:0:0:
142,225,178471,1,8,0:0:0:0:
120,220,178540,1,0,0:0:0:0:
167,196,178677,1,0,0:0:0:0:
170,187,178814,1,8,0:0:0:0:
154,182,178882,1,0,0:0:0:0:
154,182,178951,1,8,0:0:0:0:
154,183,179088,1,0,0:0:0:0:
149,220,179225,1,8,0:0:0:0:
144,212,179293,1,0,0:0:0:0:
148,204,179362,1,8,0:0:0:0:
148,204,179430,1,8,0:0:0:0:
148,204,179499,1,0,0:0:0:0:
148,204,179567,1,8,0:0:0:0:
133,205,179636,1,0,0:0:0:0:
153,196,179773,1,0,0:0:0:0:
138,186,179910,1,8,0:0:0:0:
131,205,180047,1,0,0:0:0:0:
121,207,180115,1,0,0:0:0:0:
154,212,180184,1,8,0:0:0:0:
154,217,180321,1,0,0:0:0:0:
136,260,180389,1,0,0:0:0:0:
139,263,180458,1,8,0:0:0:0:
129,241,180526,1,0,0:0:0:0:
129,241,180595,1,8,0:0:0:0:
150,253,180663,1,8,0:0:0:0:
150,252,180732,1,0,0:0:0:0:
128,232,180869,1,8,0:0:0:0:
127,234,181006,1,0,0:0:0:0:
127,234,181074,1,0,0:0:0:0:
160,204,181143,1,8,0:0:0:0:
154,217,181280,1,0,0:0:0:0:
142,210,181417,1,8,0:0:0:0:
137,256,181485,1,8,0:0:0:0:
137,256,181554,1,0,0:0:0:0:
142,241,181622,1,8,0:0:0:0:
142,242,181691,1,0,0:0:0:0:
142,236,181759,1,0,0:0:0:0:
138,261,181828,1,8,0:0:0:0:
149,202,181965,1,0,0:0:0:0:
152,202,182102,1,8,0:0:0:0:
131,205,182239,1,0,0:0:0:0:
121,207,182307,1,0,0:0:0:0:
154,212,182376,1,8,0:0:0:0:
154,217,182513,1,0,0:0:0:0:
163,162,182581,1,8,0:0:0:0:
163,162,182650,1,0,0:0:0:0:
150,192,182718,1,0,0:0:0:0:
141,199,182787,1,8,0:0:0:0:
142,225,182855,1,8,0:0:0:0:
120,220,182924,1,0,0:0:0:0:
167,196,183061,1,0,0:0:0:0:
170,187,183198,1,8,0:0:0:0:
154,182,183266,1,0,0:0:0:0:
154,182,183335,1,8,0:0:0:0:
154,183,183472,1,0,0:0:0:0:
149,220,183609,1,8,0:0:0:0:
144,212,183677,1,0,0:0:0:0:
148,204,183746,1,8,0:0:0:0:
148,204,183814,1,8,0:0:0:0:
148,204,183883,1,0,0:0:0:0:
148,204,183951,1,8,0:0:0:0:
133,205,184020,1,0,0:0:0:0:
150,227,184156,1,8,0:0:0:0:
124,230,184293,1,0,0:0:0:0:
138,210,184362,1,8,0:0:0:0:
138,210,184430,1,0,0:0:0:0:
121,207,184498,1,0,0:0:0:0:
154,212,184567,1,8,0:0:0:0:
154,217,184704,1,0,0:0:0:0:
136,260,184772,1,0,0:0:0:0:
139,263,184841,1,8,0:0:0:0:
129,241,184909,1,0,0:0:0:0:
129,241,184978,1,8,0:0:0:0:
150,253,185046,1,8,0:0:0:0:
150,252,185115,1,0,0:0:0:0:
128,232,185252,1,8,0:0:0:0:
127,234,185389,1,0,0:0:0:0:
127,234,185457,1,0,0:0:0:0:
160,204,185526,1,8,0:0:0:0:
146,224,185594,1,8,0:0:0:0:
154,217,185663,1,0,0:0:0:0:
142,210,185800,1,8,0:0:0:0:
137,256,185868,1,8,0:0:0:0:
137,256,185937,1,0,0:0:0:0:
142,241,186005,1,8,0:0:0:0:
142,242,186074,1,0,0:0:0:0:
142,236,186142,1,0,0:0:0:0:
138,261,186211,1,8,0:0:0:0:
149,202,186348,1,0,0:0:0:0:
152,202,186485,1,8,0:0:0:0:
165,221,186553,1,8,0:0:0:0:
131,205,186622,1,0,0:0:0:0:
121,207,186690,1,0,0:0:0:0:
154,212,186759,1,8,0:0:0:0:
154,217,186896,1,0,0:0:0:0:
163,162,186964,1,8,0:0:0:0:
163,162,187033,1,0,0:0:0:0:
150,192,187101,1,0,0:0:0:0:
141,199,187170,1,8,0:0:0:0:
142,225,187238,1,8,0:0:0:0:
120,220,187307,1,0,0:0:0:0:
167,196,187444,1,0,0:0:0:0:
170,187,187581,1,8,0:0:0:0:
160,172,187649,1,8,0:0:0:0:
160,172,187718,1,0,0:0:0:0:
163,162,187786,1,8,0:0:0:0:
154,192,187855,1,0,0:0:0:0:
149,220,187992,1,8,0:0:0:0:
144,212,188060,1,0,0:0:0:0:
148,204,188129,1,8,0:0:0:0:
148,204,188197,1,8,0:0:0:0:
148,204,188266,1,0,0:0:0:0:
148,204,188334,1,8,0:0:0:0:
133,205,188403,1,0,0:0:0:0:
173,190,188540,1,8,0:0:0:0:
124,230,188677,1,0,0:0:0:0:
138,210,188746,1,8,0:0:0:0:
138,210,188814,1,0,0:0:0:0:
121,207,188882,1,0,0:0:0:0:
154,212,188951,1,8,0:0:0:0:
154,217,189088,1,0,0:0:0:0:
136,260,189156,1,0,0:0:0:0:
139,263,189225,1,8,0:0:0:0:
129,241,189293,1,0,0:0:0:0:
129,241,189362,1,8,0:0:0:0:
150,253,189430,1,8,0:0:0:0:
150,252,189499,1,0,0:0:0:0:
128,232,189636,1,8,0:0:0:0:
127,234,189773,1,0,0:0:0:0:
127,234,189841,1,0,0:0:0:0:
160,204,189910,1,8,0:0:0:0:
146,224,189978,1,8,0:0:0:0:
154,217,190047,1,0,0:0:0:0:
142,210,190184,1,8,0:0:0:0:
137,256,190252,1,8,0:0:0:0:
137,256,190321,1,0,0:0:0:0:
142,241,190389,1,8,0:0:0:0:
142,242,190458,1,0,0:0:0:0:
142,236,190526,1,0,0:0:0:0:
138,261,190595,1,8,0:0:0:0:
149,202,190732,1,0,0:0:0:0:
152,202,190869,1,8,0:0:0:0:
165,221,190937,1,8,0:0:0:0:
131,205,191006,1,0,0:0:0:0:
121,207,191074,1,0,0:0:0:0:
154,212,191143,1,8,0:0:0:0:
154,217,191280,1,0,0:0:0:0:
163,162,191348,1,8,0:0:0:0:
163,162,191417,1,0,0:0:0:0:
150,192,191485,1,0,0:0:0:0:
141,199,191554,1,8,0:0:0:0:
142,225,191622,1,8,0:0:0:0:
120,220,191691,1,0,0:0:0:0:
167,196,191828,1,0,0:0:0:0:
170,187,191965,1,8,0:0:0:0:
160,172,192033,1,8,0:0:0:0:
160,172,192102,1,0,0:0:0:0:
163,162,192170,1,8,0:0:0:0:
154,192,192239,1,0,0:0:0:0:
149,220,192376,1,8,0:0:0:0:
144,212,192444,1,0,0:0:0:0:
148,204,192513,1,8,0:0:0:0:
148,204,192581,1,8,0:0:0:0:
148,204,192650,1,0,0:0:0:0:
148,204,192718,1,8,0:0:0:0:
133,205,192787,1,0,0:0:0:0:
160,178,192923,1,8,0:0:0:0:
149,220,193060,1,0,0:0:0:0:
133,283,193197,1,0,0:0:0:0:
133,284,193265,1,0,0:0:0:0:
134,290,193334,1,8,0:0:0:0:
131,302,193471,1,0,0:0:0:0:
154,217,193608,1,0,0:0:0:0:
155,253,193745,1,8,0:0:0:0:
142,203,193882,1,0,0:0:0:0:
150,160,193951,1,0,0:0:0:0:
148,163,194019,1,8,0:0:0:0:
152,236,194156,1,0,0:0:0:0:
161,240,194293,1,8,0:0:0:0:
155,253,194430,1,8,0:0:0:0:
155,234,194567,1,0,0:0:0:0:
150,212,194704,1,8,0:0:0:0:
158,261,194772,1,0,0:0:0:0:
169,273,194841,1,8,0:0:0:0:
164,251,194978,1,0,0:0:0:0:
164,251,195046,1,0,0:0:0:0:
137,201,195115,1,8,0:0:0:0:
137,201,195184,1,8,0:0:0:0:
123,274,195252,1,0,0:0:0:0:
153,188,195389,1,0,0:0:0:0:
155,190,195457,1,0,0:0:0:0:
121,223,195526,1,8,0:0:0:0:
131,302,195663,1,0,0:0:0:0:
119,219,195800,1,0,0:0:0:0:
146,187,195937,1,8,0:0:0:0:
151,197,196074,1,0,0:0:0:0:
152,199,196142,1,0,0:0:0:0:
148,217,196211,1,8,0:0:0:0:
152,236,196348,1,0,0:0:0:0:
158,232,196485,1,8,0:0:0:0:
172,204,196622,1,0,0:0:0:0:
146,223,196690,1,8,0:0:0:0:
146,224,196759,1,0,0:0:0:0:
162,214,196895,1,8,0:0:0:0:
162,214,196964,1,8,0:0:0:0:
165,221,197032,1,0,0:0:0:0:
143,222,197170,1,8,0:0:0:0:
141,216,197238,1,8,0:0:0:0:
141,216,197307,1,0,0:0:0:0:
141,216,197375,1,0,0:0:0:0:
179,218,197444,1,8,0:0:0:0:
133,283,197581,1,0,0:0:0:0:
133,284,197649,1,0,0:0:0:0:
134,290,197718,1,8,0:0:0:0:
131,302,197855,1,0,0:0:0:0:
155,253,198129,1,8,0:0:0:0:
158,229,198266,1,8,0:0:0:0:
158,231,198334,1,8,0:0:0:0:
160,229,198403,1,0,0:0:0:0:
152,236,198540,1,0,0:0:0:0:
161,240,198677,1,8,0:0:0:0:
155,253,198814,1,8,0:0:0:0:
155,234,198951,1,0,0:0:0:0:
150,212,199088,1,8,0:0:0:0:
158,261,199156,1,0,0:0:0:0:
169,273,199225,1,8,0:0:0:0:
164,251,199362,1,0,0:0:0:0:
164,251,199430,1,0,0:0:0:0:
182,214,199499,1,8,0:0:0:0:
166,237,199567,1,8,0:0:0:0:
166,234,199636,1,0,0:0:0:0:
153,188,199773,1,0,0:0:0:0:
155,190,199841,1,0,0:0:0:0:
121,223,199910,1,8,0:0:0:0:
131,302,200047,1,0,0:0:0:0:
146,187,200321,1,8,0:0:0:0:
151,197,200458,1,0,0:0:0:0:
152,199,200526,1,0,0:0:0:0:
148,217,200595,1,8,0:0:0:0:
152,236,200732,1,0,0:0:0:0:
158,232,200869,1,8,0:0:0:0:
172,236,201006,1,0,0:0:0:0:
162,202,201074,1,8,0:0:0:0:
162,203,201142,1,0,0:0:0:0:
162,214,201279,1,8,0:0:0:0:
162,214,201348,1,8,0:0:0:0:
165,221,201416,1,0,0:0:0:0:
172,161,201553,1,8,0:0:0:0:
167,194,201622,1,8,0:0:0:0:
167,196,201690,1,0,0:0:0:0:
167,195,201759,1,0,0:0:0:0:
179,218,201827,1,8,0:0:0:0:
133,283,201964,1,0,0:0:0:0:
133,284,202032,1,0,0:0:0:0:
134,290,202101,1,8,0:0:0:0:
131,302,202238,1,0,0:0:0:0:
155,253,202512,1,8,0:0:0:0:
147,198,202649,1,0,0:0:0:0:
159,191,202718,1,0,0:0:0:0:
146,195,202786,1,8,0:0:0:0:
152,236,202923,1,0,0:0:0:0:
150,211,203060,1,0,0:0:0:0:
155,253,203197,1,8,0:0:0:0:
145,229,203334,1,0,0:0:0:0:
137,203,203471,1,8,0:0:0:0:
158,224,203608,1,0,0:0:0:0:
154,204,203745,1,8,0:0:0:0:
161,203,203814,1,0,0:0:0:0:
182,214,203882,1,8,0:0:0:0:
157,203,204019,1,0,0:0:0:0:
133,283,204156,1,0,0:0:0:0:
133,284,204224,1,0,0:0:0:0:
134,290,204293,1,8,0:0:0:0:
131,302,204430,1,0,0:0:0:0:
155,253,204704,1,8,0:0:0:0:
147,198,204841,1,0,0:0:0:0:
159,191,204910,1,0,0:0:0:0:
146,195,204978,1,8,0:0:0:0:
152,236,205115,1,0,0:0:0:0:
150,211,205252,1,0,0:0:0:0:
155,253,205389,1,8,0:0:0:0:
145,229,205526,1,0,0:0:0:0:
137,203,205663,1,8,0:0:0:0:
158,224,205800,1,0,0:0:0:0:
154,204,205937,1,8,0:0:0:0:
161,203,206006,1,0,0:0:0:0:
182,214,206074,1,8,0:0:0:0:
143,189,206211,1,0,0:0:0:0:
157,182,206485,1,8,0:0:0:0:
151,167,206622,1,0,0:0:0:0:
134,165,206896,1,8,0:0:0:0:
132,164,207307,1,0,0:0:0:0:
156,170,207581,1,8,0:0:0:0:
155,168,207718,1,0,0:0:0:0:
159,165,207992,1,8,0:0:0:0:
148,163,208266,1,0,0:0:0:0:
146,163,208403,1,0,0:0:0:0:
158,249,208677,1,8,0:0:0:0:
155,224,208745,1,8,0:0:0:0:
155,224,208814,1,0,0:0:0:0:
155,224,208882,1,0,0:0:0:0:
155,224,208951,1,8,0:0:0:0:
149,189,209088,1,8,0:0:0:0:
151,170,209156,1,8,0:0:0:0:
155,224,209499,1,0,0:0:0:0:
162,222,209773,1,8,0:0:0:0:
160,222,209841,1,8,0:0:0:0:
160,222,209910,1,0,0:0:0:0:
160,222,209978,1,0,0:0:0:0:
160,218,210047,1,8,0:0:0:0:
156,228,210184,1,8,0:0:0:0:
140,235,210252,1,8,0:0:0:0:
171,198,210320,1,4,0:0:0:0:
