osu file format v14

[General]
AudioFilename: audio.mp3
AudioLeadIn: 0
PreviewTime: 36026
Countdown: 0
SampleSet: Normal
StackLeniency: 0.7
Mode: 0
LetterboxInBreaks: 0
WidescreenStoryboard: 0

[Editor]
Bookmarks: 11198,22232,44301,91198,102232,113267,135336,157405,179474,201543,223612,245681,267750,289819,309129
DistanceSpacing: 0.5
BeatDivisor: 4
GridSize: 16
TimelineZoom: 2.8

[Metadata]
Title:the pain of relief (we have our vices one and all)
TitleUnicode:the pain of relief (we have our vices one and all)
Artist:goreshit
ArtistUnicode:goreshit
Creator:Senery
Version:aching comfort
Source:
Tags:breakcore featured artist fa the semantics benzo chronicles semantics: atmospheric dnb ambient electronic instrumental
BeatmapID:3128518
BeatmapSetID:1529429

[Difficulty]
HPDrainRate:5
CircleSize:4
OverallDifficulty:8.8
ApproachRate:9.2
SliderMultiplier:1.7
SliderTickRate:1

[Events]
//Background and Video events
0,0,"bg.jpg",0,0
//Break Periods
2,88467,90111
//Storyboard Layer 0 (Background)
//Storyboard Layer 1 (Fail)
//Storyboard Layer 2 (Pass)
//Storyboard Layer 3 (Foreground)
//Storyboard Layer 4 (Overlay)
//Storyboard Sound Samples

[TimingPoints]
164,344.827586206897,4,2,0,40,1,0
164,-125,4,2,0,40,0,0
21715,-100,4,2,0,30,0,0
22232,-100,4,2,0,50,0,0
43095,-100,4,2,0,30,0,0
47060,-250,4,2,0,30,0,0
47146,-250,4,2,0,5,0,0
49819,-200,4,2,0,30,0,0
49905,-200,4,2,0,5,0,0
52577,-333.333333333333,4,2,0,30,0,0
52664,-333.333333333333,4,2,0,5,0,0
54646,-333.333333333333,4,2,0,30,0,0
55336,-250,4,2,0,30,0,0
55422,-250,4,2,0,5,0,0
58095,-250,4,2,0,30,0,0
58181,-250,4,2,0,5,0,0
60853,-250,4,2,0,30,0,0
66457,-250,4,2,0,5,0,0
69129,-250,4,2,0,30,0,0
69215,-250,4,2,0,5,0,0
71888,-200,4,2,0,30,0,0
71974,-200,4,2,0,5,0,0
74646,-333.333333333333,4,2,0,30,0,0
74732,-333.333333333333,4,2,0,5,0,0
76715,-333.333333333333,4,2,0,30,0,0
77405,-250,4,2,0,30,0,0
77491,-250,4,2,0,5,0,0
80164,-250,4,2,0,30,0,0
80250,-250,4,2,0,5,0,0
82922,-250,4,2,0,30,0,0
85853,-250,4,2,0,30,0,0
86198,-250,4,2,0,35,0,0
86543,-250,4,2,0,40,0,0
86888,-250,4,2,0,45,0,0
87232,-250,4,2,0,50,0,0
87577,-250,4,2,0,55,0,0
87922,-250,4,2,0,60,0,0
88267,-250,4,2,0,5,0,0
90681,-83.3333333333333,4,1,0,50,0,0
91629,-83.3333333333333,4,1,0,5,0,0
91715,-83.3333333333333,4,1,0,50,0,0
92491,-83.3333333333333,4,1,0,5,0,0
92577,-83.3333333333333,4,1,0,50,0,0
93008,-83.3333333333333,4,1,0,5,0,0
93095,-83.3333333333333,4,1,0,50,0,0
93698,-83.3333333333333,4,1,0,5,0,0
93784,-83.3333333333333,4,1,0,50,0,0
94388,-83.3333333333333,4,1,0,5,0,0
94474,-83.3333333333333,4,1,0,50,0,0
95250,-83.3333333333333,4,1,0,5,0,0
95336,-83.3333333333333,4,1,0,50,0,0
95767,-83.3333333333333,4,1,0,5,0,0
95853,-83.3333333333333,4,1,0,50,0,0
96457,-83.3333333333333,4,1,0,5,0,0
96543,-83.3333333333333,4,1,0,50,0,0
97146,-83.3333333333333,4,1,0,5,0,0
97232,-83.3333333333333,4,1,0,50,0,0
98008,-83.3333333333333,4,1,0,5,0,0
98095,-83.3333333333333,4,1,0,50,0,0
98526,-83.3333333333333,4,1,0,5,0,0
98612,-83.3333333333333,4,1,0,50,0,0
99215,-83.3333333333333,4,1,0,5,0,0
99301,-83.3333333333333,4,1,0,50,0,0
99905,-83.3333333333333,4,1,0,5,0,0
99991,-83.3333333333333,4,1,0,50,0,0
100767,-83.3333333333333,4,1,0,5,0,0
100853,-83.3333333333333,4,1,0,50,0,0
101284,-83.3333333333333,4,1,0,5,0,0
101370,-83.3333333333333,4,1,0,50,0,0
101974,-83.3333333333333,4,1,0,5,0,0
102060,-83.3333333333333,4,1,0,50,0,0
102232,-83.3333333333333,4,1,0,50,0,0
102664,-83.3333333333333,4,1,0,5,0,0
102750,-83.3333333333333,4,1,0,50,0,0
103526,-83.3333333333333,4,1,0,5,0,0
103612,-83.3333333333333,4,1,0,50,0,0
104043,-83.3333333333333,4,1,0,5,0,0
104129,-83.3333333333333,4,1,0,50,0,0
104732,-83.3333333333333,4,1,0,5,0,0
104819,-83.3333333333333,4,1,0,50,0,0
105422,-83.3333333333333,4,1,0,5,0,0
105508,-83.3333333333333,4,1,0,50,0,0
106284,-83.3333333333333,4,1,0,5,0,0
106370,-83.3333333333333,4,1,0,50,0,0
106801,-83.3333333333333,4,1,0,5,0,0
106888,-83.3333333333333,4,1,0,50,0,0
107491,-83.3333333333333,4,1,0,5,0,0
107577,-83.3333333333333,4,1,0,50,0,0
108181,-83.3333333333333,4,1,0,5,0,0
108267,-83.3333333333333,4,1,0,50,0,0
109043,-83.3333333333333,4,1,0,5,0,0
109129,-83.3333333333333,4,1,0,50,0,0
109560,-83.3333333333333,4,1,0,5,0,0
109646,-83.3333333333333,4,1,0,50,0,0
110250,-83.3333333333333,4,1,0,5,0,0
110336,-83.3333333333333,4,1,0,50,0,0
110939,-83.3333333333333,4,1,0,5,0,0
111026,-83.3333333333333,4,1,0,50,0,0
111801,-83.3333333333333,4,1,0,5,0,0
111888,-83.3333333333333,4,1,0,50,0,0
112319,-83.3333333333333,4,1,0,5,0,0
112405,-83.3333333333333,4,1,0,50,0,0
113008,-83.3333333333333,4,1,0,5,0,0
113095,-83.3333333333333,4,1,0,50,0,0
113698,-83.3333333333333,4,1,0,5,0,0
113784,-83.3333333333333,4,1,0,50,0,0
114560,-83.3333333333333,4,1,0,5,0,0
114646,-83.3333333333333,4,1,0,50,0,0
115077,-83.3333333333333,4,1,0,5,0,0
115164,-83.3333333333333,4,1,0,50,0,0
115767,-83.3333333333333,4,1,0,5,0,0
115853,-83.3333333333333,4,1,0,50,0,0
116457,-83.3333333333333,4,1,0,5,0,0
116543,-83.3333333333333,4,1,0,50,0,0
117319,-83.3333333333333,4,1,0,5,0,0
117405,-83.3333333333333,4,1,0,50,0,0
117836,-83.3333333333333,4,1,0,5,0,0
117922,-83.3333333333333,4,1,0,50,0,0
118526,-83.3333333333333,4,1,0,5,0,0
118612,-83.3333333333333,4,1,0,50,0,0
119215,-83.3333333333333,4,1,0,5,0,0
119301,-83.3333333333333,4,1,0,50,0,0
120077,-83.3333333333333,4,1,0,5,0,0
120164,-83.3333333333333,4,1,0,50,0,0
120595,-83.3333333333333,4,1,0,5,0,0
120681,-83.3333333333333,4,1,0,50,0,0
121284,-83.3333333333333,4,1,0,5,0,0
121370,-83.3333333333333,4,1,0,50,0,0
121974,-83.3333333333333,4,1,0,5,0,0
122060,-83.3333333333333,4,1,0,50,0,0
122836,-83.3333333333333,4,1,0,5,0,0
122922,-83.3333333333333,4,1,0,50,0,0
123353,-83.3333333333333,4,1,0,5,0,0
123439,-83.3333333333333,4,1,0,50,0,0
124043,-83.3333333333333,4,1,0,5,0,0
124129,-83.3333333333333,4,1,0,50,0,0
124732,-83.3333333333333,4,1,0,5,0,0
124819,-83.3333333333333,4,1,0,50,0,0
125595,-83.3333333333333,4,1,0,5,0,0
125681,-83.3333333333333,4,1,0,50,0,0
126112,-83.3333333333333,4,1,0,5,0,0
126198,-83.3333333333333,4,1,0,50,0,0
126801,-83.3333333333333,4,1,0,5,0,0
126888,-83.3333333333333,4,1,0,50,0,0
127491,-83.3333333333333,4,1,0,5,0,0
127577,-83.3333333333333,4,1,0,50,0,0
128353,-83.3333333333333,4,1,0,5,0,0
128439,-83.3333333333333,4,1,0,50,0,0
128870,-83.3333333333333,4,1,0,5,0,0
128957,-83.3333333333333,4,1,0,50,0,0
129560,-83.3333333333333,4,1,0,5,0,0
129646,-83.3333333333333,4,1,0,50,0,0
130250,-83.3333333333333,4,1,0,5,0,0
130336,-83.3333333333333,4,1,0,50,0,0
131112,-83.3333333333333,4,1,0,5,0,0
131198,-83.3333333333333,4,1,0,50,0,0
131629,-83.3333333333333,4,1,0,5,0,0
131715,-83.3333333333333,4,1,0,50,0,0
132319,-83.3333333333333,4,1,0,5,0,0
132405,-83.3333333333333,4,1,0,50,0,0
133008,-83.3333333333333,4,1,0,5,0,0
133095,-83.3333333333333,4,1,0,50,0,0
133870,-83.3333333333333,4,1,0,5,0,0
133957,-83.3333333333333,4,1,0,50,0,0
134388,-83.3333333333333,4,1,0,5,0,0
134474,-83.3333333333333,4,1,0,50,0,0
134905,-83.3333333333333,4,1,0,5,0,0
134991,-83.3333333333333,4,1,0,50,0,0
135077,-83.3333333333333,4,1,0,5,0,0
135164,-83.3333333333333,4,1,0,50,0,0
135767,-83.3333333333333,4,1,0,5,0,0
135853,-83.3333333333333,4,1,0,50,0,0
136629,-83.3333333333333,4,1,0,5,0,0
136715,-83.3333333333333,4,1,0,50,0,0
137146,-83.3333333333333,4,1,0,5,0,0
137232,-83.3333333333333,4,1,0,50,0,0
137836,-83.3333333333333,4,1,0,5,0,0
137922,-83.3333333333333,4,1,0,50,0,0
138526,-83.3333333333333,4,1,0,5,0,0
138612,-83.3333333333333,4,1,0,50,0,0
139388,-83.3333333333333,4,1,0,5,0,0
139474,-83.3333333333333,4,1,0,50,0,0
139905,-83.3333333333333,4,1,0,5,0,0
139991,-83.3333333333333,4,1,0,50,0,0
140595,-83.3333333333333,4,1,0,5,0,0
140681,-83.3333333333333,4,1,0,50,0,0
141284,-83.3333333333333,4,1,0,5,0,0
141370,-83.3333333333333,4,1,0,50,0,0
142146,-83.3333333333333,4,1,0,5,0,0
142232,-83.3333333333333,4,1,0,50,0,0
142664,-83.3333333333333,4,1,0,5,0,0
142750,-83.3333333333333,4,1,0,50,0,0
143353,-83.3333333333333,4,1,0,5,0,0
143439,-83.3333333333333,4,1,0,50,0,0
144043,-83.3333333333333,4,1,0,5,0,0
144129,-83.3333333333333,4,1,0,50,0,0
144905,-83.3333333333333,4,1,0,5,0,0
144991,-83.3333333333333,4,1,0,50,0,0
145422,-83.3333333333333,4,1,0,5,0,0
145508,-83.3333333333333,4,1,0,50,0,0
146112,-83.3333333333333,4,1,0,5,0,0
146198,-83.3333333333333,4,1,0,50,0,0
146801,-83.3333333333333,4,1,0,5,0,0
146888,-83.3333333333333,4,1,0,50,0,0
147664,-83.3333333333333,4,1,0,5,0,0
147750,-83.3333333333333,4,1,0,50,0,0
148181,-83.3333333333333,4,1,0,5,0,0
148267,-83.3333333333333,4,1,0,50,0,0
148870,-83.3333333333333,4,1,0,5,0,0
148957,-83.3333333333333,4,1,0,50,0,0
149560,-83.3333333333333,4,1,0,5,0,0
149646,-83.3333333333333,4,1,0,50,0,0
150422,-83.3333333333333,4,1,0,5,0,0
150508,-83.3333333333333,4,1,0,50,0,0
150939,-83.3333333333333,4,1,0,5,0,0
151026,-83.3333333333333,4,1,0,50,0,0
151629,-83.3333333333333,4,1,0,5,0,0
151715,-83.3333333333333,4,1,0,50,0,0
152319,-83.3333333333333,4,1,0,5,0,0
152405,-83.3333333333333,4,1,0,50,0,0
153181,-83.3333333333333,4,1,0,5,0,0
153267,-83.3333333333333,4,1,0,50,0,0
153698,-83.3333333333333,4,1,0,5,0,0
153784,-83.3333333333333,4,1,0,50,0,0
154388,-83.3333333333333,4,1,0,5,0,0
154474,-83.3333333333333,4,1,0,50,0,0
155077,-83.3333333333333,4,1,0,5,0,0
155164,-83.3333333333333,4,1,0,50,0,0
155767,-83.3333333333333,4,1,0,5,0,0
155853,-83.3333333333333,4,1,0,50,0,0
156457,-83.3333333333333,4,1,0,5,0,0
156543,-83.3333333333333,4,1,0,50,0,0
160164,-250,4,2,0,30,0,0
160250,-250,4,2,0,5,0,0
162922,-250,4,2,0,30,0,0
163008,-250,4,2,0,5,0,0
165681,-250,4,2,0,30,0,0
165767,-250,4,2,0,5,0,0
168439,-250,4,2,0,30,0,0
168526,-250,4,2,0,5,0,0
171198,-250,4,2,0,30,0,0
171370,-250,4,2,0,5,0,0
174474,-250,4,2,0,10,0,0
174819,-250,4,2,0,15,0,0
175164,-250,4,2,0,20,0,0
175508,-250,4,2,0,25,0,0
175853,-250,4,2,0,30,0,0
176198,-250,4,2,0,35,0,0
176543,-250,4,2,0,40,0,0
176888,-250,4,2,0,45,0,0
177232,-250,4,2,0,50,0,0
177577,-250,4,2,0,55,0,0
177922,-250,4,2,0,60,0,0
178095,-250,4,2,0,5,0,0
178267,-250,4,3,0,20,0,0
178439,-250,4,3,0,25,0,0
178612,-250,4,3,0,30,0,0
178784,-250,4,3,0,35,0,0
178957,-250,4,3,0,40,0,0
179129,-250,4,3,0,45,0,0
179301,-250,4,3,0,50,0,0
179474,-71.4285714285714,4,1,0,60,0,1
179560,-71.4285714285714,4,1,0,5,0,1
179646,-71.4285714285714,4,1,0,60,0,1
185077,-71.4285714285714,4,1,0,5,0,1
185164,-71.4285714285714,4,1,0,60,0,1
196112,-71.4285714285714,4,1,0,5,0,1
196198,-71.4285714285714,4,1,0,60,0,1
201543,-250,4,1,0,60,0,1
202060,-250,4,1,0,5,0,1
202232,-71.4285714285714,4,1,0,60,0,1
207146,-71.4285714285714,4,1,0,5,0,1
207232,-71.4285714285714,4,1,0,60,0,1
218181,-71.4285714285714,4,1,0,5,0,1
218267,-71.4285714285714,4,1,0,60,0,1
223612,-125,4,2,0,40,0,0
245164,-100,4,2,0,30,0,0
245681,-100,4,2,0,50,0,0
267750,-250,4,1,0,60,0,1
268267,-250,4,1,0,5,0,1
268439,-66.6666666666667,4,1,0,60,0,1
273353,-66.6666666666667,4,1,0,5,0,1
273439,-66.6666666666667,4,1,0,60,0,1
284388,-66.6666666666667,4,1,0,5,0,1
284474,-66.6666666666667,4,1,0,60,0,1
289819,-250,4,1,0,60,0,0
290336,-250,4,1,0,5,0,0
290508,-71.4285714285714,4,1,0,50,0,0
291198,-71.4285714285714,4,1,0,45,0,0
292577,-71.4285714285714,4,1,0,40,0,0
293957,-71.4285714285714,4,1,0,35,0,0
295336,-71.4285714285714,4,1,0,30,0,0
296715,-71.4285714285714,4,1,0,25,0,0
298095,-71.4285714285714,4,1,0,20,0,0
299474,-71.4285714285714,4,1,0,15,0,0
300853,-71.4285714285714,4,1,0,10,0,0
306370,-71.4285714285714,4,2,0,5,0,0

[Colours]
Combo1 : 0,128,192
Combo2 : 128,128,128
Combo3 : 192,192,192
Combo4 : 151,0,0
Combo5 : 255,0,0
Combo6 : 64,128,128

[HitObjects]
48,340,164,22,0,P|80:322|127:324,1,68,8|0,3:0|0:0,0:0:0:0:
209,357,508,1,0,0:0:0:0:
209,357,681,2,0,L|201:265,1,68,2|0,0:0|0:0,0:0:0:0:
140,159,1026,2,0,L|132:251,1,68,2|0,0:0|0:0,0:0:0:0:
241,195,1370,1,0,0:0:0:0:
241,195,1543,2,0,L|332:186,1,68,2|0,0:0|0:0,0:0:0:0:
216,83,1888,2,0,L|125:75,1,68,2|0,0:0|0:0,0:0:0:0:
16,15,2232,1,8,0:0:0:0:
324,97,2577,1,2,0:0:0:0:
341,99,2664,1,0,0:0:0:0:
357,101,2750,1,2,0:0:0:0:
373,103,2836,1,0,0:0:0:0:
389,105,2922,70,0,P|407:137|405:184,1,68,8|0,3:0|0:0,0:0:0:0:
314,256,3267,1,0,0:0:0:0:
314,256,3439,2,0,L|306:164,1,68,2|0,0:0|0:0,0:0:0:0:
229,117,3784,1,0,0:0:0:0:
229,117,3957,2,0,L|237:25,1,68,2|0,0:0|0:0,0:0:0:0:
370,10,4301,5,8,0:0:0:0:
204,212,4646,1,2,0:0:0:0:
206,229,4732,1,0,0:0:0:0:
208,245,4819,1,2,0:0:0:0:
210,261,4905,1,0,0:0:0:0:
212,277,4991,1,2,0:0:0:0:
107,233,5164,1,2,0:0:0:0:
109,216,5250,1,0,0:0:0:0:
111,200,5336,1,2,0:0:0:0:
113,184,5422,1,0,0:0:0:0:
114,168,5508,1,2,0:0:0:0:
115,152,5595,1,0,0:0:0:0:
116,136,5681,70,0,P|84:118|37:120,1,68,8|0,3:0|0:0,0:0:0:0:
130,31,6026,1,0,0:0:0:0:
130,31,6198,2,0,L|222:23,1,68,2|0,0:0|0:0,0:0:0:0:
291,117,6543,2,0,L|224:122,1,68,2|0,0:0|0:0,0:0:0:0:
381,75,6888,1,0,0:0:0:0:
381,75,7060,2,0,L|386:142,1,68,2|0,0:0|0:0,0:0:0:0:
469,233,7405,2,0,L|475:166,1,68,2|0,0:0|0:0,0:0:0:0:
438,1,7750,1,8,0:0:0:0:
385,239,8095,1,2,0:0:0:0:
383,256,8181,1,0,0:0:0:0:
381,272,8267,1,2,0:0:0:0:
379,288,8353,1,0,0:0:0:0:
377,304,8439,5,2,0:0:0:0:
275,345,8612,1,0,0:0:0:0:
295,223,8784,1,0,0:0:0:0:
295,223,8957,2,0,L|287:131,1,68,2|0,0:0|0:0,0:0:0:0:
195,76,9301,1,0,0:0:0:0:
195,76,9474,2,0,L|203:-16,1,68,2|0,0:0|0:0,0:0:0:0:
386,142,9819,1,8,0:0:0:0:
111,28,10164,1,2,0:0:0:0:
94,30,10250,1,0,0:0:0:0:
78,32,10336,1,2,0:0:0:0:
62,34,10422,1,0,0:0:0:0:
46,36,10508,69,8,3:0:0:0:
93,178,10681,1,2,0:0:0:0:
110,176,10767,1,0,0:0:0:0:
126,174,10853,1,2,0:0:0:0:
142,172,10939,1,0,0:0:0:0:
158,171,11026,1,2,0:0:0:0:
174,170,11112,1,0,0:0:0:0:
190,169,11198,6,0,P|208:201|206:248,1,68,8|0,3:0|0:0,0:0:0:0:
123,341,11543,1,0,0:0:0:0:
123,341,11715,2,0,L|115:249,1,68,2|0,0:0|0:0,0:0:0:0:
14,210,12060,2,0,L|22:118,1,68,2|0,0:0|0:0,0:0:0:0:
0,40,12405,1,0,0:0:0:0:
0,40,12577,2,0,L|91:49,1,68,2|0,0:0|0:0,0:0:0:0:
156,96,12922,2,0,L|247:88,1,68,2|0,0:0|0:0,0:0:0:0:
315,31,13267,1,8,0:0:0:0:
487,233,13612,1,2,0:0:0:0:
485,250,13698,1,0,0:0:0:0:
483,266,13784,1,2,0:0:0:0:
481,282,13870,1,0,0:0:0:0:
479,298,13957,70,0,P|447:316|400:314,1,68,8|0,3:0|0:0,0:0:0:0:
309,349,14301,1,0,0:0:0:0:
309,349,14474,2,0,L|317:257,1,68,2|0,0:0|0:0,0:0:0:0:
386,140,14819,1,0,0:0:0:0:
386,140,14991,2,0,L|394:232,1,68,2|0,0:0|0:0,0:0:0:0:
377,380,15336,5,8,0:0:0:0:
298,158,15681,1,2,0:0:0:0:
300,141,15767,1,0,0:0:0:0:
302,125,15853,1,2,0:0:0:0:
304,109,15939,1,0,0:0:0:0:
306,93,16026,1,2,0:0:0:0:
198,149,16198,1,2,0:0:0:0:
200,166,16284,1,0,0:0:0:0:
202,182,16370,1,2,0:0:0:0:
204,198,16457,1,0,0:0:0:0:
205,214,16543,1,2,0:0:0:0:
206,230,16629,1,0,0:0:0:0:
207,246,16715,70,0,P|175:264|128:262,1,68,8|0,3:0|0:0,0:0:0:0:
67,170,17060,1,0,0:0:0:0:
67,170,17232,2,0,L|-25:178,1,68,2|0,0:0|0:0,0:0:0:0:
69,70,17577,2,0,L|136:75,1,68,2|0,0:0|0:0,0:0:0:0:
254,42,17922,1,0,0:0:0:0:
254,42,18095,2,0,L|259:109,1,68,2|0,0:0|0:0,0:0:0:0:
371,217,18439,2,0,L|377:150,1,68,2|0,0:0|0:0,0:0:0:0:
484,17,18784,1,8,0:0:0:0:
366,320,19129,1,2,0:0:0:0:
349,318,19215,1,0,0:0:0:0:
333,316,19301,1,2,0:0:0:0:
317,314,19388,1,0,0:0:0:0:
301,312,19474,6,0,P|283:280|285:233,1,68,8|0,3:0|0:0,0:0:0:0:
377,149,19819,1,0,0:0:0:0:
377,149,19991,2,0,L|369:57,1,68,2|0,0:0|0:0,0:0:0:0:
208,188,20336,1,0,0:0:0:0:
208,188,20508,2,0,L|200:280,1,68,2|0,0:0|0:0,0:0:0:0:
291,384,20853,1,8,0:0:0:0:
67,325,21198,1,2,0:0:0:0:
50,327,21284,1,0,0:0:0:0:
34,329,21370,1,2,0:0:0:0:
18,331,21457,1,0,0:0:0:0:
2,333,21543,69,8,3:0:0:0:
111,179,21715,1,8,3:0:0:0:
147,159,21801,1,0,1:0:0:0:
169,121,21888,1,8,3:0:0:0:
162,78,21974,1,0,1:0:0:0:
130,49,22060,1,8,3:0:0:0:
87,46,22146,1,0,1:0:0:0:
51,71,22232,70,0,L|35:174,1,85,8|0,3:0|0:0,0:0:0:0:
67,325,22577,1,8,0:0:0:0:
150,266,22750,2,0,P|197:266|261:277,1,85,2|0,0:0|0:0,0:0:0:0:
356,364,23095,1,8,0:0:0:0:
313,238,23267,1,2,0:0:0:0:
315,216,23353,1,0,0:0:0:0:
317,194,23439,1,2,0:0:0:0:
319,172,23526,1,0,0:0:0:0:
321,151,23612,70,0,P|321:104|309:39,1,85
406,189,23957,1,2,3:0:0:0:
235,156,24129,2,0,P|188:156|123:167,1,85,2|0,0:0|0:0,0:0:0:0:
315,66,24474,1,2,3:0:0:0:
239,12,24646,1,0,0:0:0:0:
90,49,24819,1,2,3:0:0:0:
315,66,24991,6,0,L|413:56,1,85,8|0,3:0|0:0,0:0:0:0:
420,62,25250,1,0,0:0:0:0:
405,77,25336,1,8,0:0:0:0:
321,151,25508,2,0,P|321:198|332:262,1,85,2|0,0:0|0:0,0:0:0:0:
332,256,25767,1,0,0:0:0:0:
317,241,25853,1,8,0:0:0:0:
230,132,26026,1,2,0:0:0:0:
233,111,26112,1,0,0:0:0:0:
236,90,26198,69,8,0:0:0:0:
206,81,26284,1,8,0:0:0:0:
177,72,26370,1,0,0:0:0:0:
132,43,26457,6,0,L|78:50,2,42.5
0,59,26715,1,2,3:0:0:0:
45,160,26888,1,0,0:0:0:0:
74,153,26974,69,8,0:0:0:0:
103,160,27060,1,0,0:0:0:0:
132,167,27146,1,0,0:0:0:0:
161,174,27232,5,8,0:0:0:0:
148,201,27319,1,0,0:0:0:0:
135,228,27405,1,0,0:0:0:0:
78,241,27491,69,8,0:0:0:0:
91,268,27577,1,0,0:0:0:0:
148,281,27664,5,8,0:0:0:0:
135,308,27750,2,0,L|32:324,1,85,8|0,3:0|0:0,0:0:0:0:
4,191,28095,1,8,0:0:0:0:
71,76,28267,2,0,P|118:76|182:87,1,85,2|0,0:0|0:0,0:0:0:0:
227,141,28612,1,8,0:0:0:0:
304,40,28784,1,2,0:0:0:0:
326,38,28870,1,0,0:0:0:0:
348,36,28957,1,2,0:0:0:0:
370,34,29043,1,0,0:0:0:0:
391,32,29129,70,0,P|438:32|503:44,1,85
328,130,29474,1,2,3:0:0:0:
382,200,29646,2,0,P|382:247|371:312,1,85,2|0,0:0|0:0,0:0:0:0:
487,196,29991,1,2,3:0:0:0:
416,119,30164,1,0,0:0:0:0:
227,141,30336,1,2,3:0:0:0:
382,200,30508,6,0,P|428:197|492:183,1,85,2|0,0:0|0:0,0:0:0:0:
487,196,30767,1,0,0:0:0:0:
472,211,30853,1,8,0:0:0:0:
352,297,31026,2,0,P|305:297|241:286,1,85,2|0,0:0|0:0,0:0:0:0:
247,286,31284,1,0,0:0:0:0:
262,301,31370,1,8,0:0:0:0:
150,382,31543,1,2,0:0:0:0:
128,383,31629,1,0,0:0:0:0:
107,384,31715,69,8,0:0:0:0:
101,353,31801,1,8,0:0:0:0:
94,323,31888,1,8,0:0:0:0:
57,280,31974,6,0,L|64:226,2,42.5
168,303,32232,1,2,3:0:0:0:
116,158,32405,1,0,0:0:0:0:
109,129,32491,69,8,0:0:0:0:
116,100,32577,1,0,0:0:0:0:
123,71,32663,1,0,0:0:0:0:
130,42,32749,5,8,0:0:0:0:
157,55,32836,1,0,0:0:0:0:
184,68,32922,1,0,0:0:0:0:
197,125,33008,69,8,0:0:0:0:
224,112,33094,1,0,0:0:0:0:
237,55,33181,5,8,0:0:0:0:
264,68,33267,2,0,L|280:171,1,85,8|0,3:0|0:0,0:0:0:0:
339,250,33612,1,8,0:0:0:0:
407,173,33784,2,0,P|407:126|396:62,1,85,2|0,0:0|0:0,0:0:0:0:
483,0,34129,1,8,0:0:0:0:
497,132,34301,1,2,0:0:0:0:
499,154,34388,1,0,0:0:0:0:
501,176,34474,1,2,0:0:0:0:
503,198,34560,1,0,0:0:0:0:
505,219,34646,70,0,P|505:266|493:331,1,85
402,88,34991,1,2,3:0:0:0:
316,123,35164,2,0,P|269:123|204:112,1,85,2|0,0:0|0:0,0:0:0:0:
342,251,35508,1,2,3:0:0:0:
414,183,35681,1,0,0:0:0:0:
326,28,35853,1,2,3:0:0:0:
242,206,36026,6,0,L|252:304,1,85,8|0,3:0|0:0,0:0:0:0:
246,311,36284,1,0,0:0:0:0:
231,296,36370,1,8,0:0:0:0:
154,190,36543,2,0,P|154:143|165:79,1,85,2|0,0:0|0:0,0:0:0:0:
165,85,36801,1,0,0:0:0:0:
150,100,36888,1,8,0:0:0:0:
67,219,37060,1,2,0:0:0:0:
66,241,37146,1,0,0:0:0:0:
65,262,37232,69,8,0:0:0:0:
96,268,37319,1,8,0:0:0:0:
126,275,37405,1,8,0:0:0:0:
174,301,37491,6,0,L|228:294,2,42.5
154,190,37750,1,2,3:0:0:0:
313,175,37922,1,0,0:0:0:0:
320,146,38008,69,8,0:0:0:0:
313,117,38094,1,0,0:0:0:0:
306,88,38180,1,0,0:0:0:0:
299,59,38266,5,8,0:0:0:0:
272,72,38353,1,0,0:0:0:0:
245,85,38439,1,0,0:0:0:0:
232,142,38526,69,8,0:0:0:0:
205,129,38611,1,0,0:0:0:0:
192,72,38698,5,8,0:0:0:0:
165,85,38784,2,0,L|172:185,1,85,8|0,3:0|0:0,0:0:0:0:
231,296,39129,1,8,0:0:0:0:
321,245,39301,2,0,P|368:245|432:256,1,85,2|0,0:0|0:0,0:0:0:0:
468,362,39646,1,8,0:0:0:0:
500,246,39819,1,2,0:0:0:0:
502,224,39905,1,0,0:0:0:0:
504,202,39991,1,2,0:0:0:0:
506,180,40077,1,0,0:0:0:0:
508,159,40164,70,0,P|508:112|496:47,1,85
431,181,40508,1,2,3:0:0:0:
335,135,40681,2,0,P|288:135|223:146,1,85,2|0,0:0|0:0,0:0:0:0:
418,77,41026,1,2,3:0:0:0:
325,31,41198,1,0,0:0:0:0:
188,68,41370,1,2,3:0:0:0:
335,135,41543,6,0,L|345:233,1,85,8|0,3:0|0:0,0:0:0:0:
339,240,41801,1,0,0:0:0:0:
324,225,41888,1,8,0:0:0:0:
177,173,42060,2,0,P|177:126|188:62,1,85,2|0,0:0|0:0,0:0:0:0:
188,68,42319,1,0,0:0:0:0:
173,83,42405,1,8,0:0:0:0:
88,216,42577,1,2,0:0:0:0:
86,237,42664,1,0,0:0:0:0:
85,258,42750,69,8,0:0:0:0:
116,264,42836,1,8,0:0:0:0:
146,271,42922,1,8,0:0:0:0:
232,317,43095,5,0,0:0:0:0:
244,315,43181,1,0,0:0:0:0:
256,314,43267,1,2,0:0:0:0:
322,240,43439,1,8,0:0:0:0:
350,373,43612,1,8,3:0:0:0:
431,234,43784,1,2,0:0:0:0:
427,210,43870,1,2,0:0:0:0:
425,186,43957,1,8,0:0:0:0:
423,162,44043,1,8,0:0:0:0:
421,138,44129,2,0,L|424:101,4,21.25,8|8|8|0|0,0:0|0:0|0:0|0:0|0:0,0:0:0:0:
421,114,47060,22,0,B|369:154|290:148|248:94|248:94|241:115|227:128|209:133|188:126|188:126|185:186|133:219|102:193|93:151|93:151|116:123|113:84|101:64,1,510,2|0,2:0|0:0,0:0:0:0:
28,100,49819,2,0,B|7:157|32:206|32:206|4:225|1:248|1:248|4:317|45:352|45:352|82:320|84:263|84:263|136:280|184:275|216:254|244:204|244:204|273:233|261:273,1,637.5,2|0,0:0|0:0,0:0:0:0:
238,339,52577,2,0,B|290:355|329:310|329:310|347:337|373:344|373:344|393:322|388:293,1,203.999993774414
388,302,54646,69,2,0:0:0:0:
388,302,55336,2,0,B|354:243|388:177|388:177|417:178|439:162|439:162|436:136|413:121|413:121|403:75|441:35|441:35|382:11|347:35|347:35|327:79|335:118,1,510,2|0,0:0|0:0,0:0:0:0:
284,187,58095,2,0,B|243:125|268:25|268:25|221:11|189:20|189:20|185:40|170:50|170:50|136:51|106:27|106:27|127:91|106:125|106:125|73:127|50:92,1,510,2|0,0:0|0:0,0:0:0:0:
22,26,60853,5,2,0:0:0:0:
284,187,63612,1,2,0:0:0:0:
49,342,65681,69,2,0:0:0:0:
49,342,66370,2,0,B|17:279|47:200|47:200|74:221|81:257|81:257|114:242|133:214|133:214|93:187|71:93|71:93|125:86|156:128,1,510,2|0,0:0|0:0,0:0:0:0:
212,188,69129,2,0,B|260:125|234:71|197:45|197:45|222:25|270:27|270:27|293:38|305:86|305:86|328:68|336:46|336:46|373:40|413:59|413:59|387:107|365:125,1,510,2|0,0:0|0:0,0:0:0:0:
312,175,71888,2,0,B|355:225|435:200|461:142|461:142|506:228|448:272|387:276|387:276|440:290|475:309|475:309|452:359|391:356|391:356|358:345|321:361,1,637.5,2|0,0:0|0:0,0:0:0:0:
239,382,74646,2,0,B|200:398|163:366|163:366|153:383|130:384|130:384|81:372|82:314,1,203.999993774414
82,324,76715,5,2,0:0:0:0:
82,324,77405,2,0,B|108:291|105:244|105:244|66:234|51:200|51:200|35:162|61:129|61:129|88:160|120:161|120:161|145:132|139:87|139:87|124:68|100:67|100:67|91:39|118:17|118:17|156:27,1,510,2|0,0:0|0:0,0:0:0:0:
218,64,80164,2,0,B|275:82|342:44|342:44|354:114|305:137|305:137|252:149|210:137|210:137|205:172|181:206|181:206|231:229|288:219,1,510,2|0,0:0|0:0,0:0:0:0:
359,205,82922,69,2,0:0:0:0:
145,24,85681,1,2,0:0:0:0:
256,192,85767,12,0,88267,0:0:0:0:
234,354,90681,5,4,3:0:0:0:
274,349,90767,1,0,3:0:0:0:
314,343,90853,1,8,3:0:0:0:
354,339,90939,1,0,3:0:0:0:
394,334,91026,1,8,3:0:0:0:
434,329,91112,1,0,3:0:0:0:
474,324,91198,54,0,P|507:281|510:227,1,101.999996887207,4|0,3:0|0:0,0:0:0:0:
493,91,91543,2,0,L|498:25,1,50.9999984436036,8|0,0:0|0:0,0:0:0:0:
370,46,91715,1,0,0:0:0:0:
349,48,91801,1,0,0:0:0:0:
328,51,91888,1,0,0:0:0:0:
234,168,92060,2,0,L|120:159,1,101.999996887207,8|0,3:0|0:0,0:0:0:0:
199,66,92405,2,0,L|265:60,1,50.9999984436036,8|0,0:0|0:0,0:0:0:0:
133,0,92577,69,0,0:0:0:0:
11,94,92750,1,8,3:0:0:0:
62,231,92922,2,0,L|128:237,1,50.9999984436036,8|0,0:0|0:0,0:0:0:0:
23,315,93095,1,0,0:0:0:0:
25,336,93181,1,0,0:0:0:0:
28,357,93267,1,0,0:0:0:0:
175,288,93439,1,8,3:0:0:0:
132,160,93612,2,0,L|126:94,1,50.9999984436036,8|0,0:0|0:0,0:0:0:0:
102,323,93784,1,0,0:0:0:0:
219,202,93957,6,0,P|271:189|322:210,1,101.999996887207,4|0,3:0|0:0,0:0:0:0:
446,291,94301,2,0,L|512:285,1,50.9999984436036,8|0,0:0|0:0,0:0:0:0:
312,291,94474,1,0,0:0:0:0:
291,289,94560,1,0,0:0:0:0:
270,286,94646,1,0,0:0:0:0:
396,216,94819,2,0,L|387:102,1,101.999996887207,8|0,3:0|0:0,0:0:0:0:
223,151,95164,2,0,L|217:217,1,50.9999984436036,8|0,0:0|0:0,0:0:0:0:
293,77,95336,69,0,0:0:0:0:
152,32,95508,1,8,3:0:0:0:
51,134,95681,2,0,L|-15:128,1,50.9999984436036,8|0,0:0|0:0,0:0:0:0:
139,125,95853,1,0,0:0:0:0:
141,146,95939,1,0,0:0:0:0:
144,167,96026,1,0,0:0:0:0:
68,301,96198,1,8,3:0:0:0:
223,252,96370,2,0,L|217:186,1,50.9999984436036,8|0,0:0|0:0,0:0:0:0:
167,339,96543,1,0,0:0:0:0:
322,256,96715,6,0,P|307:307|263:341,1,101.999996887207,4|0,3:0|0:0,0:0:0:0:
120,250,97060,2,0,L|54:256,1,50.9999984436036,8|0,0:0|0:0,0:0:0:0:
219,169,97232,1,0,0:0:0:0:
240,171,97319,1,0,0:0:0:0:
261,174,97405,1,0,0:0:0:0:
427,94,97577,2,0,L|325:102,1,101.999996887207,8|0,3:0|0:0,0:0:0:0:
187,27,97922,2,0,L|121:21,1,50.9999984436036,8|0,0:0|0:0,0:0:0:0:
241,93,98095,69,0,0:0:0:0:
393,17,98267,1,8,3:0:0:0:
470,169,98439,2,0,L|464:235,1,50.9999984436036,8|0,0:0|0:0,0:0:0:0:
325,102,98612,1,0,0:0:0:0:
323,81,98698,1,0,0:0:0:0:
320,60,98784,1,0,0:0:0:0:
381,181,98957,1,8,3:0:0:0:
241,93,99129,2,0,L|175:99,1,50.9999984436036,8|0,0:0|0:0,0:0:0:0:
322,256,99301,1,0,0:0:0:0:
325,102,99474,6,0,L|312:1,1,101.999996887207,4|0,3:0|0:0,0:0:0:0:
255,170,99819,2,0,L|249:236,1,50.9999984436036,8|0,0:0|0:0,0:0:0:0:
181,25,99991,1,0,0:0:0:0:
160,27,100077,1,0,0:0:0:0:
139,30,100164,1,0,0:0:0:0:
36,136,100336,2,0,L|27:237,1,101.999996887207,8|0,3:0|0:0,0:0:0:0:
136,170,100681,2,0,L|130:104,1,50.9999984436036,8|0,0:0|0:0,0:0:0:0:
114,260,100853,69,0,0:0:0:0:
255,170,101026,1,8,3:0:0:0:
187,315,101198,2,0,L|181:381,1,50.9999984436036,8|0,0:0|0:0,0:0:0:0:
260,212,101370,1,0,0:0:0:0:
258,191,101457,1,0,0:0:0:0:
255,170,101543,1,8,3:0:0:0:
198,72,101715,1,8,3:0:0:0:
404,105,101888,2,0,L|469:111,1,50.9999984436036,8|0,0:0|0:0,0:0:0:0:
203,32,102060,1,0,0:0:0:0:
200,52,102146,1,0,0:0:0:0:
198,72,102232,6,0,P|229:115|282:132,1,101.999996887207,4|0,3:0|0:0,0:0:0:0:
382,6,102577,2,0,L|447:0,1,50.9999984436036,8|0,0:0|0:0,0:0:0:0:
270,53,102750,1,0,0:0:0:0:
271,73,102836,1,0,0:0:0:0:
272,93,102922,1,0,0:0:0:0:
273,113,103008,1,0,0:0:0:0:
273,131,103095,2,0,L|279:247,1,101.999996887207,8|0,3:0|0:0,0:0:0:0:
203,359,103439,2,0,L|137:353,1,50.9999984436036,8|0,0:0|0:0,0:0:0:0:
300,308,103612,69,0,0:0:0:0:
442,351,103784,1,8,3:0:0:0:
506,221,103957,2,0,L|500:155,1,50.9999984436036,8|0,0:0|0:0,0:0:0:0:
354,212,104129,1,0,0:0:0:0:
336,223,104215,1,0,0:0:0:0:
317,230,104301,1,0,0:0:0:0:
297,232,104388,1,0,0:0:0:0:
277,230,104474,1,8,3:0:0:0:
355,135,104646,2,0,L|420:129,1,50.9999984436036,8|0,0:0|0:0,0:0:0:0:
208,280,104819,1,8,3:0:0:0:
286,105,104991,6,0,P|294:52|269:3,1,101.999996887207,4|0,3:0|0:0,0:0:0:0:
118,2,105336,2,0,L|52:8,1,50.9999984436036,8|0,0:0|0:0,0:0:0:0:
198,67,105508,1,0,0:0:0:0:
199,87,105595,1,0,0:0:0:0:
200,107,105681,1,0,0:0:0:0:
201,127,105767,1,0,0:0:0:0:
201,145,105853,2,0,L|207:261,1,101.999996887207,8|0,3:0|0:0,0:0:0:0:
108,159,106198,2,0,L|102:93,1,50.9999984436036,8|0,0:0|0:0,0:0:0:0:
41,256,106370,69,0,0:0:0:0:
206,246,106543,1,8,3:0:0:0:
319,355,106715,2,0,L|384:349,1,50.9999984436036,8|0,0:0|0:0,0:0:0:0:
173,321,106888,1,0,0:0:0:0:
156,308,106974,1,0,0:0:0:0:
141,294,107060,1,0,0:0:0:0:
131,277,107146,1,0,0:0:0:0:
125,258,107232,1,8,3:0:0:0:
294,272,107405,2,0,L|359:266,1,50.9999984436036,8|0,0:0|0:0,0:0:0:0:
206,246,107577,1,8,3:0:0:0:
341,189,107750,6,0,P|391:205|424:250,1,101.999996887207,4|0,3:0|0:0,0:0:0:0:
319,355,108095,2,0,L|253:361,1,50.9999984436036,8|0,0:0|0:0,0:0:0:0:
344,267,108267,1,0,0:0:0:0:
343,247,108353,1,0,0:0:0:0:
342,227,108439,1,0,0:0:0:0:
341,207,108526,1,0,0:0:0:0:
341,189,108612,2,0,L|335:73,1,101.999996887207,8|0,3:0|0:0,0:0:0:0:
206,246,108957,2,0,L|210:195,1,50.9999984436036,8|0,0:0|0:0,0:0:0:0:
255,118,109129,69,0,0:0:0:0:
266,291,109301,1,8,3:0:0:0:
126,202,109474,2,0,L|120:136,1,50.9999984436036,8|0,0:0|0:0,0:0:0:0:
191,329,109646,1,0,0:0:0:0:
202,346,109732,1,0,0:0:0:0:
216,360,109819,1,0,0:0:0:0:
233,370,109905,1,0,0:0:0:0:
252,377,109991,1,8,3:0:0:0:
404,304,110164,2,0,L|338:310,1,50.9999984436036,8|0,0:0|0:0,0:0:0:0:
210,195,110336,1,8,3:0:0:0:
377,225,110508,6,0,P|427:205|456:159,1,101.999996887207,4|0,3:0|0:0,0:0:0:0:
340,50,110853,2,0,L|334:-15,1,50.9999984436036,8|0,0:0|0:0,0:0:0:0:
374,147,111026,1,0,0:0:0:0:
375,167,111112,1,0,0:0:0:0:
376,187,111198,1,0,0:0:0:0:
377,207,111284,1,0,0:0:0:0:
377,225,111370,2,0,L|383:341,1,101.999996887207,8|0,3:0|0:0,0:0:0:0:
466,176,111715,2,0,L|468:227,1,50.9999984436036,8|0,0:0|0:0,0:0:0:0:
477,326,111888,69,0,0:0:0:0:
303,370,112060,1,8,3:0:0:0:
159,329,112232,2,0,L|93:335,1,50.9999984436036,8|0,0:0|0:0,0:0:0:0:
278,285,112405,1,0,0:0:0:0:
289,267,112491,1,0,0:0:0:0:
296,248,112577,1,8,3:0:0:0:
298,228,112664,1,0,0:0:0:0:
296,208,112750,1,8,3:0:0:0:
218,100,112922,2,0,L|224:34,1,50.9999984436036,8|0,0:0|0:0,0:0:0:0:
36,162,113095,1,8,3:0:0:0:
37,181,113181,1,8,0:0:0:0:
40,201,113267,6,0,P|81:234|136:237,1,101.999996887207,4|0,3:0|0:0,0:0:0:0:
268,164,113612,2,0,L|334:158,1,50.9999984436036,8|0,0:0|0:0,0:0:0:0:
129,133,113784,1,8,0:0:0:0:
107,111,113870,1,0,0:0:0:0:
94,83,113957,1,8,0:0:0:0:
91,53,114043,1,0,0:0:0:0:
97,23,114129,1,8,3:0:0:0:
205,53,114301,1,0,0:0:0:0:
187,204,114474,2,0,L|193:270,1,50.9999984436036,8|0,0:0|0:0,0:0:0:0:
268,164,114646,69,0,0:0:0:0:
97,23,114819,1,8,3:0:0:0:
99,215,114991,2,0,L|93:281,1,50.9999984436036,8|0,0:0|0:0,0:0:0:0:
183,95,115164,1,8,0:0:0:0:
213,92,115250,1,0,0:0:0:0:
243,89,115336,1,8,0:0:0:0:
274,86,115422,1,0,0:0:0:0:
304,84,115508,1,8,3:0:0:0:
447,136,115681,2,0,L|513:130,1,50.9999984436036,8|0,0:0|0:0,0:0:0:0:
268,164,115853,1,8,3:0:0:0:
366,6,116026,6,0,P|387:54|375:108,1,101.999996887207,4|0,3:0|0:0,0:0:0:0:
324,236,116370,2,0,L|330:302,1,50.9999984436036,8|0,0:0|0:0,0:0:0:0:
304,84,116543,1,8,0:0:0:0:
277,68,116629,1,0,0:0:0:0:
246,63,116715,1,8,0:0:0:0:
216,68,116801,1,0,0:0:0:0:
189,81,116888,1,8,3:0:0:0:
149,202,117060,1,0,0:0:0:0:
108,56,117232,2,0,L|114:-10,1,50.9999984436036,8|0,0:0|0:0,0:0:0:0:
60,146,117405,69,0,0:0:0:0:
243,149,117577,1,8,3:0:0:0:
57,244,117750,2,0,L|-9:238,1,50.9999984436036,8|0,0:0|0:0,0:0:0:0:
146,310,117922,1,8,0:0:0:0:
176,308,118008,1,0,0:0:0:0:
206,305,118095,1,8,0:0:0:0:
237,302,118181,1,0,0:0:0:0:
267,300,118267,1,0,0:0:0:0:
422,251,118439,2,0,L|488:257,1,50.9999984436036,8|0,0:0|0:0,0:0:0:0:
311,231,118612,1,0,0:0:0:0:
469,162,118784,6,0,P|501:121|504:65,1,101.999996887207,4|0,3:0|0:0,0:0:0:0:
378,133,119129,2,0,L|372:199,1,50.9999984436036,8|0,0:0|0:0,0:0:0:0:
288,16,119301,1,8,0:0:0:0:
263,36,119388,1,0,0:0:0:0:
251,65,119474,1,8,0:0:0:0:
247,94,119560,1,0,0:0:0:0:
254,124,119646,1,8,3:0:0:0:
364,51,119819,1,0,0:0:0:0:
288,209,119991,2,0,L|294:275,1,50.9999984436036,8|0,0:0|0:0,0:0:0:0:
193,195,120164,69,0,0:0:0:0:
174,57,120336,1,8,3:0:0:0:
4,11,120508,2,0,L|-2:77,1,50.9999984436036,8|0,0:0|0:0,0:0:0:0:
105,161,120681,1,8,0:0:0:0:
107,191,120767,1,0,0:0:0:0:
110,221,120853,1,8,0:0:0:0:
113,252,120939,1,0,0:0:0:0:
115,282,121026,1,8,3:0:0:0:
21,208,121198,2,0,L|15:142,1,50.9999984436036,8|0,0:0|0:0,0:0:0:0:
62,355,121370,1,8,3:0:0:0:
191,217,121543,5,4,3:0:0:0:
151,364,121715,1,0,0:0:0:0:
301,262,121888,2,0,L|367:268,1,50.9999984436036,8|0,0:0|0:0,0:0:0:0:
277,148,122060,1,8,0:0:0:0:
280,116,122146,1,0,0:0:0:0:
268,87,122232,1,8,0:0:0:0:
250,63,122319,1,0,0:0:0:0:
224,47,122405,1,8,3:0:0:0:
83,10,122577,1,0,0:0:0:0:
181,134,122750,2,0,L|187:200,1,50.9999984436036,8|0,0:0|0:0,0:0:0:0:
100,99,122922,69,0,0:0:0:0:
277,148,123095,1,8,3:0:0:0:
97,178,123267,2,0,L|31:184,1,50.9999984436036,8|0,0:0|0:0,0:0:0:0:
134,270,123439,1,8,0:0:0:0:
164,268,123526,1,0,0:0:0:0:
194,265,123612,1,8,3:0:0:0:
225,262,123698,1,0,0:0:0:0:
255,260,123784,1,8,3:0:0:0:
199,351,123957,2,0,L|133:357,1,50.9999984436036,8|0,0:0|0:0,0:0:0:0:
339,252,124129,1,8,3:0:0:0:
336,233,124215,1,8,0:0:0:0:
333,213,124301,6,0,P|291:179|236:176,1,101.999996887207,4|0,3:0|0:0,0:0:0:0:
97,178,124646,2,0,L|31:184,1,50.9999984436036,8|0,0:0|0:0,0:0:0:0:
184,102,124819,1,8,0:0:0:0:
214,99,124905,1,0,0:0:0:0:
244,96,124991,1,8,0:0:0:0:
275,93,125077,1,0,0:0:0:0:
305,91,125164,1,8,3:0:0:0:
434,114,125336,1,0,0:0:0:0:
333,213,125508,2,0,L|267:219,1,50.9999984436036,8|0,0:0|0:0,0:0:0:0:
425,197,125681,69,0,0:0:0:0:
378,42,125853,1,8,3:0:0:0:
505,169,126026,2,0,L|511:235,1,50.9999984436036,8|0,0:0|0:0,0:0:0:0:
349,126,126198,1,8,0:0:0:0:
316,126,126284,1,0,0:0:0:0:
287,138,126370,1,8,0:0:0:0:
263,159,126457,1,0,0:0:0:0:
249,183,126543,1,8,3:0:0:0:
251,334,126715,2,0,L|257:400,1,50.9999984436036,8|0,0:0|0:0,0:0:0:0:
333,213,126888,1,8,3:0:0:0:
167,261,127060,6,0,P|118:241|88:195,1,101.999996887207,4|0,3:0|0:0,0:0:0:0:
133,62,127405,2,0,L|139:-4,1,50.9999984436036,8|0,0:0|0:0,0:0:0:0:
175,170,127577,1,8,0:0:0:0:
173,200,127664,1,0,0:0:0:0:
170,230,127750,1,8,0:0:0:0:
167,261,127836,1,0,0:0:0:0:
165,291,127922,1,8,3:0:0:0:
51,384,128095,1,0,0:0:0:0:
86,253,128267,2,0,L|92:187,1,50.9999984436036,8|0,0:0|0:0,0:0:0:0:
125,358,128439,69,0,0:0:0:0:
10,220,128612,1,8,3:0:0:0:
165,291,128784,2,0,L|231:297,1,50.9999984436036,8|0,0:0|0:0,0:0:0:0:
77,163,128957,1,8,0:0:0:0:
76,129,129043,1,0,0:0:0:0:
88,101,129129,1,8,0:0:0:0:
109,77,129215,1,0,0:0:0:0:
133,62,129301,1,8,3:0:0:0:
268,15,129474,2,0,L|334:21,1,50.9999984436036,8|0,0:0|0:0,0:0:0:0:
223,99,129646,1,0,0:0:0:0:
234,276,129819,6,0,P|266:235|269:179,1,101.999996887207,4|0,3:0|0:0,0:0:0:0:
133,62,130164,2,0,L|67:68,1,50.9999984436036,8|0,0:0|0:0,0:0:0:0:
223,99,130336,1,8,0:0:0:0:
253,101,130422,1,0,0:0:0:0:
283,104,130508,1,8,0:0:0:0:
314,107,130595,1,0,0:0:0:0:
344,109,130681,1,8,3:0:0:0:
457,63,130853,1,0,0:0:0:0:
380,196,131026,2,0,L|386:262,1,50.9999984436036,8|0,0:0|0:0,0:0:0:0:
386,49,131198,69,0,0:0:0:0:
456,209,131370,1,8,3:0:0:0:
353,332,131543,2,0,L|347:398,1,50.9999984436036,8|0,0:0|0:0,0:0:0:0:
276,202,131715,1,8,0:0:0:0:
278,168,131801,1,0,0:0:0:0:
295,141,131888,1,8,0:0:0:0:
319,121,131974,1,0,0:0:0:0:
344,109,132060,1,8,3:0:0:0:
208,101,132232,2,0,L|142:107,1,50.9999984436036,8|0,0:0|0:0,0:0:0:0:
309,44,132405,1,0,0:0:0:0:
109,34,132577,6,0,P|76:74|73:130,1,101.999996887207,4|0,3:0|0:0,0:0:0:0:
225,206,132922,2,0,L|291:200,1,50.9999984436036,8|0,0:0|0:0,0:0:0:0:
121,274,133095,1,8,0:0:0:0:
91,272,133181,1,0,0:0:0:0:
61,269,133267,1,8,0:0:0:0:
30,266,133353,1,0,0:0:0:0:
0,264,133439,1,8,3:0:0:0:
108,196,133612,1,0,0:0:0:0:
179,334,133784,2,0,L|185:400,1,50.9999984436036,8|0,0:0|0:0,0:0:0:0:
247,285,133957,69,0,0:0:0:0:
169,104,134129,1,8,3:0:0:0:
121,274,134301,2,0,L|55:268,1,50.9999984436036,8|0,0:0|0:0,0:0:0:0:
226,203,134474,1,8,0:0:0:0:
259,202,134560,1,0,0:0:0:0:
287,214,134646,1,8,3:0:0:0:
311,235,134732,1,0,0:0:0:0:
326,259,134819,6,0,L|332:325,1,50.9999984436036,8|0,3:0|0:0,0:0:0:0:
468,329,134991,2,0,L|462:263,1,50.9999984436036,8|0,0:0|0:0,0:0:0:0:
400,152,135164,1,8,3:0:0:0:
398,121,135250,1,8,0:0:0:0:
395,90,135336,70,0,P|360:49|306:37,1,101.999996887207,4|0,3:0|0:0,0:0:0:0:
149,30,135681,2,0,L|83:36,1,50.9999984436036,8|0,0:0|0:0,0:0:0:0:
225,120,135853,1,8,0:0:0:0:
226,153,135939,1,0,0:0:0:0:
214,181,136026,1,8,0:0:0:0:
193,205,136112,1,0,0:0:0:0:
169,220,136198,1,8,3:0:0:0:
28,135,136370,1,0,0:0:0:0:
31,109,136457,1,0,0:0:0:0:
34,83,136543,2,0,L|40:17,1,50.9999984436036,8|0,0:0|0:0,0:0:0:0:
90,194,136715,5,0,0:0:0:0:
149,30,136888,1,0,0:0:0:0:
175,27,136975,1,0,0:0:0:0:
201,24,137061,2,0,L|267:18,1,50.9999984436036,8|0,0:0|0:0,0:0:0:0:
366,118,137232,1,8,0:0:0:0:
401,121,137319,1,0,0:0:0:0:
437,124,137405,1,8,0:0:0:0:
472,127,137491,1,0,0:0:0:0:
508,130,137577,1,8,3:0:0:0:
383,36,137750,2,0,L|317:42,1,50.9999984436036,8|0,0:0|0:0,0:0:0:0:
509,218,137922,1,8,3:0:0:0:
366,118,138095,70,0,P|313:126|275:168,1,101.999996887207,4|0,3:0|0:0,0:0:0:0:
486,78,138439,2,0,L|480:12,1,50.9999984436036,8|0,0:0|0:0,0:0:0:0:
509,218,138612,1,8,0:0:0:0:
506,249,138698,1,0,0:0:0:0:
491,276,138784,1,8,0:0:0:0:
468,298,138870,1,0,0:0:0:0:
443,311,138957,1,8,3:0:0:0:
269,251,139129,1,0,0:0:0:0:
243,248,139216,1,0,0:0:0:0:
219,256,139302,2,0,L|153:262,1,50.9999984436036,8|0,0:0|0:0,0:0:0:0:
32,326,139474,5,0,0:0:0:0:
227,351,139646,1,0,0:0:0:0:
253,354,139733,1,0,0:0:0:0:
277,346,139819,2,0,L|343:340,1,50.9999984436036,8|0,0:0|0:0,0:0:0:0:
403,218,139991,1,8,0:0:0:0:
399,183,140077,1,0,0:0:0:0:
396,147,140164,1,8,0:0:0:0:
393,112,140250,1,0,0:0:0:0:
390,76,140336,1,8,3:0:0:0:
293,174,140508,2,0,L|299:240,1,50.9999984436036,8|0,0:0|0:0,0:0:0:0:
209,26,140681,1,8,3:0:0:0:
178,22,140767,1,0,0:0:0:0:
147,20,140853,70,0,P|103:51|86:104,1,101.999996887207,4|0,3:0|0:0,0:0:0:0:
133,264,141198,2,0,L|128:314,1,50.9999984436036,8|0,0:0|0:0,0:0:0:0:
293,174,141370,1,8,0:0:0:0:
328,177,141457,1,0,0:0:0:0:
364,180,141543,1,8,0:0:0:0:
399,183,141629,1,0,0:0:0:0:
435,186,141715,1,8,3:0:0:0:
286,95,141888,1,0,0:0:0:0:
260,98,141975,1,0,0:0:0:0:
234,101,142061,2,0,L|168:107,1,50.9999984436036,8|0,0:0|0:0,0:0:0:0:
245,279,142232,5,0,0:0:0:0:
102,175,142405,1,0,0:0:0:0:
76,172,142492,1,0,0:0:0:0:
50,169,142578,2,0,L|-16:163,1,50.9999984436036,8|0,0:0|0:0,0:0:0:0:
147,20,142750,1,8,0:0:0:0:
182,16,142836,1,0,0:0:0:0:
218,13,142922,1,8,0:0:0:0:
253,10,143008,1,0,0:0:0:0:
289,7,143095,1,8,3:0:0:0:
455,53,143267,2,0,L|505:57,1,50.9999984436036,8|0,0:0|0:0,0:0:0:0:
286,95,143439,1,8,3:0:0:0:
475,162,143612,69,4,3:0:0:0:
369,58,143784,1,0,0:0:0:0:
375,222,143957,2,0,L|369:288,1,50.9999984436036,8|0,0:0|0:0,0:0:0:0:
286,95,144129,1,8,0:0:0:0:
253,86,144215,1,0,0:0:0:0:
221,90,144301,1,8,0:0:0:0:
193,104,144388,1,0,0:0:0:0:
172,124,144474,1,8,3:0:0:0:
201,269,144646,1,0,0:0:0:0:
204,295,144733,1,0,0:0:0:0:
196,319,144819,2,0,L|190:385,1,50.9999984436036,8|0,0:0|0:0,0:0:0:0:
291,249,144991,5,0,0:0:0:0:
104,349,145164,1,0,0:0:0:0:
78,352,145251,1,0,0:0:0:0:
54,344,145337,2,0,L|-12:338,1,50.9999984436036,8|0,0:0|0:0,0:0:0:0:
73,221,145508,1,0,0:0:0:0:
76,185,145594,1,0,0:0:0:0:
79,150,145681,1,8,3:0:0:0:
82,114,145766,1,0,0:0:0:0:
86,79,145853,1,8,0:0:0:0:
162,206,146026,2,0,L|157:256,1,50.9999984436036,8|0,0:0|0:0,0:0:0:0:
254,43,146198,1,8,3:0:0:0:
284,39,146284,1,8,0:0:0:0:
315,37,146370,70,0,P|358:68|375:121,1,101.999996887207,4|0,3:0|0:0,0:0:0:0:
300,256,146715,2,0,L|304:306,1,50.9999984436036,8|0,0:0|0:0,0:0:0:0:
233,125,146888,1,8,0:0:0:0:
198,122,146974,1,0,0:0:0:0:
162,119,147060,1,8,0:0:0:0:
127,116,147146,1,0,0:0:0:0:
91,113,147232,1,8,3:0:0:0:
151,32,147405,1,0,0:0:0:0:
177,35,147492,1,0,0:0:0:0:
203,38,147578,2,0,L|269:44,1,50.9999984436036,8|0,0:0|0:0,0:0:0:0:
398,9,147750,5,0,0:0:0:0:
472,165,147922,1,0,0:0:0:0:
469,191,148009,1,0,0:0:0:0:
466,217,148095,2,0,L|460:283,1,50.9999984436036,8|0,0:0|0:0,0:0:0:0:
336,142,148267,1,8,0:0:0:0:
332,107,148353,1,0,0:0:0:0:
329,71,148439,1,8,0:0:0:0:
326,36,148526,1,0,0:0:0:0:
323,0,148612,1,0,0:0:0:0:
257,117,148784,2,0,L|263:183,1,50.9999984436036,8|0,0:0|0:0,0:0:0:0:
398,9,148957,1,8,3:0:0:0:
393,193,149129,69,4,3:0:0:0:
466,58,149301,1,0,0:0:0:0:
466,217,149474,2,0,L|460:283,1,50.9999984436036,8|0,0:0|0:0,0:0:0:0:
303,243,149646,1,8,0:0:0:0:
268,247,149732,1,0,0:0:0:0:
232,250,149819,1,8,0:0:0:0:
197,253,149905,1,0,0:0:0:0:
161,256,149991,1,0,0:0:0:0:
25,155,150164,1,0,0:0:0:0:
22,129,150251,1,0,0:0:0:0:
30,105,150337,2,0,L|36:39,1,50.9999984436036,8|0,0:0|0:0,0:0:0:0:
103,181,150508,5,0,0:0:0:0:
186,44,150680,1,0,0:0:0:0:
212,41,150767,1,0,0:0:0:0:
236,49,150853,2,0,L|302:55,1,50.9999984436036,8|0,0:0|0:0,0:0:0:0:
204,182,151026,1,8,0:0:0:0:
200,217,151112,1,0,0:0:0:0:
197,253,151198,1,8,0:0:0:0:
194,288,151284,1,0,0:0:0:0:
191,324,151370,1,0,0:0:0:0:
303,243,151543,2,0,L|307:192,1,50.9999984436036,8|0,0:0|0:0,0:0:0:0:
375,63,151715,1,8,3:0:0:0:
405,65,151801,1,0,0:0:0:0:
437,68,151888,70,0,P|474:107|482:162,1,101.999996887207,4|0,3:0|0:0,0:0:0:0:
441,308,152232,2,0,L|447:374,1,50.9999984436036,8|0,0:0|0:0,0:0:0:0:
394,152,152405,1,8,0:0:0:0:
359,148,152491,1,0,0:0:0:0:
323,145,152577,1,8,0:0:0:0:
288,142,152664,1,0,0:0:0:0:
252,139,152750,1,8,3:0:0:0:
115,260,152922,1,0,0:0:0:0:
89,263,153009,1,0,0:0:0:0:
63,266,153095,2,0,L|-3:272,1,50.9999984436036,8|0,0:0|0:0,0:0:0:0:
67,151,153267,5,0,0:0:0:0:
202,273,153439,1,0,0:0:0:0:
205,299,153526,1,0,0:0:0:0:
208,325,153612,2,0,L|214:391,1,50.9999984436036,8|0,0:0|0:0,0:0:0:0:
302,271,153784,1,8,0:0:0:0:
297,228,153870,1,0,0:0:0:0:
293,184,153957,1,8,0:0:0:0:
288,142,154043,1,0,0:0:0:0:
284,99,154129,1,0,0:0:0:0:
197,222,154301,2,0,L|203:288,1,50.9999984436036,8|0,0:0|0:0,0:0:0:0:
124,56,154474,1,8,3:0:0:0:
293,184,154646,69,8,3:0:0:0:
109,134,154819,1,8,0:0:0:0:
80,124,154905,1,0,0:0:0:0:
50,128,154991,2,0,L|-16:134,1,50.9999984436036,8|0,0:0|0:0,0:0:0:0:
70,263,155164,1,8,0:0:0:0:
99,273,155250,1,0,0:0:0:0:
129,269,155336,1,8,3:0:0:0:
293,184,155508,5,8,0:0:0:0:
322,174,155595,1,0,0:0:0:0:
352,178,155681,2,0,L|424:184,1,50.9999984436036,8|0,0:0|0:0,0:0:0:0:
325,266,155853,1,8,0:0:0:0:
296,276,155939,1,0,0:0:0:0:
266,272,156026,1,8,3:0:0:0:
172,92,156198,1,8,3:0:0:0:
375,100,156370,2,0,L|447:107,1,50.9999984436036,8|0,0:0|0:0,0:0:0:0:
258,11,156543,69,8,3:0:0:0:
217,13,156629,1,8,3:0:0:0:
176,15,156715,1,4,3:0:0:0:
135,17,156801,1,8,3:0:0:0:
94,19,156888,1,8,3:0:0:0:
53,21,156974,1,8,3:0:0:0:
12,23,157060,5,8,0:0:0:0:
39,59,157146,1,8,0:0:0:0:
54,107,157232,1,8,0:0:0:0:
54,163,157319,1,8,0:0:0:0:
31,219,157405,1,4,3:0:0:0:
21,226,160164,22,0,B|-3:297|52:339|52:339|98:321|116:279|116:279|151:274|171:300|171:300|193:298|209:283|209:283|245:357|245:357|313:326|279:263,1,510,2|0,0:0|0:0,0:0:0:0:
235,207,162922,2,0,B|185:164|205:77|205:77|251:69|273:24|273:24|273:78|302:105|302:105|345:89|358:52|358:52|406:100|360:161,1,510,2|0,0:0|0:0,0:0:0:0:
320,225,165681,2,0,B|307:287|348:334|348:334|391:338|427:372|427:372|437:336|437:336|472:336|472:336|494:299|489:252|489:252|458:228|453:194|453:194|487:163|485:122,1,510,2|0,0:0|0:0,0:0:0:0:
397,130,168439,2,0,B|407:60|471:46|471:46|406:12|339:46|339:46|321:38|304:22|304:22|279:27|266:46|266:46|216:22|216:22|187:39|186:77|186:77|209:92|220:107,1,510,2|0,0:0|0:0,0:0:0:0:
305,137,171198,69,2,0:0:0:0:
256,192,171284,12,0,178095,0:0:0:0:
188,340,178267,5,8,0:0:0:0:
200,334,178353,1,0,0:0:0:0:
212,326,178439,1,8,0:0:0:0:
224,315,178526,1,0,0:0:0:0:
235,302,178612,1,8,0:0:0:0:
245,284,178698,1,0,0:0:0:0:
250,263,178784,1,8,0:0:0:0:
254,240,178870,1,0,0:0:0:0:
251,215,178957,1,8,0:0:0:0:
240,190,179043,1,0,0:0:0:0:
221,168,179129,1,8,0:0:0:0:
195,148,179215,1,0,0:0:0:0:
162,138,179301,1,8,0:0:0:0:
126,140,179388,1,0,0:0:0:0:
91,155,179474,21,4,3:0:0:0:
188,340,179646,1,4,3:0:0:0:
256,85,179819,1,4,3:0:0:0:
453,249,179991,1,4,3:0:0:0:
250,263,180164,69,8,0:0:0:0:
202,258,180250,1,0,0:0:0:0:
155,254,180336,1,8,3:0:0:0:
107,250,180422,1,0,0:0:0:0:
59,247,180508,2,0,L|-13:240,1,59.4999981842042,4|0,3:0|0:0,0:0:0:0:
82,86,180681,5,8,0:0:0:0:
99,44,180767,1,0,0:0:0:0:
144,40,180853,1,8,3:0:0:0:
166,79,180939,1,0,0:0:0:0:
142,121,181026,2,0,L|135:193,1,59.4999981842042,4|0,3:0|0:0,0:0:0:0:
229,352,181198,69,8,0:0:0:0:
277,347,181284,1,0,0:0:0:0:
324,343,181370,1,8,3:0:0:0:
372,339,181457,1,0,0:0:0:0:
420,336,181543,2,0,L|492:329,1,59.4999981842042,4|0,3:0|0:0,0:0:0:0:
340,246,181715,5,8,0:0:0:0:
311,207,181801,1,0,0:0:0:0:
301,161,181888,1,8,3:0:0:0:
311,115,181974,1,0,0:0:0:0:
342,79,182060,2,0,L|414:72,1,59.4999981842042,4|0,3:0|0:0,0:0:0:0:
227,15,182232,69,8,0:0:0:0:
179,20,182319,1,0,0:0:0:0:
132,24,182405,1,8,3:0:0:0:
179,49,182491,1,0,0:0:0:0:
230,63,182577,2,0,L|236:135,1,59.4999981842042,4|0,3:0|0:0,0:0:0:0:
181,271,182750,5,8,0:0:0:0:
166,315,182836,1,0,0:0:0:0:
129,343,182922,1,8,3:0:0:0:
181,330,183008,1,0,0:0:0:0:
229,352,183095,2,0,L|301:345,1,59.4999981842042,4|0,3:0|0:0,0:0:0:0:
396,222,183267,69,8,0:0:0:0:
444,235,183353,1,0,0:0:0:0:
486,215,183439,1,8,3:0:0:0:
434,211,183526,1,0,0:0:0:0:
399,251,183612,2,0,L|392:323,1,59.4999981842042,4|0,3:0|0:0,0:0:0:0:
479,96,183784,5,8,0:0:0:0:
491,50,183870,1,0,0:0:0:0:
503,4,183957,1,8,3:0:0:0:
451,18,184043,1,0,0:0:0:0:
399,32,184129,2,0,L|326:38,1,59.4999981842042,4|0,3:0|0:0,0:0:0:0:
165,128,184301,69,8,0:0:0:0:
118,132,184388,1,0,0:0:0:0:
75,113,184474,1,8,3:0:0:0:
108,144,184560,1,0,0:0:0:0:
103,190,184646,1,8,3:0:0:0:
63,213,184732,1,0,0:0:0:0:
18,188,184819,1,8,3:0:0:0:
16,139,184905,1,0,0:0:0:0:
52,111,184991,5,4,3:0:0:0:
192,0,185164,1,4,3:0:0:0:
225,333,185336,1,4,3:0:0:0:
52,111,185508,1,4,3:0:0:0:
261,45,185681,69,8,0:0:0:0:
309,40,185767,1,0,0:0:0:0:
356,36,185853,1,8,3:0:0:0:
404,32,185939,1,0,0:0:0:0:
452,29,186026,2,0,L|524:22,1,59.4999981842042,4|0,3:0|0:0,0:0:0:0:
453,182,186198,5,8,0:0:0:0:
495,199,186284,1,0,0:0:0:0:
499,244,186370,1,8,3:0:0:0:
460,266,186457,1,0,0:0:0:0:
418,242,186543,2,0,L|346:235,1,59.4999981842042,4|0,3:0|0:0,0:0:0:0:
298,131,186715,69,8,0:0:0:0:
250,136,186801,1,0,0:0:0:0:
203,140,186888,1,8,3:0:0:0:
155,144,186974,1,0,0:0:0:0:
107,147,187060,2,0,L|35:154,1,59.4999981842042,4|0,3:0|0:0,0:0:0:0:
5,314,187232,5,8,0:0:0:0:
35,352,187319,1,0,0:0:0:0:
77,373,187405,1,8,3:0:0:0:
124,375,187491,1,0,0:0:0:0:
166,355,187577,2,0,L|159:284,1,59.4999981842042,4|0,3:0|0:0,0:0:0:0:
107,147,187750,69,8,0:0:0:0:
107,97,187836,1,0,0:0:0:0:
107,50,187922,1,8,3:0:0:0:
127,92,188008,1,0,0:0:0:0:
149,138,188095,2,0,L|220:131,1,59.4999981842042,4|0,3:0|0:0,0:0:0:0:
377,74,188267,5,8,0:0:0:0:
421,59,188353,1,0,0:0:0:0:
449,22,188439,1,8,3:0:0:0:
436,74,188526,1,0,0:0:0:0:
458,122,188612,2,0,L|451:194,1,59.4999981842042,4|0,3:0|0:0,0:0:0:0:
337,273,188784,69,8,0:0:0:0:
350,321,188870,1,0,0:0:0:0:
330,363,188957,1,8,3:0:0:0:
326,311,189043,1,0,0:0:0:0:
366,276,189129,2,0,L|359:204,1,59.4999981842042,4|0,3:0|0:0,0:0:0:0:
286,111,189301,5,8,0:0:0:0:
298,65,189388,1,0,0:0:0:0:
310,19,189474,1,8,3:0:0:0:
258,33,189560,1,0,0:0:0:0:
206,47,189646,2,0,L|133:53,1,59.4999981842042,4|0,3:0|0:0,0:0:0:0:
64,160,189819,69,8,0:0:0:0:
111,164,189905,1,0,0:0:0:0:
154,145,189991,1,8,3:0:0:0:
121,176,190077,1,0,0:0:0:0:
109,222,190164,1,8,3:0:0:0:
120,268,190250,1,0,0:0:0:0:
156,298,190336,6,0,L|197:301,4,29.7499990921021,4|8|8|8|4,3:0|3:0|3:0|3:0|3:0,0:0:0:0:
0,384,190681,1,4,3:0:0:0:
274,194,190853,1,4,3:0:0:0:
24,97,191026,1,4,3:0:0:0:
164,41,191198,69,8,0:0:0:0:
158,93,191284,1,0,0:0:0:0:
154,145,191370,1,8,3:0:0:0:
149,198,191457,1,0,0:0:0:0:
146,251,191543,2,0,L|138:330,1,59.4999981842042,4|0,3:0|0:0,0:0:0:0:
325,371,191715,5,8,0:0:0:0:
371,352,191801,1,0,0:0:0:0:
375,302,191888,1,8,3:0:0:0:
332,278,191974,1,0,0:0:0:0:
286,305,192060,2,0,L|206:312,1,59.4999981842042,4|0,3:0|0:0,0:0:0:0:
49,317,192232,69,8,0:0:0:0:
55,265,192319,1,0,0:0:0:0:
59,213,192405,1,8,3:0:0:0:
64,160,192491,1,0,0:0:0:0:
67,107,192577,2,0,L|74:27,1,59.4999981842042,4|0,3:0|0:0,0:0:0:0:
211,13,192750,5,8,0:0:0:0:
261,20,192836,1,0,0:0:0:0:
305,48,192922,1,8,3:0:0:0:
333,91,193008,1,0,0:0:0:0:
338,143,193095,2,0,L|330:226,1,59.4999981842042,4|0,3:0|0:0,0:0:0:0:
161,248,193267,69,8,0:0:0:0:
106,256,193353,1,0,0:0:0:0:
55,265,193439,1,8,3:0:0:0:
97,235,193526,1,0,0:0:0:0:
144,205,193612,2,0,L|137:126,1,59.4999981842042,4|0,3:0|0:0,0:0:0:0:
290,284,193784,5,8,0:0:0:0:
307,332,193870,1,0,0:0:0:0:
348,363,193957,1,8,3:0:0:0:
290,348,194043,1,0,0:0:0:0:
238,373,194129,2,0,L|158:365,1,59.4999981842042,4|0,3:0|0:0,0:0:0:0:
55,265,194301,69,8,0:0:0:0:
40,212,194388,1,0,0:0:0:0:
62,165,194474,1,8,3:0:0:0:
67,223,194560,1,0,0:0:0:0:
23,261,194646,2,0,L|30:340,1,59.4999981842042,4|0,3:0|0:0,0:0:0:0:
197,244,194819,5,8,0:0:0:0:
248,248,194905,1,0,0:0:0:0:
300,252,194991,1,8,3:0:0:0:
275,198,195077,1,0,0:0:0:0:
250,144,195164,2,0,L|243:68,1,59.4999981842042,4|0,3:0|0:0,0:0:0:0:
385,199,195336,69,8,0:0:0:0:
402,247,195422,1,0,0:0:0:0:
393,298,195508,1,8,3:0:0:0:
418,254,195595,1,0,0:0:0:0:
467,246,195681,1,8,3:0:0:0:
503,282,195767,1,0,0:0:0:0:
490,337,195853,1,8,3:0:0:0:
438,354,195939,1,0,0:0:0:0:
398,323,196026,5,4,3:0:0:0:
456,161,196198,1,4,3:0:0:0:
324,376,196370,1,4,3:0:0:0:
202,109,196543,1,4,3:0:0:0:
114,246,196715,69,8,0:0:0:0:
171,239,196801,1,0,0:0:0:0:
228,235,196888,1,8,3:0:0:0:
286,229,196974,1,0,0:0:0:0:
344,226,197060,2,0,L|430:217,1,59.4999981842042,4|0,3:0|0:0,0:0:0:0:
257,33,197232,5,8,0:0:0:0:
207,54,197319,1,0,0:0:0:0:
202,109,197405,1,8,3:0:0:0:
250,136,197491,1,0,0:0:0:0:
300,106,197577,2,0,L|388:98,1,59.4999981842042,4|0,3:0|0:0,0:0:0:0:
310,310,197750,69,8,0:0:0:0:
252,316,197836,1,0,0:0:0:0:
195,321,197922,1,8,3:0:0:0:
137,326,198008,1,0,0:0:0:0:
78,329,198095,2,0,L|-10:336,1,59.4999981842042,4|0,3:0|0:0,0:0:0:0:
16,161,198267,5,8,0:0:0:0:
23,106,198353,1,0,0:0:0:0:
54,57,198439,1,8,3:0:0:0:
101,26,198526,1,0,0:0:0:0:
159,21,198612,2,0,L|246:28,1,59.4999981842042,4|0,3:0|0:0,0:0:0:0:
114,246,198784,69,8,0:0:0:0:
125,187,198870,1,0,0:0:0:0:
135,132,198957,1,8,3:0:0:0:
149,186,199043,1,0,0:0:0:0:
164,244,199129,2,0,L|246:236,1,59.4999981842042,4|0,3:0|0:0,0:0:0:0:
384,296,199301,5,8,0:0:0:0:
429,328,199388,1,0,0:0:0:0:
450,381,199474,1,8,3:0:0:0:
451,315,199560,1,0,0:0:0:0:
492,267,199646,2,0,L|498:178,1,59.4999981842042,4|0,3:0|0:0,0:0:0:0:
333,136,199819,69,8,0:0:0:0:
274,152,199905,1,0,0:0:0:0:
223,128,199991,1,8,3:0:0:0:
286,122,200077,1,0,0:0:0:0:
328,171,200164,2,0,L|414:163,1,59.4999981842042,4|0,3:0|0:0,0:0:0:0:
204,50,200336,5,8,0:0:0:0:
147,45,200422,1,0,0:0:0:0:
90,41,200508,1,8,3:0:0:0:
118,100,200595,1,0,0:0:0:0:
145,159,200681,2,0,L|152:242,1,59.4999981842042,4|0,3:0|0:0,0:0:0:0:
228,343,200853,69,8,0:0:0:0:
276,352,200939,1,0,0:0:0:0:
324,361,201026,1,8,3:0:0:0:
372,370,201112,1,0,0:0:0:0:
424,342,201198,6,0,L|444:343,12,14.874999546051,4|0|0|0|0|0|0|0|0|0|0|0|0,3:0|0:0|0:0|0:0|0:0|0:0|0:0|0:0|0:0|0:0|0:0|0:0|0:0,0:0:0:0:
406,220,201543,70,0,B|411:209|411:209|406:198|406:198|412:189|412:189|406:178|406:178|411:167|411:167|406:154|406:154|413:143|413:143|409:129,1,102,4|4,3:0|3:0,0:0:0:0:
299,251,202232,5,8,0:0:0:0:
295,298,202318,1,0,0:0:0:0:
264,333,202404,1,8,3:0:0:0:
220,347,202491,1,0,0:0:0:0:
174,330,202577,2,0,L|102:336,1,59.4999981842042,4|0,3:0|0:0,0:0:0:0:
165,163,202750,69,8,0:0:0:0:
189,122,202836,1,0,0:0:0:0:
186,75,202922,1,8,3:0:0:0:
157,39,203008,1,0,0:0:0:0:
110,27,203095,2,0,L|38:33,1,59.4999981842042,4|0,3:0|0:0,0:0:0:0:
18,261,203267,5,8,0:0:0:0:
66,256,203353,1,0,0:0:0:0:
113,252,203439,1,8,3:0:0:0:
161,248,203526,1,0,0:0:0:0:
209,245,203612,2,0,L|281:238,1,59.4999981842042,4|0,3:0|0:0,0:0:0:0:
403,163,203784,69,8,0:0:0:0:
432,202,203870,1,0,0:0:0:0:
442,248,203957,1,8,3:0:0:0:
432,294,204043,1,0,0:0:0:0:
401,330,204129,2,0,L|329:337,1,59.4999981842042,4|0,3:0|0:0,0:0:0:0:
293,151,204301,5,8,0:0:0:0:
308,107,204388,1,0,0:0:0:0:
345,79,204474,1,8,3:0:0:0:
301,64,204560,1,0,0:0:0:0:
273,27,204646,2,0,L|200:21,1,59.4999981842042,4|0,3:0|0:0,0:0:0:0:
57,161,204819,69,8,0:0:0:0:
62,209,204905,1,0,0:0:0:0:
66,256,204991,1,8,3:0:0:0:
82,212,205077,1,0,0:0:0:0:
98,167,205164,2,0,L|170:161,1,59.4999981842042,4|0,3:0|0:0,0:0:0:0:
353,225,205336,5,8,0:0:0:0:
365,271,205422,1,0,0:0:0:0:
377,317,205508,1,8,3:0:0:0:
325,303,205595,1,0,0:0:0:0:
273,289,205681,2,0,L|200:283,1,59.4999981842042,4|0,3:0|0:0,0:0:0:0:
98,167,205853,69,8,0:0:0:0:
55,142,205939,1,0,0:0:0:0:
7,141,206026,1,8,3:0:0:0:
49,160,206112,1,0,0:0:0:0:
86,129,206198,2,0,L|157:136,1,59.4999981842042,4|0,3:0|0:0,0:0:0:0:
307,144,206370,5,8,0:0:0:0:
352,131,206457,1,0,0:0:0:0:
397,143,206543,1,8,3:0:0:0:
359,118,206629,1,0,0:0:0:0:
356,71,206715,1,8,3:0:0:0:
392,42,206801,1,0,0:0:0:0:
441,58,206888,1,8,3:0:0:0:
451,107,206974,1,0,0:0:0:0:
421,141,207060,69,4,3:0:0:0:
270,17,207232,1,4,3:0:0:0:
7,122,207405,1,4,3:0:0:0:
307,144,207577,1,4,3:0:0:0:
110,1,207750,5,8,0:0:0:0:
64,8,207836,1,0,0:0:0:0:
24,34,207922,1,8,3:0:0:0:
0,75,208008,1,0,0:0:0:0:
7,122,208095,2,0,L|13:194,1,59.4999981842042,4|0,3:0|0:0,0:0:0:0:
125,277,208267,69,8,0:0:0:0:
101,236,208353,1,0,0:0:0:0:
104,189,208439,1,8,3:0:0:0:
133,153,208526,1,0,0:0:0:0:
180,141,208612,2,0,L|251:134,1,59.4999981842042,4|0,3:0|0:0,0:0:0:0:
375,26,208784,5,8,0:0:0:0:
370,74,208870,1,0,0:0:0:0:
366,121,208957,1,8,3:0:0:0:
362,169,209043,1,0,0:0:0:0:
359,217,209129,2,0,L|352:289,1,59.4999981842042,4|0,3:0|0:0,0:0:0:0:
195,227,209301,69,8,0:0:0:0:
146,222,209388,1,0,0:0:0:0:
101,236,209474,1,8,3:0:0:0:
66,267,209560,1,0,0:0:0:0:
51,313,209646,2,0,L|57:382,1,59.4999981842042,4|0,3:0|0:0,0:0:0:0:
259,277,209819,5,8,0:0:0:0:
274,233,209905,1,0,0:0:0:0:
311,205,209991,1,8,3:0:0:0:
267,190,210077,1,0,0:0:0:0:
239,153,210164,2,0,L|166:147,1,59.4999981842042,4|0,3:0|0:0,0:0:0:0:
327,21,210336,69,8,0:0:0:0:
375,26,210422,1,0,0:0:0:0:
422,30,210508,1,8,3:0:0:0:
378,46,210595,1,0,0:0:0:0:
333,62,210681,2,0,L|327:134,1,59.4999981842042,4|0,3:0|0:0,0:0:0:0:
338,283,210853,5,8,0:0:0:0:
350,329,210939,1,0,0:0:0:0:
362,375,211026,1,8,3:0:0:0:
310,361,211112,1,0,0:0:0:0:
258,347,211198,2,0,L|185:341,1,59.4999981842042,4|0,3:0|0:0,0:0:0:0:
93,257,211370,69,8,0:0:0:0:
47,240,211457,1,0,0:0:0:0:
0,248,211543,1,8,3:0:0:0:
45,260,211629,1,0,0:0:0:0:
75,223,211715,2,0,L|147:230,1,59.4999981842042,4|0,3:0|0:0,0:0:0:0:
311,205,211888,5,8,0:0:0:0:
358,201,211974,1,0,0:0:0:0:
401,220,212060,1,8,3:0:0:0:
368,189,212146,1,0,0:0:0:0:
356,143,212232,1,8,3:0:0:0:
367,97,212319,1,0,0:0:0:0:
403,67,212405,70,0,L|444:64,4,29.7499990921021,8|8|8|8|4,3:0|3:0|3:0|3:0|3:0,0:0:0:0:
512,236,212750,1,4,3:0:0:0:
325,15,212922,1,4,3:0:0:0:
348,284,213095,1,4,3:0:0:0:
196,220,213267,5,8,0:0:0:0:
186,165,213353,1,0,0:0:0:0:
208,120,213440,1,8,3:0:0:0:
254,96,213526,1,0,0:0:0:0:
307,102,213612,2,0,L|383:108,1,59.4999981842042,4|0,3:0|0:0,0:0:0:0:
442,311,213784,69,8,0:0:0:0:
457,260,213870,1,0,0:0:0:0:
441,212,213957,1,8,3:0:0:0:
399,181,214043,1,0,0:0:0:0:
346,182,214129,2,0,L|267:195,1,59.4999981842042,4|0,3:0|0:0,0:0:0:0:
291,337,214301,5,8,0:0:0:0:
238,332,214388,1,0,0:0:0:0:
186,328,214474,1,8,3:0:0:0:
133,323,214560,1,0,0:0:0:0:
80,320,214646,2,0,L|0:312,1,59.4999981842042,4|0,3:0|0:0,0:0:0:0:
140,205,214819,69,8,0:0:0:0:
193,196,214905,1,0,0:0:0:0:
238,169,214991,1,8,3:0:0:0:
266,126,215077,1,0,0:0:0:0:
269,73,215164,2,0,L|261:0,1,59.4999981842042,4|0,3:0|0:0,0:0:0:0:
58,184,215336,5,8,0:0:0:0:
41,232,215422,1,0,0:0:0:0:
0,263,215508,1,8,3:0:0:0:
49,279,215595,1,0,0:0:0:0:
80,320,215681,2,0,L|159:326,1,59.4999981842042,4|0,3:0|0:0,0:0:0:0:
298,357,215853,69,8,0:0:0:0:
350,351,215939,1,0,0:0:0:0:
402,347,216026,1,8,3:0:0:0:
353,329,216112,1,0,0:0:0:0:
304,313,216198,2,0,L|311:233,1,59.4999981842042,4|0,3:0|0:0,0:0:0:0:
409,137,216370,5,8,0:0:0:0:
422,87,216457,1,0,0:0:0:0:
435,36,216543,1,8,3:0:0:0:
378,51,216629,1,0,0:0:0:0:
321,67,216715,2,0,L|241:73,1,59.4999981842042,4|0,3:0|0:0,0:0:0:0:
105,70,216888,69,8,0:0:0:0:
54,51,216974,1,0,0:0:0:0:
2,60,217060,1,8,3:0:0:0:
52,73,217146,1,0,0:0:0:0:
85,32,217232,2,0,L|164:39,1,59.4999981842042,4|0,3:0|0:0,0:0:0:0:
175,174,217405,5,8,0:0:0:0:
158,222,217491,1,0,0:0:0:0:
167,273,217577,1,8,3:0:0:0:
142,229,217664,1,0,0:0:0:0:
93,221,217750,1,8,3:0:0:0:
57,257,217836,1,0,0:0:0:0:
70,312,217922,1,8,3:0:0:0:
122,329,218008,1,0,0:0:0:0:
162,298,218095,69,4,3:0:0:0:
382,220,218267,1,4,3:0:0:0:
87,157,218439,1,4,3:0:0:0:
374,65,218612,1,4,3:0:0:0:
190,114,218784,5,8,0:0:0:0:
193,172,218870,1,0,0:0:0:0:
170,225,218957,1,8,3:0:0:0:
127,261,219043,1,0,0:0:0:0:
68,263,219129,2,0,L|-20:254,1,59.4999981842042,4|0,3:0|0:0,0:0:0:0:
122,70,219301,69,8,0:0:0:0:
171,39,219388,1,0,0:0:0:0:
226,43,219474,1,8,3:0:0:0:
264,88,219560,1,0,0:0:0:0:
270,147,219646,2,0,L|263:235,1,59.4999981842042,4|0,3:0|0:0,0:0:0:0:
373,336,219819,5,8,0:0:0:0:
378,277,219905,1,0,0:0:0:0:
382,220,219991,1,8,3:0:0:0:
388,162,220077,1,0,0:0:0:0:
391,103,220164,2,0,L|399:15,1,59.4999981842042,4|0,3:0|0:0,0:0:0:0:
190,114,220336,69,8,0:0:0:0:
154,161,220422,1,0,0:0:0:0:
141,217,220508,1,8,3:0:0:0:
152,272,220595,1,0,0:0:0:0:
192,316,220681,2,0,L|279:324,1,59.4999981842042,4|0,3:0|0:0,0:0:0:0:
254,202,220853,5,8,0:0:0:0:
270,147,220939,1,0,0:0:0:0:
317,111,221026,1,8,3:0:0:0:
264,88,221112,1,0,0:0:0:0:
230,43,221198,2,0,L|142:36,1,59.4999981842042,4|0,3:0|0:0,0:0:0:0:
44,149,221370,69,8,0:0:0:0:
50,206,221457,1,0,0:0:0:0:
55,263,221543,1,8,3:0:0:0:
75,210,221629,1,0,0:0:0:0:
94,156,221715,2,0,L|181:163,1,59.4999981842042,4|0,3:0|0:0,0:0:0:0:
319,29,221888,5,8,0:0:0:0:
374,15,221974,1,0,0:0:0:0:
430,1,222060,1,8,3:0:0:0:
412,64,222146,1,0,0:0:0:0:
396,126,222232,2,0,L|388:214,1,59.4999981842042,4|0,3:0|0:0,0:0:0:0:
259,234,222405,69,8,0:0:0:0:
280,290,222491,1,0,0:0:0:0:
270,347,222577,1,8,3:0:0:0:
256,292,222664,1,0,0:0:0:0:
301,256,222750,2,0,L|292:168,1,59.4999981842042,4|0,3:0|0:0,0:0:0:0:
225,67,222922,5,8,0:0:0:0:
168,72,223008,1,0,0:0:0:0:
108,46,223095,1,8,3:0:0:0:
151,102,223181,1,0,0:0:0:0:
139,172,223267,1,8,3:0:0:0:
81,213,223353,1,0,0:0:0:0:
14,186,223439,70,0,L|-12:184,8,14.874999546051,8|0|0|0|0|0|0|0|4,3:0|0:0|0:0|0:0|0:0|0:0|0:0|0:0|3:0,0:0:0:0:
0,284,223784,69,0,0:0:0:0:
123,372,223957,1,0,0:0:0:0:
123,372,224129,2,0,L|215:364,1,68,2|0,0:0|0:0,0:0:0:0:
301,256,224474,2,0,L|209:264,1,68,2|0,0:0|0:0,0:0:0:0:
385,360,224819,1,0,0:0:0:0:
385,360,224991,2,0,L|394:269,1,68,2|0,0:0|0:0,0:0:0:0:
497,167,225336,2,0,L|505:258,1,68,2|0,0:0|0:0,0:0:0:0:
387,184,225681,1,8,0:0:0:0:
117,96,226026,1,2,0:0:0:0:
100,98,226112,1,0,0:0:0:0:
84,100,226198,1,2,0:0:0:0:
68,102,226284,1,0,0:0:0:0:
52,104,226370,70,0,P|34:136|36:183,1,68,8|0,3:0|0:0,0:0:0:0:
145,285,226715,1,0,0:0:0:0:
145,285,226888,2,0,L|137:193,1,68,2|0,0:0|0:0,0:0:0:0:
210,70,227232,1,0,0:0:0:0:
210,70,227405,2,0,L|202:162,1,68,2|0,0:0|0:0,0:0:0:0:
227,253,227750,5,8,0:0:0:0:
487,97,228095,1,2,0:0:0:0:
485,80,228181,1,0,0:0:0:0:
483,64,228267,1,2,0:0:0:0:
481,48,228353,1,0,0:0:0:0:
479,32,228439,1,2,0:0:0:0:
383,145,228612,1,2,0:0:0:0:
381,162,228698,1,0,0:0:0:0:
379,178,228784,1,2,0:0:0:0:
377,194,228870,1,0,0:0:0:0:
376,210,228957,1,2,0:0:0:0:
375,226,229043,1,0,0:0:0:0:
374,242,229129,70,0,P|342:260|295:258,1,68,8|0,3:0|0:0,0:0:0:0:
117,367,229474,1,0,0:0:0:0:
117,367,229646,2,0,L|209:359,1,68,2|0,0:0|0:0,0:0:0:0:
311,262,229991,2,0,L|244:257,1,68,2|0,0:0|0:0,0:0:0:0:
441,364,230336,1,0,0:0:0:0:
441,364,230508,2,0,L|436:297,1,68,2|0,0:0|0:0,0:0:0:0:
511,130,230853,2,0,L|505:197,1,68,2|0,0:0|0:0,0:0:0:0:
381,162,231198,1,8,0:0:0:0:
213,27,231543,1,2,0:0:0:0:
196,29,231629,1,0,0:0:0:0:
180,31,231715,1,2,0:0:0:0:
164,33,231801,1,0,0:0:0:0:
148,35,231888,6,0,P|130:67|132:114,1,68,8|0,3:0|0:0,0:0:0:0:
243,256,232232,1,0,0:0:0:0:
243,256,232405,2,0,L|235:164,1,68,2|0,0:0|0:0,0:0:0:0:
122,299,232750,1,0,0:0:0:0:
122,299,232922,2,0,L|114:391,1,68,2|0,0:0|0:0,0:0:0:0:
140,195,233267,69,8,0:0:0:0:
370,39,233612,1,2,0:0:0:0:
387,41,233698,1,0,0:0:0:0:
403,43,233784,1,2,0:0:0:0:
419,45,233870,1,0,0:0:0:0:
435,47,233957,1,2,0:0:0:0:
345,166,234129,1,2,0:0:0:0:
328,168,234215,1,0,0:0:0:0:
312,170,234301,1,2,0:0:0:0:
296,172,234388,1,0,0:0:0:0:
280,173,234474,1,2,0:0:0:0:
264,174,234560,1,0,0:0:0:0:
248,175,234646,6,0,P|230:143|232:96,1,68,8|0,3:0|0:0,0:0:0:0:
425,136,234991,1,0,0:0:0:0:
425,136,235164,2,0,L|433:228,1,68,2|0,0:0|0:0,0:0:0:0:
352,331,235508,2,0,L|360:239,1,68,2|0,0:0|0:0,0:0:0:0:
295,105,235853,1,0,0:0:0:0:
295,105,236026,2,0,L|204:114,1,68,2|0,0:0|0:0,0:0:0:0:
64,24,236370,2,0,L|155:32,1,68,2|0,0:0|0:0,0:0:0:0:
75,171,236715,1,8,0:0:0:0:
261,352,237060,1,2,0:0:0:0:
259,335,237146,1,0,0:0:0:0:
257,319,237232,1,2,0:0:0:0:
255,303,237319,1,0,0:0:0:0:
253,287,237405,70,0,P|221:269|174:271,1,68,8|0,3:0|0:0,0:0:0:0:
16,367,237750,1,0,0:0:0:0:
16,367,237922,2,0,L|108:359,1,68,2|0,0:0|0:0,0:0:0:0:
70,239,238267,1,0,0:0:0:0:
70,239,238439,2,0,L|78:147,1,68,2|0,0:0|0:0,0:0:0:0:
201,44,238784,5,8,0:0:0:0:
337,297,239129,1,2,0:0:0:0:
339,314,239215,1,0,0:0:0:0:
341,330,239301,1,2,0:0:0:0:
343,346,239388,1,0,0:0:0:0:
345,362,239474,1,2,0:0:0:0:
448,272,239646,1,2,0:0:0:0:
450,255,239732,1,0,0:0:0:0:
452,239,239819,1,2,0:0:0:0:
454,223,239905,1,0,0:0:0:0:
455,207,239991,1,2,0:0:0:0:
456,191,240077,1,0,0:0:0:0:
457,175,240164,70,0,P|425:157|378:159,1,68,8|0,3:0|0:0,0:0:0:0:
268,38,240508,1,0,0:0:0:0:
268,38,240681,2,0,L|176:46,1,68,2|0,0:0|0:0,0:0:0:0:
86,148,241026,2,0,L|153:153,1,68,2|0,0:0|0:0,0:0:0:0:
296,208,241370,1,0,0:0:0:0:
296,208,241543,2,0,L|301:141,1,68,2|0,0:0|0:0,0:0:0:0:
443,48,241888,2,0,L|449:115,1,68,2|0,0:0|0:0,0:0:0:0:
394,253,242232,1,8,0:0:0:0:
200,43,242577,1,2,0:0:0:0:
183,45,242664,1,0,0:0:0:0:
167,47,242750,1,2,0:0:0:0:
151,49,242836,1,0,0:0:0:0:
135,51,242922,6,0,P|117:83|119:130,1,68,8|0,3:0|0:0,0:0:0:0:
202,296,243267,1,0,0:0:0:0:
202,296,243439,2,0,L|210:204,1,68,2|0,0:0|0:0,0:0:0:0:
80,317,243784,1,0,0:0:0:0:
80,317,243957,2,0,L|88:409,1,68,2|0,0:0|0:0,0:0:0:0:
118,201,244301,69,8,0:0:0:0:
294,360,244646,1,2,0:0:0:0:
311,362,244732,1,0,0:0:0:0:
327,364,244819,1,2,0:0:0:0:
343,366,244905,1,0,0:0:0:0:
359,368,244991,1,2,0:0:0:0:
471,258,245164,5,8,3:0:0:0:
500,229,245250,1,0,1:0:0:0:
512,186,245336,1,8,3:0:0:0:
494,147,245422,1,0,1:0:0:0:
455,127,245508,1,8,3:0:0:0:
413,135,245595,1,0,1:0:0:0:
385,169,245681,54,0,L|396:272,1,85,8|0,3:0|0:0,0:0:0:0:
294,360,246026,1,8,0:0:0:0:
303,250,246198,2,0,P|303:203|292:139,1,85,2|0,0:0|0:0,0:0:0:0:
193,117,246543,1,8,0:0:0:0:
211,210,246715,1,2,0:0:0:0:
209,232,246801,1,0,0:0:0:0:
207,254,246888,1,2,0:0:0:0:
205,276,246974,1,0,0:0:0:0:
203,297,247060,70,0,P|203:344|215:409,1,85
392,310,247405,1,2,3:0:0:0:
464,232,247577,2,0,P|464:185|453:120,1,85,2|0,0:0|0:0,0:0:0:0:
393,24,247922,1,2,3:0:0:0:
309,64,248095,1,0,0:0:0:0:
132,22,248267,1,2,3:0:0:0:
277,152,248439,6,0,L|375:142,1,85,8|0,3:0|0:0,0:0:0:0:
382,148,248698,1,0,0:0:0:0:
367,163,248784,1,8,0:0:0:0:
182,107,248957,2,0,P|135:107|71:118,1,85,2|0,0:0|0:0,0:0:0:0:
92,132,249215,1,0,0:0:0:0:
107,147,249301,1,8,0:0:0:0:
15,271,249474,1,2,0:0:0:0:
18,291,249560,1,0,0:0:0:0:
22,312,249646,69,8,0:0:0:0:
53,310,249732,1,8,0:0:0:0:
84,308,249819,1,8,0:0:0:0:
123,268,249905,6,0,L|177:275,2,42.5
254,283,250164,1,2,3:0:0:0:
277,152,250336,1,0,0:0:0:0:
270,123,250422,69,8,0:0:0:0:
277,94,250508,1,0,0:0:0:0:
284,65,250594,1,0,0:0:0:0:
291,36,250680,5,8,0:0:0:0:
318,49,250767,1,0,0:0:0:0:
345,62,250853,1,0,0:0:0:0:
358,119,250939,69,8,0:0:0:0:
385,106,251025,1,0,0:0:0:0:
398,49,251112,5,8,0:0:0:0:
425,62,251198,2,0,L|441:165,1,85,8|0,3:0|0:0,0:0:0:0:
414,298,251543,1,8,0:0:0:0:
296,273,251715,2,0,P|249:273|185:284,1,85
107,223,252060,1,8,0:0:0:0:
190,160,252232,1,2,0:0:0:0:
212,158,252319,1,0,0:0:0:0:
234,156,252405,1,2,0:0:0:0:
256,154,252491,1,0,0:0:0:0:
277,152,252577,70,0,P|324:152|389:164,1,85
499,278,252922,1,2,3:0:0:0:
449,172,253095,2,0,P|449:125|438:60,1,85,2|0,0:0|0:0,0:0:0:0:
349,0,253439,1,2,3:0:0:0:
278,59,253612,1,0,0:0:0:0:
313,224,253784,1,2,3:0:0:0:
194,106,253957,6,0,L|184:8,1,85,8|0,3:0|0:0,0:0:0:0:
173,3,254215,1,0,0:0:0:0:
158,18,254301,1,8,0:0:0:0:
111,134,254474,2,0,P|111:181|100:245,1,85,2|0,0:0|0:0,0:0:0:0:
100,239,254732,1,0,0:0:0:0:
115,224,254819,1,8,0:0:0:0:
257,165,254991,1,2,0:0:0:0:
279,164,255077,1,0,0:0:0:0:
300,163,255164,69,8,0:0:0:0:
306,194,255250,1,8,0:0:0:0:
313,224,255336,1,8,0:0:0:0:
348,265,255422,6,0,L|341:319,2,42.5
236,244,255681,1,2,3:0:0:0:
205,372,255853,1,0,0:0:0:0:
176,379,255939,69,8,0:0:0:0:
147,372,256025,1,0,0:0:0:0:
118,365,256111,1,0,0:0:0:0:
89,358,256197,5,8,0:0:0:0:
102,331,256284,1,0,0:0:0:0:
115,304,256370,1,0,0:0:0:0:
172,291,256456,69,8,0:0:0:0:
159,264,256542,1,0,0:0:0:0:
102,251,256629,5,8,0:0:0:0:
115,224,256715,2,0,L|111:133,1,85,8|0,3:0|0:0,0:0:0:0:
158,18,257060,1,8,0:0:0:0:
261,80,257232,2,0,P|261:127|250:191,1,85
172,291,257577,1,8,0:0:0:0:
292,256,257750,1,2,0:0:0:0:
314,254,257836,1,0,0:0:0:0:
336,252,257922,1,2,0:0:0:0:
358,250,258008,1,0,0:0:0:0:
379,248,258095,70,0,P|426:248|491:260,1,85
344,352,258439,1,2,3:0:0:0:
292,256,258612,2,0,P|292:209|303:144,1,85,2|0,0:0|0:0,0:0:0:0:
384,31,258957,1,2,3:0:0:0:
309,83,259129,1,0,0:0:0:0:
379,248,259301,1,2,3:0:0:0:
213,117,259474,6,0,L|223:19,1,85,8|0,3:0|0:0,0:0:0:0:
217,12,259732,1,0,0:0:0:0:
202,27,259819,1,8,0:0:0:0:
123,138,259991,2,0,P|123:185|134:249,1,85,2|0,0:0|0:0,0:0:0:0:
134,243,260250,1,0,0:0:0:0:
119,228,260336,1,8,0:0:0:0:
6,92,260508,1,2,0:0:0:0:
5,70,260595,1,0,0:0:0:0:
4,49,260681,69,8,0:0:0:0:
35,43,260767,1,8,0:0:0:0:
65,36,260853,1,8,0:0:0:0:
113,14,260939,6,0,L|167:21,2,42.5
195,98,261198,1,2,3:0:0:0:
309,83,261370,1,0,0:0:0:0:
338,76,261456,69,8,0:0:0:0:
367,83,261542,1,0,0:0:0:0:
396,90,261629,1,0,0:0:0:0:
425,97,261715,5,8,0:0:0:0:
412,124,261801,1,0,0:0:0:0:
399,151,261887,1,0,0:0:0:0:
342,164,261974,69,8,0:0:0:0:
355,191,262059,1,0,0:0:0:0:
412,204,262146,5,8,0:0:0:0:
399,231,262232,2,0,L|283:219,1,85,8|0,3:0|0:0,0:0:0:0:
143,256,262577,1,8,0:0:0:0:
235,346,262750,2,0,P|282:346|346:335,1,85,2|0,0:0|0:0,0:0:0:0:
455,320,263095,1,8,0:0:0:0:
399,231,263267,1,2,0:0:0:0:
397,209,263353,1,0,0:0:0:0:
395,187,263439,1,2,0:0:0:0:
393,165,263526,1,0,0:0:0:0:
391,144,263612,70,0,P|391:97|403:32,1,85
228,89,263957,1,2,3:0:0:0:
274,169,264129,2,0,P|274:216|263:281,1,85,2|0,0:0|0:0,0:0:0:0:
139,349,264474,1,2,3:0:0:0:
143,256,264646,1,0,0:0:0:0:
228,89,264819,1,2,3:0:0:0:
46,194,264991,6,0,L|36:292,1,85,8|0,3:0|0:0,0:0:0:0:
42,299,265250,1,0,0:0:0:0:
57,284,265336,1,8,0:0:0:0:
135,131,265508,2,0,P|135:84|124:20,1,85,2|0,0:0|0:0,0:0:0:0:
124,26,265767,1,0,0:0:0:0:
139,41,265853,1,8,0:0:0:0:
324,88,266026,1,2,0:0:0:0:
345,90,266112,1,0,0:0:0:0:
366,91,266198,69,8,0:0:0:0:
372,60,266284,1,8,0:0:0:0:
379,30,266370,1,8,0:0:0:0:
460,92,266543,5,0,0:0:0:0:
459,104,266629,1,0,0:0:0:0:
458,116,266715,1,2,0:0:0:0:
391,193,266888,1,8,0:0:0:0:
420,297,267060,1,8,3:0:0:0:
255,206,267232,1,8,3:0:0:0:
216,212,267319,1,2,0:0:0:0:
182,217,267405,1,8,3:0:0:0:
152,221,267491,1,8,0:0:0:0:
127,225,267577,2,0,L|90:228,3,21.25,8|8|8|8,3:0|0:0|0:0|0:0,0:0:0:0:
34,164,267750,54,0,B|29:153|29:153|34:142|34:142|28:133|28:133|34:122|34:122|29:111|29:111|34:98|34:98|27:87|27:87|31:73,1,102,4|4,3:0|3:0,0:0:0:0:
106,227,268439,69,8,0:0:0:0:
85,279,268526,1,0,0:0:0:0:
104,331,268612,1,8,3:0:0:0:
154,356,268698,1,0,0:0:0:0:
211,346,268784,2,0,L|304:339,1,63.7500024318696,4|0,3:0|0:0,0:0:0:0:
275,200,268957,5,8,0:0:0:0:
316,160,269043,1,0,0:0:0:0:
370,143,269129,1,8,3:0:0:0:
426,150,269215,1,0,0:0:0:0:
476,179,269301,2,0,L|483:272,1,63.7500024318696,4|0,3:0|0:0,0:0:0:0:
384,373,269474,69,8,0:0:0:0:
380,315,269560,1,0,0:0:0:0:
377,258,269646,1,8,3:0:0:0:
374,201,269732,1,0,0:0:0:0:
370,143,269819,2,0,L|363:50,1,63.7500024318696,4|0,3:0|0:0,0:0:0:0:
255,147,269991,5,8,0:0:0:0:
275,200,270077,1,0,0:0:0:0:
256,252,270164,1,8,3:0:0:0:
206,277,270250,1,0,0:0:0:0:
150,266,270336,2,0,L|57:257,1,63.7500024318696,4|0,3:0|0:0,0:0:0:0:
274,332,270508,69,8,0:0:0:0:
331,331,270595,1,0,0:0:0:0:
385,313,270681,1,8,3:0:0:0:
327,313,270767,1,0,0:0:0:0:
301,365,270853,2,0,L|208:356,1,63.7500024318696,4|0,3:0|0:0,0:0:0:0:
86,264,271026,5,8,0:0:0:0:
108,211,271112,1,0,0:0:0:0:
82,160,271198,1,8,3:0:0:0:
133,186,271284,1,0,0:0:0:0:
186,164,271370,2,0,L|278:155,1,63.7500024318696,4|0,3:0|0:0,0:0:0:0:
425,228,271543,69,8,0:0:0:0:
481,217,271629,1,0,0:0:0:0:
506,165,271715,1,8,3:0:0:0:
458,196,271801,1,0,0:0:0:0:
467,252,271888,2,0,L|475:344,1,63.7500024318696,4|0,3:0|0:0,0:0:0:0:
335,199,272060,5,8,0:0:0:0:
333,141,272146,1,0,0:0:0:0:
331,83,272232,1,8,3:0:0:0:
308,135,272319,1,0,0:0:0:0:
285,187,272405,2,0,L|293:279,1,63.7500024318696,4|0,3:0|0:0,0:0:0:0:
421,105,272577,69,8,0:0:0:0:
453,57,272664,1,0,0:0:0:0:
440,1,272750,1,8,3:0:0:0:
420,54,272836,1,0,0:0:0:0:
429,111,272922,1,8,3:0:0:0:
446,165,273008,1,0,0:0:0:0:
442,222,273095,1,8,3:0:0:0:
410,269,273181,1,0,0:0:0:0:
356,288,273267,5,4,3:0:0:0:
295,36,273439,1,4,3:0:0:0:
129,346,273612,1,4,3:0:0:0:
8,15,273784,1,4,3:0:0:0:
206,120,273957,69,8,0:0:0:0:
226,172,274043,1,0,0:0:0:0:
207,224,274129,1,8,3:0:0:0:
157,249,274215,1,0,0:0:0:0:
101,239,274301,2,0,L|8:232,1,63.7500024318696,4|0,3:0|0:0,0:0:0:0:
94,57,274474,5,8,0:0:0:0:
135,17,274560,1,0,0:0:0:0:
189,0,274646,1,8,3:0:0:0:
245,7,274732,1,0,0:0:0:0:
295,36,274819,2,0,L|302:129,1,63.7500024318696,4|0,3:0|0:0,0:0:0:0:
416,293,274991,69,8,0:0:0:0:
412,235,275077,1,0,0:0:0:0:
409,178,275164,1,8,3:0:0:0:
406,121,275250,1,0,0:0:0:0:
402,63,275336,2,0,L|395:-30,1,63.7500024318696,4|0,3:0|0:0,0:0:0:0:
273,173,275508,5,8,0:0:0:0:
249,224,275595,1,0,0:0:0:0:
199,247,275681,1,8,3:0:0:0:
146,230,275767,1,0,0:0:0:0:
114,182,275853,2,0,L|122:88,1,63.7500024318696,4|0,3:0|0:0,0:0:0:0:
375,96,276026,69,8,0:0:0:0:
432,97,276112,1,0,0:0:0:0:
486,115,276198,1,8,3:0:0:0:
428,115,276284,1,0,0:0:0:0:
402,63,276370,2,0,L|309:71,1,63.7500024318696,4|0,3:0|0:0,0:0:0:0:
192,167,276543,5,8,0:0:0:0:
214,220,276629,1,0,0:0:0:0:
188,271,276715,1,8,3:0:0:0:
239,245,276801,1,0,0:0:0:0:
292,267,276888,2,0,L|384:275,1,63.7500024318696,4|0,3:0|0:0,0:0:0:0:
210,80,277060,69,8,0:0:0:0:
162,48,277146,1,0,0:0:0:0:
109,67,277232,1,8,3:0:0:0:
164,79,277319,1,0,0:0:0:0:
197,33,277405,2,0,L|285:39,1,63.7500024318696,4|0,3:0|0:0,0:0:0:0:
373,151,277577,5,8,0:0:0:0:
431,153,277664,1,0,0:0:0:0:
489,155,277750,1,8,3:0:0:0:
437,178,277836,1,0,0:0:0:0:
385,201,277922,2,0,L|292:192,1,63.7500024318696,4|0,3:0|0:0,0:0:0:0:
104,222,278095,69,8,0:0:0:0:
56,190,278181,1,0,0:0:0:0:
0,203,278267,1,8,3:0:0:0:
53,223,278353,1,0,0:0:0:0:
106,202,278439,1,8,3:0:0:0:
132,150,278526,1,0,0:0:0:0:
111,98,278612,6,0,L|108:58,4,31.8750012159348,8|8|8|8|4,3:0|3:0|3:0|3:0|3:0,0:0:0:0:
221,295,278957,1,4,3:0:0:0:
13,94,279129,1,4,3:0:0:0:
288,13,279301,1,4,3:0:0:0:
216,219,279474,69,8,0:0:0:0:
158,242,279560,1,0,0:0:0:0:
101,221,279646,1,8,3:0:0:0:
74,166,279732,1,0,0:0:0:0:
85,103,279819,2,0,L|92:1,1,63.7500024318696,4|0,3:0|0:0,0:0:0:0:
252,111,279991,5,8,0:0:0:0:
294,156,280077,1,0,0:0:0:0:
313,215,280164,1,8,3:0:0:0:
305,277,280250,1,0,0:0:0:0:
275,332,280336,2,0,L|172:339,1,63.7500024318696,4|0,3:0|0:0,0:0:0:0:
125,231,280508,69,8,0:0:0:0:
188,225,280595,1,0,0:0:0:0:
251,220,280681,1,8,3:0:0:0:
313,215,280767,1,0,0:0:0:0:
377,209,280853,2,0,L|478:202,1,63.7500024318696,4|0,3:0|0:0,0:0:0:0:
315,81,281026,5,8,0:0:0:0:
257,108,281112,1,0,0:0:0:0:
231,162,281198,1,8,3:0:0:0:
251,220,281284,1,0,0:0:0:0:
303,255,281370,2,0,L|388:269,1,63.7500024318696,4|0,3:0|0:0,0:0:0:0:
123,321,281543,69,8,0:0:0:0:
60,323,281629,1,0,0:0:0:0:
0,342,281715,1,8,3:0:0:0:
64,342,281801,1,0,0:0:0:0:
93,285,281888,2,0,L|194:293,1,63.7500024318696,4|0,3:0|0:0,0:0:0:0:
140,152,282060,5,8,0:0:0:0:
129,87,282146,1,0,0:0:0:0:
77,54,282232,1,8,3:0:0:0:
140,50,282319,1,0,0:0:0:0:
178,0,282405,2,0,L|264:7,1,63.7500024318696,4|0,3:0|0:0,0:0:0:0:
397,95,282577,69,8,0:0:0:0:
458,82,282664,1,0,0:0:0:0:
486,25,282750,1,8,3:0:0:0:
433,59,282836,1,0,0:0:0:0:
443,121,282922,2,0,L|451:222,1,63.7500024318696,4|0,3:0|0:0,0:0:0:0:
374,347,283095,5,8,0:0:0:0:
437,345,283181,1,0,0:0:0:0:
501,343,283267,1,8,3:0:0:0:
444,318,283353,1,0,0:0:0:0:
387,292,283439,2,0,L|285:300,1,63.7500024318696,4|0,3:0|0:0,0:0:0:0:
192,238,283612,69,8,0:0:0:0:
156,290,283698,1,0,0:0:0:0:
171,352,283784,1,8,3:0:0:0:
193,294,283870,1,0,0:0:0:0:
183,231,283957,1,8,3:0:0:0:
164,172,284043,1,0,0:0:0:0:
180,110,284129,1,8,3:0:0:0:
218,59,284215,1,0,0:0:0:0:
280,47,284301,5,4,3:0:0:0:
467,107,284474,1,4,3:0:0:0:
296,332,284646,1,4,3:0:0:0:
218,59,284819,1,4,3:0:0:0:
467,107,284991,69,8,0:0:0:0:
492,173,285077,1,0,0:0:0:0:
467,239,285164,1,8,3:0:0:0:
402,266,285250,1,0,0:0:0:0:
333,250,285336,2,0,L|220:241,1,63.7500024318696,4|0,3:0|0:0,0:0:0:0:
372,143,285508,5,8,0:0:0:0:
321,96,285595,1,0,0:0:0:0:
255,76,285681,1,8,3:0:0:0:
186,86,285767,1,0,0:0:0:0:
124,120,285853,2,0,L|115:232,1,63.7500024318696,4|0,3:0|0:0,0:0:0:0:
150,374,286026,69,8,0:0:0:0:
219,368,286112,1,0,0:0:0:0:
288,362,286198,1,8,3:0:0:0:
356,355,286284,1,0,0:0:0:0:
426,348,286370,2,0,L|538:340,1,63.7500024318696,4|0,3:0|0:0,0:0:0:0:
370,236,286543,5,8,0:0:0:0:
434,212,286629,1,0,0:0:0:0:
466,150,286715,1,8,3:0:0:0:
441,84,286801,1,0,0:0:0:0:
380,48,286888,2,0,L|289:55,1,63.7500024318696,4|0,3:0|0:0,0:0:0:0:
265,226,287060,69,8,0:0:0:0:
265,295,287146,1,0,0:0:0:0:
288,360,287232,1,8,3:0:0:0:
288,290,287319,1,0,0:0:0:0:
224,258,287405,2,0,L|233:145,1,63.7500024318696,4|0,3:0|0:0,0:0:0:0:
165,60,287577,5,8,0:0:0:0:
107,100,287664,1,0,0:0:0:0:
39,87,287750,1,8,3:0:0:0:
85,140,287836,1,0,0:0:0:0:
75,209,287922,2,0,L|83:298,1,63.7500024318696,4|0,3:0|0:0,0:0:0:0:
265,295,288095,69,8,0:0:0:0:
330,333,288181,1,0,0:0:0:0:
402,306,288267,1,8,3:0:0:0:
326,296,288353,1,0,0:0:0:0:
288,360,288439,2,0,L|212:352,1,63.7500024318696,4|0,3:0|0:0,0:0:0:0:
104,176,288612,5,8,0:0:0:0:
107,100,288698,1,0,0:0:0:0:
109,23,288784,1,8,3:0:0:0:
139,92,288870,1,0,0:0:0:0:
170,160,288957,2,0,L|159:282,1,63.7500024318696,4|0,3:0|0:0,0:0:0:0:
363,198,289129,69,8,0:0:0:0:
439,225,289215,1,0,0:0:0:0:
512,185,289301,1,8,3:0:0:0:
432,177,289388,1,0,0:0:0:0:
360,217,289474,1,8,3:0:0:0:
280,192,289560,1,0,0:0:0:0:
239,119,289646,6,0,L|241:100,6,15.9375006079674,8|0|0|0|0|0|0,3:0|0:0|0:0|0:0|0:0|0:0|0:0,0:0:0:0:
389,88,289819,70,0,B|400:93|400:93|411:88|411:88|420:94|420:94|431:88|431:88|442:93|442:93|455:88|455:88|466:95|466:95|480:91,1,102,4|4,3:0|3:0,0:0:0:0:
273,22,290508,37,8,0:0:0:0:
234,26,290595,1,0,0:0:0:0:
197,30,290681,1,8,3:0:0:0:
158,33,290767,1,0,0:0:0:0:
120,35,290853,2,0,L|56:41,1,59.4999981842042,4|0,3:0|0:0,0:0:0:0:
51,220,291026,69,8,0:0:0:0:
64,253,291112,1,0,0:0:0:0:
100,256,291198,1,8,3:0:0:0:
118,225,291284,1,0,0:0:0:0:
99,192,291370,2,0,L|92:128,1,59.4999981842042,4|0,3:0|0:0,0:0:0:0:
273,22,291543,5,8,0:0:0:0:
277,60,291629,1,0,0:0:0:0:
280,97,291715,1,8,3:0:0:0:
283,136,291801,1,0,0:0:0:0:
285,174,291888,2,0,L|291:237,1,59.4999981842042,4|0,3:0|0:0,0:0:0:0:
434,384,292060,69,8,0:0:0:0:
457,352,292146,1,0,0:0:0:0:
465,316,292232,1,8,3:0:0:0:
457,279,292319,1,0,0:0:0:0:
432,250,292405,2,0,L|369:243,1,59.4999981842042,4|0,3:0|0:0,0:0:0:0:
236,384,292577,5,8,0:0:0:0:
202,381,292664,1,0,0:0:0:0:
169,378,292750,1,8,3:0:0:0:
202,361,292836,1,0,0:0:0:0:
238,351,292922,2,0,L|243:290,1,59.4999981842042,4|0,3:0|0:0,0:0:0:0:
115,190,293095,69,8,0:0:0:0:
85,175,293181,1,0,0:0:0:0:
52,180,293267,1,8,3:0:0:0:
85,160,293353,1,0,0:0:0:0:
98,126,293439,2,0,L|104:58,1,59.4999981842042,4|0,3:0|0:0,0:0:0:0:
237,10,293612,5,8,0:0:0:0:
270,19,293698,1,0,0:0:0:0:
299,5,293784,1,8,3:0:0:0:
263,2,293870,1,0,0:0:0:0:
239,30,293957,2,0,L|168:23,1,59.4999981842042,4|0,3:0|0:0,0:0:0:0:
219,148,294129,69,8,0:0:0:0:
210,180,294215,1,0,0:0:0:0:
202,212,294301,1,8,3:0:0:0:
238,202,294388,1,0,0:0:0:0:
274,192,294474,2,0,L|335:186,1,59.4999981842042,4|0,3:0|0:0,0:0:0:0:
453,200,294646,5,8,0:0:0:0:
455,232,294732,1,0,0:0:0:0:
442,262,294819,1,8,3:0:0:0:
464,239,294905,1,0,0:0:0:0:
496,243,294991,1,8,3:0:0:0:
511,271,295077,1,0,0:0:0:0:
501,299,295164,1,8,3:0:0:0:
472,305,295250,1,0,0:0:0:0:
445,291,295336,69,4,3:0:0:0:
292,305,295508,1,4,3:0:0:0:
406,128,295681,1,4,3:0:0:0:
367,254,295853,1,4,3:0:0:0:
214,149,296026,5,8,0:0:0:0:
212,177,296112,1,0,0:0:0:0:
209,203,296198,1,8,3:0:0:0:
207,230,296284,1,0,0:0:0:0:
205,256,296370,2,0,L|199:315,1,59.4999981842042,4|0,3:0|0:0,0:0:0:0:
40,289,296543,69,8,0:0:0:0:
16,279,296629,1,0,0:0:0:0:
14,254,296715,1,8,3:0:0:0:
36,242,296801,1,0,0:0:0:0:
59,255,296888,2,0,L|121:261,1,59.4999981842042,4|0,3:0|0:0,0:0:0:0:
288,191,297060,5,8,0:0:0:0:
316,189,297146,1,0,0:0:0:0:
342,186,297232,1,8,3:0:0:0:
369,184,297319,1,0,0:0:0:0:
395,182,297405,2,0,L|454:176,1,59.4999981842042,4|0,3:0|0:0,0:0:0:0:
384,334,297577,69,8,0:0:0:0:
361,351,297664,1,0,0:0:0:0:
336,356,297750,1,8,3:0:0:0:
310,351,297836,1,0,0:0:0:0:
290,332,297922,2,0,L|283:273,1,59.4999981842042,4|0,3:0|0:0,0:0:0:0:
355,100,298095,5,8,0:0:0:0:
353,79,298181,1,0,0:0:0:0:
351,59,298267,1,8,3:0:0:0:
341,79,298353,1,0,0:0:0:0:
335,101,298439,2,0,L|275:105,1,59.4999981842042,4|0,3:0|0:0,0:0:0:0:
185,29,298612,69,8,0:0:0:0:
167,38,298698,1,0,0:0:0:0:
147,35,298784,1,8,3:0:0:0:
167,47,298870,1,0,0:0:0:0:
174,67,298957,2,0,L|180:127,1,59.4999981842042,4|0,3:0|0:0,0:0:0:0:
106,244,299129,5,8,0:0:0:0:
100,263,299215,1,0,0:0:0:0:
109,281,299301,1,8,3:0:0:0:
110,259,299388,1,0,0:0:0:0:
93,245,299474,2,0,L|99:181,1,59.4999981842042,4|0,3:0|0:0,0:0:0:0:
254,198,299646,69,8,0:0:0:0:
273,203,299732,1,0,0:0:0:0:
292,208,299819,1,8,3:0:0:0:
286,186,299905,1,0,0:0:0:0:
280,165,299991,2,0,L|274:102,1,59.4999981842042,4|0,3:0|0:0,0:0:0:0:
395,65,300164,5,8,0:0:0:0:
417,64,300250,1,0,0:0:0:0:
438,73,300336,1,8,3:0:0:0:
422,58,300422,1,0,0:0:0:0:
419,34,300508,1,8,3:0:0:0:
432,14,300595,1,0,0:0:0:0:
453,3,300681,70,0,L|483:1,4,29.7499990921021,8|8|8|8|4,3:0|3:0|3:0|3:0|3:0,0:0:0:0:
512,98,301026,1,4,3:0:0:0:
426,208,301198,1,4,3:0:0:0:
395,65,301370,1,4,3:0:0:0:
512,186,301543,1,8,0:0:0:0:
256,192,301715,12,0,306370,0:0:0:0:
