osu file format v14

[General]
AudioFilename: audio.mp3
AudioLeadIn: 0
PreviewTime: 76650
Countdown: 0
SampleSet: Normal
StackLeniency: 0.7
Mode: 1
LetterboxInBreaks: 0
WidescreenStoryboard: 0

[Editor]
Bookmarks: 166466,256291
DistanceSpacing: 1
BeatDivisor: 4
GridSize: 32
TimelineZoom: 2.899999

[Metadata]
Title:the nature of dying
TitleUnicode:the nature of dying
Artist:goreshit
ArtistUnicode:goreshit
Creator:strickluke
Version:decomposition
Source:
Tags:semantic compositions on death and its meaning breakcore max richter on the nature of daylight marathon
BeatmapID:1175136
BeatmapSetID:555200

[Difficulty]
HPDrainRate:4
CircleSize:2
OverallDifficulty:6
ApproachRate:9
SliderMultiplier:1.4
SliderTickRate:1

[Events]
//Background and Video events
0,0,"sunset.jpg",0,0
//Break Periods
//Storyboard Layer 0 (Background)
//Storyboard Layer 1 (Fail)
//Storyboard Layer 2 (Pass)
//Storyboard Layer 3 (Foreground)
//Storyboard Sound Samples

[TimingPoints]
158,350.877192982456,4,1,0,15,1,0
859,-90.9090909090909,4,1,0,15,0,0
31739,350.877192982456,4,1,0,50,1,0
31739,-90.9090909090909,4,1,0,50,0,0
73494,-90.9090909090909,4,1,0,70,0,0
73844,-90.9090909090909,4,1,0,30,0,0
76651,-83.3333333333333,4,1,0,80,0,0
121564,-83.3333333333333,4,1,0,15,0,0
124371,-100,4,1,0,20,0,0
124546,-100,4,1,0,15,0,0
127178,-100,4,1,0,20,0,0
127353,-100,4,1,0,15,0,0
130336,-100,4,1,0,20,0,0
130511,-100,4,1,0,15,0,0
135599,-100,4,1,0,25,0,0
135774,-100,4,1,0,15,0,0
138405,-100,4,1,0,35,0,0
138581,-100,4,1,0,40,0,0
141212,-100,4,1,0,50,0,0
141388,-100,4,1,0,45,0,0
144019,-83.3333333333333,4,1,0,100,0,1
188931,-90.9090909090909,4,1,0,80,0,0
230687,-90.9090909090909,4,1,0,65,0,0
231037,-90.9090909090909,4,1,0,25,0,0
233844,-83.3333333333333,4,1,0,100,0,1
278745,350.877192982456,4,1,0,75,1,0
304008,-100,4,1,0,70,0,0
309622,-100,4,1,0,65,0,0
312429,-100,4,1,0,60,0,0
315236,-100,4,1,0,55,0,0
318043,-100,4,1,0,50,0,0
320850,-100,4,1,0,30,0,0
321376,-100,4,1,0,15,0,0

[HitObjects]
256,192,859,8,0,3666,0:0:0:0:
256,192,4017,8,0,7701,0:0:0:0:
256,192,8052,8,0,11736,0:0:0:0:
256,192,12087,8,0,15947,0:0:0:0:
256,192,16298,8,0,19982,0:0:0:0:
256,192,20333,8,0,24017,0:0:0:0:
256,192,24368,8,0,28228,0:0:0:0:
256,192,28579,8,0,31386,0:0:0:0:
256,192,31739,5,4,0:0:0:0:
256,192,32002,1,0,0:0:0:0:
256,192,32089,1,8,0:0:0:0:
256,192,32353,1,0,0:0:0:0:
256,192,32528,1,0,0:0:0:0:
256,192,32616,1,8,0:0:0:0:
256,192,32879,1,0,0:0:0:0:
256,192,33054,1,0,0:0:0:0:
256,192,33142,1,8,0:0:0:0:
256,192,33405,1,0,0:0:0:0:
256,192,33581,1,0,0:0:0:0:
256,192,33668,1,0,0:0:0:0:
256,192,33844,1,0,0:0:0:0:
256,192,34019,1,8,0:0:0:0:
256,192,34195,1,0,0:0:0:0:
256,192,34370,1,8,0:0:0:0:
256,192,34546,1,0,0:0:0:0:
256,192,34721,1,0,0:0:0:0:
256,192,34809,1,0,0:0:0:0:
256,192,34896,1,8,0:0:0:0:
256,192,35160,1,0,0:0:0:0:
256,192,35335,1,0,0:0:0:0:
256,192,35423,1,8,0:0:0:0:
256,192,35598,1,0,0:0:0:0:
256,192,35686,1,0,0:0:0:0:
256,192,35774,1,0,0:0:0:0:
256,192,35861,1,0,0:0:0:0:
256,192,35949,1,8,0:0:0:0:
256,192,36212,1,8,0:0:0:0:
256,192,36475,1,8,0:0:0:0:
256,192,36651,1,0,0:0:0:0:
256,192,36739,1,0,0:0:0:0:
256,192,36826,1,8,0:0:0:0:
256,192,37002,1,0,0:0:0:0:
256,192,37089,1,8,0:0:0:0:
256,192,37177,1,0,0:0:0:0:
256,192,37265,1,0,0:0:0:0:
256,192,37353,1,0,0:0:0:0:
256,192,37616,1,0,0:0:0:0:
256,192,37879,1,0,0:0:0:0:
256,192,38054,1,8,0:0:0:0:
256,192,38317,1,0,0:0:0:0:
256,192,38405,1,8,0:0:0:0:
256,192,38756,1,8,0:0:0:0:
256,192,39019,1,8,0:0:0:0:
256,192,39282,1,8,0:0:0:0:
256,192,39458,1,0,0:0:0:0:
256,192,39633,1,0,0:0:0:0:
256,192,39721,1,0,0:0:0:0:
256,192,39809,1,8,0:0:0:0:
256,192,40160,1,0,0:0:0:0:
256,192,40423,1,0,0:0:0:0:
256,192,40510,1,8,0:0:0:0:
256,192,40774,1,0,0:0:0:0:
256,192,40861,1,8,0:0:0:0:
256,192,41037,1,8,0:0:0:0:
256,192,41212,1,0,0:0:0:0:
256,192,41300,1,0,0:0:0:0:
256,192,41388,1,8,0:0:0:0:
256,192,41446,1,8,0:0:0:0:
256,192,41505,1,8,0:0:0:0:
256,192,41563,1,0,0:0:0:0:
256,192,41914,1,8,0:0:0:0:
256,192,42089,1,8,0:0:0:0:
256,192,42177,1,8,0:0:0:0:
256,192,42353,1,0,0:0:0:0:
256,192,42440,1,0,0:0:0:0:
256,192,42616,2,0,L|352:192,1,77.0000023498536
256,192,42967,1,0,0:0:0:0:
256,192,43142,1,0,0:0:0:0:
256,192,43230,1,0,0:0:0:0:
256,192,43317,1,0,0:0:0:0:
256,192,43668,1,8,0:0:0:0:
256,192,44019,1,8,0:0:0:0:
256,192,44195,1,8,0:0:0:0:
256,192,44370,1,0,0:0:0:0:
256,192,44546,1,0,0:0:0:0:
256,192,44633,1,0,0:0:0:0:
256,192,44721,1,0,0:0:0:0:
256,192,44896,1,0,0:0:0:0:
256,192,45072,1,8,0:0:0:0:
256,192,45247,1,0,0:0:0:0:
256,192,45481,1,8,0:0:0:0:
256,192,45540,1,0,0:0:0:0:
256,192,45774,1,0,0:0:0:0:
256,192,46037,1,0,0:0:0:0:
256,192,46124,1,8,0:0:0:0:
256,192,46300,1,0,0:0:0:0:
256,192,46563,1,0,0:0:0:0:
256,192,46651,1,8,0:0:0:0:
256,192,46826,1,0,0:0:0:0:
256,192,46914,1,8,0:0:0:0:
256,192,47002,1,0,0:0:0:0:
256,192,47089,1,0,0:0:0:0:
256,192,47177,1,8,0:0:0:0:
256,192,47440,1,8,0:0:0:0:
256,192,47616,1,0,0:0:0:0:
256,192,47703,1,8,0:0:0:0:
256,192,47879,1,0,0:0:0:0:
256,192,48054,1,8,0:0:0:0:
256,192,48230,1,8,0:0:0:0:
256,192,48405,1,8,0:0:0:0:
256,192,48581,1,8,0:0:0:0:
256,192,48844,1,0,0:0:0:0:
256,192,49019,1,0,0:0:0:0:
256,192,49107,1,8,0:0:0:0:
256,192,49282,1,0,0:0:0:0:
256,192,49546,1,8,0:0:0:0:
256,192,49721,1,0,0:0:0:0:
256,192,49809,1,0,0:0:0:0:
256,192,49984,1,8,0:0:0:0:
256,192,50160,1,0,0:0:0:0:
256,192,50335,1,8,0:0:0:0:
256,192,50598,1,8,0:0:0:0:
256,192,50686,1,0,0:0:0:0:
256,192,50861,1,0,0:0:0:0:
256,192,50949,1,0,0:0:0:0:
256,192,51212,1,0,0:0:0:0:
256,192,51388,1,8,0:0:0:0:
256,192,51651,1,8,0:0:0:0:
256,192,51826,1,0,0:0:0:0:
256,192,51914,1,8,0:0:0:0:
256,192,52177,1,0,0:0:0:0:
256,192,52353,1,0,0:0:0:0:
256,192,52440,1,8,0:0:0:0:
256,192,52616,1,8,0:0:0:0:
256,192,52791,1,8,0:0:0:0:
256,192,52967,1,0,0:0:0:0:
256,192,53142,1,8,0:0:0:0:
256,192,53317,1,0,0:0:0:0:
256,192,53405,1,0,0:0:0:0:
256,192,53493,1,0,0:0:0:0:
256,192,53581,1,0,0:0:0:0:
256,192,53668,1,0,0:0:0:0:
256,192,53756,1,0,0:0:0:0:
256,192,53844,1,8,0:0:0:0:
256,192,53902,1,8,0:0:0:0:
256,192,53961,1,8,0:0:0:0:
256,192,54019,1,8,0:0:0:0:
256,192,54078,1,8,0:0:0:0:
256,192,54136,1,8,0:0:0:0:
256,192,54195,1,0,0:0:0:0:
256,192,54458,1,0,0:0:0:0:
256,192,54546,1,8,0:0:0:0:
256,192,54896,1,0,0:0:0:0:
256,192,55247,1,8,0:0:0:0:
256,192,55423,1,8,0:0:0:0:
256,192,55598,1,0,0:0:0:0:
256,192,55686,1,0,0:0:0:0:
256,192,55861,1,0,0:0:0:0:
256,192,55949,1,8,0:0:0:0:
256,192,56124,1,0,0:0:0:0:
256,192,56212,1,8,0:0:0:0:
256,192,56300,1,0,0:0:0:0:
256,192,56388,1,8,0:0:0:0:
256,192,56475,1,0,0:0:0:0:
256,192,56651,1,8,0:0:0:0:
256,192,56826,1,0,0:0:0:0:
256,192,57177,1,0,0:0:0:0:
256,192,57528,1,8,0:0:0:0:
256,192,57703,1,0,0:0:0:0:
256,192,58054,1,8,0:0:0:0:
256,192,58317,1,8,0:0:0:0:
256,192,58405,1,0,0:0:0:0:
256,192,58493,1,8,0:0:0:0:
256,192,58581,1,0,0:0:0:0:
256,192,58756,1,8,0:0:0:0:
256,192,58931,1,0,0:0:0:0:
256,192,59107,1,8,0:0:0:0:
256,192,59282,1,8,0:0:0:0:
256,192,59370,1,8,0:0:0:0:
256,192,59458,1,8,0:0:0:0:
256,192,59633,1,8,0:0:0:0:
256,192,59809,1,8,0:0:0:0:
256,192,60072,1,8,0:0:0:0:
256,192,60160,1,0,0:0:0:0:
256,192,60247,1,8,0:0:0:0:
256,192,60335,1,8,0:0:0:0:
256,192,60598,1,8,0:0:0:0:
256,192,60774,1,0,0:0:0:0:
256,192,60861,1,8,0:0:0:0:
256,192,61037,1,8,0:0:0:0:
256,192,61095,1,8,0:0:0:0:
256,192,61154,1,8,0:0:0:0:
256,192,61212,1,0,0:0:0:0:
256,192,61300,1,8,0:0:0:0:
256,192,61475,1,0,0:0:0:0:
256,192,61563,1,8,0:0:0:0:
256,192,61738,1,0,0:0:0:0:
256,192,61826,1,8,0:0:0:0:
256,192,61914,1,0,0:0:0:0:
256,192,62089,1,8,0:0:0:0:
256,192,62265,1,0,0:0:0:0:
256,192,62440,1,0,0:0:0:0:
256,192,62528,1,0,0:0:0:0:
256,192,62616,1,8,0:0:0:0:
256,192,62879,1,0,0:0:0:0:
256,192,62967,1,8,0:0:0:0:
256,192,63230,1,0,0:0:0:0:
256,192,63317,1,8,0:0:0:0:
256,192,63581,1,0,0:0:0:0:
256,192,63668,1,8,0:0:0:0:
256,192,63931,1,0,0:0:0:0:
256,192,64019,1,8,0:0:0:0:
256,192,64195,1,8,0:0:0:0:
256,192,64370,1,0,0:0:0:0:
256,192,64546,1,0,0:0:0:0:
256,192,64721,1,8,0:0:0:0:
256,192,65072,1,8,0:0:0:0:
256,192,65247,1,8,0:0:0:0:
256,192,65335,1,8,0:0:0:0:
256,192,65423,1,0,0:0:0:0:
256,192,65598,1,0,0:0:0:0:
256,192,65686,1,0,0:0:0:0:
256,192,65774,1,0,0:0:0:0:
256,192,66124,1,8,0:0:0:0:
256,192,66475,1,8,0:0:0:0:
256,192,66651,1,8,0:0:0:0:
256,192,66826,1,0,0:0:0:0:
256,192,67002,1,0,0:0:0:0:
256,192,67089,1,0,0:0:0:0:
256,192,67177,1,0,0:0:0:0:
256,192,67353,1,0,0:0:0:0:
256,192,67528,1,8,0:0:0:0:
256,192,67703,1,0,0:0:0:0:
256,192,67937,1,8,0:0:0:0:
256,192,67996,1,0,0:0:0:0:
256,192,68230,1,0,0:0:0:0:
256,192,68493,1,0,0:0:0:0:
256,192,68581,1,8,0:0:0:0:
256,192,68756,1,0,0:0:0:0:
256,192,69019,1,0,0:0:0:0:
256,192,69107,1,8,0:0:0:0:
256,192,69282,1,0,0:0:0:0:
256,192,69370,1,8,0:0:0:0:
256,192,69458,1,0,0:0:0:0:
256,192,69546,1,0,0:0:0:0:
256,192,69633,1,8,0:0:0:0:
256,192,69896,1,8,0:0:0:0:
256,192,70072,1,0,0:0:0:0:
256,192,70160,1,8,0:0:0:0:
256,192,70335,1,0,0:0:0:0:
256,192,70510,1,8,0:0:0:0:
256,192,70686,1,8,0:0:0:0:
256,192,70861,1,8,0:0:0:0:
256,192,71037,1,8,0:0:0:0:
256,192,71212,1,0,0:0:0:0:
256,192,71300,1,0,0:0:0:0:
256,192,71475,1,0,0:0:0:0:
256,192,71563,1,8,0:0:0:0:
256,192,71738,1,0,0:0:0:0:
256,192,72002,1,8,0:0:0:0:
256,192,72177,1,8,0:0:0:0:
256,192,72265,1,0,0:0:0:0:
256,192,72440,1,8,0:0:0:0:
256,192,72616,1,0,0:0:0:0:
256,192,72791,1,8,0:0:0:0:
256,192,73054,1,8,0:0:0:0:
256,192,73142,1,0,0:0:0:0:
256,192,73317,1,0,0:0:0:0:
256,192,73405,1,0,0:0:0:0:
256,192,73493,1,8,0:0:0:0:
256,192,73551,1,8,0:0:0:0:
256,192,73610,1,8,0:0:0:0:
256,192,73668,1,8,0:0:0:0:
256,192,73727,1,8,0:0:0:0:
256,192,73785,1,8,0:0:0:0:
256,192,73844,1,0,0:0:0:0:
256,192,76651,1,4,0:0:0:0:
256,192,76826,1,8,0:0:0:0:
256,192,76914,1,0,0:0:0:0:
256,192,77002,1,8,0:0:0:0:
256,192,77177,1,0,0:0:0:0:
256,192,77265,1,0,0:0:0:0:
256,192,77353,1,8,0:0:0:0:
256,192,77440,1,0,0:0:0:0:
256,192,77528,1,8,0:0:0:0:
256,192,77703,1,0,0:0:0:0:
256,192,77791,1,8,0:0:0:0:
256,192,77879,1,0,0:0:0:0:
256,192,77967,1,0,0:0:0:0:
256,192,78054,1,8,0:0:0:0:
256,192,78230,1,8,0:0:0:0:
256,192,78317,1,8,0:0:0:0:
256,192,78405,1,0,0:0:0:0:
256,192,78756,1,0,0:0:0:0:
256,192,78844,1,0,0:0:0:0:
256,192,78931,1,8,0:0:0:0:
256,192,79107,1,0,0:0:0:0:
256,192,79165,1,0,0:0:0:0:
256,192,79224,1,0,0:0:0:0:
256,192,79282,1,8,0:0:0:0:
256,192,79458,1,0,0:0:0:0:
256,192,79633,1,0,0:0:0:0:
256,192,79721,1,0,0:0:0:0:
256,192,79809,1,8,0:0:0:0:
256,192,79984,1,8,0:0:0:0:
256,192,80072,1,0,0:0:0:0:
256,192,80160,1,8,0:0:0:0:
256,192,80247,1,8,0:0:0:0:
256,192,80335,1,0,0:0:0:0:
256,192,80510,1,8,0:0:0:0:
256,192,80598,1,0,0:0:0:0:
256,192,80686,1,8,0:0:0:0:
256,192,80774,1,0,0:0:0:0:
256,192,80861,1,8,0:0:0:0:
256,192,81037,1,0,0:0:0:0:
256,192,81124,1,8,0:0:0:0:
256,192,81212,1,0,0:0:0:0:
256,192,81300,1,0,0:0:0:0:
256,192,81388,1,8,0:0:0:0:
256,192,81563,1,0,0:0:0:0:
256,192,81651,1,0,0:0:0:0:
256,192,81738,1,8,0:0:0:0:
256,192,81914,1,0,0:0:0:0:
256,192,82002,1,8,0:0:0:0:
256,192,82089,1,0,0:0:0:0:
256,192,82177,1,8,0:0:0:0:
256,192,82265,1,0,0:0:0:0:
256,192,82440,1,8,0:0:0:0:
256,192,82528,1,0,0:0:0:0:
256,192,82703,1,8,0:0:0:0:
256,192,82791,1,0,0:0:0:0:
256,192,82879,1,0,0:0:0:0:
256,192,82967,1,8,0:0:0:0:
256,192,83142,1,8,0:0:0:0:
256,192,83230,1,0,0:0:0:0:
256,192,83317,1,8,0:0:0:0:
256,192,83493,1,0,0:0:0:0:
256,192,83581,1,8,0:0:0:0:
256,192,83668,1,8,0:0:0:0:
256,192,83931,1,8,0:0:0:0:
256,192,84195,1,8,0:0:0:0:
256,192,84370,1,0,0:0:0:0:
256,192,84458,1,8,0:0:0:0:
256,192,84546,1,0,0:0:0:0:
256,192,84633,1,0,0:0:0:0:
256,192,84721,1,8,0:0:0:0:
256,192,84896,1,8,0:0:0:0:
256,192,84955,1,8,0:0:0:0:
256,192,85013,1,8,0:0:0:0:
256,192,85072,1,0,0:0:0:0:
256,192,85247,1,0,0:0:0:0:
256,192,85335,1,0,0:0:0:0:
256,192,85423,1,8,0:0:0:0:
256,192,85598,1,8,0:0:0:0:
256,192,85686,1,0,0:0:0:0:
256,192,85774,1,8,0:0:0:0:
256,192,85861,1,8,0:0:0:0:
256,192,85949,1,0,0:0:0:0:
256,192,86124,1,0,0:0:0:0:
256,192,86212,1,0,0:0:0:0:
256,192,86300,1,8,0:0:0:0:
256,192,86358,1,8,0:0:0:0:
256,192,86417,1,8,0:0:0:0:
256,192,86475,1,0,0:0:0:0:
256,192,86651,1,0,0:0:0:0:
256,192,86826,1,8,0:0:0:0:
256,192,87002,1,8,0:0:0:0:
256,192,87089,1,8,0:0:0:0:
256,192,87177,1,8,0:0:0:0:
256,192,87265,1,0,0:0:0:0:
256,192,87353,1,0,0:0:0:0:
256,192,87528,1,8,0:0:0:0:
256,192,87586,1,8,0:0:0:0:
256,192,87645,1,8,0:0:0:0:
256,192,87703,1,8,0:0:0:0:
256,192,87879,1,0,0:0:0:0:
256,192,88054,1,0,0:0:0:0:
256,192,88142,1,8,0:0:0:0:
256,192,88230,1,0,0:0:0:0:
256,192,88405,1,0,0:0:0:0:
256,192,88581,1,8,0:0:0:0:
256,192,88931,1,8,0:0:0:0:
256,192,89107,1,8,0:0:0:0:
256,192,89282,1,0,0:0:0:0:
256,192,89458,1,0,0:0:0:0:
256,192,89546,1,0,0:0:0:0:
256,192,89633,1,0,0:0:0:0:
256,192,89809,1,0,0:0:0:0:
256,192,89984,1,8,0:0:0:0:
256,192,90072,1,8,0:0:0:0:
256,192,90160,1,0,0:0:0:0:
256,192,90335,2,0,L|352:192,1,83.9999974365235,0|0,0:0|0:0,0:0:0:0:
256,192,90686,1,0,0:0:0:0:
256,192,90949,1,0,0:0:0:0:
256,192,91037,1,8,0:0:0:0:
256,192,91212,1,0,0:0:0:0:
256,192,91475,1,0,0:0:0:0:
256,192,91563,1,8,0:0:0:0:
256,192,91738,1,0,0:0:0:0:
256,192,91826,1,8,0:0:0:0:
256,192,91914,1,0,0:0:0:0:
256,192,92002,1,0,0:0:0:0:
256,192,92089,1,8,0:0:0:0:
256,192,92265,1,8,0:0:0:0:
256,192,92353,1,0,0:0:0:0:
256,192,92440,1,8,0:0:0:0:
256,192,92528,1,8,0:0:0:0:
256,192,92616,1,0,0:0:0:0:
256,192,92791,1,0,0:0:0:0:
256,192,92879,1,0,0:0:0:0:
256,192,92967,1,8,0:0:0:0:
256,192,93142,1,8,0:0:0:0:
256,192,93317,1,0,0:0:0:0:
256,192,93493,1,8,0:0:0:0:
256,192,93668,1,0,0:0:0:0:
256,192,93756,1,0,0:0:0:0:
256,192,93844,1,8,0:0:0:0:
256,192,93931,1,8,0:0:0:0:
256,192,94019,1,0,0:0:0:0:
256,192,94195,1,0,0:0:0:0:
256,192,94282,1,0,0:0:0:0:
256,192,94370,1,8,0:0:0:0:
256,192,94458,1,0,0:0:0:0:
256,192,94546,1,8,0:0:0:0:
256,192,94633,1,8,0:0:0:0:
256,192,94721,1,0,0:0:0:0:
256,192,94896,1,8,0:0:0:0:
256,192,95072,1,0,0:0:0:0:
256,192,95160,1,0,0:0:0:0:
256,192,95247,1,8,0:0:0:0:
256,192,95423,1,8,0:0:0:0:
256,192,95510,1,0,0:0:0:0:
256,192,95686,1,0,0:0:0:0:
256,192,95774,1,8,0:0:0:0:
256,192,95861,1,8,0:0:0:0:
256,192,95949,1,0,0:0:0:0:
256,192,96124,1,0,0:0:0:0:
256,192,96300,1,8,0:0:0:0:
256,192,96475,1,8,0:0:0:0:
256,192,96563,1,0,0:0:0:0:
256,192,96651,1,8,0:0:0:0:
256,192,96738,1,8,0:0:0:0:
256,192,96826,1,0,0:0:0:0:
256,192,97002,1,8,0:0:0:0:
256,192,97089,1,0,0:0:0:0:
256,192,97177,1,8,0:0:0:0:
256,192,97265,1,0,0:0:0:0:
256,192,97353,1,8,0:0:0:0:
256,192,97528,1,8,0:0:0:0:
256,192,97703,1,8,0:0:0:0:
256,192,97879,1,0,0:0:0:0:
256,192,98054,1,8,0:0:0:0:
256,192,98230,1,0,0:0:0:0:
256,192,98317,1,0,0:0:0:0:
256,192,98405,1,8,0:0:0:0:
256,192,98493,1,8,0:0:0:0:
256,192,98581,1,0,0:0:0:0:
256,192,98639,1,0,0:0:0:0:
256,192,98698,1,0,0:0:0:0:
256,192,98756,1,8,0:0:0:0:
256,192,99107,1,0,0:0:0:0:
256,192,99282,1,8,0:0:0:0:
256,192,99370,1,0,0:0:0:0:
256,192,99458,1,8,0:0:0:0:
256,192,99633,1,0,0:0:0:0:
256,192,99721,1,0,0:0:0:0:
256,192,99809,1,8,0:0:0:0:
256,192,99896,1,8,0:0:0:0:
256,192,99984,1,0,0:0:0:0:
256,192,100072,1,0,0:0:0:0:
256,192,100160,1,8,0:0:0:0:
256,192,100335,1,0,0:0:0:0:
256,192,100510,1,8,0:0:0:0:
256,192,100598,1,0,0:0:0:0:
256,192,100686,1,8,0:0:0:0:
256,192,100774,1,0,0:0:0:0:
256,192,100861,1,8,0:0:0:0:
256,192,101037,1,8,0:0:0:0:
256,192,101124,1,0,0:0:0:0:
256,192,101212,1,8,0:0:0:0:
256,192,101300,1,0,0:0:0:0:
256,192,101388,1,0,0:0:0:0:
256,192,101563,1,8,0:0:0:0:
256,192,101738,1,0,0:0:0:0:
256,192,101914,1,8,0:0:0:0:
256,192,102089,1,0,0:0:0:0:
256,192,102177,1,0,0:0:0:0:
256,192,102265,1,0,0:0:0:0:
256,192,102440,1,8,0:0:0:0:
256,192,102616,1,0,0:0:0:0:
256,192,102703,1,0,0:0:0:0:
256,192,102791,1,8,0:0:0:0:
256,192,102967,1,8,0:0:0:0:
256,192,103142,1,0,0:0:0:0:
256,192,103230,1,8,0:0:0:0:
256,192,103317,1,0,0:0:0:0:
256,192,103493,1,0,0:0:0:0:
256,192,103551,1,0,0:0:0:0:
256,192,103610,1,0,0:0:0:0:
256,192,103668,1,8,0:0:0:0:
256,192,103844,1,0,0:0:0:0:
256,192,104019,1,8,0:0:0:0:
256,192,104195,1,8,0:0:0:0:
256,192,104282,1,0,0:0:0:0:
256,192,104370,1,8,0:0:0:0:
256,192,104546,1,8,0:0:0:0:
256,192,104721,1,8,0:0:0:0:
256,192,104896,1,0,0:0:0:0:
256,192,104984,1,0,0:0:0:0:
256,192,105072,1,8,0:0:0:0:
256,192,105160,1,0,0:0:0:0:
256,192,105247,1,0,0:0:0:0:
256,192,105423,1,8,0:0:0:0:
256,192,105510,1,8,0:0:0:0:
256,192,105598,1,0,0:0:0:0:
256,192,105686,1,0,0:0:0:0:
256,192,105774,1,8,0:0:0:0:
256,192,105949,1,8,0:0:0:0:
256,192,106008,1,8,0:0:0:0:
256,192,106066,1,8,0:0:0:0:
256,192,106124,1,0,0:0:0:0:
256,192,106212,1,0,0:0:0:0:
256,192,106300,1,8,0:0:0:0:
256,192,106388,1,0,0:0:0:0:
256,192,106475,1,8,0:0:0:0:
256,192,106651,1,8,0:0:0:0:
256,192,106826,1,0,0:0:0:0:
256,192,106914,1,0,0:0:0:0:
256,192,107002,1,8,0:0:0:0:
256,192,107177,1,0,0:0:0:0:
256,192,107353,1,0,0:0:0:0:
256,192,107440,1,0,0:0:0:0:
256,192,107528,1,8,0:0:0:0:
256,192,107703,1,0,0:0:0:0:
256,192,107791,1,8,0:0:0:0:
256,192,107879,1,8,0:0:0:0:
256,192,108054,1,8,0:0:0:0:
256,192,108142,1,0,0:0:0:0:
256,192,108230,1,8,0:0:0:0:
256,192,108405,1,0,0:0:0:0:
256,192,108493,1,0,0:0:0:0:
256,192,108581,1,8,0:0:0:0:
256,192,108756,1,0,0:0:0:0:
256,192,108844,1,8,0:0:0:0:
256,192,108931,1,8,0:0:0:0:
256,192,109107,1,8,0:0:0:0:
256,192,109282,1,8,0:0:0:0:
256,192,109458,1,0,0:0:0:0:
256,192,109633,1,8,0:0:0:0:
256,192,109721,1,0,0:0:0:0:
256,192,109809,1,8,0:0:0:0:
256,192,109984,1,8,0:0:0:0:
256,192,110072,1,8,0:0:0:0:
256,192,110160,1,8,0:0:0:0:
256,192,110247,1,8,0:0:0:0:
256,192,110335,1,0,0:0:0:0:
256,192,110510,1,0,0:0:0:0:
256,192,110598,1,8,0:0:0:0:
256,192,110686,1,0,0:0:0:0:
256,192,110861,1,0,0:0:0:0:
256,192,111037,1,8,0:0:0:0:
250,189,111388,1,8,0:0:0:0:
250,189,111563,1,8,0:0:0:0:
256,192,111738,1,0,0:0:0:0:
256,192,111914,1,0,0:0:0:0:
256,192,112002,1,0,0:0:0:0:
256,192,112089,1,0,0:0:0:0:
256,192,112265,1,0,0:0:0:0:
256,192,112440,1,8,0:0:0:0:
256,192,112528,1,8,0:0:0:0:
256,192,112616,1,0,0:0:0:0:
256,192,112791,2,0,L|352:192,1,83.9999974365235
256,192,113142,1,0,0:0:0:0:
256,192,113405,1,0,0:0:0:0:
256,192,113493,1,8,0:0:0:0:
256,192,113668,1,0,0:0:0:0:
256,192,113931,1,0,0:0:0:0:
256,192,114019,1,8,0:0:0:0:
256,192,114195,1,0,0:0:0:0:
256,192,114282,1,8,0:0:0:0:
256,192,114370,1,8,0:0:0:0:
256,192,114458,1,0,0:0:0:0:
256,192,114546,1,8,0:0:0:0:
256,192,114721,1,8,0:0:0:0:
256,192,114809,1,0,0:0:0:0:
256,192,114896,1,8,0:0:0:0:
256,192,115072,1,8,0:0:0:0:
256,192,115247,1,0,0:0:0:0:
256,192,115335,1,0,0:0:0:0:
256,192,115423,1,8,0:0:0:0:
256,192,115598,1,8,0:0:0:0:
256,192,115686,1,0,0:0:0:0:
256,192,115774,1,0,0:0:0:0:
256,192,115949,1,8,0:0:0:0:
256,192,116124,1,8,0:0:0:0:
256,192,116212,1,8,0:0:0:0:
256,192,116300,1,0,0:0:0:0:
256,192,116388,1,0,0:0:0:0:
256,192,116475,1,8,0:0:0:0:
256,192,116651,1,0,0:0:0:0:
256,192,116826,1,8,0:0:0:0:
256,192,116914,1,0,0:0:0:0:
256,192,117002,1,8,0:0:0:0:
256,192,117089,1,0,0:0:0:0:
256,192,117177,1,8,0:0:0:0:
256,192,117353,1,8,0:0:0:0:
256,192,117528,1,0,0:0:0:0:
256,192,117616,1,0,0:0:0:0:
256,192,117703,1,8,0:0:0:0:
256,192,117791,1,0,0:0:0:0:
256,192,117879,1,8,0:0:0:0:
256,192,117967,1,8,0:0:0:0:
256,192,118054,1,0,0:0:0:0:
256,192,118230,1,0,0:0:0:0:
256,192,118317,1,0,0:0:0:0:
256,192,118405,1,8,0:0:0:0:
256,192,118464,1,8,0:0:0:0:
256,192,118522,1,8,0:0:0:0:
256,192,118581,1,8,0:0:0:0:
256,192,118639,1,8,0:0:0:0:
256,192,118698,1,8,0:0:0:0:
256,192,118756,1,0,0:0:0:0:
256,192,119019,1,0,0:0:0:0:
256,192,119107,1,0,0:0:0:0:
256,192,119282,1,0,0:0:0:0:
256,192,119546,1,0,0:0:0:0:
256,192,119809,1,0,0:0:0:0:
256,192,119896,1,0,0:0:0:0:
256,192,119984,1,0,0:0:0:0:
256,192,120335,1,0,0:0:0:0:
256,192,120510,1,0,0:0:0:0:
256,192,120861,1,8,0:0:0:0:
256,192,121037,1,0,0:0:0:0:
256,192,121212,1,0,0:0:0:0:
256,192,121300,1,0,0:0:0:0:
256,192,121388,1,8,0:0:0:0:
256,192,121475,1,0,0:0:0:0:
256,192,121563,8,0,124195,0:0:0:0:
256,192,124370,8,0,127002,0:0:0:0:
256,192,127177,8,0,129984,0:0:0:0:
256,192,130335,8,0,132791,0:0:0:0:
256,192,132967,8,0,135423,0:0:0:0:
256,192,135598,8,0,138230,0:0:0:0:
256,192,138405,8,0,141037,0:0:0:0:
256,192,141212,8,0,143844,0:0:0:0:
256,192,144019,5,12,0:0:0:0:
256,192,144195,1,0,0:0:0:0:
256,192,144282,1,8,0:0:0:0:
256,192,144370,1,8,0:0:0:0:
256,192,144546,1,8,0:0:0:0:
256,192,144633,1,0,0:0:0:0:
256,192,144721,1,8,0:0:0:0:
256,192,144809,1,8,0:0:0:0:
256,192,144896,1,0,0:0:0:0:
256,192,144984,1,0,0:0:0:0:
256,192,145072,1,8,0:0:0:0:
256,192,145247,1,8,0:0:0:0:
256,192,145335,1,8,0:0:0:0:
256,192,145423,1,0,0:0:0:0:
256,192,145598,1,8,0:0:0:0:
256,192,145686,1,0,0:0:0:0:
256,192,145774,1,8,0:0:0:0:
256,192,145861,1,8,0:0:0:0:
256,192,145949,1,0,0:0:0:0:
256,192,146037,1,0,0:0:0:0:
256,192,146124,1,8,0:0:0:0:
256,192,146300,1,0,0:0:0:0:
256,192,146388,1,0,0:0:0:0:
256,192,146475,1,8,0:0:0:0:
256,192,146651,1,8,0:0:0:0:
256,192,146738,1,8,0:0:0:0:
256,192,146826,1,8,0:0:0:0:
256,192,147002,1,8,0:0:0:0:
256,192,147089,1,8,0:0:0:0:
256,192,147177,1,0,0:0:0:0:
256,192,147353,1,8,0:0:0:0:
256,192,147411,1,8,0:0:0:0:
256,192,147469,1,8,0:0:0:0:
256,192,147528,1,0,0:0:0:0:
256,192,147616,1,8,0:0:0:0:
256,192,147703,1,8,0:0:0:0:
256,192,147791,1,0,0:0:0:0:
256,192,147879,1,8,0:0:0:0:
256,192,148054,1,8,0:0:0:0:
256,192,148142,1,0,0:0:0:0:
256,192,148230,1,8,0:0:0:0:
256,192,148317,1,8,0:0:0:0:
256,192,148405,1,0,0:0:0:0:
256,192,148581,1,0,0:0:0:0:
256,192,148668,1,8,0:0:0:0:
256,192,148756,1,0,0:0:0:0:
256,192,148844,1,8,0:0:0:0:
256,192,148931,1,8,0:0:0:0:
256,192,149107,1,8,0:0:0:0:
256,192,149165,1,0,0:0:0:0:
256,192,149224,1,0,0:0:0:0:
256,192,149282,1,8,0:0:0:0:
256,192,149370,1,0,0:0:0:0:
256,192,149458,1,8,0:0:0:0:
256,192,149546,1,8,0:0:0:0:
256,192,149633,1,8,0:0:0:0:
256,192,149809,1,8,0:0:0:0:
256,192,149896,1,8,0:0:0:0:
256,192,149984,1,0,0:0:0:0:
256,192,150160,1,8,0:0:0:0:
256,192,150247,1,0,0:0:0:0:
256,192,150335,1,8,0:0:0:0:
256,192,150423,1,0,0:0:0:0:
256,192,150510,1,8,0:0:0:0:
256,192,150686,1,8,0:0:0:0:
256,192,150774,1,0,0:0:0:0:
256,192,150861,1,0,0:0:0:0:
256,192,151037,1,0,0:0:0:0:
256,192,151124,1,8,0:0:0:0:
256,192,151212,1,0,0:0:0:0:
256,192,151300,1,8,0:0:0:0:
256,192,151388,1,8,0:0:0:0:
256,192,151563,1,8,0:0:0:0:
256,192,151651,1,0,0:0:0:0:
256,192,151738,1,8,0:0:0:0:
256,192,151914,1,0,0:0:0:0:
256,192,152002,1,8,0:0:0:0:
256,192,152089,1,0,0:0:0:0:
256,192,152148,1,0,0:0:0:0:
256,192,152206,1,0,0:0:0:0:
256,192,152265,1,0,0:0:0:0:
256,192,152440,1,8,0:0:0:0:
256,192,152616,1,8,0:0:0:0:
256,192,152703,1,0,0:0:0:0:
256,192,152791,1,8,0:0:0:0:
256,192,152967,1,8,0:0:0:0:
256,192,153025,1,8,0:0:0:0:
256,192,153084,1,8,0:0:0:0:
256,192,153142,1,0,0:0:0:0:
256,192,153230,1,8,0:0:0:0:
256,192,153317,1,0,0:0:0:0:
256,192,153405,1,8,0:0:0:0:
256,192,153493,1,8,0:0:0:0:
256,192,153668,1,0,0:0:0:0:
256,192,153844,1,8,0:0:0:0:
256,192,154019,1,8,0:0:0:0:
256,192,154107,1,8,0:0:0:0:
256,192,154195,1,8,0:0:0:0:
256,192,154370,1,8,0:0:0:0:
256,192,154458,1,0,0:0:0:0:
256,192,154546,1,0,0:0:0:0:
256,192,154633,1,8,0:0:0:0:
256,192,154721,1,8,0:0:0:0:
256,192,154809,1,8,0:0:0:0:
256,192,154896,1,0,0:0:0:0:
256,192,155247,1,8,0:0:0:0:
256,192,155423,1,0,0:0:0:0:
256,192,155510,1,8,0:0:0:0:
256,192,155598,1,0,0:0:0:0:
256,192,155774,1,8,0:0:0:0:
256,192,155861,1,8,0:0:0:0:
256,192,155949,1,0,0:0:0:0:
256,192,156037,1,0,0:0:0:0:
256,192,156124,1,8,0:0:0:0:
256,192,156212,1,8,0:0:0:0:
256,192,156300,1,8,0:0:0:0:
256,192,156475,1,8,0:0:0:0:
256,192,156563,1,0,0:0:0:0:
256,192,156651,1,0,0:0:0:0:
256,192,156826,1,8,0:0:0:0:
256,192,156914,1,0,0:0:0:0:
256,192,157002,1,0,0:0:0:0:
256,192,157089,1,0,0:0:0:0:
256,192,157177,1,8,0:0:0:0:
256,192,157353,1,8,0:0:0:0:
256,192,157528,1,0,0:0:0:0:
256,192,157616,1,0,0:0:0:0:
256,192,157703,1,8,0:0:0:0:
256,192,157879,1,8,0:0:0:0:
256,192,157967,1,8,0:0:0:0:
256,192,158054,1,8,0:0:0:0:
256,192,158230,1,8,0:0:0:0:
256,192,158317,1,8,0:0:0:0:
256,192,158405,1,0,0:0:0:0:
256,192,158581,1,8,0:0:0:0:
256,192,158639,1,8,0:0:0:0:
256,192,158698,1,8,0:0:0:0:
256,192,158756,1,0,0:0:0:0:
256,192,158844,1,8,0:0:0:0:
256,192,158931,1,0,0:0:0:0:
256,192,159019,1,0,0:0:0:0:
256,192,159107,1,8,0:0:0:0:
256,192,159282,1,8,0:0:0:0:
256,192,159370,1,0,0:0:0:0:
256,192,159458,1,8,0:0:0:0:
256,192,159546,1,8,0:0:0:0:
256,192,159633,1,0,0:0:0:0:
256,192,159809,1,0,0:0:0:0:
256,192,159896,1,8,0:0:0:0:
256,192,159984,1,0,0:0:0:0:
256,192,160072,1,8,0:0:0:0:
256,192,160160,1,8,0:0:0:0:
256,192,160335,1,8,0:0:0:0:
256,192,160423,1,0,0:0:0:0:
256,192,160510,1,8,0:0:0:0:
256,192,160598,1,0,0:0:0:0:
256,192,160686,1,8,0:0:0:0:
256,192,160774,1,8,0:0:0:0:
256,192,160861,1,8,0:0:0:0:
256,192,161037,1,8,0:0:0:0:
256,192,161124,1,8,0:0:0:0:
256,192,161212,1,0,0:0:0:0:
256,192,161300,1,8,0:0:0:0:
256,192,161388,1,8,0:0:0:0:
256,192,161475,1,0,0:0:0:0:
256,192,161563,1,8,0:0:0:0:
256,192,161651,1,0,0:0:0:0:
256,192,161738,1,8,0:0:0:0:
256,192,161914,1,8,0:0:0:0:
256,192,162002,1,8,0:0:0:0:
256,192,162089,1,0,0:0:0:0:
256,192,162265,1,0,0:0:0:0:
256,192,162353,1,8,0:0:0:0:
256,192,162440,1,0,0:0:0:0:
256,192,162528,1,8,0:0:0:0:
256,192,162616,1,8,0:0:0:0:
256,192,162703,1,0,0:0:0:0:
256,192,162791,1,8,0:0:0:0:
256,192,162879,1,0,0:0:0:0:
256,192,162967,1,8,0:0:0:0:
256,192,163142,1,0,0:0:0:0:
256,192,163230,1,8,0:0:0:0:
256,192,163317,1,0,0:0:0:0:
256,192,163376,1,0,0:0:0:0:
256,192,163434,1,0,0:0:0:0:
256,192,163493,1,0,0:0:0:0:
256,192,163668,1,8,0:0:0:0:
256,192,163844,1,8,0:0:0:0:
256,192,163931,1,0,0:0:0:0:
256,192,164019,1,8,0:0:0:0:
256,192,164195,1,8,0:0:0:0:
256,192,164253,1,8,0:0:0:0:
256,192,164312,1,8,0:0:0:0:
256,192,164370,1,0,0:0:0:0:
256,192,164458,1,8,0:0:0:0:
256,192,164633,1,8,0:0:0:0:
256,192,164721,1,8,0:0:0:0:
256,192,164809,1,8,0:0:0:0:
256,192,164896,1,0,0:0:0:0:
256,192,165072,1,8,0:0:0:0:
256,192,165247,1,8,0:0:0:0:
256,192,165335,1,8,0:0:0:0:
256,192,165423,1,0,0:0:0:0:
256,192,165598,1,8,0:0:0:0:
256,192,165686,1,0,0:0:0:0:
256,192,165774,1,8,0:0:0:0:
256,192,165861,1,8,0:0:0:0:
256,192,165949,1,0,0:0:0:0:
256,192,166037,1,0,0:0:0:0:
256,192,166124,1,8,0:0:0:0:
256,192,166475,1,12,0:0:0:0:
256,192,166651,1,0,0:0:0:0:
256,192,166738,1,8,0:0:0:0:
256,192,166826,1,8,0:0:0:0:
256,192,167002,1,8,0:0:0:0:
256,192,167089,1,0,0:0:0:0:
256,192,167177,1,8,0:0:0:0:
256,192,167265,1,0,0:0:0:0:
256,192,167353,1,8,0:0:0:0:
256,192,167440,1,8,0:0:0:0:
256,192,167528,1,8,0:0:0:0:
256,192,167703,1,8,0:0:0:0:
256,192,167791,1,8,0:0:0:0:
256,192,167879,1,0,0:0:0:0:
256,192,168054,1,8,0:0:0:0:
256,192,168142,1,0,0:0:0:0:
256,192,168230,1,8,0:0:0:0:
256,192,168317,1,8,0:0:0:0:
256,192,168405,1,0,0:0:0:0:
256,192,168493,1,0,0:0:0:0:
256,192,168581,1,8,0:0:0:0:
256,192,168756,1,0,0:0:0:0:
256,192,168844,1,8,0:0:0:0:
256,192,168931,1,8,0:0:0:0:
256,192,169107,1,8,0:0:0:0:
256,192,169195,1,8,0:0:0:0:
256,192,169282,1,8,0:0:0:0:
256,192,169370,1,0,0:0:0:0:
256,192,169458,1,8,0:0:0:0:
256,192,169546,1,8,0:0:0:0:
256,192,169633,1,0,0:0:0:0:
256,192,169809,1,8,0:0:0:0:
256,192,169867,1,8,0:0:0:0:
256,192,169926,1,8,0:0:0:0:
256,192,169984,1,0,0:0:0:0:
256,192,170072,1,8,0:0:0:0:
256,192,170160,1,8,0:0:0:0:
256,192,170247,1,0,0:0:0:0:
256,192,170335,1,8,0:0:0:0:
256,192,170510,1,8,0:0:0:0:
256,192,170598,1,0,0:0:0:0:
256,192,170686,1,8,0:0:0:0:
256,192,170774,1,8,0:0:0:0:
256,192,170861,1,8,0:0:0:0:
256,192,171037,1,0,0:0:0:0:
256,192,171124,1,8,0:0:0:0:
256,192,171212,1,0,0:0:0:0:
256,192,171300,1,8,0:0:0:0:
256,192,171388,1,8,0:0:0:0:
256,192,171563,1,8,0:0:0:0:
256,192,171622,1,0,0:0:0:0:
256,192,171680,1,0,0:0:0:0:
256,192,171738,1,8,0:0:0:0:
256,192,171826,1,0,0:0:0:0:
256,192,171914,1,8,0:0:0:0:
256,192,172002,1,8,0:0:0:0:
256,192,172089,1,8,0:0:0:0:
256,192,172265,1,8,0:0:0:0:
256,192,172353,1,8,0:0:0:0:
256,192,172440,1,0,0:0:0:0:
256,192,172528,1,8,0:0:0:0:
256,192,172616,1,8,0:0:0:0:
256,192,172703,1,0,0:0:0:0:
256,192,172791,1,8,0:0:0:0:
256,192,172967,1,8,0:0:0:0:
256,192,173142,1,8,0:0:0:0:
256,192,173230,1,0,0:0:0:0:
256,192,173317,1,8,0:0:0:0:
256,192,173493,1,0,0:0:0:0:
256,192,173581,1,8,0:0:0:0:
256,192,173668,1,0,0:0:0:0:
256,192,173756,1,0,0:0:0:0:
256,192,173844,1,8,0:0:0:0:
256,192,173931,1,0,0:0:0:0:
256,192,174019,1,8,0:0:0:0:
256,192,174107,1,8,0:0:0:0:
256,192,174195,1,0,0:0:0:0:
256,192,174370,1,0,0:0:0:0:
256,192,174458,1,8,0:0:0:0:
256,192,174546,1,0,0:0:0:0:
256,192,174604,1,0,0:0:0:0:
256,192,174662,1,0,0:0:0:0:
256,192,174721,1,0,0:0:0:0:
256,192,174809,1,8,0:0:0:0:
256,192,174896,1,8,0:0:0:0:
256,192,175072,1,0,0:0:0:0:
256,192,175160,1,8,0:0:0:0:
256,192,175247,1,8,0:0:0:0:
256,192,175423,1,8,0:0:0:0:
256,192,175481,1,8,0:0:0:0:
256,192,175540,1,8,0:0:0:0:
256,192,175598,1,0,0:0:0:0:
256,192,175686,1,8,0:0:0:0:
256,192,175774,1,0,0:0:0:0:
256,192,175861,1,8,0:0:0:0:
256,192,175949,1,8,0:0:0:0:
256,192,176037,1,8,0:0:0:0:
256,192,176124,1,0,0:0:0:0:
256,192,176300,1,8,0:0:0:0:
256,192,176475,1,8,0:0:0:0:
256,192,176563,1,8,0:0:0:0:
256,192,176651,1,0,0:0:0:0:
256,192,176826,1,8,0:0:0:0:
256,192,176914,1,0,0:0:0:0:
256,192,177002,1,0,0:0:0:0:
256,192,177089,1,8,0:0:0:0:
256,192,177177,1,8,0:0:0:0:
256,192,177265,1,8,0:0:0:0:
256,192,177353,1,0,0:0:0:0:
256,192,177703,1,8,0:0:0:0:
256,192,177879,1,0,0:0:0:0:
256,192,177967,1,8,0:0:0:0:
256,192,178054,1,8,0:0:0:0:
256,192,178230,1,8,0:0:0:0:
256,192,178317,1,8,0:0:0:0:
256,192,178405,1,8,0:0:0:0:
256,192,178493,1,0,0:0:0:0:
256,192,178581,1,8,0:0:0:0:
256,192,178668,1,8,0:0:0:0:
256,192,178756,1,0,0:0:0:0:
256,192,178931,1,8,0:0:0:0:
256,192,179019,1,8,0:0:0:0:
256,192,179107,1,0,0:0:0:0:
256,192,179282,1,8,0:0:0:0:
256,192,179370,1,0,0:0:0:0:
256,192,179458,1,0,0:0:0:0:
256,192,179546,1,0,0:0:0:0:
256,192,179633,1,8,0:0:0:0:
256,192,179721,1,8,0:0:0:0:
256,192,179809,1,8,0:0:0:0:
256,192,179984,1,0,0:0:0:0:
256,192,180072,1,8,0:0:0:0:
256,192,180160,1,8,0:0:0:0:
256,192,180335,1,8,0:0:0:0:
256,192,180423,1,8,0:0:0:0:
256,192,180510,1,8,0:0:0:0:
256,192,180598,1,0,0:0:0:0:
256,192,180686,1,8,0:0:0:0:
256,192,180774,1,8,0:0:0:0:
256,192,180861,1,0,0:0:0:0:
256,192,181037,1,8,0:0:0:0:
256,192,181095,1,8,0:0:0:0:
256,192,181154,1,8,0:0:0:0:
256,192,181212,1,0,0:0:0:0:
256,192,181300,1,8,0:0:0:0:
256,192,181388,1,8,0:0:0:0:
256,192,181475,1,0,0:0:0:0:
256,192,181563,1,8,0:0:0:0:
256,192,181738,1,8,0:0:0:0:
256,192,181826,1,0,0:0:0:0:
256,192,181914,1,8,0:0:0:0:
256,192,182002,1,8,0:0:0:0:
256,192,182089,1,0,0:0:0:0:
256,192,182265,1,0,0:0:0:0:
256,192,182353,1,8,0:0:0:0:
256,192,182440,1,0,0:0:0:0:
256,192,182528,1,8,0:0:0:0:
256,192,182616,1,8,0:0:0:0:
256,192,182791,1,8,0:0:0:0:
256,192,182879,1,0,0:0:0:0:
256,192,182967,1,8,0:0:0:0:
256,192,183054,1,0,0:0:0:0:
256,192,183142,1,8,0:0:0:0:
256,192,183230,1,8,0:0:0:0:
256,192,183317,1,8,0:0:0:0:
256,192,183493,1,8,0:0:0:0:
256,192,183581,1,8,0:0:0:0:
256,192,183668,1,0,0:0:0:0:
256,192,183844,1,8,0:0:0:0:
256,192,183931,1,0,0:0:0:0:
256,192,184019,1,8,0:0:0:0:
256,192,184107,1,0,0:0:0:0:
256,192,184195,1,8,0:0:0:0:
256,192,184370,1,8,0:0:0:0:
256,192,184458,1,8,0:0:0:0:
256,192,184546,1,0,0:0:0:0:
256,192,184721,1,8,0:0:0:0:
256,192,184809,1,0,0:0:0:0:
256,192,184896,1,8,0:0:0:0:
256,192,184984,1,8,0:0:0:0:
256,192,185072,1,8,0:0:0:0:
256,192,185247,1,8,0:0:0:0:
256,192,185335,1,0,0:0:0:0:
256,192,185423,1,8,0:0:0:0:
256,192,185598,1,8,0:0:0:0:
256,192,185686,1,8,0:0:0:0:
256,192,185774,1,8,0:0:0:0:
256,192,186037,1,0,0:0:0:0:
256,192,186124,1,8,0:0:0:0:
256,192,186300,1,8,0:0:0:0:
256,192,186388,1,8,0:0:0:0:
256,192,186475,1,8,0:0:0:0:
256,192,186651,1,0,0:0:0:0:
256,192,186738,1,0,0:0:0:0:
256,192,186826,1,8,0:0:0:0:
256,192,186914,1,8,0:0:0:0:
256,192,187089,1,0,0:0:0:0:
256,192,187177,1,8,0:0:0:0:
256,192,187265,1,8,0:0:0:0:
256,192,187353,1,8,0:0:0:0:
256,192,187528,1,8,0:0:0:0:
256,192,187703,1,8,0:0:0:0:
256,192,187791,1,8,0:0:0:0:
256,192,187879,1,0,0:0:0:0:
256,192,188054,1,8,0:0:0:0:
256,192,188142,1,0,0:0:0:0:
256,192,188230,1,0,0:0:0:0:
256,192,188317,1,8,0:0:0:0:
256,192,188405,1,8,0:0:0:0:
256,192,188493,1,8,0:0:0:0:
256,192,188581,1,8,0:0:0:0:
256,192,188931,1,0,0:0:0:0:
256,192,189195,1,0,0:0:0:0:
256,192,189282,1,8,0:0:0:0:
256,192,189546,1,0,0:0:0:0:
256,192,189721,1,0,0:0:0:0:
256,192,189809,1,8,0:0:0:0:
256,192,190072,1,0,0:0:0:0:
256,192,190247,1,0,0:0:0:0:
256,192,190335,1,8,0:0:0:0:
256,192,190598,1,0,0:0:0:0:
256,192,190774,1,0,0:0:0:0:
256,192,190861,1,0,0:0:0:0:
256,192,191037,1,0,0:0:0:0:
256,192,191212,1,8,0:0:0:0:
256,192,191388,1,0,0:0:0:0:
256,192,191563,1,8,0:0:0:0:
256,192,191738,1,0,0:0:0:0:
256,192,191914,1,0,0:0:0:0:
256,192,192002,1,0,0:0:0:0:
256,192,192089,1,8,0:0:0:0:
256,192,192353,1,0,0:0:0:0:
256,192,192528,1,0,0:0:0:0:
256,192,192616,1,8,0:0:0:0:
256,192,192791,1,0,0:0:0:0:
256,192,192879,1,0,0:0:0:0:
256,192,192967,1,0,0:0:0:0:
256,192,193054,1,0,0:0:0:0:
256,192,193142,1,8,0:0:0:0:
256,192,193405,1,8,0:0:0:0:
256,192,193668,1,8,0:0:0:0:
256,192,193844,1,0,0:0:0:0:
256,192,193931,1,0,0:0:0:0:
256,192,194019,1,8,0:0:0:0:
256,192,194195,1,0,0:0:0:0:
256,192,194282,1,8,0:0:0:0:
256,192,194370,1,0,0:0:0:0:
256,192,194458,1,0,0:0:0:0:
256,192,194546,1,0,0:0:0:0:
256,192,194809,1,0,0:0:0:0:
256,192,195072,1,0,0:0:0:0:
256,192,195247,1,8,0:0:0:0:
256,192,195510,1,0,0:0:0:0:
256,192,195598,1,8,0:0:0:0:
256,192,195949,1,8,0:0:0:0:
256,192,196212,1,8,0:0:0:0:
256,192,196475,1,8,0:0:0:0:
256,192,196651,1,0,0:0:0:0:
256,192,196826,1,0,0:0:0:0:
256,192,196914,1,0,0:0:0:0:
256,192,197002,1,8,0:0:0:0:
256,192,197353,1,0,0:0:0:0:
256,192,197616,1,0,0:0:0:0:
256,192,197703,1,8,0:0:0:0:
256,192,197967,1,0,0:0:0:0:
256,192,198054,1,8,0:0:0:0:
256,192,198230,1,8,0:0:0:0:
256,192,198405,1,8,0:0:0:0:
256,192,198493,1,8,0:0:0:0:
256,192,198581,1,8,0:0:0:0:
256,192,198639,1,8,0:0:0:0:
256,192,198698,1,8,0:0:0:0:
256,192,198756,1,0,0:0:0:0:
256,192,199107,1,8,0:0:0:0:
256,192,199282,1,8,0:0:0:0:
256,192,199370,1,8,0:0:0:0:
256,192,199546,1,0,0:0:0:0:
256,192,199633,1,0,0:0:0:0:
256,192,199809,2,0,L|352:192,1,77.0000023498536
256,192,200160,1,0,0:0:0:0:
256,192,200335,1,0,0:0:0:0:
256,192,200423,1,0,0:0:0:0:
256,192,200510,1,0,0:0:0:0:
256,192,200861,1,8,0:0:0:0:
256,192,201212,1,8,0:0:0:0:
256,192,201388,1,8,0:0:0:0:
256,192,201563,1,0,0:0:0:0:
256,192,201738,1,0,0:0:0:0:
256,192,201826,1,0,0:0:0:0:
256,192,201914,1,0,0:0:0:0:
256,192,202089,1,0,0:0:0:0:
256,192,202265,1,8,0:0:0:0:
256,192,202440,1,0,0:0:0:0:
256,192,202674,1,8,0:0:0:0:
256,192,202733,1,0,0:0:0:0:
256,192,202967,1,0,0:0:0:0:
256,192,203230,1,0,0:0:0:0:
256,192,203317,1,8,0:0:0:0:
256,192,203493,1,0,0:0:0:0:
256,192,203756,1,0,0:0:0:0:
256,192,203844,1,8,0:0:0:0:
256,192,204019,1,0,0:0:0:0:
256,192,204107,1,8,0:0:0:0:
256,192,204195,1,0,0:0:0:0:
256,192,204282,1,0,0:0:0:0:
256,192,204370,1,8,0:0:0:0:
256,192,204633,1,8,0:0:0:0:
256,192,204809,1,0,0:0:0:0:
256,192,204896,1,8,0:0:0:0:
256,192,205072,1,0,0:0:0:0:
256,192,205247,1,8,0:0:0:0:
256,192,205423,1,8,0:0:0:0:
256,192,205598,1,8,0:0:0:0:
256,192,205774,1,8,0:0:0:0:
256,192,206037,1,0,0:0:0:0:
256,192,206212,1,0,0:0:0:0:
256,192,206300,1,8,0:0:0:0:
256,192,206475,1,0,0:0:0:0:
256,192,206738,1,8,0:0:0:0:
256,192,206914,1,0,0:0:0:0:
256,192,207002,1,0,0:0:0:0:
256,192,207177,1,8,0:0:0:0:
256,192,207353,1,0,0:0:0:0:
256,192,207528,1,8,0:0:0:0:
256,192,207791,1,8,0:0:0:0:
256,192,207879,1,0,0:0:0:0:
256,192,208054,1,0,0:0:0:0:
256,192,208142,1,0,0:0:0:0:
256,192,208405,1,0,0:0:0:0:
256,192,208581,1,8,0:0:0:0:
256,192,208844,1,8,0:0:0:0:
256,192,209019,1,0,0:0:0:0:
256,192,209107,1,8,0:0:0:0:
256,192,209370,1,0,0:0:0:0:
256,192,209546,1,0,0:0:0:0:
256,192,209633,1,8,0:0:0:0:
256,192,209809,1,8,0:0:0:0:
256,192,209984,1,8,0:0:0:0:
256,192,210160,1,0,0:0:0:0:
256,192,210335,1,8,0:0:0:0:
256,192,210510,1,0,0:0:0:0:
256,192,210598,1,0,0:0:0:0:
256,192,210686,1,0,0:0:0:0:
256,192,210774,1,0,0:0:0:0:
256,192,210861,1,0,0:0:0:0:
256,192,210920,1,0,0:0:0:0:
256,192,210978,1,0,0:0:0:0:
256,192,211037,1,8,0:0:0:0:
256,192,211388,1,8,0:0:0:0:
256,192,211651,1,0,0:0:0:0:
256,192,211738,1,8,0:0:0:0:
256,192,212089,1,8,0:0:0:0:
256,192,212440,1,8,0:0:0:0:
256,192,212616,1,8,0:0:0:0:
256,192,212791,1,0,0:0:0:0:
256,192,212879,1,8,0:0:0:0:
256,192,212967,1,0,0:0:0:0:
256,192,213142,1,8,0:0:0:0:
256,192,213317,1,0,0:0:0:0:
256,192,213405,1,8,0:0:0:0:
256,192,213493,1,0,0:0:0:0:
256,192,213581,1,8,0:0:0:0:
256,192,213668,1,0,0:0:0:0:
256,192,213844,1,8,0:0:0:0:
256,192,214019,1,0,0:0:0:0:
256,192,214370,1,0,0:0:0:0:
256,192,214721,1,8,0:0:0:0:
256,192,214896,1,0,0:0:0:0:
256,192,215247,1,8,0:0:0:0:
256,192,215510,1,8,0:0:0:0:
256,192,215598,1,0,0:0:0:0:
256,192,215686,1,8,0:0:0:0:
256,192,215774,1,0,0:0:0:0:
256,192,215949,1,8,0:0:0:0:
256,192,216124,1,0,0:0:0:0:
256,192,216300,1,8,0:0:0:0:
256,192,216475,1,8,0:0:0:0:
256,192,216563,1,8,0:0:0:0:
256,192,216651,1,8,0:0:0:0:
256,192,216826,1,8,0:0:0:0:
256,192,217002,1,8,0:0:0:0:
256,192,217265,1,8,0:0:0:0:
256,192,217353,1,0,0:0:0:0:
256,192,217440,1,8,0:0:0:0:
256,192,217528,1,8,0:0:0:0:
256,192,217791,1,8,0:0:0:0:
256,192,217967,1,0,0:0:0:0:
256,192,218054,1,8,0:0:0:0:
256,192,218230,1,8,0:0:0:0:
256,192,218288,1,8,0:0:0:0:
256,192,218347,1,8,0:0:0:0:
256,192,218405,1,0,0:0:0:0:
256,192,218493,1,0,0:0:0:0:
256,192,218668,1,0,0:0:0:0:
256,192,218756,1,8,0:0:0:0:
256,192,218931,1,0,0:0:0:0:
256,192,219019,1,8,0:0:0:0:
256,192,219107,1,0,0:0:0:0:
256,192,219282,1,8,0:0:0:0:
256,192,219458,1,0,0:0:0:0:
256,192,219633,1,0,0:0:0:0:
256,192,219721,1,0,0:0:0:0:
256,192,219809,1,8,0:0:0:0:
256,192,220072,1,0,0:0:0:0:
256,192,220160,1,8,0:0:0:0:
256,192,220423,1,0,0:0:0:0:
256,192,220510,1,8,0:0:0:0:
256,192,220774,1,0,0:0:0:0:
256,192,220861,1,8,0:0:0:0:
256,192,221124,1,0,0:0:0:0:
256,192,221212,1,8,0:0:0:0:
256,192,221388,1,8,0:0:0:0:
256,192,221563,1,8,0:0:0:0:
256,192,221738,1,0,0:0:0:0:
256,192,221914,1,8,0:0:0:0:
256,192,222265,1,8,0:0:0:0:
256,192,222440,1,8,0:0:0:0:
256,192,222528,1,8,0:0:0:0:
256,192,222616,1,0,0:0:0:0:
256,192,222791,1,0,0:0:0:0:
256,192,222879,1,0,0:0:0:0:
256,192,222967,1,0,0:0:0:0:
256,192,223317,1,8,0:0:0:0:
256,192,223668,1,8,0:0:0:0:
256,192,223844,1,8,0:0:0:0:
256,192,224019,1,0,0:0:0:0:
256,192,224195,1,0,0:0:0:0:
256,192,224282,1,0,0:0:0:0:
256,192,224370,1,0,0:0:0:0:
256,192,224546,1,0,0:0:0:0:
256,192,224721,1,8,0:0:0:0:
256,192,224896,1,0,0:0:0:0:
256,192,225130,1,8,0:0:0:0:
256,192,225189,1,0,0:0:0:0:
256,192,225423,1,0,0:0:0:0:
256,192,225686,1,0,0:0:0:0:
256,192,225774,1,8,0:0:0:0:
256,192,225949,1,0,0:0:0:0:
256,192,226212,1,0,0:0:0:0:
256,192,226300,1,8,0:0:0:0:
256,192,226475,1,0,0:0:0:0:
256,192,226563,1,8,0:0:0:0:
256,192,226651,1,0,0:0:0:0:
256,192,226738,1,0,0:0:0:0:
256,192,226826,1,8,0:0:0:0:
256,192,227089,1,8,0:0:0:0:
256,192,227265,1,0,0:0:0:0:
256,192,227353,1,8,0:0:0:0:
256,192,227528,1,0,0:0:0:0:
256,192,227703,1,8,0:0:0:0:
256,192,227879,1,8,0:0:0:0:
256,192,228054,1,8,0:0:0:0:
256,192,228230,1,8,0:0:0:0:
256,192,228405,1,0,0:0:0:0:
256,192,228493,1,0,0:0:0:0:
256,192,228668,1,0,0:0:0:0:
256,192,228756,1,8,0:0:0:0:
256,192,228931,1,0,0:0:0:0:
256,192,229195,1,8,0:0:0:0:
256,192,229370,1,0,0:0:0:0:
256,192,229458,1,0,0:0:0:0:
256,192,229633,1,8,0:0:0:0:
256,192,229809,1,0,0:0:0:0:
256,192,229984,1,8,0:0:0:0:
256,192,230247,1,8,0:0:0:0:
256,192,230335,1,0,0:0:0:0:
256,192,230510,1,0,0:0:0:0:
256,192,230598,1,0,0:0:0:0:
256,192,230686,1,8,0:0:0:0:
256,192,230744,1,8,0:0:0:0:
256,192,230803,1,8,0:0:0:0:
256,192,230861,1,8,0:0:0:0:
256,192,230920,1,8,0:0:0:0:
256,192,230978,1,8,0:0:0:0:
256,192,231037,1,0,0:0:0:0:
256,192,233844,1,12,0:0:0:0:
256,192,234019,1,0,0:0:0:0:
256,192,234107,1,8,0:0:0:0:
256,192,234195,1,8,0:0:0:0:
256,192,234370,1,8,0:0:0:0:
256,192,234458,1,0,0:0:0:0:
256,192,234546,1,8,0:0:0:0:
256,192,234633,1,0,0:0:0:0:
256,192,234721,1,8,0:0:0:0:
256,192,234809,1,8,0:0:0:0:
256,192,234896,1,0,0:0:0:0:
256,192,235072,1,8,0:0:0:0:
256,192,235160,1,8,0:0:0:0:
256,192,235247,1,0,0:0:0:0:
256,192,235423,1,8,0:0:0:0:
256,192,235510,1,0,0:0:0:0:
256,192,235598,1,8,0:0:0:0:
256,192,235686,1,8,0:0:0:0:
256,192,235774,1,0,0:0:0:0:
256,192,235861,1,0,0:0:0:0:
256,192,235949,1,8,0:0:0:0:
256,192,236124,1,0,0:0:0:0:
256,192,236212,1,0,0:0:0:0:
256,192,236300,1,8,0:0:0:0:
256,192,236475,1,8,0:0:0:0:
256,192,236563,1,8,0:0:0:0:
256,192,236651,1,8,0:0:0:0:
256,192,236826,1,8,0:0:0:0:
256,192,236914,1,8,0:0:0:0:
256,192,237002,1,0,0:0:0:0:
256,192,237177,1,8,0:0:0:0:
256,192,237236,1,8,0:0:0:0:
256,192,237294,1,8,0:0:0:0:
256,192,237353,1,0,0:0:0:0:
256,192,237440,1,8,0:0:0:0:
256,192,237528,1,8,0:0:0:0:
256,192,237616,1,0,0:0:0:0:
256,192,237703,1,8,0:0:0:0:
256,192,237879,1,8,0:0:0:0:
256,192,237967,1,0,0:0:0:0:
256,192,238054,1,8,0:0:0:0:
256,192,238142,1,8,0:0:0:0:
256,192,238230,1,0,0:0:0:0:
256,192,238405,1,0,0:0:0:0:
256,192,238493,1,8,0:0:0:0:
256,192,238581,1,0,0:0:0:0:
256,192,238668,1,8,0:0:0:0:
256,192,238756,1,8,0:0:0:0:
256,192,238931,1,8,0:0:0:0:
256,192,238990,1,0,0:0:0:0:
256,192,239048,1,0,0:0:0:0:
256,192,239107,1,8,0:0:0:0:
256,192,239195,1,0,0:0:0:0:
256,192,239282,1,8,0:0:0:0:
256,192,239370,1,8,0:0:0:0:
256,192,239458,1,8,0:0:0:0:
256,192,239633,1,8,0:0:0:0:
256,192,239721,1,8,0:0:0:0:
256,192,239809,1,0,0:0:0:0:
256,192,239984,1,8,0:0:0:0:
256,192,240072,1,0,0:0:0:0:
256,192,240160,1,8,0:0:0:0:
256,192,240247,1,0,0:0:0:0:
256,192,240335,1,8,0:0:0:0:
256,192,240510,1,8,0:0:0:0:
256,192,240598,1,8,0:0:0:0:
256,192,240686,1,0,0:0:0:0:
256,192,240861,1,8,0:0:0:0:
256,192,240949,1,0,0:0:0:0:
256,192,241037,1,8,0:0:0:0:
256,192,241124,1,0,0:0:0:0:
256,192,241212,1,0,0:0:0:0:
256,192,241300,1,8,0:0:0:0:
256,192,241388,1,8,0:0:0:0:
256,192,241475,1,0,0:0:0:0:
256,192,241563,1,8,0:0:0:0:
256,192,241738,1,0,0:0:0:0:
256,192,241826,1,8,0:0:0:0:
256,192,241914,1,0,0:0:0:0:
256,192,241972,1,0,0:0:0:0:
256,192,242031,1,0,0:0:0:0:
256,192,242089,1,0,0:0:0:0:
256,192,242265,1,8,0:0:0:0:
256,192,242440,1,8,0:0:0:0:
256,192,242528,1,8,0:0:0:0:
256,192,242616,1,0,0:0:0:0:
256,192,242791,1,8,0:0:0:0:
256,192,242850,1,8,0:0:0:0:
256,192,242908,1,8,0:0:0:0:
256,192,242967,1,0,0:0:0:0:
256,192,243054,1,8,0:0:0:0:
256,192,243142,1,0,0:0:0:0:
256,192,243230,1,8,0:0:0:0:
256,192,243317,1,8,0:0:0:0:
256,192,243493,1,0,0:0:0:0:
256,192,243581,1,0,0:0:0:0:
256,192,243668,1,8,0:0:0:0:
256,192,243756,1,0,0:0:0:0:
256,192,243844,1,8,0:0:0:0:
256,192,243931,1,8,0:0:0:0:
256,192,244019,1,0,0:0:0:0:
256,192,244195,1,8,0:0:0:0:
256,192,244282,1,0,0:0:0:0:
256,192,244370,1,0,0:0:0:0:
256,192,244458,1,8,0:0:0:0:
256,192,244546,1,8,0:0:0:0:
256,192,244633,1,8,0:0:0:0:
256,192,244721,1,0,0:0:0:0:
256,192,245072,1,8,0:0:0:0:
256,192,245247,1,8,0:0:0:0:
256,192,245335,1,0,0:0:0:0:
256,192,245423,1,8,0:0:0:0:
256,192,245598,1,8,0:0:0:0:
256,192,245686,1,0,0:0:0:0:
256,192,245774,1,0,0:0:0:0:
256,192,245861,1,0,0:0:0:0:
256,192,245949,1,8,0:0:0:0:
256,192,246037,1,8,0:0:0:0:
256,192,246124,1,8,0:0:0:0:
256,192,246300,1,8,0:0:0:0:
256,192,246388,1,8,0:0:0:0:
256,192,246475,1,0,0:0:0:0:
256,192,246651,1,8,0:0:0:0:
256,192,246738,1,0,0:0:0:0:
256,192,246826,1,0,0:0:0:0:
256,192,246914,1,0,0:0:0:0:
256,192,247002,1,8,0:0:0:0:
256,192,247089,1,0,0:0:0:0:
256,192,247177,1,8,0:0:0:0:
256,192,247353,1,0,0:0:0:0:
256,192,247440,1,0,0:0:0:0:
256,192,247528,1,8,0:0:0:0:
256,192,247703,1,8,0:0:0:0:
256,192,247791,1,8,0:0:0:0:
256,192,247879,1,8,0:0:0:0:
256,192,248054,1,8,0:0:0:0:
256,192,248142,1,8,0:0:0:0:
256,192,248230,1,0,0:0:0:0:
256,192,248405,1,8,0:0:0:0:
256,192,248464,1,8,0:0:0:0:
256,192,248522,1,8,0:0:0:0:
256,192,248581,1,0,0:0:0:0:
256,192,248668,1,8,0:0:0:0:
256,192,248756,1,8,0:0:0:0:
256,192,248844,1,0,0:0:0:0:
256,192,248931,1,8,0:0:0:0:
256,192,249107,1,8,0:0:0:0:
256,192,249195,1,8,0:0:0:0:
256,192,249282,1,0,0:0:0:0:
256,192,249370,1,8,0:0:0:0:
256,192,249458,1,0,0:0:0:0:
288,192,249546,1,0,0:0:0:0:
256,192,249633,1,8,0:0:0:0:
256,192,249721,1,8,0:0:0:0:
256,192,249809,1,0,0:0:0:0:
256,192,249896,1,8,0:0:0:0:
256,192,249984,1,8,0:0:0:0:
256,192,250160,1,8,0:0:0:0:
256,192,250247,1,0,0:0:0:0:
256,192,250335,1,8,0:0:0:0:
256,192,250423,1,0,0:0:0:0:
256,192,250510,1,8,0:0:0:0:
256,192,250598,1,8,0:0:0:0:
256,192,250686,1,8,0:0:0:0:
256,192,250861,1,8,0:0:0:0:
256,192,250949,1,8,0:0:0:0:
256,192,251037,1,0,0:0:0:0:
256,192,251124,1,8,0:0:0:0:
256,192,251212,1,8,0:0:0:0:
256,192,251300,1,0,0:0:0:0:
256,192,251388,1,8,0:0:0:0:
256,192,251475,1,0,0:0:0:0:
256,192,251563,1,8,0:0:0:0:
256,192,251738,1,8,0:0:0:0:
256,192,251826,1,8,0:0:0:0:
256,192,251914,1,0,0:0:0:0:
256,192,252089,1,0,0:0:0:0:
256,192,252177,1,8,0:0:0:0:
256,192,252265,1,0,0:0:0:0:
256,192,252353,1,8,0:0:0:0:
256,192,252440,1,8,0:0:0:0:
256,192,252616,1,8,0:0:0:0:
256,192,252703,1,0,0:0:0:0:
256,192,252791,1,8,0:0:0:0:
256,192,252967,1,0,0:0:0:0:
256,192,253054,1,8,0:0:0:0:
256,192,253142,1,0,0:0:0:0:
256,192,253200,1,0,0:0:0:0:
256,192,253259,1,0,0:0:0:0:
256,192,253317,1,0,0:0:0:0:
256,192,253493,1,8,0:0:0:0:
256,192,253668,1,0,0:0:0:0:
256,192,253756,1,8,0:0:0:0:
256,192,253844,1,8,0:0:0:0:
256,192,254019,1,8,0:0:0:0:
256,192,254078,1,8,0:0:0:0:
256,192,254136,1,8,0:0:0:0:
256,192,254195,1,0,0:0:0:0:
256,192,254282,1,8,0:0:0:0:
256,192,254370,1,0,0:0:0:0:
256,192,254458,1,8,0:0:0:0:
256,192,254546,1,8,0:0:0:0:
256,192,254633,1,8,0:0:0:0:
256,192,254721,1,0,0:0:0:0:
256,192,254896,1,8,0:0:0:0:
256,192,255072,1,0,0:0:0:0:
256,192,255160,1,8,0:0:0:0:
256,192,255247,1,8,0:0:0:0:
256,192,255335,1,0,0:0:0:0:
256,192,255423,1,8,0:0:0:0:
256,192,255510,1,0,0:0:0:0:
256,192,255598,1,8,0:0:0:0:
256,192,255686,1,8,0:0:0:0:
256,192,255774,1,0,0:0:0:0:
256,192,255861,1,0,0:0:0:0:
256,192,255949,1,8,0:0:0:0:
256,192,256300,1,12,0:0:0:0:
256,192,256475,1,0,0:0:0:0:
256,192,256563,1,8,0:0:0:0:
256,192,256651,1,8,0:0:0:0:
256,192,256826,1,8,0:0:0:0:
256,192,256914,1,0,0:0:0:0:
256,192,257002,1,8,0:0:0:0:
256,192,257089,1,0,0:0:0:0:
256,192,257177,1,8,0:0:0:0:
256,192,257265,1,8,0:0:0:0:
256,192,257353,1,8,0:0:0:0:
256,192,257528,1,8,0:0:0:0:
256,192,257616,1,8,0:0:0:0:
256,192,257703,1,0,0:0:0:0:
256,192,257879,1,8,0:0:0:0:
256,192,257967,1,0,0:0:0:0:
256,192,258054,1,8,0:0:0:0:
256,192,258142,1,8,0:0:0:0:
256,192,258230,1,0,0:0:0:0:
256,192,258317,1,0,0:0:0:0:
256,192,258405,1,8,0:0:0:0:
256,192,258493,1,0,0:0:0:0:
256,192,258581,1,8,0:0:0:0:
256,192,258668,1,8,0:0:0:0:
256,192,258756,1,8,0:0:0:0:
256,192,258931,1,8,0:0:0:0:
256,192,259019,1,8,0:0:0:0:
256,192,259107,1,8,0:0:0:0:
256,192,259195,1,0,0:0:0:0:
256,192,259282,1,8,0:0:0:0:
256,192,259370,1,8,0:0:0:0:
256,192,259458,1,0,0:0:0:0:
256,192,259633,1,8,0:0:0:0:
256,192,259692,1,8,0:0:0:0:
256,192,259750,1,8,0:0:0:0:
256,192,259809,1,0,0:0:0:0:
256,192,259896,1,8,0:0:0:0:
256,192,259984,1,8,0:0:0:0:
256,192,260072,1,0,0:0:0:0:
256,192,260160,1,8,0:0:0:0:
256,192,260335,1,8,0:0:0:0:
256,192,260423,1,0,0:0:0:0:
256,192,260510,1,8,0:0:0:0:
256,192,260598,1,0,0:0:0:0:
256,192,260686,1,8,0:0:0:0:
256,192,260861,1,0,0:0:0:0:
256,192,260949,1,8,0:0:0:0:
256,192,261037,1,0,0:0:0:0:
256,192,261124,1,8,0:0:0:0:
256,192,261212,1,8,0:0:0:0:
256,192,261300,1,0,0:0:0:0:
256,192,261388,1,8,0:0:0:0:
256,192,261475,1,0,0:0:0:0:
256,192,261563,1,8,0:0:0:0:
256,192,261651,1,0,0:0:0:0:
256,192,261738,1,8,0:0:0:0:
256,192,261826,1,8,0:0:0:0:
256,192,261914,1,8,0:0:0:0:
256,192,262089,1,8,0:0:0:0:
256,192,262177,1,8,0:0:0:0:
256,192,262265,1,0,0:0:0:0:
256,192,262353,1,0,0:0:0:0:
256,192,262440,1,8,0:0:0:0:
256,192,262528,1,0,0:0:0:0:
256,192,262616,1,8,0:0:0:0:
256,192,262703,1,8,0:0:0:0:
256,192,262791,1,8,0:0:0:0:
256,192,262967,1,8,0:0:0:0:
256,192,263054,1,0,0:0:0:0:
256,192,263142,1,8,0:0:0:0:
256,192,263230,1,0,0:0:0:0:
256,192,263317,1,0,0:0:0:0:
256,192,263405,1,8,0:0:0:0:
256,192,263493,1,8,0:0:0:0:
256,192,263581,1,0,0:0:0:0:
256,192,263668,1,8,0:0:0:0:
256,192,263844,1,8,0:0:0:0:
256,192,263931,1,0,0:0:0:0:
256,192,264019,1,8,0:0:0:0:
256,192,264195,1,0,0:0:0:0:
256,192,264282,1,8,0:0:0:0:
256,192,264370,1,0,0:0:0:0:
256,192,264429,1,0,0:0:0:0:
256,192,264487,1,0,0:0:0:0:
256,192,264546,1,0,0:0:0:0:
256,192,264721,1,8,0:0:0:0:
256,192,264809,1,0,0:0:0:0:
256,192,264896,1,0,0:0:0:0:
256,192,264984,1,8,0:0:0:0:
256,192,265072,1,8,0:0:0:0:
256,192,265247,1,8,0:0:0:0:
256,192,265306,1,8,0:0:0:0:
256,192,265364,1,8,0:0:0:0:
256,192,265423,1,0,0:0:0:0:
256,192,265510,1,8,0:0:0:0:
256,192,265598,1,0,0:0:0:0:
256,192,265686,1,8,0:0:0:0:
256,192,265774,1,8,0:0:0:0:
256,192,265861,1,8,0:0:0:0:
256,192,265949,1,0,0:0:0:0:
256,192,266124,1,8,0:0:0:0:
256,192,266300,1,8,0:0:0:0:
256,192,266388,1,8,0:0:0:0:
256,192,266475,1,0,0:0:0:0:
256,192,266563,1,0,0:0:0:0:
256,192,266651,1,8,0:0:0:0:
256,192,266738,1,0,0:0:0:0:
256,192,266826,1,0,0:0:0:0:
256,192,266914,1,8,0:0:0:0:
256,192,267002,1,8,0:0:0:0:
256,192,267089,1,8,0:0:0:0:
256,192,267177,1,0,0:0:0:0:
256,192,267528,1,8,0:0:0:0:
256,192,267703,1,8,0:0:0:0:
256,192,267791,1,0,0:0:0:0:
256,192,267879,1,8,0:0:0:0:
256,192,268054,1,8,0:0:0:0:
256,192,268142,1,8,0:0:0:0:
256,192,268230,1,0,0:0:0:0:
256,192,268317,1,0,0:0:0:0:
256,192,268405,1,8,0:0:0:0:
256,192,268493,1,8,0:0:0:0:
256,192,268581,1,8,0:0:0:0:
256,192,268668,1,0,0:0:0:0:
256,192,268756,1,8,0:0:0:0:
256,192,268844,1,8,0:0:0:0:
256,192,268931,1,0,0:0:0:0:
256,192,269107,1,8,0:0:0:0:
256,192,269195,1,0,0:0:0:0:
256,192,269282,1,0,0:0:0:0:
256,192,269370,1,0,0:0:0:0:
256,192,269458,1,8,0:0:0:0:
256,192,269546,1,8,0:0:0:0:
256,192,269633,1,8,0:0:0:0:
256,192,269721,1,0,0:0:0:0:
256,192,269809,1,8,0:0:0:0:
256,192,269896,1,0,0:0:0:0:
256,192,269984,1,8,0:0:0:0:
256,192,270160,1,8,0:0:0:0:
256,192,270247,1,8,0:0:0:0:
256,192,270335,1,8,0:0:0:0:
256,192,270423,1,0,0:0:0:0:
256,192,270510,1,8,0:0:0:0:
256,192,270598,1,8,0:0:0:0:
256,192,270686,1,0,0:0:0:0:
256,192,270861,1,8,0:0:0:0:
256,192,270920,1,8,0:0:0:0:
256,192,270978,1,8,0:0:0:0:
256,192,271037,1,0,0:0:0:0:
256,192,271124,1,8,0:0:0:0:
256,192,271212,1,8,0:0:0:0:
256,192,271300,1,0,0:0:0:0:
256,192,271388,1,8,0:0:0:0:
256,192,271563,1,8,0:0:0:0:
256,192,271651,1,0,0:0:0:0:
256,192,271738,1,0,0:0:0:0:
256,192,271826,1,8,0:0:0:0:
256,192,271914,1,8,0:0:0:0:
256,192,272002,1,0,0:0:0:0:
256,192,272089,1,0,0:0:0:0:
256,192,272177,1,8,0:0:0:0:
256,192,272265,1,0,0:0:0:0:
256,192,272353,1,8,0:0:0:0:
256,192,272440,1,8,0:0:0:0:
256,192,272616,1,8,0:0:0:0:
256,192,272703,1,0,0:0:0:0:
256,192,272791,1,8,0:0:0:0:
256,192,272879,1,0,0:0:0:0:
256,192,272967,1,8,0:0:0:0:
256,192,273054,1,8,0:0:0:0:
256,192,273142,1,8,0:0:0:0:
256,192,273317,1,8,0:0:0:0:
256,192,273405,1,8,0:0:0:0:
256,192,273493,1,0,0:0:0:0:
256,192,273581,1,8,0:0:0:0:
256,192,273668,1,8,0:0:0:0:
256,192,273756,1,0,0:0:0:0:
256,192,273844,1,8,0:0:0:0:
256,192,273931,1,0,0:0:0:0:
256,192,274019,1,8,0:0:0:0:
256,192,274107,1,0,0:0:0:0:
256,192,274195,1,8,0:0:0:0:
256,192,274282,1,8,0:0:0:0:
256,192,274370,1,0,0:0:0:0:
256,192,274546,1,8,0:0:0:0:
256,192,274633,1,0,0:0:0:0:
256,192,274721,1,8,0:0:0:0:
256,192,274809,1,8,0:0:0:0:
256,192,274896,1,8,0:0:0:0:
256,192,274984,1,0,0:0:0:0:
256,192,275072,1,8,0:0:0:0:
256,192,275160,1,0,0:0:0:0:
256,192,275247,1,8,0:0:0:0:
256,192,275335,1,0,0:0:0:0:
256,192,275423,1,8,0:0:0:0:
256,192,275510,1,8,0:0:0:0:
256,192,275598,1,8,0:0:0:0:
256,192,275861,1,0,0:0:0:0:
256,192,275949,1,8,0:0:0:0:
256,192,276037,1,0,0:0:0:0:
256,192,276124,1,8,0:0:0:0:
256,192,276212,1,8,0:0:0:0:
256,192,276300,1,8,0:0:0:0:
256,192,276388,1,0,0:0:0:0:
256,192,276475,1,0,0:0:0:0:
256,192,276563,1,8,0:0:0:0:
256,192,276651,1,8,0:0:0:0:
256,192,276738,1,0,0:0:0:0:
256,192,276826,1,0,0:0:0:0:
256,192,276914,1,8,0:0:0:0:
256,192,277002,1,8,0:0:0:0:
256,192,277089,1,8,0:0:0:0:
256,192,277177,1,8,0:0:0:0:
256,192,277353,1,8,0:0:0:0:
256,192,277440,1,0,0:0:0:0:
256,192,277528,1,8,0:0:0:0:
256,192,277616,1,8,0:0:0:0:
256,192,277703,1,0,0:0:0:0:
256,192,277791,1,0,0:0:0:0:
256,192,277879,1,8,0:0:0:0:
256,192,277967,1,0,0:0:0:0:
256,192,278054,1,0,0:0:0:0:
256,192,278142,1,8,0:0:0:0:
256,192,278230,1,8,0:0:0:0:
256,192,278317,1,8,0:0:0:0:
256,192,278405,1,8,0:0:0:0:
256,192,278745,1,0,0:0:0:0:
256,192,279008,1,0,0:0:0:0:
256,192,279095,1,8,0:0:0:0:
256,192,279359,1,0,0:0:0:0:
256,192,279534,1,0,0:0:0:0:
256,192,279622,1,8,0:0:0:0:
256,192,279885,1,0,0:0:0:0:
256,192,280060,1,0,0:0:0:0:
256,192,280148,1,8,0:0:0:0:
256,192,280411,1,0,0:0:0:0:
256,192,280587,1,0,0:0:0:0:
256,192,280674,1,0,0:0:0:0:
256,192,280850,1,0,0:0:0:0:
256,192,281025,1,8,0:0:0:0:
256,192,281201,1,0,0:0:0:0:
256,192,281376,1,8,0:0:0:0:
256,192,281552,1,0,0:0:0:0:
256,192,281727,1,0,0:0:0:0:
256,192,281815,1,0,0:0:0:0:
256,192,281902,1,8,0:0:0:0:
256,192,282166,1,0,0:0:0:0:
256,192,282341,1,0,0:0:0:0:
256,192,282429,1,8,0:0:0:0:
256,192,282604,1,0,0:0:0:0:
256,192,282692,1,0,0:0:0:0:
256,192,282780,1,0,0:0:0:0:
256,192,282867,1,0,0:0:0:0:
256,192,282955,1,8,0:0:0:0:
256,192,283218,1,8,0:0:0:0:
256,192,283481,1,8,0:0:0:0:
256,192,283657,1,0,0:0:0:0:
256,192,283745,1,0,0:0:0:0:
256,192,283832,1,8,0:0:0:0:
256,192,284008,1,0,0:0:0:0:
256,192,284095,1,8,0:0:0:0:
256,192,284183,1,0,0:0:0:0:
256,192,284271,1,0,0:0:0:0:
256,192,284359,1,0,0:0:0:0:
256,192,284622,1,0,0:0:0:0:
256,192,284885,1,0,0:0:0:0:
256,192,285060,1,8,0:0:0:0:
256,192,285323,1,0,0:0:0:0:
256,192,285411,1,8,0:0:0:0:
256,192,285762,1,8,0:0:0:0:
256,192,286025,1,8,0:0:0:0:
256,192,286288,1,8,0:0:0:0:
256,192,286464,1,0,0:0:0:0:
256,192,286639,1,0,0:0:0:0:
256,192,286727,1,0,0:0:0:0:
256,192,286815,1,8,0:0:0:0:
256,192,287166,1,0,0:0:0:0:
256,192,287429,1,0,0:0:0:0:
256,192,287516,1,8,0:0:0:0:
256,192,287780,1,0,0:0:0:0:
256,192,287867,1,8,0:0:0:0:
256,192,288043,1,8,0:0:0:0:
256,192,288218,1,8,0:0:0:0:
256,192,288306,1,8,0:0:0:0:
256,192,288394,1,8,0:0:0:0:
256,192,288452,1,8,0:0:0:0:
256,192,288511,1,8,0:0:0:0:
256,192,288569,1,0,0:0:0:0:
256,192,288920,1,8,0:0:0:0:
256,192,289095,1,8,0:0:0:0:
256,192,289183,1,8,0:0:0:0:
256,192,289359,1,0,0:0:0:0:
256,192,289446,1,0,0:0:0:0:
256,192,289622,2,0,L|352:192,1,70
256,192,289973,1,0,0:0:0:0:
256,192,290148,1,0,0:0:0:0:
256,192,290236,1,0,0:0:0:0:
256,192,290323,1,0,0:0:0:0:
256,192,290674,1,8,0:0:0:0:
256,192,291025,1,8,0:0:0:0:
256,192,291201,1,8,0:0:0:0:
256,192,291376,1,0,0:0:0:0:
256,192,291552,1,0,0:0:0:0:
256,192,291639,1,0,0:0:0:0:
256,192,291727,1,0,0:0:0:0:
256,192,291902,1,0,0:0:0:0:
256,192,292078,1,8,0:0:0:0:
256,192,292253,1,0,0:0:0:0:
256,192,292487,1,8,0:0:0:0:
256,192,292546,1,0,0:0:0:0:
256,192,292780,1,0,0:0:0:0:
256,192,293043,1,0,0:0:0:0:
256,192,293130,1,8,0:0:0:0:
256,192,293306,1,0,0:0:0:0:
256,192,293569,1,0,0:0:0:0:
256,192,293657,1,8,0:0:0:0:
256,192,293832,1,0,0:0:0:0:
256,192,293920,1,8,0:0:0:0:
256,192,294008,1,0,0:0:0:0:
256,192,294095,1,0,0:0:0:0:
256,192,294183,1,8,0:0:0:0:
256,192,294446,1,8,0:0:0:0:
256,192,294622,1,0,0:0:0:0:
256,192,294709,1,8,0:0:0:0:
256,192,294885,1,0,0:0:0:0:
256,192,295060,1,8,0:0:0:0:
256,192,295236,1,8,0:0:0:0:
256,192,295411,1,8,0:0:0:0:
256,192,295587,1,8,0:0:0:0:
256,192,295850,1,0,0:0:0:0:
256,192,296025,1,0,0:0:0:0:
256,192,296113,1,8,0:0:0:0:
256,192,296288,1,0,0:0:0:0:
256,192,296552,1,8,0:0:0:0:
256,192,296727,1,0,0:0:0:0:
256,192,296815,1,0,0:0:0:0:
256,192,296990,1,8,0:0:0:0:
256,192,297166,1,0,0:0:0:0:
256,192,297341,1,8,0:0:0:0:
256,192,297604,1,0,0:0:0:0:
256,192,297692,1,0,0:0:0:0:
256,192,297867,1,0,0:0:0:0:
256,192,297955,1,0,0:0:0:0:
256,192,298218,1,0,0:0:0:0:
256,192,298394,1,8,0:0:0:0:
256,192,298657,1,8,0:0:0:0:
256,192,298832,1,0,0:0:0:0:
256,192,298920,1,8,0:0:0:0:
256,192,299183,1,0,0:0:0:0:
256,192,299359,1,0,0:0:0:0:
256,192,299446,1,8,0:0:0:0:
256,192,299622,1,8,0:0:0:0:
256,192,299797,1,8,0:0:0:0:
256,192,299973,1,0,0:0:0:0:
256,192,300148,1,8,0:0:0:0:
256,192,300323,1,0,0:0:0:0:
256,192,300411,1,0,0:0:0:0:
256,192,300499,1,0,0:0:0:0:
256,192,300587,1,0,0:0:0:0:
256,192,300674,1,0,0:0:0:0:
256,192,300733,1,0,0:0:0:0:
256,192,300791,1,0,0:0:0:0:
256,192,300850,1,8,0:0:0:0:
256,192,301201,1,8,0:0:0:0:
256,192,301464,1,0,0:0:0:0:
256,192,301552,1,8,0:0:0:0:
256,192,301902,1,8,0:0:0:0:
256,192,302253,1,8,0:0:0:0:
256,192,302429,1,8,0:0:0:0:
256,192,302604,1,0,0:0:0:0:
256,192,302692,1,8,0:0:0:0:
256,192,302780,1,0,0:0:0:0:
256,192,302955,1,8,0:0:0:0:
256,192,303130,1,0,0:0:0:0:
256,192,303218,1,8,0:0:0:0:
256,192,303306,1,0,0:0:0:0:
256,192,303394,1,0,0:0:0:0:
256,192,303481,1,0,0:0:0:0:
256,192,303657,1,8,0:0:0:0:
256,192,303832,1,0,0:0:0:0:
256,192,304183,1,0,0:0:0:0:
256,192,304534,1,8,0:0:0:0:
256,192,304709,1,0,0:0:0:0:
256,192,305060,1,8,0:0:0:0:
256,192,305323,1,8,0:0:0:0:
256,192,305499,1,8,0:0:0:0:
256,192,305587,1,0,0:0:0:0:
256,192,305762,1,8,0:0:0:0:
256,192,305937,1,0,0:0:0:0:
256,192,306113,1,8,0:0:0:0:
256,192,306288,1,0,0:0:0:0:
256,192,306376,1,0,0:0:0:0:
256,192,306464,1,8,0:0:0:0:
256,192,306639,1,8,0:0:0:0:
256,192,306815,1,8,0:0:0:0:
256,192,307078,1,8,0:0:0:0:
256,192,307253,1,0,0:0:0:0:
256,192,307341,1,8,0:0:0:0:
256,192,307604,1,8,0:0:0:0:
256,192,307780,1,0,0:0:0:0:
256,192,307867,1,0,0:0:0:0:
256,192,308043,1,8,0:0:0:0:
256,192,308130,1,8,0:0:0:0:
256,192,308218,1,0,0:0:0:0:
256,192,308306,1,0,0:0:0:0:
256,192,308481,1,0,0:0:0:0:
256,192,308569,1,8,0:0:0:0:
256,192,308745,1,0,0:0:0:0:
256,192,308832,1,0,0:0:0:0:
256,192,308920,1,0,0:0:0:0:
256,192,309095,1,8,0:0:0:0:
256,192,309271,1,0,0:0:0:0:
256,192,309446,1,0,0:0:0:0:
256,192,309534,1,0,0:0:0:0:
256,192,309622,1,8,0:0:0:0:
256,192,309885,1,0,0:0:0:0:
256,192,309973,1,8,0:0:0:0:
256,192,310236,1,0,0:0:0:0:
256,192,310323,1,8,0:0:0:0:
256,192,310587,1,0,0:0:0:0:
256,192,310674,1,8,0:0:0:0:
256,192,310937,1,0,0:0:0:0:
256,192,311025,1,8,0:0:0:0:
256,192,311201,1,8,0:0:0:0:
256,192,311376,1,0,0:0:0:0:
256,192,311727,1,8,0:0:0:0:
256,192,312078,1,8,0:0:0:0:
256,192,312253,1,8,0:0:0:0:
256,192,312341,1,8,0:0:0:0:
256,192,312429,1,0,0:0:0:0:
256,192,312604,1,0,0:0:0:0:
256,192,312692,1,0,0:0:0:0:
256,192,312780,1,0,0:0:0:0:
256,192,313130,1,8,0:0:0:0:
256,192,313481,1,8,0:0:0:0:
256,192,313657,1,8,0:0:0:0:
256,192,313832,1,0,0:0:0:0:
256,192,314008,1,0,0:0:0:0:
256,192,314095,1,0,0:0:0:0:
256,192,314183,1,0,0:0:0:0:
256,192,314359,1,0,0:0:0:0:
256,192,314534,1,8,0:0:0:0:
256,192,314709,1,0,0:0:0:0:
256,192,314885,1,8,0:0:0:0:
256,192,315236,1,0,0:0:0:0:
256,192,315499,1,0,0:0:0:0:
256,192,315587,1,8,0:0:0:0:
256,192,315762,1,0,0:0:0:0:
256,192,316025,1,0,0:0:0:0:
256,192,316113,1,8,0:0:0:0:
256,192,316288,1,0,0:0:0:0:
256,192,316376,1,8,0:0:0:0:
256,192,316464,1,0,0:0:0:0:
256,192,316639,1,8,0:0:0:0:
256,192,316902,1,8,0:0:0:0:
256,192,317078,1,0,0:0:0:0:
256,192,317166,1,8,0:0:0:0:
256,192,317341,1,0,0:0:0:0:
256,192,317516,1,8,0:0:0:0:
256,192,317692,1,8,0:0:0:0:
256,192,317867,1,8,0:0:0:0:
256,192,318043,1,0,0:0:0:0:
256,192,318130,1,0,0:0:0:0:
256,192,318218,1,0,0:0:0:0:
256,192,318394,1,8,0:0:0:0:
256,192,318745,1,0,0:0:0:0:
256,192,318920,1,0,0:0:0:0:
256,192,319008,1,8,0:0:0:0:
256,192,319183,1,0,0:0:0:0:
256,192,319271,1,0,0:0:0:0:
256,192,319446,1,8,0:0:0:0:
256,192,319622,1,0,0:0:0:0:
256,192,319797,1,8,0:0:0:0:
256,192,319973,1,8,0:0:0:0:
256,192,320148,1,0,0:0:0:0:
256,192,320323,1,0,0:0:0:0:
256,192,320411,1,0,0:0:0:0:
256,192,320499,2,0,L|416:192,1,140
256,192,321201,1,8,0:0:0:0:
256,192,321376,8,0,323657,0:0:0:0:
