osu file format v14

[General]
AudioFilename: goreshit - mlsfaw - 09 shit yourself for fun.mp3
AudioLeadIn: 0
PreviewTime: 24442
Countdown: 1
SampleSet: None
StackLeniency: 0.2
Mode: 0
LetterboxInBreaks: 1
WidescreenStoryboard: 1

[Editor]
Bookmarks: 12213,24442,36671,48901,61129,73359,77945,102404,126862
DistanceSpacing: 2
BeatDivisor: 8
GridSize: 4
TimelineZoom: 5.099998

[Metadata]
Title:shit yourself for fun
TitleUnicode:shit yourself for fun
Artist:goreshit
ArtistUnicode:goreshit
Creator:Victoire
Version:vctr
Source:
Tags:
BeatmapID:1691817
BeatmapSetID:806011

[Difficulty]
HPDrainRate:5
CircleSize:3.6
OverallDifficulty:10
ApproachRate:10
SliderMultiplier:2.8
SliderTickRate:1

[Events]
//Background and Video events
0,0,"dokuro.png",0,0
//Break Periods
//Storyboard Layer 0 (Background)
//Storyboard Layer 1 (Fail)
//Storyboard Layer 2 (Pass)
//Storyboard Layer 3 (Foreground)
//Storyboard Sound Samples

[TimingPoints]
-16,382.165605095541,4,1,0,100,1,0
48901,-166.666666666667,4,1,0,100,0,0
50812,-66.6666666666667,4,1,0,100,0,0
51194,-166.666666666667,4,1,0,100,0,0
51576,-66.6666666666667,4,1,0,100,0,0
51958,-166.666666666667,4,1,0,100,0,0
53487,-66.6666666666667,4,1,0,100,0,0
54251,-166.666666666667,4,1,0,100,0,0
56926,-66.6666666666667,4,1,0,100,0,0
57308,-166.666666666667,4,1,0,100,0,0
57691,-66.6666666666667,4,1,0,100,0,0
58073,-166.666666666667,4,1,0,100,0,0
59601,-66.6666666666667,4,1,0,100,0,0
60366,-166.666666666667,4,1,0,100,0,0
67245,-125,4,1,0,100,0,0
75652,-66.6666666666667,4,1,0,100,0,0
77945,-80,4,1,0,100,0,0
126862,-80,4,1,0,5,0,0
127245,-80,4,1,0,100,0,0
127627,-166.666666666667,4,1,0,100,0,0
128009,-80,4,1,0,100,0,0

[HitObjects]
152,115,366,6,0,L|152:284,1,140
226,328,652,1,0,0:0:0:0:
53,218,748,2,0,L|53:341,1,70
246,211,939,2,0,L|246:141,1,70
55,45,1130,5,0,0:0:0:0:
256,45,1321,5,0,0:0:0:0:
457,45,1512,6,0,L|457:214,1,140
383,258,1799,1,0,0:0:0:0:
362,71,1894,2,0,L|362:194,1,70
473,352,2085,5,0,0:0:0:0:
367,352,2181,1,0,0:0:0:0:
262,352,2276,2,0,L|173:352,1,70
489,258,2563,5,0,0:0:0:0:
383,258,2659,1,0,0:0:0:0:
277,258,2754,1,0,0:0:0:0:
171,258,2850,2,0,L|82:258,1,70
175,30,3041,5,0,0:0:0:0:
175,30,3232,5,0,0:0:0:0:
279,30,3327,1,0,0:0:0:0:
225,191,3423,2,0,L|225:121,1,70
383,30,3614,1,0,0:0:0:0:
132,129,3805,5,0,0:0:0:0:
319,129,3996,5,0,0:0:0:0:
506,129,4187,6,0,L|506:298,1,140
415,151,4474,1,0,0:0:0:0:
439,61,4569,1,0,0:0:0:0:
288,343,4761,5,0,0:0:0:0:
288,238,4857,1,0,0:0:0:0:
378,290,4952,1,0,0:0:0:0:
98,371,5143,6,0,L|98:297,1,70
98,46,5334,1,0,0:0:0:0:
193,269,5429,2,0,L|193:343,1,70
7,278,5620,1,0,0:0:0:0:
49,181,5716,5,0,0:0:0:0:
151,156,5812,1,0,0:0:0:0:
252,132,5907,1,0,0:0:0:0:
354,108,6003,1,0,0:0:0:0:
455,85,6098,5,0,0:0:0:0:
285,255,6385,5,0,0:0:0:0:
488,208,6480,2,0,L|488:352,1,140
252,132,6862,6,0,L|252:62,1,70
33,264,7054,1,0,0:0:0:0:
134,237,7150,1,0,0:0:0:0:
60,164,7245,2,0,L|60:-8,1,140
109,342,7531,5,0,0:0:0:0:
240,243,7627,2,0,L|240:383,1,140
371,144,7913,1,0,0:0:0:0:
502,45,8009,2,0,L|502:185,1,140
342,316,8296,5,0,0:0:0:0:
432,263,8392,1,0,0:0:0:0:
432,368,8487,1,0,0:0:0:0:
250,32,8678,5,0,0:0:0:0:
351,58,8774,1,0,0:0:0:0:
276,132,8869,1,0,0:0:0:0:
175,106,8964,1,0,0:0:0:0:
74,80,9060,1,0,0:0:0:0:
100,180,9155,1,0,0:0:0:0:
100,180,9347,5,0,0:0:0:0:
149,6,9442,1,0,0:0:0:0:
256,256,9538,2,0,L|256:357,1,70
51,354,9729,1,0,0:0:0:0:
28,256,9920,5,0,0:0:0:0:
256,256,10111,1,0,0:0:0:0:
484,256,10302,6,0,L|484:116,1,140
389,298,10589,1,0,0:0:0:0:
475,360,10684,1,0,0:0:0:0:
169,198,10875,5,0,0:0:0:0:
264,156,10971,1,0,0:0:0:0:
178,94,11066,1,0,0:0:0:0:
486,13,11257,5,0,0:0:0:0:
486,13,11353,1,0,0:0:0:0:
394,62,11448,1,0,0:0:0:0:
484,116,11544,2,0,L|484:190,1,70
484,358,11735,5,0,0:0:0:0:
378,358,11831,1,0,0:0:0:0:
273,358,11926,2,0,L|273:288,1,70
146,30,12117,5,0,0:0:0:0:
146,136,12213,2,0,L|146:290,1,140
146,276,12499,2,0,L|146:136,1,140
57,194,12786,6,0,L|57:348,1,140
57,334,13072,2,0,L|57:206,1,70
57,106,13264,5,0,0:0:0:0:
233,106,13359,2,0,L|233:260,1,140
233,246,13645,2,0,L|233:106,1,140
321,185,13933,6,0,L|321:339,1,140
321,325,14219,2,0,L|321:185,1,140
321,51,14506,1,0,0:0:0:0:
425,51,14601,6,0,L|425:179,1,70
425,370,14792,6,0,L|425:230,1,140
425,230,15080,2,0,L|425:342,1,70
241,333,15270,6,0,L|93:333,1,140
101,333,15557,1,0,0:0:0:0:
241,230,15652,6,0,L|310:230,1,70
425,230,15843,1,0,0:0:0:0:
425,61,16034,6,0,L|355:61,1,70
249,60,16225,2,0,L|179:60,1,70
3,60,16416,2,0,L|73:60,1,70
249,60,16608,1,0,0:0:0:0:
249,230,16703,6,0,L|101:230,1,140
109,230,16990,2,0,L|249:230,1,140
335,317,17276,6,0,L|187:317,1,140
195,317,17563,2,0,L|314:317,1,70
467,317,17754,5,0,0:0:0:0:
467,317,17850,1,0,0:0:0:0:
467,212,17945,2,0,L|393:212,1,70
291,112,18136,2,0,L|217:112,1,70
112,13,18328,6,0,L|112:167,1,140
112,153,18614,2,0,L|112:13,1,140
20,193,18901,6,0,L|20:347,1,140
20,333,19187,2,0,L|20:216,1,70
20,108,19378,1,0,0:0:0:0:
202,108,19474,6,0,L|202:262,1,140
202,248,19760,2,0,L|202:108,1,140
299,203,20047,6,0,L|299:357,1,140
299,343,20333,2,0,L|299:203,1,140
299,97,20620,1,0,0:0:0:0:
97,171,20716,6,0,L|97:248,1,70
97,353,20907,1,0,0:0:0:0:
202,353,21003,1,0,0:0:0:0:
202,248,21098,1,0,0:0:0:0:
202,142,21194,2,0,L|202:72,1,70
416,72,21385,5,0,0:0:0:0:
416,92,21671,1,0,0:0:0:0:
416,113,21958,1,0,0:0:0:0:
416,134,22245,1,0,0:0:0:0:
416,154,22531,1,0,0:0:0:0:
444,84,22818,5,0,0:0:0:0:
430,98,23104,1,0,0:0:0:0:
416,113,23391,1,0,0:0:0:0:
401,127,23678,5,0,0:0:0:0:
247,128,23773,1,0,0:0:0:0:
386,141,23869,5,0,0:0:0:0:
231,141,23964,1,0,0:0:0:0:
372,155,24060,5,0,0:0:0:0:
217,155,24155,1,0,0:0:0:0:
358,169,24251,5,0,0:0:0:0:
203,169,24346,1,0,0:0:0:0:
48,169,24442,6,0,B|48:280|48:280|64:308,1,140
182,338,24729,1,0,0:0:0:0:
295,359,24824,2,0,B|295:248|295:248|279:220,1,140
50,23,25111,5,0,0:0:0:0:
137,81,25206,2,0,P|175:93|237:92,1,70
310,80,25398,2,0,P|343:58|382:10,1,70
408,234,25589,6,0,B|408:345|408:345|424:373,1,140
494,234,25875,1,0,0:0:0:0:
494,143,25971,6,0,B|383:143|383:143|355:159,1,140
246,235,26257,1,0,0:0:0:0:
136,319,26353,2,0,B|110:333|110:333|0:333,1,140
147,146,26640,5,0,0:0:0:0:
90,252,26736,1,0,0:0:0:0:
24,151,26831,2,0,B|24:40|24:40|40:12,1,140
346,79,27117,5,0,0:0:0:0:
232,152,27212,1,0,0:0:0:0:
282,26,27308,1,0,0:0:0:0:
318,158,27403,1,0,0:0:0:0:
211,71,27499,6,0,P|177:49|138:1,1,70
318,158,27691,5,0,0:0:0:0:
354,255,27786,2,0,P|352:294|330:352,1,70
448,218,27977,5,0,0:0:0:0:
260,276,28073,2,0,P|225:275|192:267,1,70
457,149,28264,6,0,P|455:188|433:246,1,70
263,365,28455,5,0,0:0:0:0:
238,194,28550,2,0,P|239:154|261:96,1,70
109,208,28741,5,0,0:0:0:0:
50,68,28837,1,0,0:0:0:0:
10,168,28933,1,0,0:0:0:0:
147,110,29028,6,0,B|172:95|172:95|283:95,1,140
410,95,29315,1,0,0:0:0:0:
488,194,29410,2,0,B|463:209|463:209|352:209,1,140
248,209,29697,5,0,0:0:0:0:
319,364,29792,2,0,L|341:293,1,70
248,209,29983,2,0,L|226:138,1,70
164,199,30175,5,0,0:0:0:0:
290,85,30270,1,0,0:0:0:0:
151,180,30366,1,0,0:0:0:0:
302,103,30461,1,0,0:0:0:0:
138,161,30557,6,0,B|113:146|113:146|2:146,1,140
100,315,30843,2,0,B|125:330|125:330|236:330,1,140
459,230,31130,6,0,B|474:205|474:205|474:94,1,140
367,179,31417,2,0,B|352:204|352:204|352:315,1,140
476,362,31703,1,0,0:0:0:0:
92,181,31894,5,0,0:0:0:0:
188,220,31990,1,0,0:0:0:0:
174,116,32085,2,0,B|149:101|149:101|38:101,1,140
188,220,32372,5,0,0:0:0:0:
270,154,32468,2,0,B|285:129|285:129|285:18,1,140
370,324,32754,5,0,0:0:0:0:
388,221,32849,1,0,0:0:0:0:
290,257,32945,2,0,P|275:294|272:356,1,70
468,290,33136,1,0,0:0:0:0:
512,81,33232,5,0,0:0:0:0:
383,39,33327,1,0,0:0:0:0:
463,149,33423,1,0,0:0:0:0:
463,13,33519,1,0,0:0:0:0:
383,123,33614,6,0,P|344:112|293:76,1,70
198,7,33805,5,0,0:0:0:0:
203,240,33901,2,0,P|192:201|198:139,1,70
78,94,34092,5,0,0:0:0:0:
73,327,34187,2,0,P|83:288|77:226,1,70
88,25,34378,6,0,P|77:63|83:125,1,70
203,240,34569,5,0,0:0:0:0:
340,176,34665,2,0,P|301:165|239:171,1,70
419,342,34856,5,0,0:0:0:0:
425,192,34952,1,0,0:0:0:0:
346,262,35047,1,0,0:0:0:0:
495,270,35143,6,0,B|510:245|510:245|510:134,1,140
485,11,35429,1,0,0:0:0:0:
248,60,35525,2,0,B|273:75|273:75|384:75,1,140
146,124,35812,1,0,0:0:0:0:
148,10,35907,6,0,P|109:0|47:5,1,70
144,238,36098,2,0,P|182:248|244:242,1,70
241,168,36289,5,0,0:0:0:0:
183,328,36385,1,0,0:0:0:0:
219,163,36480,1,0,0:0:0:0:
204,332,36576,1,0,0:0:0:0:
263,173,36671,6,0,B|288:158|288:158|399:158,1,140
499,248,36958,2,0,B|474:263|474:263|363:263,1,140
144,238,37245,6,0,B|129:213|129:213|129:102,1,140
12,25,37531,2,0,B|27:50|27:50|27:161,1,140
107,327,37818,2,0,P|145:337|207:331,1,70
269,127,38009,2,0,P|240:155|214:211,1,70
412,360,38200,5,0,0:0:0:0:
433,256,38296,1,0,0:0:0:0:
330,235,38392,1,0,0:0:0:0:
308,337,38487,1,0,0:0:0:0:
491,121,38582,5,0,0:0:0:0:
401,69,38677,1,0,0:0:0:0:
401,174,38773,1,0,0:0:0:0:
307,29,38869,5,0,0:0:0:0:
269,127,38964,1,0,0:0:0:0:
204,45,39060,2,0,P|179:76|158:134,1,70
156,295,39251,1,0,0:0:0:0:
210,221,39347,5,0,0:0:0:0:
102,369,39442,1,0,0:0:0:0:
189,209,39538,5,0,0:0:0:0:
122,380,39633,1,0,0:0:0:0:
168,197,39729,6,0,B|143:212|143:212|32:212,1,140
99,0,40015,6,0,B|114:25|114:25|114:136,1,140
259,304,40302,2,0,P|298:308|358:295,1,70
459,168,40493,6,0,B|444:193|444:193|444:304,1,140
302,215,40780,2,0,B|317:190|317:190|317:79,1,140
40,92,41066,5,0,0:0:0:0:
183,128,41162,1,0,0:0:0:0:
130,37,41257,1,0,0:0:0:0:
94,182,41353,1,0,0:0:0:0:
217,377,41448,5,0,0:0:0:0:
127,325,41544,1,0,0:0:0:0:
217,272,41640,2,0,B|242:257|242:257|353:257,1,140
346,107,41926,5,0,0:0:0:0:
435,174,42022,2,0,P|473:185|534:183,1,70
346,107,42213,5,0,0:0:0:0:
440,84,42308,1,0,0:0:0:0:
252,130,42404,2,0,P|212:132|152:116,1,70
222,53,42595,5,0,0:0:0:0:
163,205,42691,1,0,0:0:0:0:
61,77,42786,6,0,B|76:102|76:102|76:213,1,140
24,350,43073,2,0,B|49:335|49:335|160:335,1,140
289,335,43359,6,0,B|400:335|400:335|425:320,1,140
386,105,43646,2,0,B|371:130|371:130|371:241,1,140
469,168,43933,6,0,P|482:131|483:68,1,70
278,53,44124,2,0,P|273:87|260:120,1,70
56,219,44315,5,0,0:0:0:0:
155,126,44411,1,0,0:0:0:0:
130,260,44506,1,0,0:0:0:0:
72,136,44602,1,0,0:0:0:0:
356,205,44697,5,0,0:0:0:0:
261,320,44793,1,0,0:0:0:0:
251,214,44888,1,0,0:0:0:0:
505,352,44983,5,0,0:0:0:0:
407,315,45079,1,0,0:0:0:0:
489,248,45175,2,0,B|474:223|474:223|474:112,1,140
326,38,45461,5,0,0:0:0:0:
356,205,45557,1,0,0:0:0:0:
304,44,45652,5,0,0:0:0:0:
377,198,45748,1,0,0:0:0:0:
282,50,45843,6,0,B|257:65|257:65|146:65,1,140
0,197,46130,2,0,B|25:212|25:212|136:212,1,140
256,167,46417,6,0,P|254:207|270:267,1,70
446,349,46608,2,0,B|461:324|461:324|461:213,1,140
389,64,46894,2,0,B|374:89|374:89|374:200,1,140
285,333,47181,6,0,P|245:335|185:319,1,70
69,154,47372,5,0,0:0:0:0:
171,243,47468,1,0,0:0:0:0:
36,231,47563,1,0,0:0:0:0:
153,161,47659,1,0,0:0:0:0:
100,287,47754,5,0,0:0:0:0:
242,199,47850,1,0,0:0:0:0:
85,295,47945,5,0,0:0:0:0:
256,190,48041,1,0,0:0:0:0:
51,72,48136,5,0,0:0:0:0:
186,84,48232,1,0,0:0:0:0:
69,154,48327,1,0,0:0:0:0:
122,28,48423,1,0,0:0:0:0:
153,161,48519,6,0,L|164:224,7,35
182,295,48901,6,0,P|196:314|227:335,1,41.9999987182618
196,313,49187,6,0,P|214:327|249:340,1,41.9999987182618
214,326,49474,6,0,P|236:335|273:338,1,41.9999987182618
235,334,49761,6,0,P|258:337|295:330,1,41.9999987182618
257,336,50047,6,0,P|280:333|314:317,1,41.9999987182618
336,194,50238,5,0,0:0:0:0:
369,271,50334,1,0,0:0:0:0:
448,244,50429,2,0,P|455:221|456:184,1,41.9999987182618
451,75,50620,2,0,P|443:52|420:22,1,41.9999987182618
245,71,50812,6,0,L|365:85,3,105.000004005432
224,170,51194,6,0,P|201:178|164:181,1,41.9999987182618
55,181,51385,2,0,P|31:174|1:153,1,41.9999987182618
186,284,51576,6,0,L|309:310,1,105.000004005432
390,326,51767,2,0,L|287:304,1,105.000004005432
330,139,51958,2,0,B|320:154|320:154|320:220,1,83.9999974365235
320,57,52245,2,0,B|329:72|329:72|329:138,1,83.9999974365235
144,41,52531,6,0,P|166:49|203:52,1,41.9999987182618
401,66,52722,2,0,B|386:56|386:56|319:56,1,83.9999974365235
483,55,53009,2,0,B|468:64|468:64|401:64,1,83.9999974365235
132,132,53296,6,0,P|111:135|92:143,1,41.9999987182618
153,267,53487,6,0,L|275:297,3,105.000004005432
478,139,53869,6,0,L|376:164,1,105.000004005432
275,190,54060,2,0,L|376:164,1,105.000004005432
505,263,54251,5,0,0:0:0:0:
426,327,54347,2,0,P|401:327|365:317,1,41.9999987182618
180,87,54538,6,0,B|190:102|190:102|190:168,1,83.9999974365235
115,302,54824,2,0,P|114:277|124:241,1,41.9999987182618
183,6,55015,6,0,P|206:7|240:22,1,41.9999987182618
205,8,55302,6,0,P|226:15|255:38,1,41.9999987182618
226,16,55588,6,0,P|245:29|267:59,1,41.9999987182618
244,30,55875,6,0,P|258:47|272:83,1,41.9999987182618
257,47,56162,6,0,P|266:68|271:105,1,41.9999987182618
186,256,56353,1,0,0:0:0:0:
232,325,56448,1,0,0:0:0:0:
305,283,56544,6,0,P|323:269|346:239,1,41.9999987182618
393,154,56735,2,0,P|395:177|409:211,1,41.9999987182618
505,48,56926,6,0,L|483:165,3,105.000004005432
460,294,57308,6,0,P|438:284|401:279,1,41.9999987182618
186,256,57499,2,0,P|162:258|128:272,1,41.9999987182618
61,352,57691,6,0,L|44:236,1,105.000004005432
30,144,57882,2,0,L|45:247,1,105.000004005432
251,338,58073,6,0,B|266:348|266:348|332:348,1,83.9999974365235
169,348,58360,2,0,B|184:339|184:339|250:339,1,83.9999974365235
451,341,58646,2,0,P|474:338|508:324,1,41.9999987182618
341,267,58837,6,0,B|331:282|331:282|331:348,1,83.9999974365235
330,185,59124,2,0,B|339:200|339:200|339:266,1,83.9999974365235
224,175,59410,2,0,P|226:151|240:117,1,41.9999987182618
321,32,59601,6,0,L|443:66,3,105.000004005432
508,139,59983,6,0,L|474:261,1,105.000004005432
451,341,60175,2,0,L|479:239,1,105.000004005432
411,145,60366,5,0,0:0:0:0:
340,268,60461,2,0,P|316:266|282:252,1,41.9999987182618
123,112,60652,6,0,B|133:127|133:127|133:193,1,83.9999974365235
61,308,60939,2,0,P|81:309|102:315,1,41.9999987182618
238,338,61130,6,0,L|289:338,1,41.9999987182618
280,338,61417,2,0,L|295:289,1,41.9999987182618
292,298,61703,2,0,L|250:268,1,41.9999987182618
258,273,61990,2,0,L|216:302,1,41.9999987182618
224,297,62276,2,0,L|239:345,1,41.9999987182618
421,338,62468,5,0,0:0:0:0:
421,338,62563,1,0,0:0:0:0:
421,211,62659,2,0,L|421:90,1,83.9999974365235
208,62,63041,2,0,L|208:104,3,41.9999987182618
208,230,63423,1,0,0:0:0:0:
110,181,63614,1,0,0:0:0:0:
310,181,63805,6,0,L|310:138,1,41.9999987182618
310,97,63996,2,0,L|310:139,1,41.9999987182618
310,348,64187,6,0,L|204:348,1,83.9999974365235
226,348,64474,2,0,L|120:348,1,83.9999974365235
36,348,64761,2,0,L|36:289,1,41.9999987182618
36,200,64952,6,0,L|120:200,1,83.9999974365235
120,200,65239,2,0,L|204:200,1,83.9999974365235
308,200,65525,2,0,L|308:141,1,41.9999987182618
83,60,65716,6,0,L|140:60,3,41.9999987182618
264,27,66098,6,0,L|326:27,1,41.9999987182618
348,27,66289,2,0,L|306:27,1,41.9999987182618
438,112,66480,6,0,L|500:112,1,41.9999987182618
480,112,66767,2,0,L|355:112,1,125.999996154785
72,112,67245,6,0,B|160:112|160:112|180:124,1,112
302,219,67531,1,0,0:0:0:0:
302,219,67627,2,0,B|322:231|322:231|410:231,1,112
61,365,68009,6,0,P|59:333|72:285,1,56
180,124,68200,1,0,0:0:0:0:
392,124,68391,1,0,0:0:0:0:
392,124,68582,6,0,P|360:126|312:113,1,56
164,53,68773,5,0,0:0:0:0:
180,124,68869,1,0,0:0:0:0:
110,141,68964,1,0,0:0:0:0:
93,70,69060,1,0,0:0:0:0:
272,201,69155,6,0,L|251:261,3,56
212,367,69538,6,0,P|239:371|267:368,1,56
395,289,69729,1,0,0:0:0:0:
52,289,69920,1,0,0:0:0:0:
52,289,70110,5,0,0:0:0:0:
156,248,70206,1,0,0:0:0:0:
69,178,70302,2,0,B|57:158|57:158|57:70,1,112
238,202,70589,1,0,0:0:0:0:
238,202,70684,2,0,B|250:222|250:222|250:310,1,112
147,353,70971,1,0,0:0:0:0:
352,267,71066,6,0,P|379:262|407:265,1,56
512,279,71257,2,0,P|494:257|482:231,1,56
464,67,71448,5,0,0:0:0:0:
464,67,71640,2,0,P|453:92|437:115,1,56
264,218,71831,5,0,0:0:0:0:
248,83,71926,1,0,0:0:0:0:
341,183,72022,1,0,0:0:0:0:
207,157,72117,1,0,0:0:0:0:
330,99,72213,5,0,0:0:0:0:
352,267,72308,1,0,0:0:0:0:
344,98,72404,1,0,0:0:0:0:
337,267,72499,1,0,0:0:0:0:
167,259,72595,5,0,0:0:0:0:
197,325,72690,1,0,0:0:0:0:
131,356,72786,1,0,0:0:0:0:
101,288,72881,1,0,0:0:0:0:
299,350,72977,2,0,L|340:363,7,28
457,349,73359,6,0,P|476:328|490:304,3,56
455,158,73741,6,0,L|462:232,3,56
471,73,74124,6,0,L|416:79,3,56
304,89,74506,6,0,L|270:92,8,28
276,91,75270,6,0,L|304:89,7,28
171,102,75652,6,0,B|65:110|65:110|19:83|19:83|68:112,1,210.000008010865
324,251,75939,1,0,0:0:0:0:
324,251,76034,2,0,P|346:227|316:272,1,420.000016021729
145,231,77945,6,0,B|163:199|163:199|163:61,1,175
68,176,78232,2,0,B|49:207|49:207|49:346,1,175
183,366,78519,6,0,B|214:347|214:347|353:347,1,175
452,232,78805,2,0,B|420:250|420:250|282:250,1,175
341,83,79092,2,0,P|371:113|395:150,1,87.5
201,155,79283,5,0,0:0:0:0:
209,68,79378,1,0,0:0:0:0:
282,250,79474,5,0,0:0:0:0:
108,234,79569,1,0,0:0:0:0:
277,255,79665,5,0,0:0:0:0:
103,239,79760,1,0,0:0:0:0:
364,241,79856,5,0,0:0:0:0:
342,382,79952,1,0,0:0:0:0:
277,255,80047,1,0,0:0:0:0:
403,319,80143,1,0,0:0:0:0:
263,341,80238,6,0,P|220:352|177:354,1,87.5
316,164,80429,2,0,P|358:152|401:150,1,87.5
103,239,80620,6,0,P|72:208|48:171,1,87.5
224,143,80812,1,0,0:0:0:0:
137,154,80907,1,0,0:0:0:0:
172,73,81003,6,0,B|203:54|203:54|342:54,1,175
500,131,81289,2,0,B|468:149|468:149|330:149,1,175
492,239,81576,6,0,P|480:281|460:320,1,87.5
303,384,81767,6,0,B|284:352|284:352|284:214,1,175
370,32,82053,2,0,B|388:63|388:63|388:202,1,175
134,340,82340,5,0,0:0:0:0:
134,252,82436,1,0,0:0:0:0:
164,170,82531,5,0,0:0:0:0:
202,44,82627,1,0,0:0:0:0:
77,6,82722,1,0,0:0:0:0:
39,132,82818,1,0,0:0:0:0:
220,233,82913,5,0,0:0:0:0:
48,271,83009,1,0,0:0:0:0:
221,240,83105,5,0,0:0:0:0:
46,263,83201,1,0,0:0:0:0:
301,288,83296,6,0,P|343:299|386:301,1,87.5
348,115,83487,1,0,0:0:0:0:
265,88,83583,1,0,0:0:0:0:
284,174,83678,2,0,B|316:193|316:193|454:193,1,175
412,56,83964,5,0,0:0:0:0:
220,233,84060,2,0,B|188:252|188:252|50:252,1,175
146,4,84347,2,0,B|165:36|165:36|165:174,1,175
266,307,84633,6,0,B|298:326|298:326|436:326,1,175
503,254,84920,2,0,B|471:235|471:235|333:235,1,175
140,295,85206,2,0,P|121:334|112:377,1,87.5
207,210,85398,5,0,0:0:0:0:
206,122,85493,1,0,0:0:0:0:
287,18,85589,5,0,0:0:0:0:
309,194,85684,1,0,0:0:0:0:
279,19,85780,5,0,0:0:0:0:
316,192,85875,1,0,0:0:0:0:
473,32,85971,5,0,0:0:0:0:
458,118,86066,1,0,0:0:0:0:
372,103,86162,1,0,0:0:0:0:
387,16,86257,1,0,0:0:0:0:
510,220,86353,6,0,P|470:238|427:247,1,87.5
120,104,86544,2,0,P|163:108|205:121,1,87.5
401,356,86735,2,0,P|365:330|336:298,1,87.5
22,174,86926,5,0,0:0:0:0:
66,297,87022,1,0,0:0:0:0:
151,196,87117,2,0,B|183:215|183:215|321:215,1,175
497,136,87404,2,0,B|465:117|465:117|327:117,1,175
120,104,87691,6,0,P|84:79|54:46,1,87.5
223,131,87882,6,0,B|242:163|242:163|242:301,1,175
339,375,88168,2,0,B|339:237|339:237|358:205,1,175
470,111,88455,1,0,0:0:0:0:
412,46,88550,1,0,0:0:0:0:
327,71,88646,5,0,0:0:0:0:
195,62,88741,1,0,0:0:0:0:
147,184,88837,1,0,0:0:0:0:
247,269,88932,1,0,0:0:0:0:
350,194,89028,5,0,0:0:0:0:
199,69,89124,1,0,0:0:0:0:
247,260,89219,1,0,0:0:0:0:
321,77,89315,1,0,0:0:0:0:
155,181,89410,6,0,P|112:177|70:164,1,87.5
357,302,89601,2,0,P|392:326|422:359,1,87.5
44,323,89792,6,0,L|-10:335,7,43.75
173,350,90175,6,0,B|173:212|173:212|154:180,1,175
52,61,90461,2,0,B|52:199|52:199|71:231,1,175
268,332,90748,6,0,B|406:332|406:332|438:313,1,175
499,224,91034,2,0,B|361:224|361:224|329:243,1,175
446,139,91321,6,0,P|480:113|510:80,1,87.5
208,127,91512,1,0,0:0:0:0:
293,106,91608,1,0,0:0:0:0:
56,20,91703,5,0,0:0:0:0:
231,44,91799,1,0,0:0:0:0:
55,27,91894,5,0,0:0:0:0:
231,36,91990,1,0,0:0:0:0:
22,118,92084,5,0,0:0:0:0:
143,191,92181,1,0,0:0:0:0:
2,203,92276,1,0,0:0:0:0:
109,110,92372,1,0,0:0:0:0:
78,250,92468,6,0,P|52:284|19:314,1,87.5
238,248,92659,2,0,P|277:230|320:221,1,87.5
486,235,92850,2,0,P|503:274|512:317,1,87.5
334,72,93041,5,0,0:0:0:0:
447,5,93137,1,0,0:0:0:0:
446,136,93232,2,0,B|414:155|414:155|276:155,1,175
135,21,93519,2,0,B|154:53|154:53|154:191,1,175
61,351,93805,6,0,P|43:311|34:268,1,87.5
163,292,93996,2,0,B|195:273|195:273|333:273,1,175
510,338,94283,2,0,B|478:357|478:357|340:357,1,175
127,216,94569,5,0,0:0:0:0:
168,138,94665,1,0,0:0:0:0:
361,89,94761,5,0,0:0:0:0:
438,196,94857,1,0,0:0:0:0:
332,273,94952,1,0,0:0:0:0:
255,167,95048,1,0,0:0:0:0:
448,96,95143,5,0,0:0:0:0:
274,82,95239,1,0,0:0:0:0:
447,103,95334,5,0,0:0:0:0:
274,74,95430,1,0,0:0:0:0:
430,13,95525,6,0,P|472:21|512:39,1,87.5
346,181,95716,5,0,0:0:0:0:
361,89,95811,1,0,0:0:0:0:
332,273,95907,2,0,B|300:292|300:292|162:292,1,175
53,195,96194,5,0,0:0:0:0:
53,195,96289,2,0,B|72:227|72:227|72:365,1,175
166,192,96576,2,0,B|147:160|147:160|147:22,1,175
250,94,96862,6,0,B|282:113|282:113|420:113,1,175
504,38,97149,2,0,B|472:19|472:19|334:19,1,175
263,197,97436,2,0,P|271:239|290:279,1,87.5
472,356,97627,5,0,0:0:0:0:
445,273,97722,1,0,0:0:0:0:
362,327,97818,5,0,0:0:0:0:
439,169,97913,1,0,0:0:0:0:
367,329,98009,5,0,0:0:0:0:
432,166,98104,1,0,0:0:0:0:
190,317,98200,5,0,0:0:0:0:
147,239,98296,1,0,0:0:0:0:
71,280,98391,1,0,0:0:0:0:
111,358,98487,1,0,0:0:0:0:
346,157,98582,6,0,P|364:117|373:74,1,87.5
273,287,98773,2,0,P|276:330|290:371,1,87.5
291,80,98964,2,0,P|266:43|233:15,1,87.5
93,173,99155,5,0,0:0:0:0:
151,55,99251,1,0,0:0:0:0:
19,61,99347,2,0,B|0:93|0:93|0:231,1,175
227,160,99633,2,0,B|259:179|259:179|397:179,1,175
499,94,99920,6,0,P|495:50|481:9,1,87.5
506,195,100111,2,0,B|487:227|487:227|487:365,1,175
387,365,100398,2,0,B|355:346|355:346|217:346,1,175
28,320,100684,6,0,P|71:316|112:302,1,87.5
413,67,100875,5,0,0:0:0:0:
288,27,100970,1,0,0:0:0:0:
248,152,101066,1,0,0:0:0:0:
372,192,101161,1,0,0:0:0:0:
197,57,101257,5,0,0:0:0:0:
299,247,101353,1,0,0:0:0:0:
203,53,101448,5,0,0:0:0:0:
292,250,101544,1,0,0:0:0:0:
88,78,101640,5,0,0:0:0:0:
88,220,101735,1,0,0:0:0:0:
4,105,101831,1,0,0:0:0:0:
139,149,101926,1,0,0:0:0:0:
4,192,102022,2,0,L|4:240,7,43.75
8,341,102404,6,0,P|52:337|93:323,1,87.5
245,250,102595,1,0,0:0:0:0:
245,338,102691,1,0,0:0:0:0:
320,294,102786,2,0,P|361:279|404:276,1,87.5
488,60,102977,5,0,0:0:0:0:
400,157,103072,1,0,0:0:0:0:
360,33,103168,2,0,P|318:18|275:15,1,87.5
87,305,103359,6,0,P|119:276|144:240,1,87.5
0,71,103550,6,0,P|8:113|26:153,1,87.5
301,92,103741,1,0,0:0:0:0:
214,111,103837,1,0,0:0:0:0:
342,182,103933,5,0,0:0:0:0:
365,10,104028,1,0,0:0:0:0:
334,181,104124,5,0,0:0:0:0:
372,11,104219,1,0,0:0:0:0:
301,279,104315,5,0,0:0:0:0:
447,192,104410,1,0,0:0:0:0:
381,349,104506,1,0,0:0:0:0:
342,182,104601,1,0,0:0:0:0:
470,294,104697,6,0,P|484:335|487:378,1,87.5
203,316,104888,2,0,P|160:307|120:289,1,87.5
196,26,105079,2,0,P|210:67|213:110,1,87.5
24,218,105270,5,0,0:0:0:0:
24,130,105366,1,0,0:0:0:0:
99,174,105461,2,0,P|138:193|180:202,1,87.5
462,189,105652,5,0,0:0:0:0:
431,107,105747,1,0,0:0:0:0:
396,26,105843,5,0,0:0:0:0:
347,194,105939,1,0,0:0:0:0:
388,24,106034,2,0,P|361:58|344:99,1,87.5
323,299,106226,6,0,P|357:326|398:343,1,87.5
222,124,106417,5,0,0:0:0:0:
180,201,106513,2,0,P|173:245|179:288,1,87.5
270,48,106703,5,0,0:0:0:0:
192,6,106799,2,0,P|148:0|105:5,1,87.5
61,191,106990,5,0,0:0:0:0:
222,124,107085,1,0,0:0:0:0:
58,183,107181,5,0,0:0:0:0:
224,131,107276,1,0,0:0:0:0:
159,370,107372,5,0,0:0:0:0:
234,296,107468,1,0,0:0:0:0:
161,221,107563,1,0,0:0:0:0:
85,293,107659,1,0,0:0:0:0:
340,329,107754,6,0,P|383:335|426:329,1,87.5
482,21,107945,6,0,P|441:37|406:63,1,87.5
234,296,108136,6,0,P|261:261|277:221,1,87.5
6,110,108327,5,0,0:0:0:0:
133,139,108423,1,0,0:0:0:0:
95,14,108519,2,0,B|127:33|127:33|265:33,1,175
482,21,108805,5,0,0:0:0:0:
383,108,108901,2,0,P|399:148|425:183,1,87.5
474,109,109092,5,0,0:0:0:0:
298,115,109187,1,0,0:0:0:0:
390,262,109283,2,0,P|373:302|347:337,1,87.5
162,367,109474,2,0,P|121:350|86:324,1,87.5
213,92,109665,6,0,P|219:135|213:178,1,87.5
27,229,109856,1,0,0:0:0:0:
40,142,109952,1,0,0:0:0:0:
109,21,110047,5,0,0:0:0:0:
107,197,110143,1,0,0:0:0:0:
101,21,110238,5,0,0:0:0:0:
114,196,110334,1,0,0:0:0:0:
315,10,110429,5,0,0:0:0:0:
397,112,110524,1,0,0:0:0:0:
296,195,110620,1,0,0:0:0:0:
213,92,110716,1,0,0:0:0:0:
402,220,110812,6,0,P|408:263|402:306,1,87.5
114,196,111003,6,0,P|73:179|38:153,1,87.5
315,10,111194,6,0,P|321:53|315:96,1,87.5
269,340,111385,5,0,0:0:0:0:
181,340,111480,1,0,0:0:0:0:
93,340,111576,2,0,P|50:331|11:311,1,87.5
142,26,111767,5,0,0:0:0:0:
142,114,111863,2,0,P|133:156|113:195,1,87.5
296,195,112054,5,0,0:0:0:0:
384,195,112150,2,0,P|426:203|465:223,1,87.5
376,18,112340,2,0,P|384:60|404:99,1,87.5
451,353,112531,5,0,0:0:0:0:
363,353,112627,2,0,P|320:344|281:324,1,87.5
34,363,112818,5,0,0:0:0:0:
78,286,112914,2,0,P|106:253|143:229,1,87.5
308,72,113105,5,0,0:0:0:0:
192,11,113201,1,0,0:0:0:0:
131,127,113296,1,0,0:0:0:0:
246,188,113392,1,0,0:0:0:0:
437,131,113487,5,0,0:0:0:0:
437,301,113583,1,0,0:0:0:0:
337,163,113678,1,0,0:0:0:0:
498,216,113774,1,0,0:0:0:0:
337,268,113869,6,0,P|298:288|255:298,1,87.5
51,14,114060,6,0,P|57:57|51:100,1,87.5
13,326,114251,6,0,L|47:359,7,43.75
90,226,114633,6,0,B|122:207|122:207|260:207,1,175
391,207,114920,1,0,0:0:0:0:
359,333,115015,2,0,P|316:323|278:302,1,87.5
226,96,115206,5,0,0:0:0:0:
226,8,115301,1,0,0:0:0:0:
301,52,115398,2,0,P|332:81|355:118,1,87.5
100,122,115589,6,0,P|58:134|14:136,1,87.5
448,69,115780,2,0,P|460:110|462:154,1,87.5,0|0,2:0|2:0,2:0:0:0:
249,345,115971,5,0,0:0:0:0:
247,258,116066,1,0,0:0:0:0:
343,211,116162,5,0,0:0:0:0:
171,177,116257,1,0,0:0:0:0:
344,203,116353,5,0,0:0:0:0:
169,184,116448,1,0,0:0:0:0:
443,179,116544,5,0,0:0:0:0:
343,316,116640,1,0,0:0:0:0:
504,264,116735,1,0,0:0:0:0:
343,211,116831,1,0,0:0:0:0:
443,349,116926,6,0,P|433:306|414:266,1,87.5
395,7,117117,6,0,P|424:39|460:64,1,87.5
201,67,117308,6,0,P|159:53|115:50,1,87.5
24,311,117499,5,0,0:0:0:0:
100,355,117595,1,0,0:0:0:0:
99,267,117691,2,0,P|88:224|68:185,1,87.5
289,113,117882,1,0,0:0:0:0:
258,194,117977,1,0,0:0:0:0:
227,276,118073,5,0,0:0:0:0:
360,164,118168,1,0,0:0:0:0:
233,282,118264,6,0,P|276:277|317:263,1,87.5
219,38,118455,2,0,P|201:77|192:120,1,87.5
388,380,118646,5,0,0:0:0:0:
437,305,118742,2,0,P|441:261|435:218,1,87.5
473,44,118933,5,0,0:0:0:0:
383,40,119029,2,0,P|343:58|308:85,1,87.5
141,375,119219,5,0,0:0:0:0:
233,282,119315,1,0,0:0:0:0:
141,189,119410,1,0,0:0:0:0:
48,282,119506,1,0,0:0:0:0:
228,195,119601,5,0,0:0:0:0:
54,183,119696,1,0,0:0:0:0:
227,202,119792,5,0,0:0:0:0:
54,175,119887,1,0,0:0:0:0:
417,223,119983,6,0,P|374:212|335:192,1,87.5
124,16,120175,2,0,P|155:46|179:82,1,87.5
331,378,120366,2,0,P|318:336|316:292,1,87.5
504,95,120557,5,0,0:0:0:0:
505,183,120652,1,0,0:0:0:0:
429,139,120748,2,0,B|397:120|397:120|259:120,1,175
53,184,121034,2,0,B|85:203|85:203|223:203,1,175
364,205,121321,6,0,B|345:237|345:237|345:375,1,175
486,352,121608,2,0,B|505:320|505:320|505:182,1,175
509,3,121894,6,0,P|478:34|442:58,1,87.5
231,78,122085,1,0,0:0:0:0:
148,48,122181,1,0,0:0:0:0:
330,109,122276,5,0,0:0:0:0:
160,157,122372,1,0,0:0:0:0:
327,101,122468,5,0,0:0:0:0:
162,164,122564,1,0,0:0:0:0:
420,106,122659,5,0,0:0:0:0:
327,199,122755,1,0,0:0:0:0:
420,292,122850,1,0,0:0:0:0:
512,199,122946,1,0,0:0:0:0:
305,286,123041,6,0,P|268:309|238:341,1,87.5
28,335,123232,2,0,P|31:291|45:250,1,87.5
319,110,123423,6,0,P|275:113|232:107,1,87.5
0,48,123614,2,0,P|39:66|73:93,1,87.5
305,286,123805,6,0,B|337:305|337:305|475:305,1,175
512,199,124092,2,0,B|493:167|493:167|493:29,1,175
403,138,124378,2,0,P|406:180|400:223,1,87.5
229,341,124569,6,0,B|197:360|197:360|59:360,1,175
81,259,124856,2,0,B|100:227|100:227|100:89,1,175
8,48,125143,2,0,P|4:90|10:133,1,87.5
375,202,125334,5,0,0:0:0:0:
200,259,125429,1,0,0:0:0:0:
309,110,125525,1,0,0:0:0:0:
309,295,125620,1,0,0:0:0:0:
200,146,125716,5,0,0:0:0:0:
418,74,125812,1,0,0:0:0:0:
197,136,125907,5,0,0:0:0:0:
420,83,126003,1,0,0:0:0:0:
116,168,126098,5,0,0:0:0:0:
193,48,126194,1,0,0:0:0:0:
60,98,126289,1,0,0:0:0:0:
197,136,126385,1,0,0:0:0:0:
108,25,126480,6,0,L|52:10,8,43.75
65,13,127245,6,0,L|108:25,7,43.75
216,84,127627,2,0,P|193:66|211:71,1,83.9999974365235
469,353,127913,1,0,0:0:0:0:
469,353,128009,2,0,P|376:297|481:341,1,350
