osu file format v14

[General]
AudioFilename: pedantic compositions.mp3
AudioLeadIn: 1500
PreviewTime: 453403
Countdown: 0
SampleSet: None
StackLeniency: 0.7
Mode: 3
LetterboxInBreaks: 0
SpecialStyle: 0
WidescreenStoryboard: 0

[Editor]
DistanceSpacing: 0.8
BeatDivisor: 8
GridSize: 16
TimelineZoom: 3.599999

[Metadata]
Title:semantic compositions on death and its meaning
TitleUnicode:semantic compositions on death and its meaning
Artist:goreshit
ArtistUnicode:goreshit
Creator:Shoegazer
Version:memento mori
Source:
Tags:nature of dying o'er the flood looming shadow of a tree long gone breakcore icyworld marathon
BeatmapID:877470
BeatmapSetID:403526

[Difficulty]
HPDrainRate:8.5
CircleSize:4
OverallDifficulty:8.7
ApproachRate:9
SliderMultiplier:1.4
SliderTickRate:1

[Events]
//Background and Video events
0,0,"bg_alive.jpg",0,0
//Break Periods
2,301471,314176
2,569273,578787
//Storyboard Layer 0 (Background)
//Storyboard Layer 1 (Fail)
//Storyboard Layer 2 (Pass)
//Storyboard Layer 3 (Foreground)
//Storyboard Sound Samples

[TimingPoints]
76710,350.877,4,3,0,20,1,0
76710,-100.00005500003,4,3,0,20,0,0
144078,-100,4,3,0,20,0,1
188990,-100,4,3,0,20,0,0
233902,-100,4,3,0,20,0,1
278815,-100,4,3,0,20,0,0
314847,309.278350515464,4,3,0,20,1,0
314847,-113.450292397661,4,3,0,20,0,0
473197,-113.450292397661,4,3,0,20,0,1
512785,-113.450292397661,4,3,0,20,0,0
579460,270.27027027027,4,3,0,20,1,0
579460,-129.824561403509,4,3,0,20,0,0
631351,-129.824561403509,4,3,0,20,0,1
648649,-129.824561403509,4,3,0,20,0,0

[HitObjects]
64,0,76710,5,0,0:0:0:0:
320,0,76710,1,0,0:0:0:0:
448,0,76710,1,0,0:0:0:0:
192,0,76885,1,0,0:0:0:0:
320,0,76973,1,0,0:0:0:0:
64,0,77060,1,0,0:0:0:0:
448,0,77060,1,0,0:0:0:0:
320,0,77236,1,0,0:0:0:0:
192,0,77324,1,0,0:0:0:0:
320,192,77411,1,0,0:0:0:0:
64,0,77499,1,0,0:0:0:0:
192,0,77587,1,0,0:0:0:0:
320,0,77587,1,0,0:0:0:0:
448,0,77762,1,0,0:0:0:0:
320,0,77850,1,0,0:0:0:0:
64,0,77938,1,0,0:0:0:0:
320,192,78025,1,0,0:0:0:0:
192,192,78113,1,0,0:0:0:0:
448,0,78113,1,0,0:0:0:0:
192,0,78288,1,0,0:0:0:0:
320,0,78376,1,0,0:0:0:0:
448,192,78464,1,0,0:0:0:0:
64,0,78464,1,0,0:0:0:0:
192,0,78552,1,0,0:0:0:0:
448,0,78639,1,0,0:0:0:0:
192,0,78815,1,0,0:0:0:0:
320,0,78902,1,0,0:0:0:0:
192,192,78990,1,0,0:0:0:0:
64,0,78990,1,0,0:0:0:0:
192,0,79166,1,0,0:0:0:0:
320,0,79253,1,0,0:0:0:0:
64,192,79341,1,0,0:0:0:0:
448,0,79341,1,0,0:0:0:0:
320,0,79517,1,0,0:0:0:0:
320,192,79692,1,0,0:0:0:0:
192,192,79780,1,0,0:0:0:0:
64,0,79867,1,0,0:0:0:0:
320,0,79867,1,0,0:0:0:0:
192,0,80043,1,0,0:0:0:0:
448,0,80131,1,0,0:0:0:0:
192,192,80218,1,0,0:0:0:0:
320,192,80306,1,0,0:0:0:0:
64,0,80394,1,0,0:0:0:0:
448,0,80394,1,0,0:0:0:0:
192,0,80569,1,0,0:0:0:0:
320,0,80657,1,0,0:0:0:0:
64,0,80745,1,0,0:0:0:0:
192,0,80832,1,0,0:0:0:0:
320,0,80920,1,0,0:0:0:0:
448,0,80920,1,0,0:0:0:0:
448,0,81095,1,0,0:0:0:0:
64,0,81183,1,0,0:0:0:0:
320,0,81183,1,0,0:0:0:0:
448,0,81359,1,0,0:0:0:0:
192,0,81446,1,0,0:0:0:0:
320,0,81446,1,0,0:0:0:0:
64,192,81534,1,0,0:0:0:0:
320,0,81622,1,0,0:0:0:0:
64,0,81709,1,0,0:0:0:0:
192,0,81709,1,0,0:0:0:0:
320,0,81797,1,0,0:0:0:0:
448,0,81797,1,0,0:0:0:0:
64,0,81973,1,0,0:0:0:0:
320,192,82060,1,0,0:0:0:0:
192,0,82148,1,0,0:0:0:0:
320,0,82236,1,0,0:0:0:0:
64,0,82324,1,0,0:0:0:0:
448,0,82324,1,0,0:0:0:0:
192,0,82499,1,0,0:0:0:0:
320,0,82587,1,0,0:0:0:0:
448,0,82587,1,0,0:0:0:0:
64,0,82762,1,0,0:0:0:0:
192,0,82850,1,0,0:0:0:0:
320,0,82850,1,0,0:0:0:0:
64,0,83025,1,0,0:0:0:0:
448,0,83025,1,0,0:0:0:0:
320,192,83113,1,0,0:0:0:0:
192,0,83201,1,0,0:0:0:0:
320,192,83288,1,0,0:0:0:0:
192,192,83376,1,0,0:0:0:0:
64,192,83376,1,0,0:0:0:0:
320,192,83552,1,0,0:0:0:0:
192,192,83639,1,0,0:0:0:0:
64,0,83727,1,0,0:0:0:0:
448,0,83727,1,0,0:0:0:0:
448,192,83990,1,0,0:0:0:0:
192,0,83990,1,0,0:0:0:0:
320,192,84078,1,0,0:0:0:0:
320,0,84253,1,0,0:0:0:0:
448,0,84253,1,0,0:0:0:0:
192,0,84341,1,0,0:0:0:0:
448,0,84429,1,0,0:0:0:0:
64,0,84517,1,0,0:0:0:0:
320,192,84604,1,0,0:0:0:0:
192,192,84692,1,0,0:0:0:0:
448,192,84780,1,0,0:0:0:0:
64,0,84780,1,0,0:0:0:0:
448,0,84955,1,0,0:0:0:0:
320,0,84999,1,0,0:0:0:0:
192,0,85043,1,0,0:0:0:0:
64,0,85087,1,0,0:0:0:0:
320,0,85131,1,0,0:0:0:0:
448,0,85131,1,0,0:0:0:0:
192,0,85306,1,0,0:0:0:0:
448,192,85394,1,0,0:0:0:0:
320,0,85394,1,0,0:0:0:0:
64,192,85481,1,0,0:0:0:0:
192,0,85481,1,0,0:0:0:0:
320,0,85657,1,0,0:0:0:0:
64,0,85745,1,0,0:0:0:0:
320,0,85832,1,0,0:0:0:0:
448,0,85832,1,0,0:0:0:0:
192,0,85920,1,0,0:0:0:0:
320,0,86008,1,0,0:0:0:0:
448,0,86008,1,0,0:0:0:0:
320,0,86183,1,0,0:0:0:0:
448,0,86183,1,0,0:0:0:0:
64,0,86271,1,0,0:0:0:0:
192,0,86271,1,0,0:0:0:0:
448,0,86359,1,0,0:0:0:0:
64,0,86402,1,0,0:0:0:0:
192,0,86446,1,0,0:0:0:0:
320,0,86490,1,0,0:0:0:0:
64,0,86534,1,0,0:0:0:0:
448,0,86534,1,0,0:0:0:0:
64,0,86709,1,0,0:0:0:0:
192,0,86885,1,0,0:0:0:0:
448,0,86885,1,0,0:0:0:0:
320,0,87060,1,0,0:0:0:0:
448,192,87060,1,0,0:0:0:0:
64,0,87148,1,0,0:0:0:0:
192,192,87148,1,0,0:0:0:0:
448,192,87236,1,0,0:0:0:0:
320,192,87324,1,0,0:0:0:0:
192,192,87411,1,0,0:0:0:0:
192,192,87616,128,0,87762:0:0:0:0:
64,192,87616,128,0,87762:0:0:0:0:
448,192,87652,1,0,0:0:0:0:
448,0,87850,1,0,0:0:0:0:
64,0,87894,1,0,0:0:0:0:
192,0,87938,1,0,0:0:0:0:
320,0,88113,1,0,0:0:0:0:
192,0,88201,1,0,0:0:0:0:
448,0,88288,1,0,0:0:0:0:
64,0,88464,1,0,0:0:0:0:
320,0,88639,1,0,0:0:0:0:
448,0,88639,1,0,0:0:0:0:
320,0,88990,1,0,0:0:0:0:
448,0,88990,1,0,0:0:0:0:
320,0,89166,1,0,0:0:0:0:
448,0,89166,1,0,0:0:0:0:
192,0,89341,1,0,0:0:0:0:
64,0,89517,1,0,0:0:0:0:
192,0,89604,1,0,0:0:0:0:
64,0,89692,1,0,0:0:0:0:
192,0,89867,1,0,0:0:0:0:
64,0,90043,1,0,0:0:0:0:
448,0,90043,1,0,0:0:0:0:
320,0,90131,1,0,0:0:0:0:
192,0,90218,1,0,0:0:0:0:
320,192,90423,128,0,90569:0:0:0:0:
448,192,90423,128,0,90569:0:0:0:0:
64,192,90459,1,0,0:0:0:0:
192,0,90745,1,0,0:0:0:0:
192,0,91008,1,0,0:0:0:0:
320,0,91095,1,0,0:0:0:0:
448,0,91095,1,0,0:0:0:0:
192,0,91271,1,0,0:0:0:0:
192,0,91534,1,0,0:0:0:0:
320,0,91622,1,0,0:0:0:0:
448,0,91622,1,0,0:0:0:0:
192,0,91797,1,0,0:0:0:0:
320,0,91885,1,0,0:0:0:0:
448,0,91885,1,0,0:0:0:0:
64,192,91973,1,0,0:0:0:0:
192,192,92060,1,0,0:0:0:0:
320,0,92148,1,0,0:0:0:0:
448,0,92148,1,0,0:0:0:0:
64,0,92324,1,0,0:0:0:0:
448,0,92411,1,0,0:0:0:0:
320,0,92499,1,0,0:0:0:0:
192,0,92587,1,0,0:0:0:0:
64,0,92674,1,0,0:0:0:0:
448,0,92674,1,0,0:0:0:0:
320,0,92850,1,0,0:0:0:0:
192,0,92938,1,0,0:0:0:0:
320,0,93025,1,0,0:0:0:0:
448,0,93025,1,0,0:0:0:0:
320,192,93201,1,0,0:0:0:0:
192,0,93201,1,0,0:0:0:0:
64,192,93288,1,0,0:0:0:0:
448,192,93376,1,0,0:0:0:0:
192,0,93376,1,0,0:0:0:0:
64,0,93552,1,0,0:0:0:0:
448,0,93552,1,0,0:0:0:0:
192,192,93727,1,0,0:0:0:0:
64,192,93815,1,0,0:0:0:0:
320,192,93815,1,0,0:0:0:0:
448,0,93902,1,0,0:0:0:0:
320,0,93990,1,0,0:0:0:0:
64,0,94078,1,0,0:0:0:0:
192,0,94078,1,0,0:0:0:0:
192,192,94253,1,0,0:0:0:0:
448,192,94253,1,0,0:0:0:0:
64,0,94341,1,0,0:0:0:0:
320,192,94429,1,0,0:0:0:0:
448,192,94429,1,0,0:0:0:0:
192,192,94517,1,0,0:0:0:0:
320,192,94604,1,0,0:0:0:0:
64,192,94692,1,0,0:0:0:0:
192,0,94780,1,0,0:0:0:0:
448,192,94780,1,0,0:0:0:0:
320,0,94955,1,0,0:0:0:0:
448,192,94955,1,0,0:0:0:0:
192,0,95131,1,0,0:0:0:0:
448,0,95218,1,0,0:0:0:0:
192,0,95306,1,0,0:0:0:0:
320,192,95306,1,0,0:0:0:0:
320,0,95481,1,0,0:0:0:0:
192,0,95569,1,0,0:0:0:0:
448,0,95657,1,0,0:0:0:0:
320,0,95745,1,0,0:0:0:0:
192,0,95832,1,0,0:0:0:0:
320,192,95920,1,0,0:0:0:0:
64,0,96008,1,0,0:0:0:0:
448,192,96008,1,0,0:0:0:0:
64,192,96183,1,0,0:0:0:0:
320,0,96359,1,0,0:0:0:0:
448,0,96359,1,0,0:0:0:0:
64,0,96534,1,0,0:0:0:0:
448,0,96622,1,0,0:0:0:0:
192,0,96709,1,0,0:0:0:0:
320,0,96797,1,0,0:0:0:0:
64,0,96885,1,0,0:0:0:0:
192,0,96885,1,0,0:0:0:0:
320,0,97060,1,0,0:0:0:0:
448,0,97148,1,0,0:0:0:0:
64,0,97236,1,0,0:0:0:0:
192,0,97324,1,0,0:0:0:0:
320,0,97411,1,0,0:0:0:0:
448,0,97411,1,0,0:0:0:0:
192,0,97499,1,0,0:0:0:0:
64,0,97587,1,0,0:0:0:0:
448,0,97587,1,0,0:0:0:0:
192,0,97762,1,0,0:0:0:0:
320,0,97762,1,0,0:0:0:0:
64,0,97938,1,0,0:0:0:0:
320,0,98113,1,0,0:0:0:0:
448,0,98113,1,0,0:0:0:0:
192,0,98288,1,0,0:0:0:0:
64,0,98376,1,0,0:0:0:0:
448,0,98464,1,0,0:0:0:0:
320,0,98552,1,0,0:0:0:0:
448,0,98639,1,0,0:0:0:0:
64,192,98698,1,0,0:0:0:0:
192,192,98756,1,0,0:0:0:0:
320,192,98815,1,0,0:0:0:0:
448,192,98815,128,0,99078:0:0:0:0:
64,192,98859,1,0,0:0:0:0:
64,192,99078,1,0,0:0:0:0:
192,192,99122,1,0,0:0:0:0:
320,192,99166,1,0,0:0:0:0:
448,192,99166,1,0,0:0:0:0:
192,0,99341,1,0,0:0:0:0:
448,0,99429,1,0,0:0:0:0:
64,0,99517,1,0,0:0:0:0:
320,0,99517,1,0,0:0:0:0:
192,0,99692,1,0,0:0:0:0:
320,0,99780,1,0,0:0:0:0:
192,0,99867,1,0,0:0:0:0:
448,0,99867,128,0,99955:0:0:0:0:
320,0,100043,1,0,0:0:0:0:
192,0,100131,1,0,0:0:0:0:
64,0,100218,1,0,0:0:0:0:
320,0,100218,1,0,0:0:0:0:
64,0,100394,128,0,100481:0:0:0:0:
448,0,100394,1,0,0:0:0:0:
320,0,100569,1,0,0:0:0:0:
64,0,100657,1,0,0:0:0:0:
448,192,100745,1,0,0:0:0:0:
192,192,100832,1,0,0:0:0:0:
64,0,100920,1,0,0:0:0:0:
448,0,100920,1,0,0:0:0:0:
192,0,101095,1,0,0:0:0:0:
448,0,101183,1,0,0:0:0:0:
192,192,101271,1,0,0:0:0:0:
320,192,101359,1,0,0:0:0:0:
64,0,101446,1,0,0:0:0:0:
192,192,101446,1,0,0:0:0:0:
448,192,101622,1,0,0:0:0:0:
64,192,101622,1,0,0:0:0:0:
320,0,101797,1,0,0:0:0:0:
64,0,101973,1,0,0:0:0:0:
192,192,101973,1,0,0:0:0:0:
192,0,102148,1,0,0:0:0:0:
320,0,102236,1,0,0:0:0:0:
64,0,102324,1,0,0:0:0:0:
448,0,102324,1,0,0:0:0:0:
448,0,102499,1,0,0:0:0:0:
192,192,102499,128,0,102674:0:0:0:0:
64,0,102674,1,0,0:0:0:0:
448,192,102762,1,0,0:0:0:0:
320,0,102850,1,0,0:0:0:0:
64,0,103025,1,0,0:0:0:0:
192,0,103025,1,0,0:0:0:0:
320,0,103201,1,0,0:0:0:0:
192,0,103288,1,0,0:0:0:0:
320,0,103376,1,0,0:0:0:0:
64,0,103464,1,0,0:0:0:0:
192,0,103552,1,0,0:0:0:0:
320,0,103595,1,0,0:0:0:0:
448,0,103639,1,0,0:0:0:0:
64,0,103683,1,0,0:0:0:0:
192,0,103727,1,0,0:0:0:0:
320,0,103727,1,0,0:0:0:0:
64,0,103902,1,0,0:0:0:0:
192,0,103902,1,0,0:0:0:0:
320,0,104078,1,0,0:0:0:0:
448,0,104078,1,0,0:0:0:0:
64,0,104166,1,0,0:0:0:0:
320,0,104253,1,0,0:0:0:0:
448,192,104253,1,0,0:0:0:0:
64,0,104341,1,0,0:0:0:0:
192,192,104341,1,0,0:0:0:0:
320,0,104429,1,0,0:0:0:0:
448,192,104429,1,0,0:0:0:0:
192,192,104517,1,0,0:0:0:0:
64,0,104604,1,0,0:0:0:0:
448,192,104604,1,0,0:0:0:0:
320,0,104692,1,0,0:0:0:0:
192,0,104780,1,0,0:0:0:0:
448,0,104780,1,0,0:0:0:0:
64,0,104955,1,0,0:0:0:0:
320,0,105043,1,0,0:0:0:0:
64,0,105131,1,0,0:0:0:0:
192,0,105218,1,0,0:0:0:0:
320,0,105306,1,0,0:0:0:0:
448,0,105306,1,0,0:0:0:0:
192,0,105481,128,0,105569:0:0:0:0:
448,0,105569,1,0,0:0:0:0:
64,0,105657,1,0,0:0:0:0:
320,0,105745,1,0,0:0:0:0:
64,0,105832,1,0,0:0:0:0:
192,0,105832,1,0,0:0:0:0:
320,0,106008,128,0,106095:0:0:0:0:
192,0,106052,1,0,0:0:0:0:
448,0,106095,1,0,0:0:0:0:
64,0,106139,1,0,0:0:0:0:
320,0,106183,1,0,0:0:0:0:
192,0,106271,1,0,0:0:0:0:
64,0,106359,1,0,0:0:0:0:
320,0,106446,1,0,0:0:0:0:
64,0,106534,1,0,0:0:0:0:
448,0,106534,1,0,0:0:0:0:
192,0,106709,1,0,0:0:0:0:
64,0,106797,1,0,0:0:0:0:
448,0,106885,128,0,106973:0:0:0:0:
192,0,106973,1,0,0:0:0:0:
320,0,107060,1,0,0:0:0:0:
448,0,107060,1,0,0:0:0:0:
64,0,107236,1,0,0:0:0:0:
192,0,107411,1,0,0:0:0:0:
64,0,107499,1,0,0:0:0:0:
320,0,107587,1,0,0:0:0:0:
448,0,107587,1,0,0:0:0:0:
192,0,107762,1,0,0:0:0:0:
320,0,107850,1,0,0:0:0:0:
192,0,107938,1,0,0:0:0:0:
448,0,107938,1,0,0:0:0:0:
192,192,108113,1,0,0:0:0:0:
448,192,108201,1,0,0:0:0:0:
192,192,108288,1,0,0:0:0:0:
320,0,108288,1,0,0:0:0:0:
448,192,108376,1,0,0:0:0:0:
64,0,108464,1,0,0:0:0:0:
448,0,108552,1,0,0:0:0:0:
64,192,108639,1,0,0:0:0:0:
320,0,108639,1,0,0:0:0:0:
192,0,108815,1,0,0:0:0:0:
448,0,108902,1,0,0:0:0:0:
192,0,108990,1,0,0:0:0:0:
320,0,108990,1,0,0:0:0:0:
64,0,109166,1,0,0:0:0:0:
320,0,109166,1,0,0:0:0:0:
64,0,109341,1,0,0:0:0:0:
192,0,109341,1,0,0:0:0:0:
320,0,109516,1,0,0:0:0:0:
64,0,109692,1,0,0:0:0:0:
448,0,109692,1,0,0:0:0:0:
192,0,109780,1,0,0:0:0:0:
320,0,109867,1,0,0:0:0:0:
64,0,110043,1,0,0:0:0:0:
192,0,110043,1,0,0:0:0:0:
448,0,110131,1,0,0:0:0:0:
64,0,110218,1,0,0:0:0:0:
192,0,110218,1,0,0:0:0:0:
320,0,110306,1,0,0:0:0:0:
448,0,110306,1,0,0:0:0:0:
64,0,110394,1,0,0:0:0:0:
192,0,110394,1,0,0:0:0:0:
192,192,110569,1,0,0:0:0:0:
320,0,110657,1,0,0:0:0:0:
192,0,110745,1,0,0:0:0:0:
320,0,110920,1,0,0:0:0:0:
64,0,111095,1,0,0:0:0:0:
448,0,111095,128,0,111183:0:0:0:0:
64,0,111446,1,0,0:0:0:0:
320,192,111446,1,0,0:0:0:0:
64,0,111622,1,0,0:0:0:0:
448,0,111622,128,0,111709:0:0:0:0:
192,0,111797,1,0,0:0:0:0:
192,0,111973,1,0,0:0:0:0:
320,0,112060,1,0,0:0:0:0:
192,192,112148,1,0,0:0:0:0:
64,0,112148,1,0,0:0:0:0:
192,0,112324,1,0,0:0:0:0:
320,0,112499,1,0,0:0:0:0:
448,0,112499,1,0,0:0:0:0:
192,0,112587,1,0,0:0:0:0:
64,0,112674,1,0,0:0:0:0:
192,192,112879,128,0,113025:0:0:0:0:
64,192,112879,128,0,113025:0:0:0:0:
320,192,112916,1,0,0:0:0:0:
64,0,113201,1,0,0:0:0:0:
320,0,113201,1,0,0:0:0:0:
192,0,113464,1,0,0:0:0:0:
320,0,113552,1,0,0:0:0:0:
448,0,113552,1,0,0:0:0:0:
64,0,113727,1,0,0:0:0:0:
192,0,113990,1,0,0:0:0:0:
320,0,114078,1,0,0:0:0:0:
448,0,114078,1,0,0:0:0:0:
64,0,114253,1,0,0:0:0:0:
320,0,114341,1,0,0:0:0:0:
448,0,114341,1,0,0:0:0:0:
192,0,114429,1,0,0:0:0:0:
64,0,114516,1,0,0:0:0:0:
320,0,114604,1,0,0:0:0:0:
448,0,114604,1,0,0:0:0:0:
192,0,114780,1,0,0:0:0:0:
448,0,114867,1,0,0:0:0:0:
64,0,114955,1,0,0:0:0:0:
320,0,115043,1,0,0:0:0:0:
64,0,115131,1,0,0:0:0:0:
448,0,115131,1,0,0:0:0:0:
192,0,115306,1,0,0:0:0:0:
320,0,115394,1,0,0:0:0:0:
64,0,115481,1,0,0:0:0:0:
448,0,115481,1,0,0:0:0:0:
448,192,115657,1,0,0:0:0:0:
64,192,115657,1,0,0:0:0:0:
192,192,115745,1,0,0:0:0:0:
320,192,115832,1,0,0:0:0:0:
448,0,115832,1,0,0:0:0:0:
192,192,116008,1,0,0:0:0:0:
320,0,116008,1,0,0:0:0:0:
192,0,116183,1,0,0:0:0:0:
448,0,116271,1,0,0:0:0:0:
64,0,116359,1,0,0:0:0:0:
192,0,116446,1,0,0:0:0:0:
320,0,116534,1,0,0:0:0:0:
448,0,116534,1,0,0:0:0:0:
64,0,116709,1,0,0:0:0:0:
448,0,116709,128,0,116797:0:0:0:0:
320,0,116797,1,0,0:0:0:0:
64,0,116885,1,0,0:0:0:0:
320,0,116973,1,0,0:0:0:0:
192,0,117060,1,0,0:0:0:0:
64,0,117148,1,0,0:0:0:0:
448,0,117236,128,0,117324:0:0:0:0:
320,192,117236,1,0,0:0:0:0:
64,0,117411,1,0,0:0:0:0:
320,192,117411,1,0,0:0:0:0:
192,0,117587,1,0,0:0:0:0:
320,0,117674,1,0,0:0:0:0:
192,0,117762,1,0,0:0:0:0:
448,0,117762,1,0,0:0:0:0:
320,0,117938,1,0,0:0:0:0:
192,0,118025,1,0,0:0:0:0:
64,0,118113,1,0,0:0:0:0:
448,0,118113,128,0,118201:0:0:0:0:
320,0,118201,1,0,0:0:0:0:
192,0,118288,1,0,0:0:0:0:
64,0,118376,1,0,0:0:0:0:
448,0,118464,1,0,0:0:0:0:
320,0,118508,1,0,0:0:0:0:
192,0,118552,1,0,0:0:0:0:
64,0,118595,1,0,0:0:0:0:
448,0,118639,1,0,0:0:0:0:
320,0,118683,1,0,0:0:0:0:
64,0,118727,1,0,0:0:0:0:
192,0,118771,1,0,0:0:0:0:
320,0,118815,1,0,0:0:0:0:
448,0,118815,1,0,0:0:0:0:
320,192,119078,1,0,0:0:0:0:
192,192,119166,1,0,0:0:0:0:
320,192,119341,1,0,0:0:0:0:
320,0,119604,1,0,0:0:0:0:
192,0,119867,1,0,0:0:0:0:
320,192,119955,1,0,0:0:0:0:
192,192,120043,1,0,0:0:0:0:
192,0,120394,1,0,0:0:0:0:
320,192,120569,1,0,0:0:0:0:
320,0,120920,1,0,0:0:0:0:
448,0,120920,128,0,121008:0:0:0:0:
192,0,121008,1,0,0:0:0:0:
320,0,121095,1,0,0:0:0:0:
192,0,121271,1,0,0:0:0:0:
320,0,121359,1,0,0:0:0:0:
64,0,121446,1,0,0:0:0:0:
192,0,121446,128,0,121534:0:0:0:0:
448,0,121534,1,0,0:0:0:0:
320,0,121578,1,0,0:0:0:0:
64,0,121622,128,0,124429:0:0:0:0:
192,0,124429,128,0,124955:0:0:0:0:
192,0,125131,1,0,0:0:0:0:
320,0,125174,1,0,0:0:0:0:
448,0,125218,1,0,0:0:0:0:
64,0,125262,1,0,0:0:0:0:
192,0,125306,1,0,0:0:0:0:
320,0,125350,1,0,0:0:0:0:
448,0,125394,1,0,0:0:0:0:
64,0,125438,1,0,0:0:0:0:
192,0,125481,1,0,0:0:0:0:
320,192,125598,1,0,0:0:0:0:
192,192,125715,1,0,0:0:0:0:
320,192,125832,1,0,0:0:0:0:
192,192,125949,1,0,0:0:0:0:
320,192,126066,1,0,0:0:0:0:
192,0,126183,1,0,0:0:0:0:
320,192,126300,1,0,0:0:0:0:
192,192,126417,1,0,0:0:0:0:
320,192,126534,1,0,0:0:0:0:
192,192,126651,1,0,0:0:0:0:
320,192,126768,1,0,0:0:0:0:
192,192,126885,1,0,0:0:0:0:
320,192,127002,1,0,0:0:0:0:
64,192,127119,1,0,0:0:0:0:
320,0,127236,128,0,127499:0:0:0:0:
320,0,127587,1,0,0:0:0:0:
448,0,127631,1,0,0:0:0:0:
64,0,127674,1,0,0:0:0:0:
192,0,127718,1,0,0:0:0:0:
320,0,127762,1,0,0:0:0:0:
448,0,127806,1,0,0:0:0:0:
64,0,127850,1,0,0:0:0:0:
192,0,127894,1,0,0:0:0:0:
320,0,127938,128,0,130043:0:0:0:0:
64,0,130043,128,0,130394:0:0:0:0:
448,0,130394,128,0,131271:0:0:0:0:
448,0,131402,1,0,0:0:0:0:
320,192,131534,1,0,0:0:0:0:
448,0,131666,1,0,0:0:0:0:
320,192,131797,1,0,0:0:0:0:
448,0,131929,1,0,0:0:0:0:
320,192,132060,1,0,0:0:0:0:
448,0,132192,1,0,0:0:0:0:
320,192,132324,1,0,0:0:0:0:
448,0,132455,1,0,0:0:0:0:
320,0,132587,1,0,0:0:0:0:
64,0,132718,1,0,0:0:0:0:
192,0,132850,128,0,133113:0:0:0:0:
192,0,133201,128,0,133464:0:0:0:0:
192,0,133552,128,0,133815:0:0:0:0:
192,0,133902,128,0,134166:0:0:0:0:
192,0,134253,128,0,134516:0:0:0:0:
192,0,134604,128,0,134867:0:0:0:0:
192,0,134955,128,0,135218:0:0:0:0:
192,0,135306,128,0,135569:0:0:0:0:
64,0,135657,128,0,135920:0:0:0:0:
64,0,136008,128,0,136271:0:0:0:0:
64,0,136359,128,0,136622:0:0:0:0:
64,0,136709,128,0,136973:0:0:0:0:
192,0,137060,1,0,0:0:0:0:
64,0,137148,1,0,0:0:0:0:
192,0,137236,1,0,0:0:0:0:
64,0,137324,1,0,0:0:0:0:
192,0,137411,128,0,138464:0:0:0:0:
64,0,138464,128,0,139341:0:0:0:0:
448,0,138464,128,0,139341:0:0:0:0:
192,0,138639,1,0,0:0:0:0:
320,0,138815,1,0,0:0:0:0:
192,0,138990,1,0,0:0:0:0:
320,0,139166,1,0,0:0:0:0:
192,0,139341,1,0,0:0:0:0:
320,0,139516,1,0,0:0:0:0:
448,0,139604,1,0,0:0:0:0:
320,0,139692,1,0,0:0:0:0:
448,0,139780,128,0,143727:0:0:0:0:
64,0,139867,128,0,141271:0:0:0:0:
192,0,140043,1,0,0:0:0:0:
320,0,140218,1,0,0:0:0:0:
192,0,140394,1,0,0:0:0:0:
320,0,140569,1,0,0:0:0:0:
192,0,140745,1,0,0:0:0:0:
320,0,140920,1,0,0:0:0:0:
192,0,141095,1,0,0:0:0:0:
320,0,141271,128,0,143727:0:0:0:0:
64,0,143376,128,0,143727:0:0:0:0:
192,0,143727,128,0,143990:0:0:0:0:
64,0,144078,1,0,0:0:0:0:
320,0,144078,1,0,0:0:0:0:
448,0,144078,1,0,0:0:0:0:
64,0,144341,1,0,0:0:0:0:
192,0,144341,1,0,0:0:0:0:
320,0,144429,1,0,0:0:0:0:
448,0,144429,1,0,0:0:0:0:
192,0,144604,1,0,0:0:0:0:
448,0,144604,1,0,0:0:0:0:
64,0,144692,1,0,0:0:0:0:
320,0,144692,1,0,0:0:0:0:
448,0,144780,1,0,0:0:0:0:
192,0,144867,1,0,0:0:0:0:
64,0,144955,1,0,0:0:0:0:
448,0,144955,1,0,0:0:0:0:
192,0,145043,1,0,0:0:0:0:
320,0,145043,1,0,0:0:0:0:
64,192,145131,1,0,0:0:0:0:
448,192,145131,1,0,0:0:0:0:
192,0,145306,1,0,0:0:0:0:
320,0,145306,1,0,0:0:0:0:
448,192,145306,1,0,0:0:0:0:
64,0,145481,1,0,0:0:0:0:
448,0,145481,1,0,0:0:0:0:
64,0,145657,1,0,0:0:0:0:
192,0,145657,1,0,0:0:0:0:
448,192,145657,1,0,0:0:0:0:
320,0,145745,1,0,0:0:0:0:
192,0,145832,1,0,0:0:0:0:
64,0,145920,1,0,0:0:0:0:
320,0,145920,1,0,0:0:0:0:
192,0,146008,1,0,0:0:0:0:
448,0,146008,1,0,0:0:0:0:
448,192,146183,1,0,0:0:0:0:
64,192,146183,1,0,0:0:0:0:
320,192,146183,1,0,0:0:0:0:
192,0,146359,1,0,0:0:0:0:
320,0,146534,1,0,0:0:0:0:
448,0,146534,1,0,0:0:0:0:
64,0,146709,1,0,0:0:0:0:
448,0,146709,1,0,0:0:0:0:
192,0,146797,1,0,0:0:0:0:
320,0,146797,1,0,0:0:0:0:
64,0,146885,1,0,0:0:0:0:
448,0,146885,1,0,0:0:0:0:
320,0,147060,1,0,0:0:0:0:
448,0,147060,1,0,0:0:0:0:
64,0,147148,1,0,0:0:0:0:
192,0,147148,1,0,0:0:0:0:
320,0,147236,1,0,0:0:0:0:
448,0,147236,1,0,0:0:0:0:
64,0,147411,1,0,0:0:0:0:
192,0,147455,1,0,0:0:0:0:
320,0,147499,1,0,0:0:0:0:
448,0,147543,1,0,0:0:0:0:
64,0,147587,1,0,0:0:0:0:
192,0,147587,1,0,0:0:0:0:
320,0,147674,1,0,0:0:0:0:
448,0,147674,1,0,0:0:0:0:
64,0,147762,1,0,0:0:0:0:
192,0,147762,1,0,0:0:0:0:
320,0,147850,1,0,0:0:0:0:
448,0,147850,1,0,0:0:0:0:
64,0,147938,1,0,0:0:0:0:
192,0,147938,1,0,0:0:0:0:
64,0,148113,1,0,0:0:0:0:
448,0,148113,1,0,0:0:0:0:
192,192,148113,1,0,0:0:0:0:
320,0,148201,1,0,0:0:0:0:
192,0,148288,1,0,0:0:0:0:
320,0,148376,1,0,0:0:0:0:
64,0,148464,1,0,0:0:0:0:
448,0,148464,1,0,0:0:0:0:
192,0,148639,1,0,0:0:0:0:
320,0,148727,1,0,0:0:0:0:
448,0,148727,1,0,0:0:0:0:
64,0,148815,1,0,0:0:0:0:
192,0,148902,1,0,0:0:0:0:
320,0,148902,1,0,0:0:0:0:
64,0,148990,1,0,0:0:0:0:
448,0,148990,1,0,0:0:0:0:
192,0,149078,1,0,0:0:0:0:
64,0,149166,1,0,0:0:0:0:
448,0,149166,1,0,0:0:0:0:
320,0,149209,1,0,0:0:0:0:
192,0,149253,1,0,0:0:0:0:
64,0,149297,1,0,0:0:0:0:
320,0,149341,1,0,0:0:0:0:
448,0,149341,1,0,0:0:0:0:
64,0,149516,1,0,0:0:0:0:
320,0,149516,1,0,0:0:0:0:
192,0,149604,1,0,0:0:0:0:
448,0,149604,1,0,0:0:0:0:
64,0,149692,1,0,0:0:0:0:
320,0,149692,1,0,0:0:0:0:
192,0,149780,1,0,0:0:0:0:
320,0,149867,1,0,0:0:0:0:
448,0,149867,1,0,0:0:0:0:
64,0,149955,1,0,0:0:0:0:
192,0,149955,1,0,0:0:0:0:
448,0,150043,1,0,0:0:0:0:
64,0,150131,1,0,0:0:0:0:
192,0,150131,1,0,0:0:0:0:
320,0,150218,1,0,0:0:0:0:
448,0,150218,1,0,0:0:0:0:
64,0,150306,1,0,0:0:0:0:
192,0,150350,1,0,0:0:0:0:
320,0,150394,1,0,0:0:0:0:
448,0,150394,1,0,0:0:0:0:
64,0,150569,1,0,0:0:0:0:
448,0,150569,1,0,0:0:0:0:
64,0,150745,1,0,0:0:0:0:
192,0,150745,1,0,0:0:0:0:
320,192,150745,1,0,0:0:0:0:
448,0,150832,1,0,0:0:0:0:
320,0,150920,1,0,0:0:0:0:
192,0,151008,1,0,0:0:0:0:
320,0,151095,1,0,0:0:0:0:
448,0,151095,1,0,0:0:0:0:
64,0,151183,1,0,0:0:0:0:
192,0,151183,1,0,0:0:0:0:
320,0,151271,1,0,0:0:0:0:
448,0,151271,1,0,0:0:0:0:
64,0,151446,1,0,0:0:0:0:
192,0,151446,1,0,0:0:0:0:
320,0,151534,1,0,0:0:0:0:
64,0,151622,1,0,0:0:0:0:
192,192,151622,1,0,0:0:0:0:
320,192,151709,1,0,0:0:0:0:
448,0,151797,1,0,0:0:0:0:
192,192,151797,1,0,0:0:0:0:
320,0,151973,1,0,0:0:0:0:
448,0,151973,1,0,0:0:0:0:
64,0,152060,1,0,0:0:0:0:
192,0,152060,1,0,0:0:0:0:
320,0,152148,128,0,152323:0:0:0:0:
448,0,152148,128,0,152323:0:0:0:0:
64,0,152411,1,0,0:0:0:0:
320,0,152411,1,0,0:0:0:0:
192,0,152499,1,0,0:0:0:0:
448,0,152499,1,0,0:0:0:0:
64,0,152674,1,0,0:0:0:0:
448,0,152674,1,0,0:0:0:0:
320,0,152762,1,0,0:0:0:0:
64,0,152850,1,0,0:0:0:0:
192,0,152850,1,0,0:0:0:0:
448,192,152850,1,0,0:0:0:0:
64,0,153025,1,0,0:0:0:0:
448,0,153069,1,0,0:0:0:0:
320,0,153113,1,0,0:0:0:0:
192,0,153157,1,0,0:0:0:0:
64,0,153201,1,0,0:0:0:0:
320,0,153288,1,0,0:0:0:0:
448,0,153376,1,0,0:0:0:0:
192,0,153464,1,0,0:0:0:0:
320,0,153464,1,0,0:0:0:0:
64,0,153552,1,0,0:0:0:0:
448,0,153552,1,0,0:0:0:0:
192,0,153639,1,0,0:0:0:0:
320,0,153639,1,0,0:0:0:0:
64,192,153727,1,0,0:0:0:0:
448,192,153727,1,0,0:0:0:0:
64,0,153902,1,0,0:0:0:0:
320,0,153902,1,0,0:0:0:0:
64,0,154078,1,0,0:0:0:0:
320,0,154078,1,0,0:0:0:0:
192,0,154166,1,0,0:0:0:0:
448,0,154166,1,0,0:0:0:0:
64,0,154253,1,0,0:0:0:0:
320,0,154253,1,0,0:0:0:0:
192,0,154429,1,0,0:0:0:0:
64,192,154429,1,0,0:0:0:0:
448,0,154516,1,0,0:0:0:0:
320,0,154604,1,0,0:0:0:0:
64,0,154692,1,0,0:0:0:0:
192,0,154780,1,0,0:0:0:0:
320,0,154780,1,0,0:0:0:0:
64,0,154867,1,0,0:0:0:0:
448,0,154867,1,0,0:0:0:0:
192,0,154955,128,0,155218:0:0:0:0:
320,0,154955,128,0,155218:0:0:0:0:
64,0,155306,1,0,0:0:0:0:
448,0,155306,1,0,0:0:0:0:
192,192,155306,1,0,0:0:0:0:
320,192,155394,1,0,0:0:0:0:
64,0,155481,1,0,0:0:0:0:
448,0,155481,1,0,0:0:0:0:
192,0,155569,1,0,0:0:0:0:
320,0,155569,1,0,0:0:0:0:
448,0,155745,1,0,0:0:0:0:
64,0,155832,1,0,0:0:0:0:
320,0,155832,1,0,0:0:0:0:
192,0,155920,1,0,0:0:0:0:
320,0,156008,1,0,0:0:0:0:
448,0,156008,1,0,0:0:0:0:
64,0,156183,1,0,0:0:0:0:
320,0,156183,1,0,0:0:0:0:
192,0,156271,1,0,0:0:0:0:
448,0,156271,1,0,0:0:0:0:
64,0,156359,1,0,0:0:0:0:
320,0,156359,1,0,0:0:0:0:
448,0,156446,1,0,0:0:0:0:
64,0,156534,1,0,0:0:0:0:
192,0,156534,1,0,0:0:0:0:
192,0,156709,1,0,0:0:0:0:
320,0,156797,1,0,0:0:0:0:
64,0,156885,1,0,0:0:0:0:
448,0,156885,1,0,0:0:0:0:
192,192,156885,1,0,0:0:0:0:
192,0,157060,1,0,0:0:0:0:
320,0,157148,1,0,0:0:0:0:
64,0,157236,1,0,0:0:0:0:
448,0,157236,1,0,0:0:0:0:
320,0,157323,1,0,0:0:0:0:
64,0,157411,1,0,0:0:0:0:
192,0,157411,1,0,0:0:0:0:
64,0,157587,1,0,0:0:0:0:
320,0,157762,1,0,0:0:0:0:
448,0,157762,1,0,0:0:0:0:
64,0,157938,1,0,0:0:0:0:
192,0,157938,1,0,0:0:0:0:
320,0,158025,1,0,0:0:0:0:
448,0,158025,1,0,0:0:0:0:
64,0,158113,1,0,0:0:0:0:
192,0,158113,1,0,0:0:0:0:
192,0,158288,1,0,0:0:0:0:
320,0,158288,1,0,0:0:0:0:
64,0,158376,1,0,0:0:0:0:
448,0,158376,1,0,0:0:0:0:
192,0,158464,1,0,0:0:0:0:
320,0,158464,1,0,0:0:0:0:
64,0,158639,1,0,0:0:0:0:
192,0,158683,1,0,0:0:0:0:
448,0,158727,1,0,0:0:0:0:
320,0,158771,1,0,0:0:0:0:
192,0,158815,1,0,0:0:0:0:
64,0,158902,1,0,0:0:0:0:
448,0,158902,1,0,0:0:0:0:
192,0,158990,1,0,0:0:0:0:
320,0,158990,1,0,0:0:0:0:
64,0,159078,1,0,0:0:0:0:
448,0,159078,1,0,0:0:0:0:
192,0,159166,1,0,0:0:0:0:
320,0,159166,1,0,0:0:0:0:
192,0,159341,1,0,0:0:0:0:
320,0,159341,1,0,0:0:0:0:
64,0,159429,1,0,0:0:0:0:
448,0,159429,1,0,0:0:0:0:
320,0,159516,1,0,0:0:0:0:
192,0,159604,1,0,0:0:0:0:
64,0,159692,1,0,0:0:0:0:
448,0,159692,1,0,0:0:0:0:
320,0,159780,1,0,0:0:0:0:
448,192,159867,1,0,0:0:0:0:
64,0,159867,1,0,0:0:0:0:
192,192,159955,1,0,0:0:0:0:
320,0,159955,1,0,0:0:0:0:
64,192,160043,1,0,0:0:0:0:
192,192,160131,1,0,0:0:0:0:
320,0,160131,1,0,0:0:0:0:
448,192,160218,1,0,0:0:0:0:
64,0,160218,1,0,0:0:0:0:
192,192,160306,1,0,0:0:0:0:
320,192,160394,1,0,0:0:0:0:
64,192,160394,1,0,0:0:0:0:
192,0,160569,1,0,0:0:0:0:
320,192,160569,1,0,0:0:0:0:
448,192,160569,1,0,0:0:0:0:
448,0,160745,1,0,0:0:0:0:
64,0,160832,1,0,0:0:0:0:
192,0,160832,1,0,0:0:0:0:
320,0,160920,1,0,0:0:0:0:
448,0,160920,1,0,0:0:0:0:
64,0,161095,1,0,0:0:0:0:
320,0,161095,1,0,0:0:0:0:
192,0,161183,1,0,0:0:0:0:
448,0,161183,1,0,0:0:0:0:
320,0,161271,1,0,0:0:0:0:
64,0,161359,1,0,0:0:0:0:
192,0,161359,1,0,0:0:0:0:
320,0,161446,1,0,0:0:0:0:
448,0,161446,1,0,0:0:0:0:
192,0,161534,1,0,0:0:0:0:
64,0,161622,1,0,0:0:0:0:
448,0,161622,1,0,0:0:0:0:
64,0,161797,1,0,0:0:0:0:
320,0,161797,1,0,0:0:0:0:
192,0,161973,1,0,0:0:0:0:
448,0,161973,1,0,0:0:0:0:
64,192,161973,1,0,0:0:0:0:
320,0,162060,1,0,0:0:0:0:
192,0,162148,1,0,0:0:0:0:
448,0,162323,1,0,0:0:0:0:
64,0,162411,1,0,0:0:0:0:
320,0,162411,1,0,0:0:0:0:
192,0,162499,1,0,0:0:0:0:
320,0,162587,1,0,0:0:0:0:
192,0,162674,1,0,0:0:0:0:
448,0,162674,1,0,0:0:0:0:
64,192,162674,1,0,0:0:0:0:
320,0,162850,1,0,0:0:0:0:
192,0,162938,1,0,0:0:0:0:
64,0,163025,1,0,0:0:0:0:
448,0,163025,1,0,0:0:0:0:
320,0,163113,1,0,0:0:0:0:
64,0,163201,1,0,0:0:0:0:
192,0,163201,1,0,0:0:0:0:
320,0,163288,1,0,0:0:0:0:
448,0,163288,1,0,0:0:0:0:
64,192,163376,1,0,0:0:0:0:
192,192,163376,1,0,0:0:0:0:
64,0,163639,1,0,0:0:0:0:
192,0,163639,1,0,0:0:0:0:
320,0,163727,1,0,0:0:0:0:
448,0,163727,1,0,0:0:0:0:
192,0,163815,1,0,0:0:0:0:
64,0,163902,1,0,0:0:0:0:
320,0,163902,1,0,0:0:0:0:
448,0,163990,1,0,0:0:0:0:
64,0,164078,1,0,0:0:0:0:
192,0,164078,1,0,0:0:0:0:
448,0,164166,1,0,0:0:0:0:
320,0,164253,1,0,0:0:0:0:
64,0,164341,1,0,0:0:0:0:
192,0,164341,1,0,0:0:0:0:
320,0,164429,1,0,0:0:0:0:
448,0,164429,1,0,0:0:0:0:
320,0,164604,1,0,0:0:0:0:
448,0,164604,1,0,0:0:0:0:
64,0,164692,1,0,0:0:0:0:
192,0,164692,1,0,0:0:0:0:
320,0,164780,1,0,0:0:0:0:
448,0,164780,1,0,0:0:0:0:
64,0,164867,1,0,0:0:0:0:
192,0,164867,1,0,0:0:0:0:
320,0,164955,1,0,0:0:0:0:
448,0,164955,1,0,0:0:0:0:
64,0,165131,1,0,0:0:0:0:
448,0,165131,1,0,0:0:0:0:
192,192,165131,1,0,0:0:0:0:
320,0,165306,1,0,0:0:0:0:
64,0,165394,1,0,0:0:0:0:
192,0,165394,1,0,0:0:0:0:
448,0,165481,1,0,0:0:0:0:
64,0,165657,1,0,0:0:0:0:
320,0,165657,1,0,0:0:0:0:
192,0,165745,1,0,0:0:0:0:
64,0,165920,1,0,0:0:0:0:
448,0,165920,1,0,0:0:0:0:
192,0,166008,1,0,0:0:0:0:
320,0,166008,1,0,0:0:0:0:
64,0,166095,1,0,0:0:0:0:
448,0,166095,1,0,0:0:0:0:
448,192,166183,128,0,166534:0:0:0:0:
320,192,166183,128,0,166534:0:0:0:0:
64,0,166534,1,0,0:0:0:0:
192,0,166534,1,0,0:0:0:0:
448,0,166622,1,0,0:0:0:0:
320,0,166709,1,0,0:0:0:0:
64,0,166797,1,0,0:0:0:0:
192,0,166797,1,0,0:0:0:0:
320,0,166885,1,0,0:0:0:0:
448,0,166885,1,0,0:0:0:0:
192,0,166973,1,0,0:0:0:0:
448,192,167060,1,0,0:0:0:0:
64,0,167060,1,0,0:0:0:0:
192,192,167148,1,0,0:0:0:0:
320,0,167236,1,0,0:0:0:0:
448,0,167236,1,0,0:0:0:0:
64,0,167323,1,0,0:0:0:0:
192,0,167323,1,0,0:0:0:0:
320,0,167411,1,0,0:0:0:0:
448,0,167411,1,0,0:0:0:0:
64,0,167499,1,0,0:0:0:0:
192,0,167499,1,0,0:0:0:0:
320,0,167587,1,0,0:0:0:0:
448,0,167587,1,0,0:0:0:0:
192,0,167674,1,0,0:0:0:0:
64,0,167762,1,0,0:0:0:0:
448,0,167762,1,0,0:0:0:0:
192,0,167850,1,0,0:0:0:0:
320,0,167938,1,0,0:0:0:0:
448,0,167938,1,0,0:0:0:0:
64,0,168025,1,0,0:0:0:0:
192,0,168113,1,0,0:0:0:0:
320,0,168113,1,0,0:0:0:0:
448,0,168201,1,0,0:0:0:0:
64,0,168288,1,0,0:0:0:0:
192,0,168288,1,0,0:0:0:0:
320,0,168376,1,0,0:0:0:0:
64,0,168464,1,0,0:0:0:0:
448,0,168464,1,0,0:0:0:0:
320,0,168552,1,0,0:0:0:0:
64,0,168639,1,0,0:0:0:0:
192,0,168639,1,0,0:0:0:0:
448,0,168727,1,0,0:0:0:0:
64,0,168815,1,0,0:0:0:0:
320,0,168815,1,0,0:0:0:0:
192,0,168902,1,0,0:0:0:0:
320,0,168990,1,0,0:0:0:0:
448,0,168990,1,0,0:0:0:0:
192,0,169078,1,0,0:0:0:0:
64,0,169166,1,0,0:0:0:0:
448,0,169166,1,0,0:0:0:0:
192,0,169253,1,0,0:0:0:0:
320,0,169253,1,0,0:0:0:0:
64,0,169341,1,0,0:0:0:0:
448,0,169341,1,0,0:0:0:0:
192,0,169429,1,0,0:0:0:0:
320,0,169516,1,0,0:0:0:0:
448,0,169516,1,0,0:0:0:0:
64,0,169604,1,0,0:0:0:0:
192,0,169604,1,0,0:0:0:0:
320,0,169692,1,0,0:0:0:0:
448,0,169692,1,0,0:0:0:0:
64,0,169780,1,0,0:0:0:0:
448,0,169867,1,0,0:0:0:0:
320,0,169911,1,0,0:0:0:0:
192,0,169955,1,0,0:0:0:0:
64,0,169999,1,0,0:0:0:0:
448,0,170043,1,0,0:0:0:0:
64,0,170131,1,0,0:0:0:0:
192,0,170131,1,0,0:0:0:0:
320,0,170218,1,0,0:0:0:0:
448,0,170218,1,0,0:0:0:0:
64,0,170306,1,0,0:0:0:0:
192,0,170306,1,0,0:0:0:0:
320,0,170394,1,0,0:0:0:0:
448,0,170394,1,0,0:0:0:0:
64,0,170481,1,0,0:0:0:0:
192,0,170569,1,0,0:0:0:0:
320,192,170569,1,0,0:0:0:0:
64,0,170657,1,0,0:0:0:0:
320,0,170745,1,0,0:0:0:0:
192,0,170832,1,0,0:0:0:0:
320,0,170920,1,0,0:0:0:0:
448,0,170920,1,0,0:0:0:0:
64,0,171008,1,0,0:0:0:0:
192,0,171095,1,0,0:0:0:0:
64,0,171183,1,0,0:0:0:0:
320,0,171183,1,0,0:0:0:0:
448,0,171271,1,0,0:0:0:0:
192,0,171359,1,0,0:0:0:0:
320,0,171359,1,0,0:0:0:0:
64,0,171446,1,0,0:0:0:0:
448,0,171446,1,0,0:0:0:0:
320,0,171534,1,0,0:0:0:0:
64,0,171622,1,0,0:0:0:0:
192,0,171666,1,0,0:0:0:0:
320,0,171709,1,0,0:0:0:0:
448,0,171753,1,0,0:0:0:0:
64,0,171797,1,0,0:0:0:0:
192,0,171797,1,0,0:0:0:0:
320,0,171885,1,0,0:0:0:0:
192,0,171973,1,0,0:0:0:0:
448,0,171973,1,0,0:0:0:0:
64,0,172060,1,0,0:0:0:0:
320,0,172060,1,0,0:0:0:0:
192,0,172148,1,0,0:0:0:0:
448,0,172148,1,0,0:0:0:0:
320,0,172236,1,0,0:0:0:0:
64,0,172323,1,0,0:0:0:0:
192,0,172323,1,0,0:0:0:0:
320,0,172411,1,0,0:0:0:0:
448,0,172411,1,0,0:0:0:0:
192,0,172499,1,0,0:0:0:0:
320,0,172587,1,0,0:0:0:0:
448,0,172587,1,0,0:0:0:0:
64,0,172674,1,0,0:0:0:0:
192,0,172674,1,0,0:0:0:0:
320,0,172762,1,0,0:0:0:0:
64,0,172850,1,0,0:0:0:0:
192,0,172850,1,0,0:0:0:0:
448,0,172938,1,0,0:0:0:0:
192,0,173025,1,0,0:0:0:0:
320,0,173025,1,0,0:0:0:0:
64,0,173113,1,0,0:0:0:0:
320,0,173201,1,0,0:0:0:0:
448,0,173201,1,0,0:0:0:0:
192,0,173288,1,0,0:0:0:0:
64,0,173376,1,0,0:0:0:0:
320,0,173464,1,0,0:0:0:0:
192,0,173552,1,0,0:0:0:0:
64,0,173639,1,0,0:0:0:0:
320,0,173639,1,0,0:0:0:0:
192,0,173727,1,0,0:0:0:0:
448,192,173815,1,0,0:0:0:0:
64,0,173902,1,0,0:0:0:0:
192,0,173902,1,0,0:0:0:0:
448,0,173990,1,0,0:0:0:0:
192,0,174078,1,0,0:0:0:0:
320,0,174166,1,0,0:0:0:0:
64,0,174253,1,0,0:0:0:0:
448,0,174253,1,0,0:0:0:0:
192,0,174341,1,0,0:0:0:0:
320,0,174429,1,0,0:0:0:0:
448,0,174429,1,0,0:0:0:0:
64,192,174516,1,0,0:0:0:0:
192,0,174516,1,0,0:0:0:0:
448,192,174604,1,0,0:0:0:0:
320,192,174604,1,0,0:0:0:0:
64,0,174692,1,0,0:0:0:0:
192,0,174780,1,0,0:0:0:0:
64,0,174867,1,0,0:0:0:0:
448,0,174867,1,0,0:0:0:0:
192,0,174955,1,0,0:0:0:0:
320,0,174955,1,0,0:0:0:0:
448,0,175043,1,0,0:0:0:0:
64,0,175130,1,0,0:0:0:0:
192,0,175130,1,0,0:0:0:0:
320,0,175218,1,0,0:0:0:0:
64,0,175306,1,0,0:0:0:0:
192,0,175306,1,0,0:0:0:0:
448,192,175394,1,0,0:0:0:0:
320,0,175438,1,0,0:0:0:0:
192,0,175481,1,0,0:0:0:0:
64,0,175525,1,0,0:0:0:0:
320,192,175569,1,0,0:0:0:0:
448,192,175613,1,0,0:0:0:0:
64,0,175657,1,0,0:0:0:0:
192,0,175657,1,0,0:0:0:0:
320,0,175745,1,0,0:0:0:0:
192,192,175832,1,0,0:0:0:0:
64,0,175920,1,0,0:0:0:0:
320,0,175920,1,0,0:0:0:0:
192,0,176008,1,0,0:0:0:0:
448,0,176008,1,0,0:0:0:0:
64,0,176095,1,0,0:0:0:0:
320,0,176095,1,0,0:0:0:0:
192,192,176183,1,0,0:0:0:0:
448,192,176183,1,0,0:0:0:0:
320,0,176271,1,0,0:0:0:0:
64,0,176359,1,0,0:0:0:0:
448,0,176359,1,0,0:0:0:0:
320,0,176446,1,0,0:0:0:0:
192,0,176534,1,0,0:0:0:0:
64,0,176622,1,0,0:0:0:0:
448,0,176622,1,0,0:0:0:0:
192,0,176709,1,0,0:0:0:0:
320,0,176709,1,0,0:0:0:0:
448,0,176797,1,0,0:0:0:0:
64,0,176885,1,0,0:0:0:0:
192,0,176885,1,0,0:0:0:0:
448,0,176973,1,0,0:0:0:0:
192,0,177060,1,0,0:0:0:0:
64,0,177148,1,0,0:0:0:0:
448,0,177148,1,0,0:0:0:0:
192,0,177236,1,0,0:0:0:0:
320,0,177236,1,0,0:0:0:0:
64,0,177323,1,0,0:0:0:0:
448,0,177323,1,0,0:0:0:0:
320,192,177411,1,0,0:0:0:0:
192,192,177411,1,0,0:0:0:0:
448,0,177499,1,0,0:0:0:0:
64,0,177587,1,0,0:0:0:0:
192,0,177674,1,0,0:0:0:0:
320,0,177762,1,0,0:0:0:0:
448,0,177762,1,0,0:0:0:0:
192,0,177850,1,0,0:0:0:0:
64,0,177938,1,0,0:0:0:0:
320,0,178025,1,0,0:0:0:0:
448,0,178025,1,0,0:0:0:0:
64,0,178113,1,0,0:0:0:0:
320,0,178201,1,0,0:0:0:0:
64,192,178288,1,0,0:0:0:0:
192,0,178288,1,0,0:0:0:0:
320,0,178376,1,0,0:0:0:0:
64,0,178464,1,0,0:0:0:0:
448,192,178552,1,0,0:0:0:0:
64,0,178639,1,0,0:0:0:0:
192,0,178639,1,0,0:0:0:0:
320,0,178727,1,0,0:0:0:0:
448,0,178727,1,0,0:0:0:0:
64,0,178815,1,0,0:0:0:0:
192,0,178815,1,0,0:0:0:0:
320,0,178902,1,0,0:0:0:0:
64,0,178990,1,0,0:0:0:0:
448,0,178990,1,0,0:0:0:0:
192,0,179078,1,0,0:0:0:0:
320,0,179166,1,0,0:0:0:0:
192,0,179253,1,0,0:0:0:0:
64,0,179341,1,0,0:0:0:0:
448,0,179341,1,0,0:0:0:0:
320,0,179429,1,0,0:0:0:0:
64,0,179516,1,0,0:0:0:0:
320,0,179604,1,0,0:0:0:0:
192,0,179692,1,0,0:0:0:0:
320,0,179780,1,0,0:0:0:0:
64,0,179867,1,0,0:0:0:0:
448,0,179867,1,0,0:0:0:0:
192,0,179955,1,0,0:0:0:0:
320,0,180043,1,0,0:0:0:0:
448,0,180043,1,0,0:0:0:0:
192,0,180130,1,0,0:0:0:0:
64,0,180218,1,0,0:0:0:0:
448,0,180218,1,0,0:0:0:0:
320,0,180306,1,0,0:0:0:0:
64,0,180394,1,0,0:0:0:0:
192,0,180394,1,0,0:0:0:0:
320,0,180481,1,0,0:0:0:0:
448,0,180481,1,0,0:0:0:0:
64,0,180569,1,0,0:0:0:0:
192,0,180569,1,0,0:0:0:0:
320,0,180657,1,0,0:0:0:0:
64,0,180745,1,0,0:0:0:0:
448,0,180745,1,0,0:0:0:0:
192,0,180832,1,0,0:0:0:0:
320,0,180832,1,0,0:0:0:0:
64,0,180920,1,0,0:0:0:0:
448,0,180920,1,0,0:0:0:0:
320,0,181008,1,0,0:0:0:0:
64,0,181095,1,0,0:0:0:0:
192,0,181095,1,0,0:0:0:0:
320,0,181183,1,0,0:0:0:0:
448,0,181271,1,0,0:0:0:0:
64,0,181359,1,0,0:0:0:0:
320,0,181359,1,0,0:0:0:0:
192,0,181446,1,0,0:0:0:0:
448,0,181446,1,0,0:0:0:0:
64,0,181534,1,0,0:0:0:0:
320,0,181534,1,0,0:0:0:0:
192,0,181622,1,0,0:0:0:0:
448,0,181622,1,0,0:0:0:0:
64,192,181709,1,0,0:0:0:0:
448,0,181797,1,0,0:0:0:0:
320,192,181797,1,0,0:0:0:0:
64,0,181885,1,0,0:0:0:0:
192,0,181973,1,0,0:0:0:0:
320,0,182060,1,0,0:0:0:0:
64,0,182148,1,0,0:0:0:0:
448,0,182148,1,0,0:0:0:0:
192,0,182236,1,0,0:0:0:0:
320,0,182323,1,0,0:0:0:0:
448,0,182323,1,0,0:0:0:0:
64,0,182411,1,0,0:0:0:0:
192,0,182411,1,0,0:0:0:0:
448,0,182499,1,0,0:0:0:0:
64,0,182587,1,0,0:0:0:0:
192,0,182587,1,0,0:0:0:0:
320,0,182674,1,0,0:0:0:0:
448,0,182674,1,0,0:0:0:0:
64,0,182762,1,0,0:0:0:0:
320,0,182850,1,0,0:0:0:0:
448,0,182850,1,0,0:0:0:0:
192,0,182938,1,0,0:0:0:0:
64,0,183025,1,0,0:0:0:0:
320,0,183025,1,0,0:0:0:0:
448,0,183113,1,0,0:0:0:0:
192,0,183201,1,0,0:0:0:0:
320,0,183288,1,0,0:0:0:0:
448,0,183288,1,0,0:0:0:0:
64,0,183376,1,0,0:0:0:0:
192,0,183376,1,0,0:0:0:0:
320,0,183464,1,0,0:0:0:0:
64,0,183552,1,0,0:0:0:0:
448,0,183552,1,0,0:0:0:0:
192,0,183639,1,0,0:0:0:0:
320,0,183639,1,0,0:0:0:0:
448,0,183727,1,0,0:0:0:0:
192,0,183815,1,0,0:0:0:0:
320,0,183815,1,0,0:0:0:0:
64,0,183902,1,0,0:0:0:0:
448,0,183902,1,0,0:0:0:0:
192,0,183990,1,0,0:0:0:0:
320,0,184078,1,0,0:0:0:0:
448,0,184078,1,0,0:0:0:0:
192,0,184166,1,0,0:0:0:0:
64,0,184253,1,0,0:0:0:0:
320,0,184253,1,0,0:0:0:0:
448,0,184341,1,0,0:0:0:0:
64,0,184429,1,0,0:0:0:0:
192,0,184429,1,0,0:0:0:0:
320,0,184516,1,0,0:0:0:0:
64,192,184604,1,0,0:0:0:0:
320,0,184692,1,0,0:0:0:0:
192,0,184780,1,0,0:0:0:0:
64,0,184867,1,0,0:0:0:0:
448,0,184867,1,0,0:0:0:0:
192,0,184955,1,0,0:0:0:0:
320,0,185043,1,0,0:0:0:0:
64,0,185130,1,0,0:0:0:0:
448,0,185130,1,0,0:0:0:0:
320,0,185218,1,0,0:0:0:0:
64,0,185306,1,0,0:0:0:0:
192,0,185306,1,0,0:0:0:0:
320,0,185394,1,0,0:0:0:0:
448,0,185394,1,0,0:0:0:0:
64,0,185481,1,0,0:0:0:0:
192,0,185481,1,0,0:0:0:0:
320,0,185569,1,0,0:0:0:0:
192,0,185657,1,0,0:0:0:0:
64,0,185745,1,0,0:0:0:0:
320,0,185745,1,0,0:0:0:0:
192,192,185832,1,0,0:0:0:0:
448,192,185832,1,0,0:0:0:0:
320,0,185920,1,0,0:0:0:0:
64,0,186008,1,0,0:0:0:0:
192,0,186095,1,0,0:0:0:0:
320,0,186095,1,0,0:0:0:0:
64,0,186183,1,0,0:0:0:0:
448,0,186183,1,0,0:0:0:0:
192,0,186271,1,0,0:0:0:0:
320,0,186359,1,0,0:0:0:0:
448,0,186359,1,0,0:0:0:0:
192,0,186446,1,0,0:0:0:0:
64,0,186534,1,0,0:0:0:0:
448,0,186534,1,0,0:0:0:0:
320,0,186622,1,0,0:0:0:0:
192,0,186709,1,0,0:0:0:0:
320,0,186797,1,0,0:0:0:0:
448,0,186797,1,0,0:0:0:0:
64,0,186885,1,0,0:0:0:0:
192,0,186885,1,0,0:0:0:0:
320,0,186973,1,0,0:0:0:0:
64,0,187060,1,0,0:0:0:0:
320,0,187148,1,0,0:0:0:0:
448,0,187148,1,0,0:0:0:0:
64,0,187236,1,0,0:0:0:0:
192,0,187236,1,0,0:0:0:0:
320,0,187323,1,0,0:0:0:0:
448,0,187323,1,0,0:0:0:0:
64,0,187411,1,0,0:0:0:0:
192,0,187411,1,0,0:0:0:0:
320,0,187499,1,0,0:0:0:0:
64,0,187587,1,0,0:0:0:0:
448,0,187587,1,0,0:0:0:0:
192,0,187674,1,0,0:0:0:0:
320,0,187762,1,0,0:0:0:0:
64,0,187850,1,0,0:0:0:0:
192,0,187850,1,0,0:0:0:0:
320,0,187938,1,0,0:0:0:0:
448,0,187938,1,0,0:0:0:0:
64,0,188025,1,0,0:0:0:0:
192,0,188113,1,0,0:0:0:0:
448,0,188113,1,0,0:0:0:0:
320,0,188201,1,0,0:0:0:0:
192,0,188288,1,0,0:0:0:0:
64,0,188376,1,0,0:0:0:0:
448,0,188376,1,0,0:0:0:0:
192,0,188464,1,0,0:0:0:0:
320,0,188464,1,0,0:0:0:0:
64,0,188552,1,0,0:0:0:0:
448,0,188552,1,0,0:0:0:0:
192,0,188639,1,0,0:0:0:0:
320,0,188639,1,0,0:0:0:0:
448,0,188639,1,0,0:0:0:0:
64,0,188727,1,0,0:0:0:0:
192,0,188815,1,0,0:0:0:0:
320,0,188902,1,0,0:0:0:0:
64,0,188990,1,0,0:0:0:0:
192,0,189166,1,0,0:0:0:0:
320,0,189253,1,0,0:0:0:0:
64,0,189341,1,0,0:0:0:0:
448,0,189341,1,0,0:0:0:0:
320,0,189516,1,0,0:0:0:0:
64,0,189604,1,0,0:0:0:0:
320,0,189692,1,0,0:0:0:0:
192,0,189780,1,0,0:0:0:0:
64,192,189780,1,0,0:0:0:0:
320,0,189867,1,0,0:0:0:0:
448,0,189867,1,0,0:0:0:0:
64,0,190043,1,0,0:0:0:0:
320,0,190130,1,0,0:0:0:0:
448,0,190130,1,0,0:0:0:0:
192,0,190218,1,0,0:0:0:0:
64,0,190306,1,0,0:0:0:0:
448,0,190306,1,0,0:0:0:0:
192,0,190394,1,0,0:0:0:0:
320,0,190394,1,0,0:0:0:0:
64,0,190569,1,0,0:0:0:0:
320,0,190657,1,0,0:0:0:0:
448,0,190657,1,0,0:0:0:0:
192,0,190745,1,0,0:0:0:0:
320,0,190832,1,0,0:0:0:0:
448,0,190832,1,0,0:0:0:0:
64,0,190920,1,0,0:0:0:0:
64,0,191095,1,0,0:0:0:0:
320,0,191271,1,0,0:0:0:0:
448,0,191271,1,0,0:0:0:0:
64,0,191446,1,0,0:0:0:0:
192,0,191622,1,0,0:0:0:0:
448,0,191622,1,0,0:0:0:0:
64,0,191797,1,0,0:0:0:0:
64,0,191973,1,0,0:0:0:0:
448,0,192060,1,0,0:0:0:0:
64,0,192148,1,0,0:0:0:0:
192,0,192148,1,0,0:0:0:0:
192,0,192323,1,0,0:0:0:0:
320,0,192411,1,0,0:0:0:0:
64,0,192499,128,0,192587:0:0:0:0:
320,0,192587,1,0,0:0:0:0:
448,0,192587,1,0,0:0:0:0:
64,0,192674,1,0,0:0:0:0:
192,0,192674,128,0,192762:0:0:0:0:
320,0,192850,1,0,0:0:0:0:
192,0,192938,1,0,0:0:0:0:
320,0,193025,1,0,0:0:0:0:
192,0,193113,1,0,0:0:0:0:
320,0,193201,128,0,193376:0:0:0:0:
448,0,193201,128,0,193376:0:0:0:0:
320,0,193464,1,0,0:0:0:0:
448,0,193464,1,0,0:0:0:0:
64,0,193552,1,0,0:0:0:0:
192,0,193639,1,0,0:0:0:0:
320,0,193727,1,0,0:0:0:0:
448,0,193727,1,0,0:0:0:0:
64,0,193815,1,0,0:0:0:0:
448,0,193902,1,0,0:0:0:0:
64,0,193990,1,0,0:0:0:0:
192,0,193990,1,0,0:0:0:0:
320,0,194078,1,0,0:0:0:0:
448,0,194078,1,0,0:0:0:0:
64,0,194166,1,0,0:0:0:0:
192,0,194253,1,0,0:0:0:0:
320,0,194341,1,0,0:0:0:0:
64,192,194341,1,0,0:0:0:0:
192,0,194429,1,0,0:0:0:0:
448,0,194516,1,0,0:0:0:0:
192,0,194604,1,0,0:0:0:0:
64,192,194604,1,0,0:0:0:0:
320,0,194867,1,0,0:0:0:0:
448,0,194867,1,0,0:0:0:0:
192,0,194955,1,0,0:0:0:0:
320,0,195043,1,0,0:0:0:0:
64,0,195130,1,0,0:0:0:0:
448,0,195130,1,0,0:0:0:0:
192,0,195218,1,0,0:0:0:0:
64,0,195306,128,0,195394:0:0:0:0:
448,0,195306,128,0,195394:0:0:0:0:
192,0,195569,1,0,0:0:0:0:
320,0,195569,1,0,0:0:0:0:
64,0,195657,1,0,0:0:0:0:
448,0,195657,1,0,0:0:0:0:
192,0,195832,1,0,0:0:0:0:
320,0,196008,1,0,0:0:0:0:
448,0,196008,1,0,0:0:0:0:
192,0,196183,1,0,0:0:0:0:
64,0,196271,1,0,0:0:0:0:
448,0,196271,1,0,0:0:0:0:
64,0,196534,1,0,0:0:0:0:
192,0,196534,1,0,0:0:0:0:
192,192,196709,1,0,0:0:0:0:
448,192,196797,1,0,0:0:0:0:
192,192,196885,1,0,0:0:0:0:
320,192,196973,1,0,0:0:0:0:
64,0,197060,1,0,0:0:0:0:
192,192,197060,128,0,197411:0:0:0:0:
64,0,197411,1,0,0:0:0:0:
320,0,197587,1,0,0:0:0:0:
64,0,197674,1,0,0:0:0:0:
192,0,197674,1,0,0:0:0:0:
320,0,197762,128,0,197938:0:0:0:0:
448,0,197762,128,0,197938:0:0:0:0:
192,0,198025,1,0,0:0:0:0:
320,0,198113,1,0,0:0:0:0:
448,0,198113,1,0,0:0:0:0:
320,0,198288,1,0,0:0:0:0:
448,0,198288,1,0,0:0:0:0:
320,0,198464,1,0,0:0:0:0:
448,0,198464,1,0,0:0:0:0:
64,0,198552,1,0,0:0:0:0:
192,0,198552,1,0,0:0:0:0:
448,0,198639,1,0,0:0:0:0:
64,0,198683,1,0,0:0:0:0:
192,0,198727,1,0,0:0:0:0:
320,0,198771,1,0,0:0:0:0:
64,0,198815,1,0,0:0:0:0:
448,192,198815,1,0,0:0:0:0:
320,0,199166,1,0,0:0:0:0:
448,0,199166,1,0,0:0:0:0:
64,0,199341,1,0,0:0:0:0:
192,0,199341,1,0,0:0:0:0:
320,0,199429,1,0,0:0:0:0:
448,0,199429,1,0,0:0:0:0:
320,192,199604,1,0,0:0:0:0:
448,192,199692,1,0,0:0:0:0:
192,192,199692,1,0,0:0:0:0:
320,0,199867,128,0,200130:0:0:0:0:
448,0,199867,128,0,200130:0:0:0:0:
64,192,199889,128,0,200130:0:0:0:0:
192,0,200218,1,0,0:0:0:0:
320,0,200394,1,0,0:0:0:0:
192,0,200481,1,0,0:0:0:0:
320,0,200569,1,0,0:0:0:0:
64,192,200745,1,0,0:0:0:0:
448,192,200920,1,0,0:0:0:0:
320,192,200920,1,0,0:0:0:0:
192,0,201095,1,0,0:0:0:0:
320,0,201271,1,0,0:0:0:0:
448,0,201271,1,0,0:0:0:0:
64,0,201446,1,0,0:0:0:0:
320,192,201446,1,0,0:0:0:0:
64,0,201622,1,0,0:0:0:0:
448,0,201622,1,0,0:0:0:0:
320,0,201797,1,0,0:0:0:0:
192,0,201885,1,0,0:0:0:0:
320,0,201973,1,0,0:0:0:0:
64,0,202148,1,0,0:0:0:0:
320,0,202323,1,0,0:0:0:0:
448,0,202323,1,0,0:0:0:0:
64,0,202499,1,0,0:0:0:0:
320,0,202587,1,0,0:0:0:0:
64,0,202674,128,0,202850:0:0:0:0:
192,0,202674,128,0,202850:0:0:0:0:
448,0,202674,128,0,202850:0:0:0:0:
192,0,203025,1,0,0:0:0:0:
192,192,203288,1,0,0:0:0:0:
64,192,203376,1,0,0:0:0:0:
448,192,203376,1,0,0:0:0:0:
192,0,203552,1,0,0:0:0:0:
320,0,203552,1,0,0:0:0:0:
448,0,203727,1,0,0:0:0:0:
64,0,203815,1,0,0:0:0:0:
192,0,203815,1,0,0:0:0:0:
320,0,203902,1,0,0:0:0:0:
448,0,203902,1,0,0:0:0:0:
192,0,204078,1,0,0:0:0:0:
320,0,204166,1,0,0:0:0:0:
448,0,204166,1,0,0:0:0:0:
192,0,204253,1,0,0:0:0:0:
64,0,204341,1,0,0:0:0:0:
320,0,204429,1,0,0:0:0:0:
448,0,204429,1,0,0:0:0:0:
192,0,204516,1,0,0:0:0:0:
448,0,204604,1,0,0:0:0:0:
64,0,204692,1,0,0:0:0:0:
192,0,204692,1,0,0:0:0:0:
320,0,204780,1,0,0:0:0:0:
448,0,204823,1,0,0:0:0:0:
64,0,204867,1,0,0:0:0:0:
192,0,204911,1,0,0:0:0:0:
320,0,204955,1,0,0:0:0:0:
448,0,204999,1,0,0:0:0:0:
64,0,205043,1,0,0:0:0:0:
192,0,205087,1,0,0:0:0:0:
320,0,205130,1,0,0:0:0:0:
64,0,205306,1,0,0:0:0:0:
320,0,205306,1,0,0:0:0:0:
64,0,205481,1,0,0:0:0:0:
320,0,205481,1,0,0:0:0:0:
192,0,205657,1,0,0:0:0:0:
320,0,205657,1,0,0:0:0:0:
64,0,205832,1,0,0:0:0:0:
320,0,205832,1,0,0:0:0:0:
192,0,206008,1,0,0:0:0:0:
320,0,206095,1,0,0:0:0:0:
192,0,206183,1,0,0:0:0:0:
448,0,206271,1,0,0:0:0:0:
192,0,206359,1,0,0:0:0:0:
320,0,206359,1,0,0:0:0:0:
64,0,206534,1,0,0:0:0:0:
192,0,206534,1,0,0:0:0:0:
64,0,206709,1,0,0:0:0:0:
448,0,206797,1,0,0:0:0:0:
192,192,206797,1,0,0:0:0:0:
320,192,206885,1,0,0:0:0:0:
192,192,206973,1,0,0:0:0:0:
320,192,207060,1,0,0:0:0:0:
448,192,207060,1,0,0:0:0:0:
192,0,207236,1,0,0:0:0:0:
64,0,207280,1,0,0:0:0:0:
448,0,207323,1,0,0:0:0:0:
320,0,207367,1,0,0:0:0:0:
192,0,207411,1,0,0:0:0:0:
64,0,207455,1,0,0:0:0:0:
448,0,207499,1,0,0:0:0:0:
320,0,207543,1,0,0:0:0:0:
64,0,207587,1,0,0:0:0:0:
192,0,207587,1,0,0:0:0:0:
320,0,207762,1,0,0:0:0:0:
192,0,207850,1,0,0:0:0:0:
448,0,207937,1,0,0:0:0:0:
64,192,207937,1,0,0:0:0:0:
64,0,208113,1,0,0:0:0:0:
192,192,208113,1,0,0:0:0:0:
320,192,208201,1,0,0:0:0:0:
448,192,208288,1,0,0:0:0:0:
192,192,208376,1,0,0:0:0:0:
320,192,208464,1,0,0:0:0:0:
64,192,208464,1,0,0:0:0:0:
320,0,208639,1,0,0:0:0:0:
448,0,208639,1,0,0:0:0:0:
448,0,208815,1,0,0:0:0:0:
320,0,208902,1,0,0:0:0:0:
192,0,208990,1,0,0:0:0:0:
320,0,209078,1,0,0:0:0:0:
448,0,209078,1,0,0:0:0:0:
64,0,209166,1,0,0:0:0:0:
192,0,209166,1,0,0:0:0:0:
320,0,209341,1,0,0:0:0:0:
64,0,209429,1,0,0:0:0:0:
192,0,209429,1,0,0:0:0:0:
320,0,209516,1,0,0:0:0:0:
64,0,209604,1,0,0:0:0:0:
448,0,209604,1,0,0:0:0:0:
192,0,209692,1,0,0:0:0:0:
320,0,209692,1,0,0:0:0:0:
64,0,209867,1,0,0:0:0:0:
448,0,209867,1,0,0:0:0:0:
192,0,210043,1,0,0:0:0:0:
320,0,210043,1,0,0:0:0:0:
64,0,210218,1,0,0:0:0:0:
320,0,210394,1,0,0:0:0:0:
448,0,210394,1,0,0:0:0:0:
64,0,210569,1,0,0:0:0:0:
192,0,210569,1,0,0:0:0:0:
320,0,210657,1,0,0:0:0:0:
448,0,210657,1,0,0:0:0:0:
64,0,210745,1,0,0:0:0:0:
192,0,210745,1,0,0:0:0:0:
320,0,210832,1,0,0:0:0:0:
448,0,210832,1,0,0:0:0:0:
64,0,210920,1,0,0:0:0:0:
192,0,210964,1,0,0:0:0:0:
320,0,211008,1,0,0:0:0:0:
448,0,211052,1,0,0:0:0:0:
64,0,211095,1,0,0:0:0:0:
192,192,211095,128,0,211446:0:0:0:0:
320,192,211139,1,0,0:0:0:0:
64,0,211446,1,0,0:0:0:0:
448,0,211446,1,0,0:0:0:0:
192,0,211622,1,0,0:0:0:0:
320,0,211709,1,0,0:0:0:0:
64,192,211797,1,0,0:0:0:0:
192,192,211797,1,0,0:0:0:0:
192,192,212148,1,0,0:0:0:0:
448,0,212148,1,0,0:0:0:0:
320,0,212499,1,0,0:0:0:0:
448,0,212499,1,0,0:0:0:0:
64,0,212674,1,0,0:0:0:0:
192,0,212674,1,0,0:0:0:0:
320,0,212850,1,0,0:0:0:0:
192,0,212937,1,0,0:0:0:0:
448,0,213025,1,0,0:0:0:0:
192,0,213113,1,0,0:0:0:0:
320,0,213201,1,0,0:0:0:0:
448,0,213201,1,0,0:0:0:0:
192,0,213376,1,0,0:0:0:0:
64,0,213464,1,0,0:0:0:0:
448,0,213552,1,0,0:0:0:0:
64,0,213639,1,0,0:0:0:0:
192,0,213639,1,0,0:0:0:0:
320,0,213727,1,0,0:0:0:0:
448,192,213727,1,0,0:0:0:0:
64,0,213902,1,0,0:0:0:0:
448,0,213902,1,0,0:0:0:0:
192,0,214078,1,0,0:0:0:0:
320,0,214209,128,0,214341:0:0:0:0:
64,0,214429,1,0,0:0:0:0:
192,192,214429,1,0,0:0:0:0:
320,0,214604,1,0,0:0:0:0:
64,0,214780,1,0,0:0:0:0:
448,0,214780,1,0,0:0:0:0:
448,0,214955,1,0,0:0:0:0:
64,0,215130,128,0,215218:0:0:0:0:
320,0,215306,1,0,0:0:0:0:
448,0,215306,1,0,0:0:0:0:
192,0,215481,1,0,0:0:0:0:
64,0,215569,1,0,0:0:0:0:
448,0,215569,1,0,0:0:0:0:
320,0,215657,1,0,0:0:0:0:
64,0,215745,1,0,0:0:0:0:
192,0,215745,1,0,0:0:0:0:
448,0,215832,1,0,0:0:0:0:
320,0,215876,1,0,0:0:0:0:
192,0,215920,1,0,0:0:0:0:
64,0,215964,1,0,0:0:0:0:
320,0,216008,1,0,0:0:0:0:
448,0,216008,1,0,0:0:0:0:
320,192,216183,1,0,0:0:0:0:
64,0,216183,1,0,0:0:0:0:
192,192,216359,1,0,0:0:0:0:
320,0,216359,1,0,0:0:0:0:
448,192,216534,1,0,0:0:0:0:
64,0,216534,1,0,0:0:0:0:
192,192,216622,1,0,0:0:0:0:
320,0,216622,1,0,0:0:0:0:
448,192,216709,1,0,0:0:0:0:
64,0,216709,1,0,0:0:0:0:
320,0,216885,1,0,0:0:0:0:
448,0,216885,1,0,0:0:0:0:
320,0,217060,1,0,0:0:0:0:
448,0,217060,1,0,0:0:0:0:
192,0,217236,1,0,0:0:0:0:
64,0,217323,1,0,0:0:0:0:
448,0,217411,1,0,0:0:0:0:
64,0,217499,1,0,0:0:0:0:
192,0,217499,1,0,0:0:0:0:
320,0,217587,1,0,0:0:0:0:
448,0,217587,1,0,0:0:0:0:
64,0,217762,1,0,0:0:0:0:
320,0,217850,1,0,0:0:0:0:
448,0,217850,1,0,0:0:0:0:
192,0,217937,1,0,0:0:0:0:
64,0,218025,1,0,0:0:0:0:
448,0,218025,1,0,0:0:0:0:
192,0,218113,1,0,0:0:0:0:
320,0,218113,1,0,0:0:0:0:
448,0,218288,1,0,0:0:0:0:
320,0,218332,1,0,0:0:0:0:
192,0,218376,1,0,0:0:0:0:
64,0,218420,1,0,0:0:0:0:
448,0,218464,1,0,0:0:0:0:
320,0,218552,1,0,0:0:0:0:
192,0,218639,1,0,0:0:0:0:
320,0,218727,1,0,0:0:0:0:
448,0,218727,1,0,0:0:0:0:
64,0,218815,1,0,0:0:0:0:
192,0,218815,1,0,0:0:0:0:
320,0,218990,1,0,0:0:0:0:
192,192,219078,1,0,0:0:0:0:
64,0,219166,1,0,0:0:0:0:
448,192,219166,1,0,0:0:0:0:
448,0,219341,1,0,0:0:0:0:
192,192,219341,1,0,0:0:0:0:
320,0,219516,1,0,0:0:0:0:
192,0,219516,128,0,219692:0:0:0:0:
320,0,219692,1,0,0:0:0:0:
192,0,219780,1,0,0:0:0:0:
448,0,219867,1,0,0:0:0:0:
320,0,219867,1,0,0:0:0:0:
192,0,220043,1,0,0:0:0:0:
320,0,220130,1,0,0:0:0:0:
448,192,220218,1,0,0:0:0:0:
192,0,220218,1,0,0:0:0:0:
192,0,220394,1,0,0:0:0:0:
448,192,220481,1,0,0:0:0:0:
320,192,220569,1,0,0:0:0:0:
192,0,220569,1,0,0:0:0:0:
320,0,220745,1,0,0:0:0:0:
192,192,220832,1,0,0:0:0:0:
64,192,220920,1,0,0:0:0:0:
320,0,220920,1,0,0:0:0:0:
64,0,221095,1,0,0:0:0:0:
320,0,221183,1,0,0:0:0:0:
64,192,221271,1,0,0:0:0:0:
192,0,221271,1,0,0:0:0:0:
320,192,221446,1,0,0:0:0:0:
448,192,221446,1,0,0:0:0:0:
320,192,221622,1,0,0:0:0:0:
192,192,221622,1,0,0:0:0:0:
64,0,221797,1,0,0:0:0:0:
448,0,221797,1,0,0:0:0:0:
192,0,221973,128,0,222148:0:0:0:0:
448,0,221973,128,0,222148:0:0:0:0:
64,0,222323,1,0,0:0:0:0:
192,0,222323,1,0,0:0:0:0:
320,0,222411,1,0,0:0:0:0:
64,0,222499,1,0,0:0:0:0:
448,0,222499,1,0,0:0:0:0:
192,0,222587,1,0,0:0:0:0:
320,0,222587,1,0,0:0:0:0:
448,0,222674,1,0,0:0:0:0:
192,0,222850,1,0,0:0:0:0:
320,0,222937,1,0,0:0:0:0:
192,0,223025,1,0,0:0:0:0:
64,0,223376,1,0,0:0:0:0:
448,0,223376,1,0,0:0:0:0:
64,0,223727,1,0,0:0:0:0:
448,0,223727,1,0,0:0:0:0:
64,0,223902,1,0,0:0:0:0:
448,0,223902,1,0,0:0:0:0:
320,0,224078,1,0,0:0:0:0:
320,0,224253,1,0,0:0:0:0:
192,0,224341,1,0,0:0:0:0:
320,0,224429,1,0,0:0:0:0:
320,0,224604,1,0,0:0:0:0:
64,0,224780,1,0,0:0:0:0:
192,0,224780,1,0,0:0:0:0:
320,0,224867,1,0,0:0:0:0:
64,0,224955,1,0,0:0:0:0:
192,192,225174,128,0,225306:0:0:0:0:
64,192,225174,128,0,225306:0:0:0:0:
448,0,225481,1,0,0:0:0:0:
320,0,225745,1,0,0:0:0:0:
64,0,225832,1,0,0:0:0:0:
448,0,225832,1,0,0:0:0:0:
448,0,226008,1,0,0:0:0:0:
448,0,226271,1,0,0:0:0:0:
64,0,226359,1,0,0:0:0:0:
192,0,226359,1,0,0:0:0:0:
448,0,226534,1,0,0:0:0:0:
64,0,226622,1,0,0:0:0:0:
320,0,226622,1,0,0:0:0:0:
192,0,226709,1,0,0:0:0:0:
64,0,226797,1,0,0:0:0:0:
192,0,226885,1,0,0:0:0:0:
448,0,226885,1,0,0:0:0:0:
320,0,227060,1,0,0:0:0:0:
64,0,227148,1,0,0:0:0:0:
192,0,227236,1,0,0:0:0:0:
320,0,227323,1,0,0:0:0:0:
448,0,227323,1,0,0:0:0:0:
64,0,227411,1,0,0:0:0:0:
192,0,227411,1,0,0:0:0:0:
320,0,227587,1,0,0:0:0:0:
64,0,227762,1,0,0:0:0:0:
448,0,227762,1,0,0:0:0:0:
64,0,227937,1,0,0:0:0:0:
448,0,227937,1,0,0:0:0:0:
192,192,228113,1,0,0:0:0:0:
448,192,228113,1,0,0:0:0:0:
64,192,228288,1,0,0:0:0:0:
448,0,228288,1,0,0:0:0:0:
64,0,228464,1,0,0:0:0:0:
192,0,228552,1,0,0:0:0:0:
448,0,228639,1,0,0:0:0:0:
192,0,228727,1,0,0:0:0:0:
320,0,228815,1,0,0:0:0:0:
448,0,228815,1,0,0:0:0:0:
64,192,228902,1,0,0:0:0:0:
320,192,228990,1,0,0:0:0:0:
192,192,228990,1,0,0:0:0:0:
320,0,229166,1,0,0:0:0:0:
192,0,229253,1,0,0:0:0:0:
448,0,229341,1,0,0:0:0:0:
64,192,229341,1,0,0:0:0:0:
320,192,229429,1,0,0:0:0:0:
192,192,229516,1,0,0:0:0:0:
64,192,229516,1,0,0:0:0:0:
448,0,229692,1,0,0:0:0:0:
192,192,229692,1,0,0:0:0:0:
64,192,229867,1,0,0:0:0:0:
320,0,230043,1,0,0:0:0:0:
448,0,230043,1,0,0:0:0:0:
192,0,230218,1,0,0:0:0:0:
448,0,230306,1,0,0:0:0:0:
320,0,230394,1,0,0:0:0:0:
192,192,230394,1,0,0:0:0:0:
64,0,230569,1,0,0:0:0:0:
192,0,230569,1,0,0:0:0:0:
320,0,230657,1,0,0:0:0:0:
448,0,230657,1,0,0:0:0:0:
64,0,230745,1,0,0:0:0:0:
192,0,230788,1,0,0:0:0:0:
320,0,230832,1,0,0:0:0:0:
448,0,230876,1,0,0:0:0:0:
64,0,230920,1,0,0:0:0:0:
192,0,230964,1,0,0:0:0:0:
320,0,231008,1,0,0:0:0:0:
448,0,231052,1,0,0:0:0:0:
192,0,231095,128,0,232148:0:0:0:0:
64,0,232323,128,0,232674:0:0:0:0:
448,0,232850,128,0,233201:0:0:0:0:
192,192,233376,128,0,233902:0:0:0:0:
64,0,233902,128,0,234078:0:0:0:0:
320,0,233902,128,0,234078:0:0:0:0:
448,0,233902,128,0,234078:0:0:0:0:
64,0,234166,1,0,0:0:0:0:
192,0,234166,1,0,0:0:0:0:
320,0,234253,1,0,0:0:0:0:
448,0,234253,1,0,0:0:0:0:
320,0,234429,1,0,0:0:0:0:
448,0,234429,1,0,0:0:0:0:
64,0,234516,1,0,0:0:0:0:
192,0,234516,1,0,0:0:0:0:
448,0,234604,1,0,0:0:0:0:
192,0,234692,1,0,0:0:0:0:
64,0,234780,1,0,0:0:0:0:
448,0,234780,1,0,0:0:0:0:
192,0,234867,1,0,0:0:0:0:
320,0,234867,1,0,0:0:0:0:
64,0,234955,1,0,0:0:0:0:
448,0,234955,1,0,0:0:0:0:
192,0,235130,1,0,0:0:0:0:
320,0,235130,1,0,0:0:0:0:
448,192,235130,1,0,0:0:0:0:
448,0,235306,1,0,0:0:0:0:
320,192,235306,1,0,0:0:0:0:
64,0,235481,1,0,0:0:0:0:
192,0,235481,1,0,0:0:0:0:
320,0,235569,1,0,0:0:0:0:
192,0,235657,1,0,0:0:0:0:
64,0,235745,1,0,0:0:0:0:
320,0,235745,1,0,0:0:0:0:
192,0,235832,1,0,0:0:0:0:
448,0,235832,1,0,0:0:0:0:
448,192,236008,1,0,0:0:0:0:
64,192,236008,1,0,0:0:0:0:
320,192,236008,1,0,0:0:0:0:
192,0,236183,1,0,0:0:0:0:
320,0,236359,1,0,0:0:0:0:
448,0,236359,1,0,0:0:0:0:
64,0,236534,1,0,0:0:0:0:
320,0,236534,1,0,0:0:0:0:
192,0,236622,1,0,0:0:0:0:
448,0,236622,1,0,0:0:0:0:
64,0,236709,1,0,0:0:0:0:
320,0,236709,1,0,0:0:0:0:
192,0,236885,1,0,0:0:0:0:
448,0,236885,1,0,0:0:0:0:
64,0,236973,1,0,0:0:0:0:
320,0,236973,1,0,0:0:0:0:
192,0,237060,1,0,0:0:0:0:
448,0,237060,1,0,0:0:0:0:
64,0,237236,1,0,0:0:0:0:
192,0,237280,1,0,0:0:0:0:
320,0,237323,1,0,0:0:0:0:
448,0,237367,1,0,0:0:0:0:
64,192,237411,1,0,0:0:0:0:
192,192,237411,1,0,0:0:0:0:
320,0,237499,1,0,0:0:0:0:
448,0,237499,1,0,0:0:0:0:
192,0,237587,1,0,0:0:0:0:
64,192,237587,1,0,0:0:0:0:
320,0,237674,1,0,0:0:0:0:
448,0,237674,1,0,0:0:0:0:
64,0,237762,1,0,0:0:0:0:
192,0,237762,1,0,0:0:0:0:
64,0,237937,1,0,0:0:0:0:
448,0,237937,1,0,0:0:0:0:
320,192,237937,1,0,0:0:0:0:
192,0,238025,1,0,0:0:0:0:
320,0,238113,1,0,0:0:0:0:
448,0,238201,1,0,0:0:0:0:
64,0,238288,1,0,0:0:0:0:
192,0,238288,1,0,0:0:0:0:
192,0,238464,1,0,0:0:0:0:
320,0,238552,1,0,0:0:0:0:
448,0,238552,1,0,0:0:0:0:
64,0,238639,1,0,0:0:0:0:
192,0,238727,1,0,0:0:0:0:
320,0,238727,1,0,0:0:0:0:
64,0,238815,1,0,0:0:0:0:
448,0,238815,1,0,0:0:0:0:
192,0,238902,1,0,0:0:0:0:
448,0,238990,1,0,0:0:0:0:
320,0,239034,1,0,0:0:0:0:
192,0,239078,1,0,0:0:0:0:
64,0,239122,1,0,0:0:0:0:
320,0,239166,1,0,0:0:0:0:
448,0,239166,1,0,0:0:0:0:
64,0,239341,1,0,0:0:0:0:
320,0,239341,1,0,0:0:0:0:
192,0,239429,1,0,0:0:0:0:
448,0,239429,1,0,0:0:0:0:
64,0,239516,1,0,0:0:0:0:
320,0,239516,1,0,0:0:0:0:
192,0,239604,1,0,0:0:0:0:
320,0,239692,1,0,0:0:0:0:
448,0,239692,1,0,0:0:0:0:
64,0,239780,1,0,0:0:0:0:
192,0,239780,1,0,0:0:0:0:
448,0,239867,1,0,0:0:0:0:
64,0,239955,1,0,0:0:0:0:
192,0,239955,1,0,0:0:0:0:
320,0,240043,1,0,0:0:0:0:
448,0,240043,1,0,0:0:0:0:
64,0,240130,1,0,0:0:0:0:
192,0,240174,1,0,0:0:0:0:
320,0,240218,1,0,0:0:0:0:
448,0,240218,1,0,0:0:0:0:
64,0,240394,1,0,0:0:0:0:
448,0,240394,1,0,0:0:0:0:
64,0,240569,1,0,0:0:0:0:
192,0,240569,1,0,0:0:0:0:
448,192,240569,1,0,0:0:0:0:
320,0,240657,1,0,0:0:0:0:
192,0,240744,1,0,0:0:0:0:
320,0,240832,1,0,0:0:0:0:
64,0,240920,1,0,0:0:0:0:
320,192,241008,1,0,0:0:0:0:
192,192,241008,1,0,0:0:0:0:
64,0,241095,1,0,0:0:0:0:
64,0,241271,1,0,0:0:0:0:
192,0,241271,1,0,0:0:0:0:
320,0,241359,1,0,0:0:0:0:
64,0,241446,1,0,0:0:0:0:
448,0,241446,1,0,0:0:0:0:
192,0,241534,1,0,0:0:0:0:
320,0,241534,1,0,0:0:0:0:
64,0,241622,1,0,0:0:0:0:
448,0,241622,1,0,0:0:0:0:
320,0,241797,1,0,0:0:0:0:
448,0,241797,1,0,0:0:0:0:
64,0,241885,1,0,0:0:0:0:
192,0,241885,1,0,0:0:0:0:
448,192,241973,1,0,0:0:0:0:
320,192,241973,1,0,0:0:0:0:
64,0,242236,1,0,0:0:0:0:
320,0,242236,1,0,0:0:0:0:
192,0,242323,1,0,0:0:0:0:
448,0,242323,1,0,0:0:0:0:
64,0,242499,1,0,0:0:0:0:
448,0,242499,1,0,0:0:0:0:
320,0,242587,1,0,0:0:0:0:
64,0,242674,1,0,0:0:0:0:
192,0,242674,1,0,0:0:0:0:
448,0,242718,1,0,0:0:0:0:
320,0,242806,1,0,0:0:0:0:
64,0,242850,1,0,0:0:0:0:
448,0,242894,1,0,0:0:0:0:
320,0,242937,1,0,0:0:0:0:
192,0,242981,1,0,0:0:0:0:
64,0,243025,1,0,0:0:0:0:
320,0,243113,1,0,0:0:0:0:
448,0,243201,1,0,0:0:0:0:
192,0,243288,1,0,0:0:0:0:
320,0,243288,1,0,0:0:0:0:
64,0,243376,1,0,0:0:0:0:
448,0,243376,1,0,0:0:0:0:
192,0,243464,1,0,0:0:0:0:
320,0,243464,1,0,0:0:0:0:
64,192,243552,1,0,0:0:0:0:
448,192,243552,1,0,0:0:0:0:
64,0,243727,1,0,0:0:0:0:
320,0,243727,1,0,0:0:0:0:
192,192,243727,1,0,0:0:0:0:
320,0,243902,1,0,0:0:0:0:
192,0,243990,1,0,0:0:0:0:
448,0,243990,1,0,0:0:0:0:
64,0,244078,1,0,0:0:0:0:
320,0,244078,1,0,0:0:0:0:
192,0,244253,1,0,0:0:0:0:
320,192,244341,1,0,0:0:0:0:
192,0,244429,1,0,0:0:0:0:
448,192,244429,1,0,0:0:0:0:
64,0,244516,1,0,0:0:0:0:
192,0,244604,1,0,0:0:0:0:
320,0,244604,1,0,0:0:0:0:
64,0,244692,1,0,0:0:0:0:
448,0,244692,1,0,0:0:0:0:
192,0,244780,128,0,245043:0:0:0:0:
320,0,244780,128,0,245043:0:0:0:0:
64,0,245130,1,0,0:0:0:0:
448,0,245130,1,0,0:0:0:0:
320,192,245130,1,0,0:0:0:0:
192,192,245218,1,0,0:0:0:0:
64,0,245306,1,0,0:0:0:0:
448,0,245306,1,0,0:0:0:0:
192,0,245394,1,0,0:0:0:0:
320,0,245394,1,0,0:0:0:0:
448,0,245569,1,0,0:0:0:0:
64,0,245657,1,0,0:0:0:0:
192,0,245657,1,0,0:0:0:0:
320,0,245744,1,0,0:0:0:0:
64,0,245832,1,0,0:0:0:0:
448,0,245832,1,0,0:0:0:0:
64,0,246008,1,0,0:0:0:0:
192,0,246008,1,0,0:0:0:0:
320,0,246095,1,0,0:0:0:0:
448,0,246095,1,0,0:0:0:0:
64,0,246183,1,0,0:0:0:0:
192,0,246183,1,0,0:0:0:0:
448,0,246271,1,0,0:0:0:0:
64,0,246359,1,0,0:0:0:0:
320,0,246359,1,0,0:0:0:0:
192,0,246534,1,0,0:0:0:0:
320,192,246622,1,0,0:0:0:0:
448,192,246709,1,0,0:0:0:0:
192,0,246709,1,0,0:0:0:0:
448,192,246885,1,0,0:0:0:0:
64,0,246885,1,0,0:0:0:0:
320,0,246973,1,0,0:0:0:0:
192,192,247060,1,0,0:0:0:0:
448,192,247060,1,0,0:0:0:0:
320,192,247148,1,0,0:0:0:0:
64,0,247236,1,0,0:0:0:0:
192,0,247236,1,0,0:0:0:0:
448,0,247411,1,0,0:0:0:0:
320,0,247587,1,0,0:0:0:0:
448,0,247587,1,0,0:0:0:0:
64,0,247762,1,0,0:0:0:0:
192,0,247762,1,0,0:0:0:0:
320,0,247850,1,0,0:0:0:0:
448,0,247850,1,0,0:0:0:0:
64,0,247937,1,0,0:0:0:0:
192,0,247937,1,0,0:0:0:0:
192,0,248113,1,0,0:0:0:0:
320,0,248113,1,0,0:0:0:0:
64,0,248201,1,0,0:0:0:0:
448,0,248201,1,0,0:0:0:0:
320,0,248288,1,0,0:0:0:0:
64,0,248464,1,0,0:0:0:0:
192,0,248464,1,0,0:0:0:0:
320,0,248552,1,0,0:0:0:0:
192,0,248639,1,0,0:0:0:0:
320,0,248727,1,0,0:0:0:0:
448,0,248727,1,0,0:0:0:0:
192,192,248815,1,0,0:0:0:0:
64,0,248815,1,0,0:0:0:0:
448,192,248902,1,0,0:0:0:0:
320,0,248902,1,0,0:0:0:0:
192,192,248990,1,0,0:0:0:0:
64,0,248990,1,0,0:0:0:0:
192,0,249166,1,0,0:0:0:0:
320,0,249166,1,0,0:0:0:0:
64,0,249253,1,0,0:0:0:0:
448,0,249253,1,0,0:0:0:0:
320,0,249341,1,0,0:0:0:0:
192,0,249429,1,0,0:0:0:0:
64,0,249516,1,0,0:0:0:0:
448,0,249516,1,0,0:0:0:0:
320,0,249604,1,0,0:0:0:0:
64,0,249692,1,0,0:0:0:0:
192,0,249692,1,0,0:0:0:0:
320,0,249780,1,0,0:0:0:0:
448,0,249780,1,0,0:0:0:0:
192,0,249867,1,0,0:0:0:0:
320,0,249955,1,0,0:0:0:0:
448,0,249955,1,0,0:0:0:0:
64,0,250043,1,0,0:0:0:0:
192,0,250043,1,0,0:0:0:0:
320,0,250130,1,0,0:0:0:0:
64,0,250218,1,0,0:0:0:0:
448,0,250218,1,0,0:0:0:0:
320,0,250394,1,0,0:0:0:0:
192,192,250394,1,0,0:0:0:0:
64,192,250394,1,0,0:0:0:0:
448,0,250569,1,0,0:0:0:0:
64,0,250657,1,0,0:0:0:0:
192,0,250657,1,0,0:0:0:0:
320,0,250744,1,0,0:0:0:0:
448,0,250744,1,0,0:0:0:0:
64,0,250920,1,0,0:0:0:0:
320,0,250920,1,0,0:0:0:0:
192,0,251008,1,0,0:0:0:0:
448,0,251008,1,0,0:0:0:0:
320,0,251095,1,0,0:0:0:0:
64,0,251183,1,0,0:0:0:0:
192,0,251183,1,0,0:0:0:0:
320,0,251271,1,0,0:0:0:0:
448,0,251271,1,0,0:0:0:0:
192,0,251359,1,0,0:0:0:0:
64,0,251446,1,0,0:0:0:0:
448,0,251446,1,0,0:0:0:0:
64,0,251622,1,0,0:0:0:0:
320,0,251622,1,0,0:0:0:0:
192,0,251797,1,0,0:0:0:0:
448,0,251797,1,0,0:0:0:0:
320,192,251797,1,0,0:0:0:0:
64,0,251885,1,0,0:0:0:0:
192,0,251973,1,0,0:0:0:0:
320,0,252060,1,0,0:0:0:0:
64,0,252236,1,0,0:0:0:0:
192,0,252236,1,0,0:0:0:0:
64,0,252411,1,0,0:0:0:0:
320,0,252411,1,0,0:0:0:0:
192,0,252499,1,0,0:0:0:0:
448,0,252499,1,0,0:0:0:0:
320,0,252674,1,0,0:0:0:0:
192,0,252762,1,0,0:0:0:0:
64,0,252850,1,0,0:0:0:0:
448,0,252850,1,0,0:0:0:0:
320,0,252937,1,0,0:0:0:0:
64,0,253025,1,0,0:0:0:0:
192,0,253025,1,0,0:0:0:0:
320,0,253113,1,0,0:0:0:0:
448,0,253113,1,0,0:0:0:0:
192,192,253201,1,0,0:0:0:0:
64,192,253201,1,0,0:0:0:0:
64,0,253464,1,0,0:0:0:0:
192,0,253464,1,0,0:0:0:0:
320,0,253552,1,0,0:0:0:0:
448,0,253552,1,0,0:0:0:0:
192,0,253639,1,0,0:0:0:0:
64,0,253727,1,0,0:0:0:0:
320,0,253727,1,0,0:0:0:0:
448,0,253815,1,0,0:0:0:0:
64,0,253902,1,0,0:0:0:0:
192,0,253902,1,0,0:0:0:0:
448,0,253990,1,0,0:0:0:0:
320,0,254078,1,0,0:0:0:0:
64,0,254166,1,0,0:0:0:0:
192,0,254166,1,0,0:0:0:0:
320,0,254253,1,0,0:0:0:0:
448,0,254253,1,0,0:0:0:0:
448,192,254429,1,0,0:0:0:0:
64,192,254429,1,0,0:0:0:0:
192,0,254516,1,0,0:0:0:0:
320,0,254516,1,0,0:0:0:0:
64,0,254604,1,0,0:0:0:0:
448,0,254604,1,0,0:0:0:0:
192,0,254692,1,0,0:0:0:0:
320,0,254692,1,0,0:0:0:0:
64,0,254780,1,0,0:0:0:0:
448,0,254780,1,0,0:0:0:0:
192,0,254955,1,0,0:0:0:0:
320,0,254955,1,0,0:0:0:0:
448,192,254955,1,0,0:0:0:0:
320,0,255130,1,0,0:0:0:0:
64,0,255218,1,0,0:0:0:0:
192,0,255218,1,0,0:0:0:0:
320,0,255306,1,0,0:0:0:0:
448,0,255306,1,0,0:0:0:0:
64,0,255481,1,0,0:0:0:0:
320,0,255481,1,0,0:0:0:0:
192,0,255569,1,0,0:0:0:0:
448,0,255569,1,0,0:0:0:0:
64,0,255744,1,0,0:0:0:0:
448,0,255744,1,0,0:0:0:0:
192,0,255832,1,0,0:0:0:0:
320,0,255832,1,0,0:0:0:0:
64,0,255920,1,0,0:0:0:0:
448,0,255920,1,0,0:0:0:0:
448,192,256008,128,0,256359:0:0:0:0:
320,192,256008,128,0,256359:0:0:0:0:
64,0,256359,1,0,0:0:0:0:
192,0,256359,1,0,0:0:0:0:
448,0,256446,1,0,0:0:0:0:
320,0,256534,1,0,0:0:0:0:
64,0,256622,1,0,0:0:0:0:
192,0,256622,1,0,0:0:0:0:
320,0,256709,1,0,0:0:0:0:
448,0,256709,1,0,0:0:0:0:
192,0,256797,1,0,0:0:0:0:
64,0,256885,1,0,0:0:0:0:
320,0,256885,1,0,0:0:0:0:
192,0,256973,1,0,0:0:0:0:
320,192,257060,1,0,0:0:0:0:
192,192,257148,1,0,0:0:0:0:
320,0,257236,1,0,0:0:0:0:
448,0,257236,1,0,0:0:0:0:
64,0,257323,1,0,0:0:0:0:
192,0,257323,1,0,0:0:0:0:
320,0,257411,1,0,0:0:0:0:
448,0,257411,1,0,0:0:0:0:
192,0,257499,1,0,0:0:0:0:
64,0,257587,1,0,0:0:0:0:
448,0,257587,1,0,0:0:0:0:
192,0,257674,1,0,0:0:0:0:
448,192,257762,1,0,0:0:0:0:
192,0,257850,1,0,0:0:0:0:
64,0,257937,1,0,0:0:0:0:
320,0,257937,1,0,0:0:0:0:
448,0,258025,1,0,0:0:0:0:
64,0,258113,1,0,0:0:0:0:
192,0,258113,1,0,0:0:0:0:
320,0,258201,1,0,0:0:0:0:
192,192,258288,1,0,0:0:0:0:
448,0,258288,1,0,0:0:0:0:
320,192,258376,1,0,0:0:0:0:
64,192,258464,1,0,0:0:0:0:
192,192,258464,1,0,0:0:0:0:
448,192,258552,1,0,0:0:0:0:
64,192,258639,1,0,0:0:0:0:
320,192,258639,1,0,0:0:0:0:
192,192,258727,1,0,0:0:0:0:
64,192,258815,1,0,0:0:0:0:
448,0,258815,1,0,0:0:0:0:
192,0,258902,1,0,0:0:0:0:
320,192,258990,1,0,0:0:0:0:
448,0,258990,1,0,0:0:0:0:
64,192,259078,1,0,0:0:0:0:
192,0,259078,1,0,0:0:0:0:
320,192,259166,1,0,0:0:0:0:
448,0,259166,1,0,0:0:0:0:
192,0,259253,1,0,0:0:0:0:
320,0,259341,1,0,0:0:0:0:
64,0,259341,1,0,0:0:0:0:
448,0,259429,1,0,0:0:0:0:
192,0,259429,1,0,0:0:0:0:
320,0,259516,1,0,0:0:0:0:
64,0,259516,1,0,0:0:0:0:
192,192,259604,1,0,0:0:0:0:
448,0,259692,1,0,0:0:0:0:
320,0,259736,1,0,0:0:0:0:
192,0,259780,1,0,0:0:0:0:
64,0,259823,1,0,0:0:0:0:
448,0,259867,1,0,0:0:0:0:
64,0,259955,1,0,0:0:0:0:
192,0,259955,1,0,0:0:0:0:
320,0,260043,1,0,0:0:0:0:
448,0,260043,1,0,0:0:0:0:
64,0,260130,1,0,0:0:0:0:
192,0,260130,1,0,0:0:0:0:
320,0,260218,1,0,0:0:0:0:
448,0,260218,1,0,0:0:0:0:
64,0,260306,1,0,0:0:0:0:
192,0,260394,1,0,0:0:0:0:
320,0,260394,1,0,0:0:0:0:
64,0,260481,1,0,0:0:0:0:
448,0,260481,1,0,0:0:0:0:
320,0,260569,1,0,0:0:0:0:
64,0,260657,1,0,0:0:0:0:
320,0,260744,1,0,0:0:0:0:
448,0,260744,1,0,0:0:0:0:
192,0,260832,1,0,0:0:0:0:
320,0,260920,1,0,0:0:0:0:
192,0,261008,1,0,0:0:0:0:
448,0,261008,1,0,0:0:0:0:
64,0,261095,1,0,0:0:0:0:
192,0,261183,1,0,0:0:0:0:
320,0,261183,1,0,0:0:0:0:
64,0,261271,1,0,0:0:0:0:
448,0,261271,1,0,0:0:0:0:
320,0,261359,1,0,0:0:0:0:
448,192,261446,1,0,0:0:0:0:
64,0,261446,1,0,0:0:0:0:
192,0,261490,1,0,0:0:0:0:
320,0,261534,1,0,0:0:0:0:
448,0,261578,1,0,0:0:0:0:
64,0,261622,1,0,0:0:0:0:
192,0,261622,1,0,0:0:0:0:
448,0,261709,1,0,0:0:0:0:
64,0,261797,1,0,0:0:0:0:
320,0,261797,1,0,0:0:0:0:
192,0,261885,1,0,0:0:0:0:
448,0,261885,1,0,0:0:0:0:
64,0,261973,1,0,0:0:0:0:
320,0,261973,1,0,0:0:0:0:
192,0,262060,1,0,0:0:0:0:
320,0,262148,1,0,0:0:0:0:
448,0,262148,1,0,0:0:0:0:
64,0,262236,1,0,0:0:0:0:
192,0,262236,1,0,0:0:0:0:
448,0,262323,1,0,0:0:0:0:
64,0,262411,1,0,0:0:0:0:
192,0,262411,1,0,0:0:0:0:
320,0,262499,1,0,0:0:0:0:
448,0,262499,1,0,0:0:0:0:
192,0,262587,1,0,0:0:0:0:
64,0,262674,1,0,0:0:0:0:
320,0,262674,1,0,0:0:0:0:
448,0,262762,1,0,0:0:0:0:
192,0,262850,1,0,0:0:0:0:
320,0,262850,1,0,0:0:0:0:
64,0,262937,1,0,0:0:0:0:
320,0,263025,1,0,0:0:0:0:
448,0,263025,1,0,0:0:0:0:
64,0,263113,1,0,0:0:0:0:
192,0,263201,1,0,0:0:0:0:
320,0,263288,1,0,0:0:0:0:
64,0,263376,1,0,0:0:0:0:
448,0,263376,1,0,0:0:0:0:
192,0,263464,1,0,0:0:0:0:
320,0,263464,1,0,0:0:0:0:
64,192,263552,1,0,0:0:0:0:
448,0,263552,1,0,0:0:0:0:
192,0,263639,1,0,0:0:0:0:
448,192,263727,1,0,0:0:0:0:
320,0,263727,1,0,0:0:0:0:
64,192,263815,1,0,0:0:0:0:
192,0,263902,1,0,0:0:0:0:
320,0,263990,1,0,0:0:0:0:
64,0,264078,1,0,0:0:0:0:
448,0,264078,1,0,0:0:0:0:
320,0,264166,1,0,0:0:0:0:
192,0,264253,1,0,0:0:0:0:
448,0,264253,1,0,0:0:0:0:
64,0,264341,1,0,0:0:0:0:
320,0,264341,1,0,0:0:0:0:
448,192,264429,1,0,0:0:0:0:
192,192,264429,1,0,0:0:0:0:
64,0,264516,1,0,0:0:0:0:
320,0,264604,1,0,0:0:0:0:
64,0,264692,1,0,0:0:0:0:
448,0,264692,1,0,0:0:0:0:
192,0,264780,1,0,0:0:0:0:
320,0,264780,1,0,0:0:0:0:
448,0,264867,1,0,0:0:0:0:
64,0,264955,1,0,0:0:0:0:
192,0,264955,1,0,0:0:0:0:
320,0,265043,1,0,0:0:0:0:
448,0,265043,1,0,0:0:0:0:
64,0,265130,1,0,0:0:0:0:
192,0,265130,1,0,0:0:0:0:
448,192,265218,1,0,0:0:0:0:
320,0,265262,1,0,0:0:0:0:
192,0,265306,1,0,0:0:0:0:
64,0,265350,1,0,0:0:0:0:
320,192,265394,1,0,0:0:0:0:
448,192,265437,1,0,0:0:0:0:
64,0,265481,1,0,0:0:0:0:
192,0,265481,1,0,0:0:0:0:
320,0,265569,1,0,0:0:0:0:
192,0,265657,1,0,0:0:0:0:
64,0,265744,1,0,0:0:0:0:
448,192,265744,1,0,0:0:0:0:
192,0,265832,1,0,0:0:0:0:
320,192,265832,1,0,0:0:0:0:
64,0,265920,1,0,0:0:0:0:
448,192,265920,1,0,0:0:0:0:
192,0,266008,1,0,0:0:0:0:
320,192,266008,1,0,0:0:0:0:
448,192,266095,1,0,0:0:0:0:
64,0,266183,1,0,0:0:0:0:
192,192,266183,1,0,0:0:0:0:
320,0,266271,1,0,0:0:0:0:
192,0,266359,1,0,0:0:0:0:
448,0,266446,1,0,0:0:0:0:
320,192,266446,1,0,0:0:0:0:
64,192,266534,1,0,0:0:0:0:
448,0,266622,1,0,0:0:0:0:
64,0,266709,1,0,0:0:0:0:
320,192,266709,1,0,0:0:0:0:
448,0,266797,1,0,0:0:0:0:
192,0,266885,1,0,0:0:0:0:
64,0,266973,1,0,0:0:0:0:
448,0,266973,1,0,0:0:0:0:
192,0,267060,1,0,0:0:0:0:
320,0,267060,1,0,0:0:0:0:
64,0,267148,1,0,0:0:0:0:
448,0,267148,1,0,0:0:0:0:
320,192,267236,1,0,0:0:0:0:
192,192,267236,1,0,0:0:0:0:
448,0,267323,1,0,0:0:0:0:
64,0,267411,1,0,0:0:0:0:
192,0,267499,1,0,0:0:0:0:
320,0,267587,1,0,0:0:0:0:
448,0,267587,1,0,0:0:0:0:
192,0,267674,1,0,0:0:0:0:
64,0,267762,1,0,0:0:0:0:
320,0,267850,1,0,0:0:0:0:
448,0,267850,1,0,0:0:0:0:
64,0,267937,1,0,0:0:0:0:
192,0,267937,1,0,0:0:0:0:
320,0,268025,1,0,0:0:0:0:
192,0,268113,1,0,0:0:0:0:
448,0,268113,1,0,0:0:0:0:
320,0,268201,1,0,0:0:0:0:
64,0,268288,1,0,0:0:0:0:
448,0,268288,1,0,0:0:0:0:
320,0,268376,1,0,0:0:0:0:
64,0,268464,1,0,0:0:0:0:
192,0,268464,1,0,0:0:0:0:
320,0,268551,1,0,0:0:0:0:
448,0,268551,1,0,0:0:0:0:
64,0,268639,1,0,0:0:0:0:
192,0,268639,1,0,0:0:0:0:
320,0,268727,1,0,0:0:0:0:
64,0,268815,1,0,0:0:0:0:
448,0,268815,1,0,0:0:0:0:
192,0,268902,1,0,0:0:0:0:
320,0,268990,1,0,0:0:0:0:
192,0,269078,1,0,0:0:0:0:
64,0,269166,1,0,0:0:0:0:
448,0,269166,1,0,0:0:0:0:
192,0,269253,1,0,0:0:0:0:
320,0,269341,1,0,0:0:0:0:
448,0,269341,1,0,0:0:0:0:
64,0,269429,1,0,0:0:0:0:
192,0,269516,1,0,0:0:0:0:
320,0,269604,1,0,0:0:0:0:
64,0,269692,1,0,0:0:0:0:
448,0,269692,1,0,0:0:0:0:
192,0,269780,1,0,0:0:0:0:
320,0,269867,1,0,0:0:0:0:
448,0,269867,1,0,0:0:0:0:
192,0,269955,1,0,0:0:0:0:
64,0,270043,1,0,0:0:0:0:
448,0,270043,1,0,0:0:0:0:
320,0,270130,1,0,0:0:0:0:
64,0,270218,1,0,0:0:0:0:
192,0,270218,1,0,0:0:0:0:
320,0,270306,1,0,0:0:0:0:
448,0,270306,1,0,0:0:0:0:
64,0,270394,1,0,0:0:0:0:
192,0,270394,1,0,0:0:0:0:
320,0,270481,1,0,0:0:0:0:
64,0,270569,1,0,0:0:0:0:
448,0,270569,1,0,0:0:0:0:
192,0,270657,1,0,0:0:0:0:
320,0,270657,1,0,0:0:0:0:
64,0,270744,1,0,0:0:0:0:
448,0,270744,1,0,0:0:0:0:
320,0,270832,1,0,0:0:0:0:
64,0,270920,1,0,0:0:0:0:
192,0,270920,1,0,0:0:0:0:
320,0,271008,1,0,0:0:0:0:
448,0,271095,1,0,0:0:0:0:
64,0,271183,1,0,0:0:0:0:
320,0,271183,1,0,0:0:0:0:
192,0,271271,1,0,0:0:0:0:
448,0,271271,1,0,0:0:0:0:
64,0,271359,1,0,0:0:0:0:
320,0,271359,1,0,0:0:0:0:
192,0,271446,1,0,0:0:0:0:
320,0,271534,1,0,0:0:0:0:
64,0,271622,1,0,0:0:0:0:
192,0,271622,1,0,0:0:0:0:
448,192,271709,1,0,0:0:0:0:
192,0,271797,1,0,0:0:0:0:
320,0,271885,1,0,0:0:0:0:
64,0,271973,1,0,0:0:0:0:
448,0,271973,1,0,0:0:0:0:
192,0,272060,1,0,0:0:0:0:
320,0,272148,1,0,0:0:0:0:
64,0,272236,1,0,0:0:0:0:
192,0,272236,1,0,0:0:0:0:
448,0,272323,1,0,0:0:0:0:
64,0,272411,1,0,0:0:0:0:
192,0,272411,1,0,0:0:0:0:
320,0,272499,1,0,0:0:0:0:
448,0,272499,1,0,0:0:0:0:
64,0,272587,1,0,0:0:0:0:
192,0,272674,1,0,0:0:0:0:
448,0,272674,1,0,0:0:0:0:
320,0,272762,1,0,0:0:0:0:
64,0,272850,1,0,0:0:0:0:
192,0,272850,1,0,0:0:0:0:
448,0,272937,1,0,0:0:0:0:
192,0,273025,1,0,0:0:0:0:
64,0,273113,1,0,0:0:0:0:
320,0,273113,1,0,0:0:0:0:
192,0,273201,1,0,0:0:0:0:
448,0,273201,1,0,0:0:0:0:
320,0,273288,1,0,0:0:0:0:
64,0,273376,1,0,0:0:0:0:
192,0,273376,1,0,0:0:0:0:
320,0,273464,1,0,0:0:0:0:
448,0,273464,1,0,0:0:0:0:
64,0,273551,1,0,0:0:0:0:
320,192,273639,1,0,0:0:0:0:
448,0,273639,1,0,0:0:0:0:
64,0,273727,1,0,0:0:0:0:
192,0,273727,1,0,0:0:0:0:
448,192,273815,1,0,0:0:0:0:
64,0,273902,1,0,0:0:0:0:
192,0,273902,1,0,0:0:0:0:
320,192,273990,1,0,0:0:0:0:
64,0,274078,1,0,0:0:0:0:
192,0,274078,1,0,0:0:0:0:
448,0,274166,1,0,0:0:0:0:
64,0,274253,1,0,0:0:0:0:
320,0,274253,1,0,0:0:0:0:
192,0,274341,1,0,0:0:0:0:
320,0,274429,1,0,0:0:0:0:
64,0,274516,1,0,0:0:0:0:
192,0,274604,1,0,0:0:0:0:
64,0,274692,1,0,0:0:0:0:
448,0,274692,1,0,0:0:0:0:
192,0,274780,1,0,0:0:0:0:
320,0,274867,1,0,0:0:0:0:
64,0,274955,1,0,0:0:0:0:
448,0,274955,1,0,0:0:0:0:
320,0,275043,1,0,0:0:0:0:
64,0,275130,1,0,0:0:0:0:
192,0,275130,1,0,0:0:0:0:
448,0,275218,1,0,0:0:0:0:
64,0,275306,1,0,0:0:0:0:
192,0,275306,1,0,0:0:0:0:
320,0,275394,1,0,0:0:0:0:
192,0,275481,1,0,0:0:0:0:
64,0,275569,1,0,0:0:0:0:
320,0,275569,1,0,0:0:0:0:
192,0,275657,128,0,275744:0:0:0:0:
448,0,275657,128,0,275744:0:0:0:0:
320,0,275744,1,0,0:0:0:0:
64,0,275832,1,0,0:0:0:0:
192,0,275920,1,0,0:0:0:0:
320,0,275920,1,0,0:0:0:0:
64,0,276008,1,0,0:0:0:0:
448,0,276008,1,0,0:0:0:0:
320,0,276095,1,0,0:0:0:0:
64,0,276183,1,0,0:0:0:0:
192,0,276183,1,0,0:0:0:0:
320,0,276271,1,0,0:0:0:0:
64,0,276359,1,0,0:0:0:0:
448,0,276359,1,0,0:0:0:0:
320,0,276446,1,0,0:0:0:0:
192,0,276534,1,0,0:0:0:0:
320,0,276622,1,0,0:0:0:0:
448,0,276622,1,0,0:0:0:0:
64,0,276709,1,0,0:0:0:0:
192,0,276709,1,0,0:0:0:0:
320,0,276797,1,0,0:0:0:0:
192,0,276885,1,0,0:0:0:0:
320,0,276973,1,0,0:0:0:0:
448,0,276973,1,0,0:0:0:0:
64,0,277060,1,0,0:0:0:0:
192,0,277060,1,0,0:0:0:0:
320,0,277148,1,0,0:0:0:0:
448,0,277148,1,0,0:0:0:0:
64,0,277236,1,0,0:0:0:0:
192,0,277236,1,0,0:0:0:0:
320,0,277323,1,0,0:0:0:0:
64,0,277411,1,0,0:0:0:0:
448,0,277411,1,0,0:0:0:0:
192,0,277499,1,0,0:0:0:0:
320,0,277587,1,0,0:0:0:0:
192,0,277674,1,0,0:0:0:0:
448,0,277674,1,0,0:0:0:0:
320,0,277762,1,0,0:0:0:0:
448,0,277850,1,0,0:0:0:0:
64,0,277937,1,0,0:0:0:0:
192,0,277937,1,0,0:0:0:0:
320,0,278025,1,0,0:0:0:0:
64,0,278113,1,0,0:0:0:0:
448,0,278113,1,0,0:0:0:0:
192,0,278201,1,0,0:0:0:0:
320,0,278201,1,0,0:0:0:0:
64,0,278288,1,0,0:0:0:0:
448,0,278288,1,0,0:0:0:0:
192,0,278376,1,0,0:0:0:0:
320,0,278376,1,0,0:0:0:0:
64,0,278464,1,0,0:0:0:0:
192,0,278464,1,0,0:0:0:0:
448,0,278464,1,0,0:0:0:0:
320,0,278551,1,0,0:0:0:0:
192,0,278639,1,0,0:0:0:0:
320,0,278727,1,0,0:0:0:0:
64,0,278815,1,0,0:0:0:0:
448,0,278815,1,0,0:0:0:0:
192,0,278990,1,0,0:0:0:0:
320,0,279078,1,0,0:0:0:0:
64,0,279166,1,0,0:0:0:0:
448,0,279166,1,0,0:0:0:0:
192,0,279341,1,0,0:0:0:0:
64,0,279429,1,0,0:0:0:0:
448,0,279429,1,0,0:0:0:0:
320,0,279516,1,0,0:0:0:0:
64,0,279604,1,0,0:0:0:0:
192,0,279604,1,0,0:0:0:0:
320,0,279692,1,0,0:0:0:0:
448,0,279692,1,0,0:0:0:0:
192,0,279867,1,0,0:0:0:0:
64,0,279955,1,0,0:0:0:0:
448,0,279955,1,0,0:0:0:0:
320,0,280043,1,0,0:0:0:0:
64,0,280130,1,0,0:0:0:0:
192,0,280130,1,0,0:0:0:0:
320,0,280218,1,0,0:0:0:0:
448,0,280218,1,0,0:0:0:0:
64,0,280394,1,0,0:0:0:0:
320,0,280481,1,0,0:0:0:0:
448,0,280569,1,0,0:0:0:0:
192,0,280657,1,0,0:0:0:0:
320,0,280744,1,0,0:0:0:0:
448,192,280744,1,0,0:0:0:0:
320,0,280920,1,0,0:0:0:0:
64,0,281095,1,0,0:0:0:0:
448,0,281095,1,0,0:0:0:0:
192,0,281271,1,0,0:0:0:0:
320,192,281446,1,0,0:0:0:0:
448,192,281446,1,0,0:0:0:0:
192,0,281622,1,0,0:0:0:0:
192,0,281797,1,0,0:0:0:0:
320,0,281885,1,0,0:0:0:0:
64,0,281973,1,0,0:0:0:0:
192,0,281973,1,0,0:0:0:0:
448,0,282148,1,0,0:0:0:0:
192,192,282236,1,0,0:0:0:0:
64,0,282323,1,0,0:0:0:0:
320,0,282411,1,0,0:0:0:0:
448,0,282411,1,0,0:0:0:0:
64,0,282499,1,0,0:0:0:0:
192,0,282499,1,0,0:0:0:0:
320,0,282674,1,0,0:0:0:0:
192,0,282762,1,0,0:0:0:0:
320,0,282850,1,0,0:0:0:0:
192,0,282937,1,0,0:0:0:0:
320,0,283025,1,0,0:0:0:0:
448,0,283025,1,0,0:0:0:0:
192,0,283201,1,0,0:0:0:0:
320,0,283288,1,0,0:0:0:0:
448,0,283288,1,0,0:0:0:0:
64,0,283376,1,0,0:0:0:0:
192,192,283464,1,0,0:0:0:0:
320,192,283551,1,0,0:0:0:0:
448,0,283551,1,0,0:0:0:0:
64,0,283639,1,0,0:0:0:0:
448,192,283727,1,0,0:0:0:0:
192,0,283727,1,0,0:0:0:0:
320,192,283815,1,0,0:0:0:0:
64,192,283902,1,0,0:0:0:0:
192,192,283902,1,0,0:0:0:0:
448,192,284078,1,0,0:0:0:0:
64,192,284166,1,0,0:0:0:0:
320,192,284253,1,0,0:0:0:0:
448,192,284253,1,0,0:0:0:0:
192,192,284341,1,0,0:0:0:0:
320,192,284429,1,0,0:0:0:0:
64,192,284429,1,0,0:0:0:0:
64,0,284604,1,0,0:0:0:0:
320,0,284692,1,0,0:0:0:0:
320,0,284955,1,0,0:0:0:0:
64,0,285130,1,0,0:0:0:0:
448,0,285130,1,0,0:0:0:0:
320,192,285306,1,0,0:0:0:0:
64,0,285394,1,0,0:0:0:0:
192,0,285394,1,0,0:0:0:0:
320,0,285481,1,0,0:0:0:0:
448,0,285481,1,0,0:0:0:0:
192,0,285657,1,0,0:0:0:0:
320,0,285832,1,0,0:0:0:0:
448,0,285832,1,0,0:0:0:0:
192,0,286008,1,0,0:0:0:0:
64,192,286095,1,0,0:0:0:0:
320,0,286095,1,0,0:0:0:0:
320,0,286359,1,0,0:0:0:0:
448,0,286359,1,0,0:0:0:0:
192,192,286534,1,0,0:0:0:0:
64,0,286709,1,0,0:0:0:0:
320,0,286797,1,0,0:0:0:0:
448,0,286797,1,0,0:0:0:0:
64,0,286885,1,0,0:0:0:0:
192,0,286885,1,0,0:0:0:0:
320,0,287060,1,0,0:0:0:0:
64,0,287236,128,0,287323:0:0:0:0:
192,0,287236,128,0,287323:0:0:0:0:
64,0,287499,1,0,0:0:0:0:
192,0,287499,1,0,0:0:0:0:
320,0,287587,1,0,0:0:0:0:
448,0,287587,1,0,0:0:0:0:
64,0,287762,1,0,0:0:0:0:
192,0,287850,1,0,0:0:0:0:
320,0,287937,1,0,0:0:0:0:
448,0,287937,1,0,0:0:0:0:
320,0,288113,1,0,0:0:0:0:
448,0,288113,1,0,0:0:0:0:
320,0,288288,1,0,0:0:0:0:
448,0,288288,1,0,0:0:0:0:
64,0,288376,1,0,0:0:0:0:
192,0,288376,1,0,0:0:0:0:
448,0,288464,1,0,0:0:0:0:
320,0,288508,1,0,0:0:0:0:
192,0,288551,1,0,0:0:0:0:
64,0,288595,1,0,0:0:0:0:
320,0,288639,1,0,0:0:0:0:
448,0,288639,1,0,0:0:0:0:
64,192,288727,1,0,0:0:0:0:
320,192,288815,1,0,0:0:0:0:
192,192,288902,1,0,0:0:0:0:
448,192,288990,1,0,0:0:0:0:
64,192,288990,1,0,0:0:0:0:
64,0,289166,1,0,0:0:0:0:
192,0,289166,1,0,0:0:0:0:
320,0,289253,1,0,0:0:0:0:
448,0,289253,1,0,0:0:0:0:
448,192,289429,1,0,0:0:0:0:
192,192,289429,1,0,0:0:0:0:
320,192,289516,1,0,0:0:0:0:
320,0,289692,128,0,289955:0:0:0:0:
448,0,289692,128,0,289955:0:0:0:0:
64,192,289714,128,0,289955:0:0:0:0:
192,0,290043,1,0,0:0:0:0:
192,0,290218,1,0,0:0:0:0:
320,0,290306,1,0,0:0:0:0:
192,0,290394,1,0,0:0:0:0:
64,0,290569,1,0,0:0:0:0:
192,0,290657,1,0,0:0:0:0:
320,0,290744,1,0,0:0:0:0:
448,0,290744,1,0,0:0:0:0:
64,192,290920,1,0,0:0:0:0:
320,0,291095,1,0,0:0:0:0:
448,0,291095,1,0,0:0:0:0:
320,0,291271,1,0,0:0:0:0:
448,0,291271,1,0,0:0:0:0:
192,0,291446,1,0,0:0:0:0:
192,0,291622,1,0,0:0:0:0:
320,0,291709,1,0,0:0:0:0:
192,0,291797,1,0,0:0:0:0:
192,0,291973,1,0,0:0:0:0:
64,0,292148,1,0,0:0:0:0:
448,0,292148,1,0,0:0:0:0:
64,0,292323,1,0,0:0:0:0:
64,192,292528,128,0,292645:0:0:0:0:
192,192,292528,128,0,292645:0:0:0:0:
448,192,292528,128,0,292645:0:0:0:0:
64,0,292850,1,0,0:0:0:0:
64,0,293113,1,0,0:0:0:0:
320,0,293201,1,0,0:0:0:0:
448,0,293201,1,0,0:0:0:0:
64,0,293376,1,0,0:0:0:0:
64,0,293639,1,0,0:0:0:0:
320,0,293727,1,0,0:0:0:0:
448,0,293727,1,0,0:0:0:0:
192,0,293902,1,0,0:0:0:0:
320,0,293990,1,0,0:0:0:0:
448,0,293990,1,0,0:0:0:0:
192,192,294078,1,0,0:0:0:0:
64,0,294166,1,0,0:0:0:0:
320,0,294253,1,0,0:0:0:0:
448,0,294253,1,0,0:0:0:0:
320,192,294429,1,0,0:0:0:0:
448,192,294516,1,0,0:0:0:0:
192,0,294516,1,0,0:0:0:0:
320,0,294604,1,0,0:0:0:0:
64,0,294692,1,0,0:0:0:0:
192,0,294692,1,0,0:0:0:0:
320,0,294780,1,0,0:0:0:0:
448,0,294780,1,0,0:0:0:0:
192,0,294867,1,0,0:0:0:0:
64,0,294955,1,0,0:0:0:0:
192,0,295130,1,0,0:0:0:0:
448,0,295130,1,0,0:0:0:0:
192,0,295306,1,0,0:0:0:0:
448,0,295306,1,0,0:0:0:0:
64,0,295481,1,0,0:0:0:0:
448,0,295481,1,0,0:0:0:0:
192,0,295657,1,0,0:0:0:0:
448,0,295657,1,0,0:0:0:0:
64,0,295832,1,0,0:0:0:0:
320,0,295920,1,0,0:0:0:0:
448,0,295920,1,0,0:0:0:0:
192,0,296008,1,0,0:0:0:0:
64,0,296095,1,0,0:0:0:0:
448,0,296095,1,0,0:0:0:0:
192,0,296183,1,0,0:0:0:0:
320,0,296183,1,0,0:0:0:0:
64,0,296359,1,0,0:0:0:0:
448,0,296446,1,0,0:0:0:0:
192,0,296534,1,0,0:0:0:0:
320,0,296622,1,0,0:0:0:0:
448,0,296622,1,0,0:0:0:0:
192,0,296709,1,0,0:0:0:0:
64,0,296753,1,0,0:0:0:0:
448,0,296797,1,0,0:0:0:0:
320,0,296841,1,0,0:0:0:0:
192,0,296885,1,0,0:0:0:0:
64,0,296929,1,0,0:0:0:0:
448,0,296973,1,0,0:0:0:0:
320,0,297016,1,0,0:0:0:0:
192,0,297060,1,0,0:0:0:0:
64,0,297236,1,0,0:0:0:0:
64,0,297411,1,0,0:0:0:0:
192,0,297411,1,0,0:0:0:0:
320,0,297455,1,0,0:0:0:0:
448,0,297499,1,0,0:0:0:0:
64,0,297543,1,0,0:0:0:0:
192,0,297587,1,0,0:0:0:0:
320,0,297630,1,0,0:0:0:0:
448,0,297674,1,0,0:0:0:0:
64,0,297718,1,0,0:0:0:0:
320,0,297762,1,0,0:0:0:0:
320,192,297937,1,0,0:0:0:0:
64,192,298025,1,0,0:0:0:0:
192,192,298113,1,0,0:0:0:0:
448,0,298288,1,0,0:0:0:0:
320,0,298464,1,0,0:0:0:0:
448,0,298464,1,0,0:0:0:0:
192,0,298639,1,0,0:0:0:0:
448,192,298727,1,0,0:0:0:0:
64,192,298727,1,0,0:0:0:0:
192,0,298815,1,0,0:0:0:0:
320,0,298902,1,0,0:0:0:0:
448,0,298902,1,0,0:0:0:0:
64,0,298990,1,0,0:0:0:0:
192,0,298990,1,0,0:0:0:0:
192,0,299166,1,0,0:0:0:0:
64,0,299209,1,0,0:0:0:0:
448,0,299253,1,0,0:0:0:0:
320,0,299297,1,0,0:0:0:0:
192,0,299341,1,0,0:0:0:0:
64,0,299385,1,0,0:0:0:0:
448,0,299429,1,0,0:0:0:0:
320,0,299473,1,0,0:0:0:0:
64,0,299516,1,0,0:0:0:0:
192,0,299516,1,0,0:0:0:0:
448,0,299692,1,0,0:0:0:0:
64,192,299692,1,0,0:0:0:0:
64,0,299867,1,0,0:0:0:0:
192,0,299867,1,0,0:0:0:0:
192,0,300043,1,0,0:0:0:0:
320,0,300218,1,0,0:0:0:0:
448,0,300218,1,0,0:0:0:0:
64,0,300394,1,0,0:0:0:0:
192,0,300394,1,0,0:0:0:0:
320,0,300481,1,0,0:0:0:0:
448,0,300481,1,0,0:0:0:0:
64,0,300569,1,0,0:0:0:0:
192,0,300569,1,0,0:0:0:0:
320,0,300657,1,0,0:0:0:0:
448,0,300657,1,0,0:0:0:0:
64,0,300744,1,0,0:0:0:0:
192,0,300788,1,0,0:0:0:0:
320,0,300832,1,0,0:0:0:0:
448,0,300876,1,0,0:0:0:0:
64,0,300920,128,0,301271:0:0:0:0:
192,0,300920,128,0,301271:0:0:0:0:
64,192,314847,5,0,0:0:0:0:
320,192,314847,1,0,0:0:0:0:
192,192,314962,1,0,0:0:0:0:
448,192,315156,1,0,0:0:0:0:
64,0,315156,1,0,0:0:0:0:
192,0,315233,1,0,0:0:0:0:
448,192,315310,1,0,0:0:0:0:
320,0,315465,1,0,0:0:0:0:
320,0,316084,1,0,0:0:0:0:
64,0,316393,1,0,0:0:0:0:
192,0,316393,1,0,0:0:0:0:
64,0,316548,1,0,0:0:0:0:
192,0,316548,1,0,0:0:0:0:
320,0,316702,1,0,0:0:0:0:
64,0,317011,1,0,0:0:0:0:
192,0,317011,1,0,0:0:0:0:
320,0,317166,1,0,0:0:0:0:
448,0,317166,1,0,0:0:0:0:
192,0,317321,1,0,0:0:0:0:
192,192,317939,1,0,0:0:0:0:
448,0,318558,1,0,0:0:0:0:
320,0,319176,1,0,0:0:0:0:
64,192,319795,1,0,0:0:0:0:
448,0,319795,1,0,0:0:0:0:
192,192,319872,1,0,0:0:0:0:
448,192,320104,1,0,0:0:0:0:
320,192,320104,1,0,0:0:0:0:
192,192,320182,1,0,0:0:0:0:
320,192,320259,1,0,0:0:0:0:
192,192,320414,1,0,0:0:0:0:
320,192,321032,1,0,0:0:0:0:
192,0,321341,1,0,0:0:0:0:
448,0,321341,1,0,0:0:0:0:
448,0,321496,1,0,0:0:0:0:
320,0,321651,1,0,0:0:0:0:
192,0,321805,1,0,0:0:0:0:
320,0,321960,1,0,0:0:0:0:
448,0,321960,1,0,0:0:0:0:
64,0,322115,1,0,0:0:0:0:
448,0,322115,1,0,0:0:0:0:
192,0,322269,1,0,0:0:0:0:
192,0,322888,1,0,0:0:0:0:
64,0,323197,1,0,0:0:0:0:
320,0,323197,1,0,0:0:0:0:
320,192,323352,1,0,0:0:0:0:
448,0,323352,1,0,0:0:0:0:
448,192,323506,1,0,0:0:0:0:
192,0,324125,1,0,0:0:0:0:
192,0,324743,1,0,0:0:0:0:
448,0,324743,1,0,0:0:0:0:
320,0,324821,1,0,0:0:0:0:
192,0,325053,1,0,0:0:0:0:
320,0,325053,1,0,0:0:0:0:
448,0,325130,1,0,0:0:0:0:
192,0,325207,1,0,0:0:0:0:
64,0,325362,1,0,0:0:0:0:
64,0,325981,1,0,0:0:0:0:
192,0,326290,1,0,0:0:0:0:
448,0,326290,1,0,0:0:0:0:
448,0,326444,1,0,0:0:0:0:
64,0,326599,1,0,0:0:0:0:
192,0,326908,1,0,0:0:0:0:
448,0,326908,1,0,0:0:0:0:
320,0,327063,1,0,0:0:0:0:
448,0,327063,1,0,0:0:0:0:
192,0,327218,1,0,0:0:0:0:
192,0,327836,1,0,0:0:0:0:
448,0,328455,1,0,0:0:0:0:
192,0,328919,1,0,0:0:0:0:
320,0,329073,1,0,0:0:0:0:
64,0,329692,1,0,0:0:0:0:
448,0,329692,1,0,0:0:0:0:
192,0,329769,1,0,0:0:0:0:
64,192,330001,1,0,0:0:0:0:
192,0,330001,1,0,0:0:0:0:
320,192,330078,1,0,0:0:0:0:
192,0,330156,1,0,0:0:0:0:
64,192,330310,1,0,0:0:0:0:
64,192,330929,1,0,0:0:0:0:
64,0,331238,1,0,0:0:0:0:
448,0,331238,1,0,0:0:0:0:
64,0,331393,1,0,0:0:0:0:
448,0,331393,1,0,0:0:0:0:
320,0,331548,1,0,0:0:0:0:
64,0,331857,1,0,0:0:0:0:
448,0,331857,1,0,0:0:0:0:
320,0,332011,1,0,0:0:0:0:
448,0,332011,1,0,0:0:0:0:
192,0,332166,1,0,0:0:0:0:
192,0,332785,1,0,0:0:0:0:
192,0,333094,1,0,0:0:0:0:
320,0,333094,1,0,0:0:0:0:
320,0,333249,1,0,0:0:0:0:
448,0,333249,1,0,0:0:0:0:
192,0,333403,1,0,0:0:0:0:
64,0,334022,1,0,0:0:0:0:
448,192,334073,1,0,0:0:0:0:
320,192,334125,1,0,0:0:0:0:
192,0,334176,1,0,0:0:0:0:
64,192,334228,1,0,0:0:0:0:
448,192,334279,1,0,0:0:0:0:
320,0,334331,1,0,0:0:0:0:
64,192,334383,1,0,0:0:0:0:
192,192,334434,1,0,0:0:0:0:
320,0,334486,1,0,0:0:0:0:
448,192,334537,1,0,0:0:0:0:
64,192,334589,1,0,0:0:0:0:
320,0,334640,1,0,0:0:0:0:
448,0,334640,1,0,0:0:0:0:
320,192,334795,1,0,0:0:0:0:
192,0,334950,1,0,0:0:0:0:
64,192,335001,1,0,0:0:0:0:
320,192,335053,1,0,0:0:0:0:
448,0,335104,1,0,0:0:0:0:
320,0,335259,1,0,0:0:0:0:
448,0,335259,1,0,0:0:0:0:
64,0,335414,1,0,0:0:0:0:
320,192,335491,1,0,0:0:0:0:
192,0,335568,1,0,0:0:0:0:
320,0,335645,1,0,0:0:0:0:
64,192,335723,1,0,0:0:0:0:
448,192,335800,1,0,0:0:0:0:
320,0,335877,1,0,0:0:0:0:
192,192,335929,1,0,0:0:0:0:
64,192,335981,1,0,0:0:0:0:
448,0,336032,1,0,0:0:0:0:
192,0,336109,1,0,0:0:0:0:
320,0,336187,1,0,0:0:0:0:
448,0,336187,1,0,0:0:0:0:
64,0,336264,1,0,0:0:0:0:
320,192,336341,1,0,0:0:0:0:
192,192,336419,1,0,0:0:0:0:
448,192,336496,1,0,0:0:0:0:
192,0,336651,1,0,0:0:0:0:
320,0,336805,1,0,0:0:0:0:
448,0,336805,1,0,0:0:0:0:
64,0,336883,1,0,0:0:0:0:
192,0,336960,1,0,0:0:0:0:
448,0,336960,1,0,0:0:0:0:
320,0,337037,1,0,0:0:0:0:
192,192,337115,1,0,0:0:0:0:
448,0,337424,1,0,0:0:0:0:
64,0,337501,1,0,0:0:0:0:
320,0,337578,1,0,0:0:0:0:
64,0,337656,1,0,0:0:0:0:
192,0,337733,1,0,0:0:0:0:
448,0,337733,1,0,0:0:0:0:
320,0,337888,1,0,0:0:0:0:
192,0,338042,1,0,0:0:0:0:
320,0,338120,1,0,0:0:0:0:
64,0,338197,1,0,0:0:0:0:
448,0,338197,1,0,0:0:0:0:
192,0,338274,1,0,0:0:0:0:
320,0,338352,1,0,0:0:0:0:
192,0,338429,1,0,0:0:0:0:
64,0,338506,1,0,0:0:0:0:
448,0,338506,1,0,0:0:0:0:
320,0,338584,1,0,0:0:0:0:
64,0,338661,1,0,0:0:0:0:
192,0,338661,1,0,0:0:0:0:
448,0,338738,1,0,0:0:0:0:
192,0,338816,1,0,0:0:0:0:
64,0,338893,1,0,0:0:0:0:
320,0,338970,1,0,0:0:0:0:
448,0,338970,1,0,0:0:0:0:
192,0,339125,1,0,0:0:0:0:
320,192,339279,1,0,0:0:0:0:
64,0,339279,1,0,0:0:0:0:
448,0,339357,1,0,0:0:0:0:
320,0,339434,1,0,0:0:0:0:
64,0,339511,1,0,0:0:0:0:
320,0,339589,1,0,0:0:0:0:
448,0,339589,1,0,0:0:0:0:
64,0,339898,1,0,0:0:0:0:
320,0,339898,1,0,0:0:0:0:
192,0,339975,1,0,0:0:0:0:
320,0,340053,1,0,0:0:0:0:
192,0,340130,1,0,0:0:0:0:
64,0,340207,1,0,0:0:0:0:
448,0,340207,1,0,0:0:0:0:
192,0,340362,1,0,0:0:0:0:
320,0,340517,1,0,0:0:0:0:
192,0,340594,1,0,0:0:0:0:
448,192,340671,1,0,0:0:0:0:
64,0,340671,1,0,0:0:0:0:
320,192,340749,1,0,0:0:0:0:
448,192,340826,1,0,0:0:0:0:
64,192,340877,1,0,0:0:0:0:
192,192,340929,1,0,0:0:0:0:
320,192,340981,1,0,0:0:0:0:
448,192,341032,1,0,0:0:0:0:
192,0,341135,1,0,0:0:0:0:
64,0,341135,1,0,0:0:0:0:
448,192,341187,1,0,0:0:0:0:
320,192,341238,1,0,0:0:0:0:
192,0,341290,1,0,0:0:0:0:
320,0,341367,1,0,0:0:0:0:
64,192,341444,1,0,0:0:0:0:
448,0,341444,1,0,0:0:0:0:
320,0,341599,1,0,0:0:0:0:
448,0,341754,1,0,0:0:0:0:
320,192,341805,1,0,0:0:0:0:
192,192,341857,1,0,0:0:0:0:
64,0,341908,1,0,0:0:0:0:
448,0,341908,1,0,0:0:0:0:
320,0,341986,1,0,0:0:0:0:
64,192,342063,1,0,0:0:0:0:
320,0,342372,1,0,0:0:0:0:
448,0,342372,1,0,0:0:0:0:
64,192,342450,1,0,0:0:0:0:
320,192,342527,1,0,0:0:0:0:
192,192,342527,1,0,0:0:0:0:
64,192,342604,1,0,0:0:0:0:
320,192,342682,1,0,0:0:0:0:
320,192,342875,1,0,0:0:0:0:
192,192,342991,1,0,0:0:0:0:
448,192,343068,1,0,0:0:0:0:
192,0,343145,1,0,0:0:0:0:
64,0,343145,1,0,0:0:0:0:
448,0,343300,1,0,0:0:0:0:
192,0,343377,1,0,0:0:0:0:
320,192,343455,1,0,0:0:0:0:
64,192,343532,1,0,0:0:0:0:
192,192,343609,1,0,0:0:0:0:
448,192,343609,1,0,0:0:0:0:
448,192,343764,1,0,0:0:0:0:
192,0,343919,1,0,0:0:0:0:
320,0,343919,1,0,0:0:0:0:
448,192,344022,1,0,0:0:0:0:
192,0,344073,1,0,0:0:0:0:
320,0,344151,1,0,0:0:0:0:
448,0,344151,1,0,0:0:0:0:
64,0,344228,1,0,0:0:0:0:
192,0,344228,1,0,0:0:0:0:
448,192,344279,1,0,0:0:0:0:
320,192,344331,1,0,0:0:0:0:
64,0,344383,1,0,0:0:0:0:
192,0,344383,1,0,0:0:0:0:
320,192,344434,1,0,0:0:0:0:
448,192,344486,1,0,0:0:0:0:
64,192,344537,1,0,0:0:0:0:
192,0,344692,1,0,0:0:0:0:
64,0,344847,1,0,0:0:0:0:
448,0,344847,1,0,0:0:0:0:
192,192,345156,1,0,0:0:0:0:
64,0,345156,1,0,0:0:0:0:
192,192,345362,1,0,0:0:0:0:
320,0,345465,1,0,0:0:0:0:
64,0,345542,1,0,0:0:0:0:
320,0,345620,1,0,0:0:0:0:
448,192,345697,1,0,0:0:0:0:
192,0,345774,1,0,0:0:0:0:
320,192,345929,1,0,0:0:0:0:
192,192,346006,1,0,0:0:0:0:
64,0,346084,1,0,0:0:0:0:
448,0,346084,1,0,0:0:0:0:
448,0,346238,1,0,0:0:0:0:
64,192,346316,1,0,0:0:0:0:
320,0,346393,1,0,0:0:0:0:
320,192,346548,1,0,0:0:0:0:
64,192,346702,1,0,0:0:0:0:
192,192,346702,1,0,0:0:0:0:
64,0,346857,1,0,0:0:0:0:
448,0,346857,1,0,0:0:0:0:
192,192,347011,1,0,0:0:0:0:
320,0,347321,1,0,0:0:0:0:
448,0,347398,1,0,0:0:0:0:
192,192,347475,1,0,0:0:0:0:
448,0,347553,1,0,0:0:0:0:
64,0,347630,1,0,0:0:0:0:
192,0,347630,1,0,0:0:0:0:
192,0,347785,1,0,0:0:0:0:
320,0,347939,1,0,0:0:0:0:
64,0,348017,1,0,0:0:0:0:
192,0,348094,1,0,0:0:0:0:
448,0,348094,1,0,0:0:0:0:
192,0,348249,1,0,0:0:0:0:
320,0,348326,1,0,0:0:0:0:
448,0,348403,1,0,0:0:0:0:
64,0,348403,1,0,0:0:0:0:
320,0,348481,1,0,0:0:0:0:
192,0,348558,1,0,0:0:0:0:
64,0,348558,1,0,0:0:0:0:
64,192,348712,1,0,0:0:0:0:
192,192,348867,1,0,0:0:0:0:
448,0,348867,1,0,0:0:0:0:
64,0,348944,1,0,0:0:0:0:
448,192,349022,1,0,0:0:0:0:
192,0,349176,1,0,0:0:0:0:
320,0,349254,1,0,0:0:0:0:
64,0,349331,1,0,0:0:0:0:
192,0,349331,1,0,0:0:0:0:
448,192,349408,1,0,0:0:0:0:
320,192,349486,1,0,0:0:0:0:
192,0,349486,1,0,0:0:0:0:
320,0,349795,1,0,0:0:0:0:
448,0,349795,1,0,0:0:0:0:
320,0,349950,1,0,0:0:0:0:
192,0,350027,1,0,0:0:0:0:
64,0,350104,1,0,0:0:0:0:
448,0,350104,1,0,0:0:0:0:
320,192,350259,1,0,0:0:0:0:
64,0,350414,1,0,0:0:0:0:
320,0,350491,1,0,0:0:0:0:
192,0,350568,1,0,0:0:0:0:
448,0,350568,1,0,0:0:0:0:
320,0,350645,1,0,0:0:0:0:
64,0,350723,1,0,0:0:0:0:
448,0,350761,1,0,0:0:0:0:
320,0,350800,1,0,0:0:0:0:
192,0,350839,1,0,0:0:0:0:
64,0,350877,1,0,0:0:0:0:
320,0,350955,1,0,0:0:0:0:
64,0,351032,1,0,0:0:0:0:
192,0,351032,1,0,0:0:0:0:
192,192,351187,1,0,0:0:0:0:
320,192,351264,1,0,0:0:0:0:
64,192,351341,1,0,0:0:0:0:
192,0,351651,1,0,0:0:0:0:
320,192,351702,1,0,0:0:0:0:
448,192,351754,1,0,0:0:0:0:
192,192,351805,1,0,0:0:0:0:
64,0,351805,1,0,0:0:0:0:
320,192,351857,1,0,0:0:0:0:
448,192,351908,1,0,0:0:0:0:
192,192,351960,1,0,0:0:0:0:
320,0,352269,1,0,0:0:0:0:
448,0,352269,1,0,0:0:0:0:
64,0,352347,1,0,0:0:0:0:
320,0,352424,1,0,0:0:0:0:
192,0,352501,1,0,0:0:0:0:
64,192,352578,1,0,0:0:0:0:
320,0,352733,1,0,0:0:0:0:
64,0,352888,1,0,0:0:0:0:
192,0,352888,1,0,0:0:0:0:
320,0,352965,1,0,0:0:0:0:
64,0,353042,1,0,0:0:0:0:
448,0,353042,1,0,0:0:0:0:
192,0,353120,1,0,0:0:0:0:
320,0,353197,1,0,0:0:0:0:
320,0,353816,1,0,0:0:0:0:
192,0,353893,1,0,0:0:0:0:
320,0,353970,1,0,0:0:0:0:
192,0,354048,1,0,0:0:0:0:
320,0,354125,1,0,0:0:0:0:
64,192,354176,1,0,0:0:0:0:
192,192,354228,1,0,0:0:0:0:
320,0,354279,1,0,0:0:0:0:
64,192,354331,1,0,0:0:0:0:
192,192,354383,1,0,0:0:0:0:
320,0,354434,1,0,0:0:0:0:
448,0,354434,1,0,0:0:0:0:
64,0,354743,1,0,0:0:0:0:
448,0,354743,1,0,0:0:0:0:
64,0,354975,1,0,0:0:0:0:
448,192,355053,1,0,0:0:0:0:
320,0,355053,1,0,0:0:0:0:
64,0,355130,1,0,0:0:0:0:
192,0,355207,1,0,0:0:0:0:
192,0,355362,1,0,0:0:0:0:
64,0,355517,1,0,0:0:0:0:
448,0,355517,1,0,0:0:0:0:
192,192,355671,1,0,0:0:0:0:
448,0,355749,1,0,0:0:0:0:
64,192,355826,1,0,0:0:0:0:
448,0,355903,1,0,0:0:0:0:
192,0,355981,1,0,0:0:0:0:
448,0,356058,1,0,0:0:0:0:
64,192,356135,1,0,0:0:0:0:
448,192,356212,1,0,0:0:0:0:
192,192,356290,1,0,0:0:0:0:
64,192,356290,1,0,0:0:0:0:
320,0,356367,1,0,0:0:0:0:
320,0,356522,1,0,0:0:0:0:
192,0,356599,1,0,0:0:0:0:
192,0,356754,1,0,0:0:0:0:
320,0,356908,1,0,0:0:0:0:
320,0,357140,1,0,0:0:0:0:
64,0,357218,1,0,0:0:0:0:
448,0,357218,1,0,0:0:0:0:
320,0,357372,1,0,0:0:0:0:
192,0,357450,1,0,0:0:0:0:
64,0,357527,1,0,0:0:0:0:
320,0,357527,1,0,0:0:0:0:
192,0,357604,1,0,0:0:0:0:
320,192,357682,1,0,0:0:0:0:
448,0,357682,1,0,0:0:0:0:
320,0,357836,1,0,0:0:0:0:
64,0,357914,1,0,0:0:0:0:
320,0,357991,1,0,0:0:0:0:
192,0,358068,1,0,0:0:0:0:
448,0,358145,1,0,0:0:0:0:
192,0,358300,1,0,0:0:0:0:
320,0,358377,1,0,0:0:0:0:
192,0,358455,1,0,0:0:0:0:
320,0,358609,1,0,0:0:0:0:
448,0,358609,1,0,0:0:0:0:
64,0,358764,1,0,0:0:0:0:
320,0,358764,1,0,0:0:0:0:
192,0,358841,1,0,0:0:0:0:
448,0,358841,1,0,0:0:0:0:
64,0,358919,1,0,0:0:0:0:
320,0,358996,1,0,0:0:0:0:
192,0,359073,1,0,0:0:0:0:
64,0,359228,1,0,0:0:0:0:
192,0,359228,1,0,0:0:0:0:
320,0,359305,1,0,0:0:0:0:
448,0,359305,1,0,0:0:0:0:
192,0,359383,1,0,0:0:0:0:
320,0,359537,1,0,0:0:0:0:
192,0,359615,1,0,0:0:0:0:
320,0,359692,1,0,0:0:0:0:
448,0,359692,1,0,0:0:0:0:
64,0,359847,1,0,0:0:0:0:
320,0,359924,1,0,0:0:0:0:
64,0,360001,1,0,0:0:0:0:
320,0,360156,1,0,0:0:0:0:
448,0,360156,1,0,0:0:0:0:
192,0,360310,1,0,0:0:0:0:
320,0,360388,1,0,0:0:0:0:
192,0,360465,1,0,0:0:0:0:
320,0,360542,1,0,0:0:0:0:
64,0,360620,1,0,0:0:0:0:
448,0,360620,1,0,0:0:0:0:
320,0,360774,1,0,0:0:0:0:
192,0,360852,1,0,0:0:0:0:
320,0,360929,1,0,0:0:0:0:
64,0,361084,1,0,0:0:0:0:
448,0,361084,1,0,0:0:0:0:
64,0,361238,1,0,0:0:0:0:
192,0,361393,1,0,0:0:0:0:
448,0,361470,1,0,0:0:0:0:
320,0,361548,1,0,0:0:0:0:
64,0,361702,1,0,0:0:0:0:
448,0,361702,1,0,0:0:0:0:
320,0,361857,1,0,0:0:0:0:
192,0,362011,1,0,0:0:0:0:
64,192,362166,1,0,0:0:0:0:
448,0,362166,1,0,0:0:0:0:
320,0,362398,1,0,0:0:0:0:
192,0,362475,1,0,0:0:0:0:
448,0,362475,1,0,0:0:0:0:
64,0,362553,1,0,0:0:0:0:
448,192,362630,1,0,0:0:0:0:
192,192,362785,1,0,0:0:0:0:
320,0,362785,1,0,0:0:0:0:
192,0,362939,1,0,0:0:0:0:
320,192,363094,1,0,0:0:0:0:
448,0,363094,1,0,0:0:0:0:
192,192,363326,1,0,0:0:0:0:
320,192,363403,1,0,0:0:0:0:
192,192,363481,1,0,0:0:0:0:
64,192,363558,1,0,0:0:0:0:
64,0,363712,1,0,0:0:0:0:
320,0,363712,1,0,0:0:0:0:
192,0,363867,1,0,0:0:0:0:
448,0,364022,1,0,0:0:0:0:
320,0,364176,1,0,0:0:0:0:
192,0,364215,1,0,0:0:0:0:
64,0,364254,1,0,0:0:0:0:
448,0,364292,1,0,0:0:0:0:
320,0,364331,1,0,0:0:0:0:
64,0,364408,1,0,0:0:0:0:
192,0,364408,1,0,0:0:0:0:
448,0,364486,1,0,0:0:0:0:
192,0,364563,1,0,0:0:0:0:
64,0,364640,1,0,0:0:0:0:
448,0,364640,1,0,0:0:0:0:
192,0,364795,1,0,0:0:0:0:
320,0,364795,1,0,0:0:0:0:
64,0,364950,1,0,0:0:0:0:
320,0,365027,1,0,0:0:0:0:
64,0,365104,1,0,0:0:0:0:
192,0,365182,1,0,0:0:0:0:
320,0,365259,1,0,0:0:0:0:
192,0,365336,1,0,0:0:0:0:
320,0,365414,1,0,0:0:0:0:
448,0,365414,1,0,0:0:0:0:
64,0,365568,1,0,0:0:0:0:
448,0,365645,1,0,0:0:0:0:
192,0,365723,1,0,0:0:0:0:
448,0,365800,1,0,0:0:0:0:
64,0,365877,1,0,0:0:0:0:
448,0,365955,1,0,0:0:0:0:
192,0,366032,1,0,0:0:0:0:
448,0,366109,1,0,0:0:0:0:
192,0,366187,1,0,0:0:0:0:
320,0,366187,1,0,0:0:0:0:
64,0,366264,1,0,0:0:0:0:
448,0,366264,1,0,0:0:0:0:
192,0,366341,1,0,0:0:0:0:
448,0,366419,1,0,0:0:0:0:
320,0,366496,1,0,0:0:0:0:
192,0,366651,1,0,0:0:0:0:
448,0,366805,1,0,0:0:0:0:
64,0,366883,1,0,0:0:0:0:
448,192,366960,1,0,0:0:0:0:
192,0,366960,1,0,0:0:0:0:
320,192,367037,1,0,0:0:0:0:
448,192,367115,1,0,0:0:0:0:
192,0,367115,1,0,0:0:0:0:
320,0,367269,1,0,0:0:0:0:
192,0,367347,1,0,0:0:0:0:
320,192,367424,1,0,0:0:0:0:
64,192,367501,1,0,0:0:0:0:
448,192,367578,1,0,0:0:0:0:
320,192,367578,1,0,0:0:0:0:
448,0,367733,1,0,0:0:0:0:
192,0,367810,1,0,0:0:0:0:
320,0,367888,1,0,0:0:0:0:
192,0,367965,1,0,0:0:0:0:
448,0,368042,1,0,0:0:0:0:
64,192,368120,1,0,0:0:0:0:
448,192,368197,1,0,0:0:0:0:
192,192,368274,1,0,0:0:0:0:
320,192,368352,1,0,0:0:0:0:
64,192,368352,1,0,0:0:0:0:
192,192,368429,1,0,0:0:0:0:
320,0,368506,1,0,0:0:0:0:
64,0,368661,1,0,0:0:0:0:
192,0,368661,1,0,0:0:0:0:
320,0,368738,1,0,0:0:0:0:
448,0,368738,1,0,0:0:0:0:
64,192,368816,1,0,0:0:0:0:
320,192,368893,1,0,0:0:0:0:
64,192,368970,1,0,0:0:0:0:
320,0,369125,1,0,0:0:0:0:
448,0,369125,1,0,0:0:0:0:
64,0,369202,1,0,0:0:0:0:
192,0,369202,1,0,0:0:0:0:
320,0,369279,1,0,0:0:0:0:
448,0,369279,1,0,0:0:0:0:
192,0,369434,1,0,0:0:0:0:
64,0,369589,1,0,0:0:0:0:
320,0,369589,1,0,0:0:0:0:
192,0,369743,1,0,0:0:0:0:
320,0,369821,1,0,0:0:0:0:
448,0,369898,1,0,0:0:0:0:
320,0,369975,1,0,0:0:0:0:
64,0,370053,1,0,0:0:0:0:
192,0,370053,1,0,0:0:0:0:
448,0,370207,1,0,0:0:0:0:
320,0,370285,1,0,0:0:0:0:
192,0,370362,1,0,0:0:0:0:
320,0,370439,1,0,0:0:0:0:
64,0,370517,1,0,0:0:0:0:
448,0,370517,1,0,0:0:0:0:
192,0,370671,1,0,0:0:0:0:
320,0,370749,1,0,0:0:0:0:
192,0,370826,1,0,0:0:0:0:
320,0,370981,1,0,0:0:0:0:
448,0,370981,1,0,0:0:0:0:
192,192,371135,1,0,0:0:0:0:
320,192,371212,1,0,0:0:0:0:
64,192,371290,1,0,0:0:0:0:
448,0,371444,1,0,0:0:0:0:
192,0,371522,1,0,0:0:0:0:
320,0,371599,1,0,0:0:0:0:
448,0,371599,1,0,0:0:0:0:
192,0,371754,1,0,0:0:0:0:
64,0,371908,1,0,0:0:0:0:
320,0,372063,1,0,0:0:0:0:
448,0,372063,1,0,0:0:0:0:
64,192,372218,1,0,0:0:0:0:
320,192,372295,1,0,0:0:0:0:
64,0,372372,1,0,0:0:0:0:
192,192,372450,1,0,0:0:0:0:
320,0,372527,1,0,0:0:0:0:
192,192,372604,1,0,0:0:0:0:
320,0,372682,1,0,0:0:0:0:
448,0,372682,1,0,0:0:0:0:
320,192,372836,1,0,0:0:0:0:
192,192,372914,1,0,0:0:0:0:
64,192,372991,1,0,0:0:0:0:
448,0,372991,1,0,0:0:0:0:
320,0,373145,1,0,0:0:0:0:
64,192,373223,1,0,0:0:0:0:
192,192,373300,1,0,0:0:0:0:
448,0,373300,1,0,0:0:0:0:
192,0,373455,1,0,0:0:0:0:
320,0,373532,1,0,0:0:0:0:
192,0,373609,1,0,0:0:0:0:
448,0,373609,1,0,0:0:0:0:
64,192,373687,1,0,0:0:0:0:
192,0,373764,1,0,0:0:0:0:
448,0,373919,1,0,0:0:0:0:
320,0,373957,1,0,0:0:0:0:
192,0,373996,1,0,0:0:0:0:
64,0,374035,1,0,0:0:0:0:
448,0,374073,1,0,0:0:0:0:
320,0,374112,1,0,0:0:0:0:
192,0,374151,1,0,0:0:0:0:
64,0,374189,1,0,0:0:0:0:
320,0,374228,1,0,0:0:0:0:
448,0,374228,1,0,0:0:0:0:
192,0,374383,1,0,0:0:0:0:
64,0,374537,1,0,0:0:0:0:
448,0,374537,1,0,0:0:0:0:
192,0,374692,1,0,0:0:0:0:
320,0,374769,1,0,0:0:0:0:
192,0,374847,1,0,0:0:0:0:
320,0,374924,1,0,0:0:0:0:
64,0,375001,1,0,0:0:0:0:
448,0,375001,1,0,0:0:0:0:
320,0,375156,1,0,0:0:0:0:
192,0,375233,1,0,0:0:0:0:
320,0,375310,1,0,0:0:0:0:
448,0,375310,1,0,0:0:0:0:
192,0,375388,1,0,0:0:0:0:
64,0,375465,1,0,0:0:0:0:
448,0,375465,1,0,0:0:0:0:
320,0,375620,1,0,0:0:0:0:
448,0,375620,1,0,0:0:0:0:
64,0,375774,1,0,0:0:0:0:
192,0,375774,1,0,0:0:0:0:
320,0,375929,1,0,0:0:0:0:
448,0,376006,1,0,0:0:0:0:
64,0,376084,1,0,0:0:0:0:
192,0,376084,1,0,0:0:0:0:
320,0,376161,1,0,0:0:0:0:
448,0,376161,1,0,0:0:0:0:
192,0,376238,1,0,0:0:0:0:
448,0,376316,1,0,0:0:0:0:
64,0,376393,1,0,0:0:0:0:
320,192,376470,1,0,0:0:0:0:
192,192,376548,1,0,0:0:0:0:
448,0,376548,1,0,0:0:0:0:
64,192,376599,1,0,0:0:0:0:
192,192,376651,1,0,0:0:0:0:
320,192,376702,1,0,0:0:0:0:
448,0,376702,1,0,0:0:0:0:
192,0,376857,1,0,0:0:0:0:
320,0,376934,1,0,0:0:0:0:
64,0,377011,1,0,0:0:0:0:
448,0,377011,1,0,0:0:0:0:
448,192,377166,1,0,0:0:0:0:
192,0,377243,1,0,0:0:0:0:
320,192,377321,1,0,0:0:0:0:
192,0,377398,1,0,0:0:0:0:
64,0,377475,1,0,0:0:0:0:
448,0,377475,1,0,0:0:0:0:
448,192,377630,1,0,0:0:0:0:
192,192,377630,1,0,0:0:0:0:
320,192,377707,1,0,0:0:0:0:
192,192,377785,1,0,0:0:0:0:
448,192,377862,1,0,0:0:0:0:
320,192,377939,1,0,0:0:0:0:
64,192,377939,1,0,0:0:0:0:
320,192,378094,1,0,0:0:0:0:
448,0,378094,1,0,0:0:0:0:
192,0,378249,1,0,0:0:0:0:
320,0,378326,1,0,0:0:0:0:
64,0,378403,1,0,0:0:0:0:
448,0,378403,1,0,0:0:0:0:
192,0,378481,1,0,0:0:0:0:
320,0,378558,1,0,0:0:0:0:
448,0,378558,1,0,0:0:0:0:
64,0,378635,1,0,0:0:0:0:
192,0,378635,1,0,0:0:0:0:
320,0,378712,1,0,0:0:0:0:
64,0,378790,1,0,0:0:0:0:
448,0,378790,1,0,0:0:0:0:
192,0,378867,1,0,0:0:0:0:
320,0,378944,1,0,0:0:0:0:
192,0,379022,1,0,0:0:0:0:
448,0,379022,1,0,0:0:0:0:
64,0,379099,1,0,0:0:0:0:
320,0,379099,1,0,0:0:0:0:
192,0,379176,1,0,0:0:0:0:
448,0,379176,1,0,0:0:0:0:
192,0,379331,1,0,0:0:0:0:
64,0,379408,1,0,0:0:0:0:
320,0,379486,1,0,0:0:0:0:
448,0,379486,1,0,0:0:0:0:
192,0,379640,1,0,0:0:0:0:
64,192,379718,1,0,0:0:0:0:
320,192,379795,1,0,0:0:0:0:
192,192,379872,1,0,0:0:0:0:
320,0,379950,1,0,0:0:0:0:
448,0,379950,1,0,0:0:0:0:
64,0,380104,1,0,0:0:0:0:
448,0,380182,1,0,0:0:0:0:
192,0,380259,1,0,0:0:0:0:
320,0,380336,1,0,0:0:0:0:
64,0,380414,1,0,0:0:0:0:
448,0,380414,1,0,0:0:0:0:
320,0,380568,1,0,0:0:0:0:
192,0,380723,1,0,0:0:0:0:
448,0,380723,1,0,0:0:0:0:
64,0,380877,1,0,0:0:0:0:
192,0,380955,1,0,0:0:0:0:
320,0,381032,1,0,0:0:0:0:
448,0,381032,1,0,0:0:0:0:
192,0,381109,1,0,0:0:0:0:
320,0,381187,1,0,0:0:0:0:
64,192,381264,1,0,0:0:0:0:
320,0,381341,1,0,0:0:0:0:
64,192,381419,1,0,0:0:0:0:
192,192,381496,1,0,0:0:0:0:
448,0,381496,1,0,0:0:0:0:
320,0,381573,1,0,0:0:0:0:
64,0,381651,1,0,0:0:0:0:
192,0,381651,1,0,0:0:0:0:
192,0,381805,1,0,0:0:0:0:
320,0,381960,1,0,0:0:0:0:
448,0,381960,1,0,0:0:0:0:
64,0,382115,1,0,0:0:0:0:
192,0,382115,1,0,0:0:0:0:
448,0,382192,1,0,0:0:0:0:
64,0,382269,1,0,0:0:0:0:
448,0,382347,1,0,0:0:0:0:
192,192,382424,1,0,0:0:0:0:
192,0,382578,1,0,0:0:0:0:
448,0,382578,1,0,0:0:0:0:
320,0,382733,1,0,0:0:0:0:
448,0,382810,1,0,0:0:0:0:
64,0,382888,1,0,0:0:0:0:
192,0,382888,1,0,0:0:0:0:
320,0,383042,1,0,0:0:0:0:
192,0,383120,1,0,0:0:0:0:
320,0,383197,1,0,0:0:0:0:
64,0,383274,1,0,0:0:0:0:
192,0,383352,1,0,0:0:0:0:
64,0,383429,1,0,0:0:0:0:
320,0,383506,1,0,0:0:0:0:
448,0,383506,1,0,0:0:0:0:
192,0,383584,1,0,0:0:0:0:
320,0,383661,1,0,0:0:0:0:
192,0,383738,1,0,0:0:0:0:
448,0,383816,1,0,0:0:0:0:
320,0,383854,1,0,0:0:0:0:
192,0,383893,1,0,0:0:0:0:
64,0,383932,1,0,0:0:0:0:
448,0,383970,1,0,0:0:0:0:
320,0,384009,1,0,0:0:0:0:
192,0,384048,1,0,0:0:0:0:
64,0,384086,1,0,0:0:0:0:
448,0,384125,1,0,0:0:0:0:
192,0,384202,1,0,0:0:0:0:
320,0,384202,1,0,0:0:0:0:
64,0,384279,1,0,0:0:0:0:
448,0,384279,1,0,0:0:0:0:
64,0,384434,1,0,0:0:0:0:
320,0,384434,1,0,0:0:0:0:
192,0,384589,1,0,0:0:0:0:
320,0,384666,1,0,0:0:0:0:
64,0,384743,1,0,0:0:0:0:
320,0,384821,1,0,0:0:0:0:
64,0,384898,1,0,0:0:0:0:
448,0,384898,1,0,0:0:0:0:
320,0,385053,1,0,0:0:0:0:
192,0,385130,1,0,0:0:0:0:
448,0,385207,1,0,0:0:0:0:
192,0,385285,1,0,0:0:0:0:
64,0,385362,1,0,0:0:0:0:
320,0,385362,1,0,0:0:0:0:
448,192,385414,1,0,0:0:0:0:
64,192,385465,1,0,0:0:0:0:
192,0,385517,1,0,0:0:0:0:
320,192,385568,1,0,0:0:0:0:
64,192,385620,1,0,0:0:0:0:
320,0,385671,1,0,0:0:0:0:
448,0,385671,1,0,0:0:0:0:
192,0,385826,1,0,0:0:0:0:
320,0,385903,1,0,0:0:0:0:
192,192,385981,1,0,0:0:0:0:
64,0,385981,1,0,0:0:0:0:
448,192,386058,1,0,0:0:0:0:
320,0,386058,1,0,0:0:0:0:
64,192,386135,1,0,0:0:0:0:
448,0,386212,1,0,0:0:0:0:
192,192,386290,1,0,0:0:0:0:
320,192,386367,1,0,0:0:0:0:
64,192,386444,1,0,0:0:0:0:
448,0,386444,1,0,0:0:0:0:
192,192,386522,1,0,0:0:0:0:
448,192,386599,1,0,0:0:0:0:
320,0,386599,1,0,0:0:0:0:
64,0,386754,1,0,0:0:0:0:
192,0,386754,1,0,0:0:0:0:
320,0,386831,1,0,0:0:0:0:
64,0,386908,1,0,0:0:0:0:
448,0,386908,1,0,0:0:0:0:
192,0,387063,1,0,0:0:0:0:
448,192,387140,1,0,0:0:0:0:
320,192,387218,1,0,0:0:0:0:
64,0,387218,1,0,0:0:0:0:
192,0,387295,1,0,0:0:0:0:
320,0,387372,1,0,0:0:0:0:
448,0,387372,1,0,0:0:0:0:
64,0,387527,1,0,0:0:0:0:
192,0,387527,1,0,0:0:0:0:
320,192,387604,1,0,0:0:0:0:
192,192,387682,1,0,0:0:0:0:
448,192,387682,1,0,0:0:0:0:
64,192,387759,1,0,0:0:0:0:
320,192,387836,1,0,0:0:0:0:
192,192,387836,1,0,0:0:0:0:
320,192,387991,1,0,0:0:0:0:
448,0,387991,1,0,0:0:0:0:
320,0,388145,1,0,0:0:0:0:
192,0,388223,1,0,0:0:0:0:
64,0,388300,1,0,0:0:0:0:
448,0,388300,1,0,0:0:0:0:
192,0,388377,1,0,0:0:0:0:
320,0,388455,1,0,0:0:0:0:
448,0,388455,1,0,0:0:0:0:
64,0,388532,1,0,0:0:0:0:
192,0,388532,1,0,0:0:0:0:
320,0,388609,1,0,0:0:0:0:
64,0,388687,1,0,0:0:0:0:
448,0,388687,1,0,0:0:0:0:
192,0,388764,1,0,0:0:0:0:
320,0,388841,1,0,0:0:0:0:
64,0,388919,1,0,0:0:0:0:
192,0,388919,1,0,0:0:0:0:
448,192,388996,1,0,0:0:0:0:
320,0,388996,1,0,0:0:0:0:
64,192,389073,1,0,0:0:0:0:
192,192,389073,1,0,0:0:0:0:
64,192,389228,1,0,0:0:0:0:
320,0,389305,1,0,0:0:0:0:
64,0,389383,1,0,0:0:0:0:
448,0,389383,1,0,0:0:0:0:
192,0,389537,1,0,0:0:0:0:
320,0,389615,1,0,0:0:0:0:
64,0,389692,1,0,0:0:0:0:
192,0,389769,1,0,0:0:0:0:
320,0,389847,1,0,0:0:0:0:
448,0,389847,1,0,0:0:0:0:
192,0,390001,1,0,0:0:0:0:
320,0,390078,1,0,0:0:0:0:
64,0,390156,1,0,0:0:0:0:
448,0,390233,1,0,0:0:0:0:
64,192,390310,1,0,0:0:0:0:
320,0,390310,1,0,0:0:0:0:
192,0,390465,1,0,0:0:0:0:
64,0,390542,1,0,0:0:0:0:
320,0,390620,1,0,0:0:0:0:
448,0,390620,1,0,0:0:0:0:
320,192,390774,1,0,0:0:0:0:
64,0,390774,1,0,0:0:0:0:
192,0,390852,1,0,0:0:0:0:
320,0,390929,1,0,0:0:0:0:
448,0,390929,1,0,0:0:0:0:
192,0,391006,1,0,0:0:0:0:
64,0,391084,1,0,0:0:0:0:
448,0,391161,1,0,0:0:0:0:
64,0,391238,1,0,0:0:0:0:
448,0,391316,1,0,0:0:0:0:
192,0,391393,1,0,0:0:0:0:
320,0,391393,1,0,0:0:0:0:
64,0,391548,1,0,0:0:0:0:
448,0,391548,1,0,0:0:0:0:
192,192,391599,1,0,0:0:0:0:
320,192,391651,1,0,0:0:0:0:
192,0,391702,1,0,0:0:0:0:
320,0,391857,1,0,0:0:0:0:
448,0,391857,1,0,0:0:0:0:
64,0,392011,1,0,0:0:0:0:
192,0,392011,1,0,0:0:0:0:
320,0,392166,1,0,0:0:0:0:
192,0,392243,1,0,0:0:0:0:
64,0,392321,1,0,0:0:0:0:
320,0,392321,1,0,0:0:0:0:
320,0,392475,1,0,0:0:0:0:
448,0,392475,1,0,0:0:0:0:
192,0,392630,1,0,0:0:0:0:
320,0,392707,1,0,0:0:0:0:
64,0,392785,1,0,0:0:0:0:
448,0,392785,1,0,0:0:0:0:
192,0,392939,1,0,0:0:0:0:
320,0,393017,1,0,0:0:0:0:
192,0,393094,1,0,0:0:0:0:
320,0,393171,1,0,0:0:0:0:
64,0,393249,1,0,0:0:0:0:
192,0,393326,1,0,0:0:0:0:
320,0,393403,1,0,0:0:0:0:
448,0,393403,1,0,0:0:0:0:
64,0,393481,1,0,0:0:0:0:
448,0,393558,1,0,0:0:0:0:
320,0,393635,1,0,0:0:0:0:
64,0,393712,1,0,0:0:0:0:
192,0,393712,1,0,0:0:0:0:
448,0,393751,1,0,0:0:0:0:
320,0,393790,1,0,0:0:0:0:
192,0,393828,1,0,0:0:0:0:
64,0,393867,1,0,0:0:0:0:
448,0,393906,1,0,0:0:0:0:
320,0,393944,1,0,0:0:0:0:
192,0,393983,1,0,0:0:0:0:
64,0,394022,1,0,0:0:0:0:
448,0,394022,1,0,0:0:0:0:
192,0,394176,1,0,0:0:0:0:
320,0,394331,1,0,0:0:0:0:
448,0,394331,1,0,0:0:0:0:
64,0,394486,1,0,0:0:0:0:
320,192,394563,1,0,0:0:0:0:
192,192,394640,1,0,0:0:0:0:
320,192,394718,1,0,0:0:0:0:
64,0,394795,1,0,0:0:0:0:
448,0,394795,1,0,0:0:0:0:
192,192,394950,1,0,0:0:0:0:
320,192,395027,1,0,0:0:0:0:
192,192,395104,1,0,0:0:0:0:
448,192,395182,1,0,0:0:0:0:
192,192,395259,1,0,0:0:0:0:
64,192,395259,1,0,0:0:0:0:
320,0,395414,1,0,0:0:0:0:
64,0,395568,1,0,0:0:0:0:
448,0,395568,1,0,0:0:0:0:
192,0,395723,1,0,0:0:0:0:
320,0,395800,1,0,0:0:0:0:
64,0,395877,1,0,0:0:0:0:
192,0,395877,1,0,0:0:0:0:
320,0,395955,1,0,0:0:0:0:
448,0,395955,1,0,0:0:0:0:
192,0,396032,1,0,0:0:0:0:
64,0,396109,1,0,0:0:0:0:
320,192,396187,1,0,0:0:0:0:
64,192,396264,1,0,0:0:0:0:
192,0,396264,1,0,0:0:0:0:
320,0,396341,1,0,0:0:0:0:
448,0,396341,1,0,0:0:0:0:
192,0,396380,1,0,0:0:0:0:
64,192,396419,1,0,0:0:0:0:
320,192,396457,1,0,0:0:0:0:
448,0,396496,1,0,0:0:0:0:
192,0,396651,1,0,0:0:0:0:
320,0,396728,1,0,0:0:0:0:
64,0,396805,1,0,0:0:0:0:
448,0,396805,1,0,0:0:0:0:
320,0,396960,1,0,0:0:0:0:
192,0,397037,1,0,0:0:0:0:
448,0,397115,1,0,0:0:0:0:
192,0,397192,1,0,0:0:0:0:
320,0,397269,1,0,0:0:0:0:
448,0,397269,1,0,0:0:0:0:
64,192,397424,1,0,0:0:0:0:
320,192,397424,1,0,0:0:0:0:
192,0,397501,1,0,0:0:0:0:
320,192,397578,1,0,0:0:0:0:
64,0,397656,1,0,0:0:0:0:
320,192,397733,1,0,0:0:0:0:
448,0,397733,1,0,0:0:0:0:
320,192,397888,1,0,0:0:0:0:
64,192,397888,1,0,0:0:0:0:
192,0,398042,1,0,0:0:0:0:
320,0,398120,1,0,0:0:0:0:
64,0,398197,1,0,0:0:0:0:
192,0,398197,1,0,0:0:0:0:
320,0,398352,1,0,0:0:0:0:
448,0,398352,1,0,0:0:0:0:
64,0,398429,1,0,0:0:0:0:
192,0,398429,1,0,0:0:0:0:
320,0,398506,1,0,0:0:0:0:
64,0,398584,1,0,0:0:0:0:
448,0,398584,1,0,0:0:0:0:
192,0,398661,1,0,0:0:0:0:
320,0,398738,1,0,0:0:0:0:
448,0,398738,1,0,0:0:0:0:
64,0,398816,1,0,0:0:0:0:
192,0,398816,1,0,0:0:0:0:
320,192,398867,1,0,0:0:0:0:
448,192,398919,1,0,0:0:0:0:
64,0,398970,1,0,0:0:0:0:
192,0,398970,1,0,0:0:0:0:
320,0,399125,1,0,0:0:0:0:
448,0,399125,1,0,0:0:0:0:
192,0,399202,1,0,0:0:0:0:
64,0,399279,1,0,0:0:0:0:
448,0,399279,1,0,0:0:0:0:
320,0,399434,1,0,0:0:0:0:
192,0,399511,1,0,0:0:0:0:
320,192,399589,1,0,0:0:0:0:
64,192,399666,1,0,0:0:0:0:
320,0,399743,1,0,0:0:0:0:
448,0,399743,1,0,0:0:0:0:
192,0,399898,1,0,0:0:0:0:
320,0,399975,1,0,0:0:0:0:
64,0,400053,1,0,0:0:0:0:
320,0,400130,1,0,0:0:0:0:
448,192,400207,1,0,0:0:0:0:
192,0,400207,1,0,0:0:0:0:
320,0,400362,1,0,0:0:0:0:
448,192,400414,1,0,0:0:0:0:
192,192,400465,1,0,0:0:0:0:
64,0,400517,1,0,0:0:0:0:
320,0,400517,1,0,0:0:0:0:
320,192,400671,1,0,0:0:0:0:
448,0,400671,1,0,0:0:0:0:
64,0,400826,1,0,0:0:0:0:
320,0,400826,1,0,0:0:0:0:
192,0,400981,1,0,0:0:0:0:
320,0,401058,1,0,0:0:0:0:
64,0,401135,1,0,0:0:0:0:
192,0,401212,1,0,0:0:0:0:
64,0,401290,1,0,0:0:0:0:
448,0,401290,1,0,0:0:0:0:
192,0,401444,1,0,0:0:0:0:
320,0,401444,1,0,0:0:0:0:
192,0,401599,1,0,0:0:0:0:
320,0,401754,1,0,0:0:0:0:
448,0,401754,1,0,0:0:0:0:
64,0,401908,1,0,0:0:0:0:
320,0,401908,1,0,0:0:0:0:
192,0,402063,1,0,0:0:0:0:
320,0,402140,1,0,0:0:0:0:
192,0,402218,1,0,0:0:0:0:
320,0,402372,1,0,0:0:0:0:
448,0,402372,1,0,0:0:0:0:
64,0,402527,1,0,0:0:0:0:
320,192,402604,1,0,0:0:0:0:
192,192,402682,1,0,0:0:0:0:
448,0,402682,1,0,0:0:0:0:
192,0,402836,1,0,0:0:0:0:
320,0,402914,1,0,0:0:0:0:
64,0,402991,1,0,0:0:0:0:
320,192,403068,1,0,0:0:0:0:
192,192,403145,1,0,0:0:0:0:
448,0,403145,1,0,0:0:0:0:
64,192,403223,1,0,0:0:0:0:
320,192,403300,1,0,0:0:0:0:
448,0,403300,1,0,0:0:0:0:
64,192,403455,1,0,0:0:0:0:
448,0,403455,1,0,0:0:0:0:
320,192,403532,1,0,0:0:0:0:
192,0,403532,1,0,0:0:0:0:
448,0,403609,1,0,0:0:0:0:
320,192,403648,1,0,0:0:0:0:
192,192,403687,1,0,0:0:0:0:
64,192,403725,1,0,0:0:0:0:
448,192,403764,1,0,0:0:0:0:
320,192,403803,1,0,0:0:0:0:
192,192,403841,1,0,0:0:0:0:
64,192,403880,1,0,0:0:0:0:
448,192,403919,1,0,0:0:0:0:
320,0,403919,1,0,0:0:0:0:
64,0,403996,1,0,0:0:0:0:
320,0,404073,1,0,0:0:0:0:
320,192,404228,1,0,0:0:0:0:
448,0,404228,1,0,0:0:0:0:
192,0,404383,1,0,0:0:0:0:
320,0,404460,1,0,0:0:0:0:
64,0,404537,1,0,0:0:0:0:
320,192,404615,1,0,0:0:0:0:
64,192,404692,1,0,0:0:0:0:
192,0,404692,1,0,0:0:0:0:
448,0,404847,1,0,0:0:0:0:
320,0,404924,1,0,0:0:0:0:
192,0,405001,1,0,0:0:0:0:
320,0,405078,1,0,0:0:0:0:
192,192,405156,1,0,0:0:0:0:
448,192,405156,1,0,0:0:0:0:
320,0,405310,1,0,0:0:0:0:
64,0,405465,1,0,0:0:0:0:
448,0,405465,1,0,0:0:0:0:
192,0,405620,1,0,0:0:0:0:
320,0,405697,1,0,0:0:0:0:
64,0,405774,1,0,0:0:0:0:
192,0,405774,1,0,0:0:0:0:
320,0,405852,1,0,0:0:0:0:
448,0,405852,1,0,0:0:0:0:
192,0,405929,1,0,0:0:0:0:
64,0,406006,1,0,0:0:0:0:
192,0,406084,1,0,0:0:0:0:
320,0,406161,1,0,0:0:0:0:
64,0,406238,1,0,0:0:0:0:
448,0,406238,1,0,0:0:0:0:
320,192,406290,1,0,0:0:0:0:
192,192,406341,1,0,0:0:0:0:
320,0,406393,1,0,0:0:0:0:
64,0,406470,1,0,0:0:0:0:
320,192,406548,1,0,0:0:0:0:
448,0,406548,1,0,0:0:0:0:
192,192,406625,1,0,0:0:0:0:
320,192,406702,1,0,0:0:0:0:
64,0,406702,1,0,0:0:0:0:
448,192,406779,1,0,0:0:0:0:
64,0,406857,1,0,0:0:0:0:
320,192,406934,1,0,0:0:0:0:
192,192,407011,1,0,0:0:0:0:
448,192,407011,1,0,0:0:0:0:
320,192,407089,1,0,0:0:0:0:
64,192,407166,1,0,0:0:0:0:
192,192,407166,1,0,0:0:0:0:
320,0,407321,1,0,0:0:0:0:
64,0,407398,1,0,0:0:0:0:
320,0,407475,1,0,0:0:0:0:
192,0,407553,1,0,0:0:0:0:
64,192,407630,1,0,0:0:0:0:
448,192,407630,1,0,0:0:0:0:
64,0,407785,1,0,0:0:0:0:
192,0,407785,1,0,0:0:0:0:
192,192,407939,1,0,0:0:0:0:
448,0,407939,1,0,0:0:0:0:
320,192,408017,1,0,0:0:0:0:
192,192,408094,1,0,0:0:0:0:
64,0,408094,1,0,0:0:0:0:
64,192,408249,1,0,0:0:0:0:
192,192,408249,1,0,0:0:0:0:
448,192,408326,1,0,0:0:0:0:
320,192,408326,1,0,0:0:0:0:
192,0,408403,1,0,0:0:0:0:
64,192,408481,1,0,0:0:0:0:
448,0,408481,1,0,0:0:0:0:
192,0,408558,1,0,0:0:0:0:
64,0,408635,1,0,0:0:0:0:
448,0,408635,1,0,0:0:0:0:
192,0,408712,1,0,0:0:0:0:
320,0,408712,1,0,0:0:0:0:
448,192,408764,1,0,0:0:0:0:
64,192,408816,1,0,0:0:0:0:
192,0,408867,1,0,0:0:0:0:
448,0,409022,1,0,0:0:0:0:
320,0,409099,1,0,0:0:0:0:
64,0,409176,1,0,0:0:0:0:
192,0,409176,1,0,0:0:0:0:
448,192,409254,1,0,0:0:0:0:
192,0,409331,1,0,0:0:0:0:
320,0,409408,1,0,0:0:0:0:
64,0,409486,1,0,0:0:0:0:
448,0,409486,1,0,0:0:0:0:
320,192,409563,1,0,0:0:0:0:
192,192,409640,1,0,0:0:0:0:
64,0,409640,1,0,0:0:0:0:
448,0,409795,1,0,0:0:0:0:
192,0,409872,1,0,0:0:0:0:
320,0,409950,1,0,0:0:0:0:
192,0,410027,1,0,0:0:0:0:
64,0,410104,1,0,0:0:0:0:
448,0,410104,1,0,0:0:0:0:
192,0,410259,1,0,0:0:0:0:
320,0,410414,1,0,0:0:0:0:
448,0,410414,1,0,0:0:0:0:
448,192,410568,1,0,0:0:0:0:
192,0,410568,1,0,0:0:0:0:
320,0,410645,1,0,0:0:0:0:
192,192,410723,1,0,0:0:0:0:
64,0,410723,1,0,0:0:0:0:
320,0,410800,1,0,0:0:0:0:
192,0,410877,1,0,0:0:0:0:
64,0,410955,1,0,0:0:0:0:
320,0,411032,1,0,0:0:0:0:
448,0,411032,1,0,0:0:0:0:
192,0,411109,1,0,0:0:0:0:
448,0,411187,1,0,0:0:0:0:
192,192,411238,1,0,0:0:0:0:
64,192,411290,1,0,0:0:0:0:
320,0,411341,1,0,0:0:0:0:
448,0,411341,1,0,0:0:0:0:
64,192,411393,1,0,0:0:0:0:
192,192,411444,1,0,0:0:0:0:
320,0,411496,1,0,0:0:0:0:
64,0,411651,1,0,0:0:0:0:
192,0,411651,1,0,0:0:0:0:
64,0,411805,1,0,0:0:0:0:
448,0,411805,1,0,0:0:0:0:
320,0,411960,1,0,0:0:0:0:
192,0,412037,1,0,0:0:0:0:
64,0,412115,1,0,0:0:0:0:
320,0,412269,1,0,0:0:0:0:
448,0,412269,1,0,0:0:0:0:
192,0,412424,1,0,0:0:0:0:
320,0,412501,1,0,0:0:0:0:
64,192,412578,1,0,0:0:0:0:
448,0,412578,1,0,0:0:0:0:
192,0,412733,1,0,0:0:0:0:
320,0,412810,1,0,0:0:0:0:
64,192,412888,1,0,0:0:0:0:
320,0,412965,1,0,0:0:0:0:
192,0,413042,1,0,0:0:0:0:
64,0,413120,1,0,0:0:0:0:
320,0,413197,1,0,0:0:0:0:
448,0,413197,1,0,0:0:0:0:
192,0,413352,1,0,0:0:0:0:
320,0,413429,1,0,0:0:0:0:
192,0,413506,1,0,0:0:0:0:
64,0,413545,1,0,0:0:0:0:
448,0,413584,1,0,0:0:0:0:
320,0,413622,1,0,0:0:0:0:
192,0,413661,1,0,0:0:0:0:
64,0,413700,1,0,0:0:0:0:
448,0,413738,1,0,0:0:0:0:
320,0,413777,1,0,0:0:0:0:
64,0,413816,1,0,0:0:0:0:
192,0,413816,1,0,0:0:0:0:
448,0,413893,1,0,0:0:0:0:
192,0,413970,1,0,0:0:0:0:
64,0,414125,1,0,0:0:0:0:
448,0,414125,1,0,0:0:0:0:
192,0,414279,1,0,0:0:0:0:
320,0,414357,1,0,0:0:0:0:
192,0,414434,1,0,0:0:0:0:
448,192,414511,1,0,0:0:0:0:
64,192,414589,1,0,0:0:0:0:
320,192,414589,1,0,0:0:0:0:
192,0,414743,1,0,0:0:0:0:
320,0,414821,1,0,0:0:0:0:
192,192,414898,1,0,0:0:0:0:
64,0,414898,1,0,0:0:0:0:
448,192,414975,1,0,0:0:0:0:
64,192,415053,1,0,0:0:0:0:
320,192,415053,1,0,0:0:0:0:
192,192,415207,1,0,0:0:0:0:
320,192,415285,1,0,0:0:0:0:
448,192,415362,1,0,0:0:0:0:
192,192,415362,1,0,0:0:0:0:
192,0,415517,1,0,0:0:0:0:
320,0,415594,1,0,0:0:0:0:
64,0,415671,1,0,0:0:0:0:
448,0,415671,1,0,0:0:0:0:
192,0,415749,1,0,0:0:0:0:
320,0,415749,1,0,0:0:0:0:
64,0,415826,1,0,0:0:0:0:
192,0,415903,1,0,0:0:0:0:
448,0,415981,1,0,0:0:0:0:
320,0,416058,1,0,0:0:0:0:
64,0,416135,1,0,0:0:0:0:
192,0,416135,1,0,0:0:0:0:
320,192,416212,1,0,0:0:0:0:
64,0,416290,1,0,0:0:0:0:
448,0,416290,1,0,0:0:0:0:
192,0,416444,1,0,0:0:0:0:
320,0,416522,1,0,0:0:0:0:
64,0,416599,1,0,0:0:0:0:
448,0,416599,1,0,0:0:0:0:
320,0,416754,1,0,0:0:0:0:
192,0,416831,1,0,0:0:0:0:
320,0,416908,1,0,0:0:0:0:
448,0,416908,1,0,0:0:0:0:
192,0,416986,1,0,0:0:0:0:
64,0,417063,1,0,0:0:0:0:
448,0,417063,1,0,0:0:0:0:
192,0,417218,1,0,0:0:0:0:
320,0,417295,1,0,0:0:0:0:
64,0,417372,1,0,0:0:0:0:
320,0,417450,1,0,0:0:0:0:
64,0,417527,1,0,0:0:0:0:
448,0,417527,1,0,0:0:0:0:
320,0,417682,1,0,0:0:0:0:
448,0,417682,1,0,0:0:0:0:
192,0,417836,1,0,0:0:0:0:
320,0,417914,1,0,0:0:0:0:
64,0,417991,1,0,0:0:0:0:
192,0,417991,1,0,0:0:0:0:
320,192,418042,1,0,0:0:0:0:
448,192,418094,1,0,0:0:0:0:
64,0,418145,1,0,0:0:0:0:
192,0,418145,1,0,0:0:0:0:
320,0,418223,1,0,0:0:0:0:
448,0,418223,1,0,0:0:0:0:
192,0,418300,1,0,0:0:0:0:
64,0,418377,1,0,0:0:0:0:
448,0,418377,1,0,0:0:0:0:
320,0,418455,1,0,0:0:0:0:
64,0,418532,1,0,0:0:0:0:
448,0,418532,1,0,0:0:0:0:
192,0,418609,1,0,0:0:0:0:
320,0,418609,1,0,0:0:0:0:
64,192,418687,1,0,0:0:0:0:
448,192,418764,1,0,0:0:0:0:
192,0,418764,1,0,0:0:0:0:
64,0,418919,1,0,0:0:0:0:
192,0,418996,1,0,0:0:0:0:
320,0,419073,1,0,0:0:0:0:
448,0,419073,1,0,0:0:0:0:
192,0,419228,1,0,0:0:0:0:
320,0,419305,1,0,0:0:0:0:
192,0,419383,1,0,0:0:0:0:
448,0,419460,1,0,0:0:0:0:
192,0,419537,1,0,0:0:0:0:
320,0,419537,1,0,0:0:0:0:
448,192,419692,1,0,0:0:0:0:
64,0,419692,1,0,0:0:0:0:
320,0,419769,1,0,0:0:0:0:
192,0,419847,1,0,0:0:0:0:
320,0,419924,1,0,0:0:0:0:
64,0,420001,1,0,0:0:0:0:
192,0,420001,1,0,0:0:0:0:
320,0,420156,1,0,0:0:0:0:
64,0,420233,1,0,0:0:0:0:
192,0,420310,1,0,0:0:0:0:
448,0,420310,1,0,0:0:0:0:
320,0,420465,1,0,0:0:0:0:
192,0,420542,1,0,0:0:0:0:
64,0,420620,1,0,0:0:0:0:
448,0,420620,1,0,0:0:0:0:
192,0,420697,1,0,0:0:0:0:
320,0,420774,1,0,0:0:0:0:
192,192,420929,1,0,0:0:0:0:
320,0,421006,1,0,0:0:0:0:
448,192,421084,1,0,0:0:0:0:
192,0,421084,1,0,0:0:0:0:
64,192,421161,1,0,0:0:0:0:
448,192,421238,1,0,0:0:0:0:
320,192,421238,1,0,0:0:0:0:
64,192,421393,1,0,0:0:0:0:
320,0,421548,1,0,0:0:0:0:
448,192,421702,1,0,0:0:0:0:
320,192,421702,1,0,0:0:0:0:
448,192,421857,1,0,0:0:0:0:
192,192,421857,1,0,0:0:0:0:
64,192,421934,1,0,0:0:0:0:
320,192,422011,1,0,0:0:0:0:
192,192,422011,1,0,0:0:0:0:
320,0,422166,1,0,0:0:0:0:
448,0,422166,1,0,0:0:0:0:
64,0,422321,1,0,0:0:0:0:
192,0,422321,1,0,0:0:0:0:
320,0,422398,1,0,0:0:0:0:
192,0,422475,1,0,0:0:0:0:
448,0,422475,1,0,0:0:0:0:
320,0,422630,1,0,0:0:0:0:
64,0,422707,1,0,0:0:0:0:
448,0,422707,1,0,0:0:0:0:
192,0,422785,1,0,0:0:0:0:
320,0,422862,1,0,0:0:0:0:
64,0,422939,1,0,0:0:0:0:
192,0,422939,1,0,0:0:0:0:
448,0,423017,1,0,0:0:0:0:
192,0,423094,1,0,0:0:0:0:
320,0,423094,1,0,0:0:0:0:
64,0,423171,1,0,0:0:0:0:
320,0,423249,1,0,0:0:0:0:
448,0,423249,1,0,0:0:0:0:
64,0,423326,1,0,0:0:0:0:
192,0,423326,1,0,0:0:0:0:
320,0,423403,1,0,0:0:0:0:
448,0,423403,1,0,0:0:0:0:
192,0,423442,1,0,0:0:0:0:
64,0,423481,1,0,0:0:0:0:
448,0,423519,1,0,0:0:0:0:
320,0,423558,1,0,0:0:0:0:
192,0,423597,1,0,0:0:0:0:
64,0,423635,1,0,0:0:0:0:
320,192,423674,1,0,0:0:0:0:
448,192,423712,1,0,0:0:0:0:
192,0,423790,1,0,0:0:0:0:
320,0,423867,1,0,0:0:0:0:
448,0,423867,1,0,0:0:0:0:
64,0,424022,1,0,0:0:0:0:
192,0,424022,1,0,0:0:0:0:
448,192,424176,1,0,0:0:0:0:
192,192,424254,1,0,0:0:0:0:
320,192,424331,1,0,0:0:0:0:
64,192,424408,1,0,0:0:0:0:
448,192,424486,1,0,0:0:0:0:
320,192,424486,1,0,0:0:0:0:
320,0,424640,1,0,0:0:0:0:
192,0,424718,1,0,0:0:0:0:
320,0,424795,1,0,0:0:0:0:
192,0,424872,1,0,0:0:0:0:
64,0,424950,1,0,0:0:0:0:
448,0,424950,1,0,0:0:0:0:
320,192,425104,1,0,0:0:0:0:
64,192,425259,1,0,0:0:0:0:
192,192,425259,1,0,0:0:0:0:
320,0,425414,1,0,0:0:0:0:
192,0,425491,1,0,0:0:0:0:
320,0,425568,1,0,0:0:0:0:
448,0,425568,1,0,0:0:0:0:
64,0,425645,1,0,0:0:0:0:
192,0,425645,1,0,0:0:0:0:
448,192,425723,1,0,0:0:0:0:
192,192,425800,1,0,0:0:0:0:
448,192,425877,1,0,0:0:0:0:
64,192,425877,1,0,0:0:0:0:
320,192,425955,1,0,0:0:0:0:
192,192,425955,1,0,0:0:0:0:
448,192,426032,1,0,0:0:0:0:
64,192,426032,1,0,0:0:0:0:
192,192,426109,1,0,0:0:0:0:
64,192,426187,1,0,0:0:0:0:
320,0,426187,1,0,0:0:0:0:
320,0,426341,1,0,0:0:0:0:
448,0,426341,1,0,0:0:0:0:
192,0,426419,1,0,0:0:0:0:
64,0,426496,1,0,0:0:0:0:
448,0,426496,1,0,0:0:0:0:
192,0,426651,1,0,0:0:0:0:
320,0,426728,1,0,0:0:0:0:
64,0,426805,1,0,0:0:0:0:
320,0,426883,1,0,0:0:0:0:
64,0,426960,1,0,0:0:0:0:
192,0,426960,1,0,0:0:0:0:
448,0,427115,1,0,0:0:0:0:
192,0,427192,1,0,0:0:0:0:
448,0,427269,1,0,0:0:0:0:
320,0,427347,1,0,0:0:0:0:
64,192,427424,1,0,0:0:0:0:
448,0,427424,1,0,0:0:0:0:
448,192,427578,1,0,0:0:0:0:
320,0,427578,1,0,0:0:0:0:
192,0,427733,1,0,0:0:0:0:
320,0,427810,1,0,0:0:0:0:
64,0,427888,1,0,0:0:0:0:
448,0,427888,1,0,0:0:0:0:
320,192,427965,1,0,0:0:0:0:
64,192,428042,1,0,0:0:0:0:
448,0,428042,1,0,0:0:0:0:
192,192,428120,1,0,0:0:0:0:
320,0,428120,1,0,0:0:0:0:
64,192,428197,1,0,0:0:0:0:
320,0,428274,1,0,0:0:0:0:
448,0,428274,1,0,0:0:0:0:
192,0,428352,1,0,0:0:0:0:
448,0,428429,1,0,0:0:0:0:
64,192,428506,1,0,0:0:0:0:
192,0,428506,1,0,0:0:0:0:
448,192,428584,1,0,0:0:0:0:
320,192,428584,1,0,0:0:0:0:
192,192,428661,1,0,0:0:0:0:
320,192,428816,1,0,0:0:0:0:
192,192,428893,1,0,0:0:0:0:
320,0,428970,1,0,0:0:0:0:
448,0,428970,1,0,0:0:0:0:
64,0,429125,1,0,0:0:0:0:
320,192,429202,1,0,0:0:0:0:
192,192,429279,1,0,0:0:0:0:
320,192,429357,1,0,0:0:0:0:
64,0,429434,1,0,0:0:0:0:
192,0,429434,1,0,0:0:0:0:
320,0,429589,1,0,0:0:0:0:
448,192,429666,1,0,0:0:0:0:
192,192,429743,1,0,0:0:0:0:
320,0,429821,1,0,0:0:0:0:
64,0,429898,1,0,0:0:0:0:
192,0,429898,1,0,0:0:0:0:
64,192,430053,1,0,0:0:0:0:
192,0,430130,1,0,0:0:0:0:
320,0,430207,1,0,0:0:0:0:
448,0,430207,1,0,0:0:0:0:
192,192,430362,1,0,0:0:0:0:
320,192,430362,1,0,0:0:0:0:
64,192,430439,1,0,0:0:0:0:
320,0,430517,1,0,0:0:0:0:
448,0,430517,1,0,0:0:0:0:
192,192,430671,1,0,0:0:0:0:
320,0,430749,1,0,0:0:0:0:
64,0,430826,1,0,0:0:0:0:
320,0,430903,1,0,0:0:0:0:
64,0,430981,1,0,0:0:0:0:
192,0,430981,1,0,0:0:0:0:
320,192,431032,1,0,0:0:0:0:
448,192,431084,1,0,0:0:0:0:
64,0,431135,1,0,0:0:0:0:
192,0,431135,1,0,0:0:0:0:
320,192,431212,1,0,0:0:0:0:
64,0,431290,1,0,0:0:0:0:
192,0,431444,1,0,0:0:0:0:
320,0,431444,1,0,0:0:0:0:
320,192,431599,1,0,0:0:0:0:
448,0,431599,1,0,0:0:0:0:
320,0,431754,1,0,0:0:0:0:
192,0,431831,1,0,0:0:0:0:
64,0,431908,1,0,0:0:0:0:
320,0,432063,1,0,0:0:0:0:
448,0,432063,1,0,0:0:0:0:
192,0,432218,1,0,0:0:0:0:
320,0,432295,1,0,0:0:0:0:
448,192,432372,1,0,0:0:0:0:
64,0,432372,1,0,0:0:0:0:
448,0,432527,1,0,0:0:0:0:
192,0,432604,1,0,0:0:0:0:
320,0,432682,1,0,0:0:0:0:
192,0,432759,1,0,0:0:0:0:
64,192,432836,1,0,0:0:0:0:
448,0,432836,1,0,0:0:0:0:
192,192,432914,1,0,0:0:0:0:
448,192,432991,1,0,0:0:0:0:
320,192,432991,1,0,0:0:0:0:
64,192,433068,1,0,0:0:0:0:
320,192,433145,1,0,0:0:0:0:
192,0,433223,1,0,0:0:0:0:
448,0,433300,1,0,0:0:0:0:
320,0,433339,1,0,0:0:0:0:
192,0,433377,1,0,0:0:0:0:
64,0,433416,1,0,0:0:0:0:
448,0,433455,1,0,0:0:0:0:
320,0,433493,1,0,0:0:0:0:
192,0,433532,1,0,0:0:0:0:
64,0,433571,1,0,0:0:0:0:
320,0,433609,1,0,0:0:0:0:
448,0,433609,1,0,0:0:0:0:
192,0,433764,1,0,0:0:0:0:
64,0,433919,1,0,0:0:0:0:
448,0,433919,1,0,0:0:0:0:
320,0,434073,1,0,0:0:0:0:
448,192,434151,1,0,0:0:0:0:
64,192,434228,1,0,0:0:0:0:
320,0,434305,1,0,0:0:0:0:
64,0,434383,1,0,0:0:0:0:
192,0,434383,1,0,0:0:0:0:
448,0,434537,1,0,0:0:0:0:
64,0,434615,1,0,0:0:0:0:
448,192,434692,1,0,0:0:0:0:
320,0,434692,1,0,0:0:0:0:
192,192,434769,1,0,0:0:0:0:
320,192,434847,1,0,0:0:0:0:
64,0,434847,1,0,0:0:0:0:
64,0,435001,1,0,0:0:0:0:
448,0,435001,1,0,0:0:0:0:
320,0,435156,1,0,0:0:0:0:
448,0,435156,1,0,0:0:0:0:
192,0,435310,1,0,0:0:0:0:
320,0,435388,1,0,0:0:0:0:
64,192,435465,1,0,0:0:0:0:
192,192,435465,1,0,0:0:0:0:
448,192,435542,1,0,0:0:0:0:
320,0,435542,1,0,0:0:0:0:
64,192,435620,1,0,0:0:0:0:
320,192,435697,1,0,0:0:0:0:
64,192,435774,1,0,0:0:0:0:
448,0,435852,1,0,0:0:0:0:
192,192,435929,1,0,0:0:0:0:
64,0,435929,1,0,0:0:0:0:
448,192,435981,1,0,0:0:0:0:
320,192,436032,1,0,0:0:0:0:
192,192,436084,1,0,0:0:0:0:
192,0,436238,1,0,0:0:0:0:
320,0,436316,1,0,0:0:0:0:
192,192,436393,1,0,0:0:0:0:
64,0,436393,1,0,0:0:0:0:
192,0,436548,1,0,0:0:0:0:
320,0,436625,1,0,0:0:0:0:
64,0,436702,1,0,0:0:0:0:
448,0,436779,1,0,0:0:0:0:
64,192,436857,1,0,0:0:0:0:
192,0,436857,1,0,0:0:0:0:
192,192,437011,1,0,0:0:0:0:
448,0,437011,1,0,0:0:0:0:
320,0,437089,1,0,0:0:0:0:
448,192,437166,1,0,0:0:0:0:
64,0,437166,1,0,0:0:0:0:
192,192,437243,1,0,0:0:0:0:
320,0,437243,1,0,0:0:0:0:
448,192,437321,1,0,0:0:0:0:
64,0,437321,1,0,0:0:0:0:
64,0,437475,1,0,0:0:0:0:
192,0,437475,1,0,0:0:0:0:
448,0,437553,1,0,0:0:0:0:
64,0,437630,1,0,0:0:0:0:
320,0,437630,1,0,0:0:0:0:
192,0,437707,1,0,0:0:0:0:
320,192,437785,1,0,0:0:0:0:
448,0,437785,1,0,0:0:0:0:
320,0,437939,1,0,0:0:0:0:
448,0,437939,1,0,0:0:0:0:
64,0,438017,1,0,0:0:0:0:
192,0,438017,1,0,0:0:0:0:
320,0,438094,1,0,0:0:0:0:
64,0,438171,1,0,0:0:0:0:
448,0,438171,1,0,0:0:0:0:
192,0,438249,1,0,0:0:0:0:
320,0,438326,1,0,0:0:0:0:
448,0,438326,1,0,0:0:0:0:
64,0,438403,1,0,0:0:0:0:
192,0,438403,1,0,0:0:0:0:
320,0,438481,1,0,0:0:0:0:
448,0,438481,1,0,0:0:0:0:
192,0,438558,1,0,0:0:0:0:
448,0,438712,1,0,0:0:0:0:
320,0,438790,1,0,0:0:0:0:
64,0,438867,1,0,0:0:0:0:
192,0,438867,1,0,0:0:0:0:
192,0,439022,1,0,0:0:0:0:
320,0,439099,1,0,0:0:0:0:
64,0,439176,1,0,0:0:0:0:
448,0,439176,1,0,0:0:0:0:
320,0,439254,1,0,0:0:0:0:
64,0,439331,1,0,0:0:0:0:
192,0,439331,1,0,0:0:0:0:
448,192,439486,1,0,0:0:0:0:
64,192,439486,1,0,0:0:0:0:
192,192,439563,1,0,0:0:0:0:
448,192,439640,1,0,0:0:0:0:
64,192,439718,1,0,0:0:0:0:
192,192,439795,1,0,0:0:0:0:
448,192,439795,1,0,0:0:0:0:
192,0,439950,1,0,0:0:0:0:
320,192,440104,1,0,0:0:0:0:
448,0,440104,1,0,0:0:0:0:
320,0,440259,1,0,0:0:0:0:
192,0,440336,1,0,0:0:0:0:
64,0,440414,1,0,0:0:0:0:
448,0,440414,1,0,0:0:0:0:
320,0,440568,1,0,0:0:0:0:
64,0,440645,1,0,0:0:0:0:
320,192,440723,1,0,0:0:0:0:
192,192,440800,1,0,0:0:0:0:
64,0,440877,1,0,0:0:0:0:
448,0,440877,1,0,0:0:0:0:
320,0,440955,1,0,0:0:0:0:
64,0,441032,1,0,0:0:0:0:
192,0,441032,1,0,0:0:0:0:
448,192,441084,1,0,0:0:0:0:
320,192,441135,1,0,0:0:0:0:
192,0,441187,1,0,0:0:0:0:
320,0,441341,1,0,0:0:0:0:
448,0,441341,1,0,0:0:0:0:
64,0,441496,1,0,0:0:0:0:
192,0,441496,1,0,0:0:0:0:
64,0,441651,1,0,0:0:0:0:
448,0,441651,1,0,0:0:0:0:
320,0,441728,1,0,0:0:0:0:
64,0,441805,1,0,0:0:0:0:
448,0,441805,1,0,0:0:0:0:
192,0,441883,1,0,0:0:0:0:
320,0,441960,1,0,0:0:0:0:
448,0,441960,1,0,0:0:0:0:
320,0,442115,1,0,0:0:0:0:
192,0,442192,1,0,0:0:0:0:
64,0,442269,1,0,0:0:0:0:
448,0,442269,1,0,0:0:0:0:
192,0,442424,1,0,0:0:0:0:
64,0,442501,1,0,0:0:0:0:
448,0,442501,1,0,0:0:0:0:
320,0,442578,1,0,0:0:0:0:
448,0,442656,1,0,0:0:0:0:
64,0,442733,1,0,0:0:0:0:
192,0,442733,1,0,0:0:0:0:
320,0,442810,1,0,0:0:0:0:
192,0,442888,1,0,0:0:0:0:
448,0,442888,1,0,0:0:0:0:
320,0,442965,1,0,0:0:0:0:
448,0,443042,1,0,0:0:0:0:
192,0,443120,1,0,0:0:0:0:
448,0,443197,1,0,0:0:0:0:
320,0,443236,1,0,0:0:0:0:
192,0,443274,1,0,0:0:0:0:
64,0,443313,1,0,0:0:0:0:
448,0,443352,1,0,0:0:0:0:
320,0,443390,1,0,0:0:0:0:
192,0,443429,1,0,0:0:0:0:
64,0,443468,1,0,0:0:0:0:
320,0,443506,1,0,0:0:0:0:
448,0,443506,1,0,0:0:0:0:
192,0,443584,1,0,0:0:0:0:
320,0,443661,1,0,0:0:0:0:
64,0,443816,1,0,0:0:0:0:
448,0,443816,1,0,0:0:0:0:
64,0,443970,1,0,0:0:0:0:
192,0,443970,1,0,0:0:0:0:
320,0,444048,1,0,0:0:0:0:
64,0,444125,1,0,0:0:0:0:
448,0,444125,1,0,0:0:0:0:
320,0,444202,1,0,0:0:0:0:
64,0,444279,1,0,0:0:0:0:
192,0,444279,1,0,0:0:0:0:
320,192,444357,1,0,0:0:0:0:
448,192,444434,1,0,0:0:0:0:
192,0,444434,1,0,0:0:0:0:
64,0,444511,1,0,0:0:0:0:
320,0,444589,1,0,0:0:0:0:
448,0,444589,1,0,0:0:0:0:
192,0,444666,1,0,0:0:0:0:
64,192,444743,1,0,0:0:0:0:
320,192,444743,1,0,0:0:0:0:
320,0,444898,1,0,0:0:0:0:
64,192,444975,1,0,0:0:0:0:
320,0,445053,1,0,0:0:0:0:
448,0,445053,1,0,0:0:0:0:
64,0,445207,1,0,0:0:0:0:
192,0,445285,1,0,0:0:0:0:
320,0,445362,1,0,0:0:0:0:
448,0,445362,1,0,0:0:0:0:
64,192,445439,1,0,0:0:0:0:
192,0,445439,1,0,0:0:0:0:
320,192,445517,1,0,0:0:0:0:
192,192,445594,1,0,0:0:0:0:
64,0,445671,1,0,0:0:0:0:
448,0,445671,1,0,0:0:0:0:
192,0,445749,1,0,0:0:0:0:
320,0,445749,1,0,0:0:0:0:
64,0,445826,1,0,0:0:0:0:
448,0,445826,1,0,0:0:0:0:
192,192,445877,1,0,0:0:0:0:
320,192,445929,1,0,0:0:0:0:
64,0,445981,1,0,0:0:0:0:
448,0,445981,1,0,0:0:0:0:
64,0,446135,1,0,0:0:0:0:
192,0,446135,1,0,0:0:0:0:
320,0,446212,1,0,0:0:0:0:
192,0,446290,1,0,0:0:0:0:
448,0,446290,1,0,0:0:0:0:
320,0,446444,1,0,0:0:0:0:
192,0,446522,1,0,0:0:0:0:
64,0,446599,1,0,0:0:0:0:
448,0,446599,1,0,0:0:0:0:
192,0,446676,1,0,0:0:0:0:
320,0,446754,1,0,0:0:0:0:
448,0,446754,1,0,0:0:0:0:
64,0,446908,1,0,0:0:0:0:
192,0,446908,1,0,0:0:0:0:
448,192,446986,1,0,0:0:0:0:
192,0,447063,1,0,0:0:0:0:
320,0,447140,1,0,0:0:0:0:
64,0,447218,1,0,0:0:0:0:
192,0,447218,1,0,0:0:0:0:
192,0,447372,1,0,0:0:0:0:
448,0,447372,1,0,0:0:0:0:
64,0,447450,1,0,0:0:0:0:
320,0,447527,1,0,0:0:0:0:
448,0,447527,1,0,0:0:0:0:
64,0,447682,1,0,0:0:0:0:
192,0,447682,1,0,0:0:0:0:
64,192,447836,1,0,0:0:0:0:
192,192,447836,1,0,0:0:0:0:
320,192,447914,1,0,0:0:0:0:
448,0,447914,1,0,0:0:0:0:
192,0,447991,1,0,0:0:0:0:
64,192,448068,1,0,0:0:0:0:
448,0,448068,1,0,0:0:0:0:
192,0,448145,1,0,0:0:0:0:
320,192,448223,1,0,0:0:0:0:
448,0,448223,1,0,0:0:0:0:
64,192,448300,1,0,0:0:0:0:
192,0,448300,1,0,0:0:0:0:
320,192,448377,1,0,0:0:0:0:
64,192,448455,1,0,0:0:0:0:
448,192,448455,1,0,0:0:0:0:
64,0,448609,1,0,0:0:0:0:
192,0,448687,1,0,0:0:0:0:
320,0,448764,1,0,0:0:0:0:
448,0,448764,1,0,0:0:0:0:
192,0,448919,1,0,0:0:0:0:
320,0,448996,1,0,0:0:0:0:
192,192,449073,1,0,0:0:0:0:
448,192,449073,1,0,0:0:0:0:
320,0,449151,1,0,0:0:0:0:
192,192,449228,1,0,0:0:0:0:
64,0,449228,1,0,0:0:0:0:
64,0,449383,1,0,0:0:0:0:
448,0,449383,1,0,0:0:0:0:
192,0,449460,1,0,0:0:0:0:
320,0,449537,1,0,0:0:0:0:
192,0,449615,1,0,0:0:0:0:
64,192,449692,1,0,0:0:0:0:
448,0,449692,1,0,0:0:0:0:
448,192,449847,1,0,0:0:0:0:
192,192,449847,1,0,0:0:0:0:
320,0,450001,1,0,0:0:0:0:
448,0,450001,1,0,0:0:0:0:
64,0,450156,1,0,0:0:0:0:
320,0,450156,1,0,0:0:0:0:
192,0,450233,1,0,0:0:0:0:
320,192,450310,1,0,0:0:0:0:
448,0,450310,1,0,0:0:0:0:
192,192,450465,1,0,0:0:0:0:
448,0,450465,1,0,0:0:0:0:
64,0,450542,1,0,0:0:0:0:
320,0,450620,1,0,0:0:0:0:
64,0,450697,1,0,0:0:0:0:
192,192,450774,1,0,0:0:0:0:
320,192,450774,1,0,0:0:0:0:
64,192,450929,1,0,0:0:0:0:
448,0,450929,1,0,0:0:0:0:
192,192,451084,1,0,0:0:0:0:
320,192,451084,1,0,0:0:0:0:
64,192,451238,1,0,0:0:0:0:
320,192,451238,1,0,0:0:0:0:
64,192,451393,1,0,0:0:0:0:
448,192,451393,1,0,0:0:0:0:
192,192,451548,1,0,0:0:0:0:
320,0,451548,1,0,0:0:0:0:
64,192,451625,1,0,0:0:0:0:
448,192,451702,1,0,0:0:0:0:
192,192,451702,1,0,0:0:0:0:
64,192,451779,1,0,0:0:0:0:
448,192,451857,1,0,0:0:0:0:
320,192,451857,1,0,0:0:0:0:
192,192,452011,1,0,0:0:0:0:
448,192,452011,1,0,0:0:0:0:
320,192,452089,1,0,0:0:0:0:
64,192,452166,1,0,0:0:0:0:
192,192,452166,1,0,0:0:0:0:
320,192,452321,1,0,0:0:0:0:
64,192,452321,1,0,0:0:0:0:
192,192,452398,1,0,0:0:0:0:
320,192,452475,1,0,0:0:0:0:
64,192,452553,1,0,0:0:0:0:
448,192,452630,1,0,0:0:0:0:
192,192,452630,1,0,0:0:0:0:
320,192,452785,1,0,0:0:0:0:
448,0,452785,1,0,0:0:0:0:
320,0,452939,1,0,0:0:0:0:
192,0,453017,1,0,0:0:0:0:
448,0,453094,1,0,0:0:0:0:
320,0,453133,1,0,0:0:0:0:
192,0,453171,1,0,0:0:0:0:
64,0,453210,1,0,0:0:0:0:
448,0,453249,1,0,0:0:0:0:
320,0,453287,1,0,0:0:0:0:
192,0,453326,1,0,0:0:0:0:
64,0,453365,1,0,0:0:0:0:
320,0,453403,1,0,0:0:0:0:
448,0,453403,1,0,0:0:0:0:
192,0,453558,1,0,0:0:0:0:
448,192,453712,1,0,0:0:0:0:
320,0,453712,1,0,0:0:0:0:
192,0,453867,1,0,0:0:0:0:
320,0,453944,1,0,0:0:0:0:
64,0,454022,1,0,0:0:0:0:
448,0,454022,1,0,0:0:0:0:
320,192,454099,1,0,0:0:0:0:
192,0,454176,1,0,0:0:0:0:
320,0,454331,1,0,0:0:0:0:
448,0,454408,1,0,0:0:0:0:
192,0,454486,1,0,0:0:0:0:
320,192,454563,1,0,0:0:0:0:
64,0,454640,1,0,0:0:0:0:
192,0,454640,1,0,0:0:0:0:
320,0,454795,1,0,0:0:0:0:
192,0,454950,1,0,0:0:0:0:
448,0,454950,1,0,0:0:0:0:
64,0,455104,1,0,0:0:0:0:
448,0,455182,1,0,0:0:0:0:
64,0,455259,1,0,0:0:0:0:
192,0,455259,1,0,0:0:0:0:
64,0,455414,1,0,0:0:0:0:
320,0,455491,1,0,0:0:0:0:
192,0,455568,1,0,0:0:0:0:
448,0,455645,1,0,0:0:0:0:
64,0,455723,1,0,0:0:0:0:
192,0,455723,1,0,0:0:0:0:
320,192,455800,1,0,0:0:0:0:
448,192,455877,1,0,0:0:0:0:
64,0,455877,1,0,0:0:0:0:
320,192,456032,1,0,0:0:0:0:
192,192,456109,1,0,0:0:0:0:
320,192,456187,1,0,0:0:0:0:
448,0,456187,1,0,0:0:0:0:
192,0,456341,1,0,0:0:0:0:
320,0,456419,1,0,0:0:0:0:
64,0,456496,1,0,0:0:0:0:
192,0,456573,1,0,0:0:0:0:
320,0,456651,1,0,0:0:0:0:
448,0,456651,1,0,0:0:0:0:
64,192,456805,1,0,0:0:0:0:
192,0,456805,1,0,0:0:0:0:
320,0,456883,1,0,0:0:0:0:
192,0,456960,1,0,0:0:0:0:
320,0,457037,1,0,0:0:0:0:
448,192,457115,1,0,0:0:0:0:
64,0,457115,1,0,0:0:0:0:
320,0,457269,1,0,0:0:0:0:
448,0,457269,1,0,0:0:0:0:
64,0,457424,1,0,0:0:0:0:
192,192,457501,1,0,0:0:0:0:
448,192,457578,1,0,0:0:0:0:
320,192,457578,1,0,0:0:0:0:
64,0,457733,1,0,0:0:0:0:
192,0,457733,1,0,0:0:0:0:
320,0,457888,1,0,0:0:0:0:
64,192,457965,1,0,0:0:0:0:
192,0,457965,1,0,0:0:0:0:
320,192,458042,1,0,0:0:0:0:
448,192,458120,1,0,0:0:0:0:
64,0,458197,1,0,0:0:0:0:
192,0,458197,1,0,0:0:0:0:
448,192,458249,1,0,0:0:0:0:
320,192,458300,1,0,0:0:0:0:
192,0,458352,1,0,0:0:0:0:
448,192,458506,1,0,0:0:0:0:
64,0,458506,1,0,0:0:0:0:
192,192,458584,1,0,0:0:0:0:
320,192,458661,1,0,0:0:0:0:
448,0,458661,1,0,0:0:0:0:
320,192,458816,1,0,0:0:0:0:
192,0,458816,1,0,0:0:0:0:
448,0,458893,1,0,0:0:0:0:
64,0,458970,1,0,0:0:0:0:
320,192,459048,1,0,0:0:0:0:
64,192,459125,1,0,0:0:0:0:
192,192,459125,1,0,0:0:0:0:
64,0,459279,1,0,0:0:0:0:
448,192,459357,1,0,0:0:0:0:
64,0,459434,1,0,0:0:0:0:
320,192,459511,1,0,0:0:0:0:
448,192,459589,1,0,0:0:0:0:
192,0,459589,1,0,0:0:0:0:
320,192,459640,1,0,0:0:0:0:
64,192,459692,1,0,0:0:0:0:
192,0,459743,1,0,0:0:0:0:
320,192,459795,1,0,0:0:0:0:
448,192,459847,1,0,0:0:0:0:
192,192,459898,1,0,0:0:0:0:
64,0,459898,1,0,0:0:0:0:
448,0,460053,1,0,0:0:0:0:
64,0,460130,1,0,0:0:0:0:
320,0,460207,1,0,0:0:0:0:
448,0,460207,1,0,0:0:0:0:
64,192,460362,1,0,0:0:0:0:
192,0,460362,1,0,0:0:0:0:
320,0,460439,1,0,0:0:0:0:
192,0,460517,1,0,0:0:0:0:
320,0,460594,1,0,0:0:0:0:
448,0,460671,1,0,0:0:0:0:
64,0,460749,1,0,0:0:0:0:
320,0,460826,1,0,0:0:0:0:
448,0,460826,1,0,0:0:0:0:
320,0,460981,1,0,0:0:0:0:
192,0,461135,1,0,0:0:0:0:
320,0,461290,1,0,0:0:0:0:
448,0,461290,1,0,0:0:0:0:
192,0,461367,1,0,0:0:0:0:
64,0,461444,1,0,0:0:0:0:
320,0,461522,1,0,0:0:0:0:
192,0,461599,1,0,0:0:0:0:
64,0,461754,1,0,0:0:0:0:
448,0,461754,1,0,0:0:0:0:
192,0,461908,1,0,0:0:0:0:
64,0,462063,1,0,0:0:0:0:
448,0,462063,1,0,0:0:0:0:
320,192,462115,1,0,0:0:0:0:
192,192,462166,1,0,0:0:0:0:
64,0,462218,1,0,0:0:0:0:
448,192,462256,1,0,0:0:0:0:
192,192,462321,1,0,0:0:0:0:
320,0,462372,1,0,0:0:0:0:
64,0,462450,1,0,0:0:0:0:
192,0,462527,1,0,0:0:0:0:
320,0,462604,1,0,0:0:0:0:
64,0,462682,1,0,0:0:0:0:
448,0,462682,1,0,0:0:0:0:
192,192,462733,1,0,0:0:0:0:
320,192,462785,1,0,0:0:0:0:
448,0,462836,1,0,0:0:0:0:
64,192,462888,1,0,0:0:0:0:
320,192,462939,1,0,0:0:0:0:
192,0,462991,1,0,0:0:0:0:
448,0,463029,1,0,0:0:0:0:
320,0,463068,1,0,0:0:0:0:
192,0,463107,1,0,0:0:0:0:
64,0,463145,1,0,0:0:0:0:
448,0,463184,1,0,0:0:0:0:
320,0,463223,1,0,0:0:0:0:
192,0,463261,1,0,0:0:0:0:
64,0,463300,1,0,0:0:0:0:
448,0,463300,1,0,0:0:0:0:
192,0,463455,1,0,0:0:0:0:
320,0,463609,1,0,0:0:0:0:
448,0,463609,1,0,0:0:0:0:
192,0,463764,1,0,0:0:0:0:
320,0,463841,1,0,0:0:0:0:
64,0,463919,1,0,0:0:0:0:
192,0,463996,1,0,0:0:0:0:
320,0,464073,1,0,0:0:0:0:
448,0,464073,1,0,0:0:0:0:
192,0,464228,1,0,0:0:0:0:
448,0,464305,1,0,0:0:0:0:
192,192,464383,1,0,0:0:0:0:
320,192,464460,1,0,0:0:0:0:
64,0,464537,1,0,0:0:0:0:
448,0,464537,1,0,0:0:0:0:
192,0,464692,1,0,0:0:0:0:
448,192,464847,1,0,0:0:0:0:
320,0,464847,1,0,0:0:0:0:
192,0,465001,1,0,0:0:0:0:
448,0,465078,1,0,0:0:0:0:
64,0,465156,1,0,0:0:0:0:
192,0,465156,1,0,0:0:0:0:
320,0,465233,1,0,0:0:0:0:
64,0,465310,1,0,0:0:0:0:
192,0,465388,1,0,0:0:0:0:
320,192,465465,1,0,0:0:0:0:
192,192,465542,1,0,0:0:0:0:
320,192,465620,1,0,0:0:0:0:
448,192,465620,1,0,0:0:0:0:
64,192,465697,1,0,0:0:0:0:
320,192,465774,1,0,0:0:0:0:
192,0,465774,1,0,0:0:0:0:
448,0,465929,1,0,0:0:0:0:
192,0,466006,1,0,0:0:0:0:
64,0,466084,1,0,0:0:0:0:
320,0,466084,1,0,0:0:0:0:
448,0,466238,1,0,0:0:0:0:
192,0,466316,1,0,0:0:0:0:
64,0,466393,1,0,0:0:0:0:
448,0,466393,1,0,0:0:0:0:
192,0,466470,1,0,0:0:0:0:
320,0,466548,1,0,0:0:0:0:
448,0,466548,1,0,0:0:0:0:
448,192,466702,1,0,0:0:0:0:
192,0,466702,1,0,0:0:0:0:
320,0,466779,1,0,0:0:0:0:
64,192,466857,1,0,0:0:0:0:
320,0,466934,1,0,0:0:0:0:
192,0,467011,1,0,0:0:0:0:
64,0,467166,1,0,0:0:0:0:
448,0,467166,1,0,0:0:0:0:
320,0,467243,1,0,0:0:0:0:
192,0,467321,1,0,0:0:0:0:
320,192,467398,1,0,0:0:0:0:
192,192,467475,1,0,0:0:0:0:
448,0,467475,1,0,0:0:0:0:
64,0,467630,1,0,0:0:0:0:
192,0,467630,1,0,0:0:0:0:
320,0,467785,1,0,0:0:0:0:
64,0,467862,1,0,0:0:0:0:
448,0,467862,1,0,0:0:0:0:
192,0,467939,1,0,0:0:0:0:
320,0,468017,1,0,0:0:0:0:
64,0,468094,1,0,0:0:0:0:
192,0,468094,1,0,0:0:0:0:
320,192,468145,1,0,0:0:0:0:
448,192,468197,1,0,0:0:0:0:
64,0,468249,1,0,0:0:0:0:
64,0,468326,1,0,0:0:0:0:
64,192,468403,1,0,0:0:0:0:
192,192,468481,1,0,0:0:0:0:
320,192,468558,1,0,0:0:0:0:
448,0,468558,1,0,0:0:0:0:
64,192,468712,1,0,0:0:0:0:
192,192,468790,1,0,0:0:0:0:
320,192,468867,1,0,0:0:0:0:
64,192,468944,1,0,0:0:0:0:
320,192,469022,1,0,0:0:0:0:
448,0,469022,1,0,0:0:0:0:
320,0,469176,1,0,0:0:0:0:
192,0,469254,1,0,0:0:0:0:
320,0,469331,1,0,0:0:0:0:
64,192,469408,1,0,0:0:0:0:
192,192,469486,1,0,0:0:0:0:
448,0,469486,1,0,0:0:0:0:
448,0,469640,1,0,0:0:0:0:
64,0,469795,1,0,0:0:0:0:
192,0,469795,1,0,0:0:0:0:
320,0,469950,1,0,0:0:0:0:
192,0,470027,1,0,0:0:0:0:
320,192,470104,1,0,0:0:0:0:
448,0,470104,1,0,0:0:0:0:
64,192,470259,1,0,0:0:0:0:
192,192,470259,1,0,0:0:0:0:
448,192,470336,1,0,0:0:0:0:
64,192,470414,1,0,0:0:0:0:
320,0,470491,1,0,0:0:0:0:
64,192,470568,1,0,0:0:0:0:
448,0,470645,1,0,0:0:0:0:
320,192,470723,1,0,0:0:0:0:
192,192,470723,1,0,0:0:0:0:
320,192,470877,1,0,0:0:0:0:
64,192,470877,1,0,0:0:0:0:
448,0,471032,1,0,0:0:0:0:
320,192,471187,1,0,0:0:0:0:
192,192,471187,1,0,0:0:0:0:
64,192,471341,1,0,0:0:0:0:
320,192,471341,1,0,0:0:0:0:
64,192,471496,1,0,0:0:0:0:
320,192,471496,1,0,0:0:0:0:
448,192,471651,1,0,0:0:0:0:
320,0,471651,1,0,0:0:0:0:
64,0,471805,1,0,0:0:0:0:
192,0,471805,1,0,0:0:0:0:
64,0,471960,1,0,0:0:0:0:
320,0,471960,1,0,0:0:0:0:
448,0,472037,1,0,0:0:0:0:
192,0,472115,1,0,0:0:0:0:
64,192,472192,1,0,0:0:0:0:
320,0,472192,1,0,0:0:0:0:
448,192,472269,1,0,0:0:0:0:
192,0,472347,1,0,0:0:0:0:
448,192,472424,1,0,0:0:0:0:
320,0,472424,1,0,0:0:0:0:
192,0,472501,1,0,0:0:0:0:
64,192,472578,1,0,0:0:0:0:
448,0,472578,1,0,0:0:0:0:
448,192,472733,1,0,0:0:0:0:
320,192,472733,1,0,0:0:0:0:
64,192,472810,1,0,0:0:0:0:
448,0,472888,1,0,0:0:0:0:
320,0,472926,1,0,0:0:0:0:
192,0,472965,1,0,0:0:0:0:
64,0,473004,1,0,0:0:0:0:
448,0,473042,1,0,0:0:0:0:
320,0,473081,1,0,0:0:0:0:
192,0,473120,1,0,0:0:0:0:
64,0,473158,1,0,0:0:0:0:
320,0,473197,1,0,0:0:0:0:
448,0,473197,1,0,0:0:0:0:
64,0,473352,1,0,0:0:0:0:
320,0,473352,1,0,0:0:0:0:
192,0,473506,1,0,0:0:0:0:
448,0,473506,1,0,0:0:0:0:
192,0,473661,1,0,0:0:0:0:
320,0,473661,1,0,0:0:0:0:
448,0,473738,1,0,0:0:0:0:
192,192,473816,1,0,0:0:0:0:
320,0,473970,1,0,0:0:0:0:
448,0,473970,1,0,0:0:0:0:
192,0,474125,1,0,0:0:0:0:
320,0,474125,1,0,0:0:0:0:
64,0,474202,1,0,0:0:0:0:
448,0,474202,1,0,0:0:0:0:
192,0,474279,1,0,0:0:0:0:
320,0,474357,1,0,0:0:0:0:
448,0,474357,1,0,0:0:0:0:
64,0,474434,1,0,0:0:0:0:
192,0,474434,1,0,0:0:0:0:
64,0,474589,1,0,0:0:0:0:
448,0,474589,1,0,0:0:0:0:
320,0,474743,1,0,0:0:0:0:
448,0,474743,1,0,0:0:0:0:
448,192,474898,1,0,0:0:0:0:
192,0,474898,1,0,0:0:0:0:
320,192,474975,1,0,0:0:0:0:
64,0,475053,1,0,0:0:0:0:
192,0,475053,1,0,0:0:0:0:
192,0,475207,1,0,0:0:0:0:
320,0,475207,1,0,0:0:0:0:
448,0,475285,1,0,0:0:0:0:
64,0,475362,1,0,0:0:0:0:
192,0,475362,1,0,0:0:0:0:
320,0,475439,1,0,0:0:0:0:
448,0,475439,1,0,0:0:0:0:
64,0,475517,1,0,0:0:0:0:
192,0,475517,1,0,0:0:0:0:
320,0,475594,1,0,0:0:0:0:
448,0,475594,1,0,0:0:0:0:
64,0,475671,1,0,0:0:0:0:
192,0,475671,1,0,0:0:0:0:
448,0,475749,1,0,0:0:0:0:
192,0,475826,1,0,0:0:0:0:
320,0,475826,1,0,0:0:0:0:
64,0,475903,1,0,0:0:0:0:
320,0,475981,1,0,0:0:0:0:
448,0,475981,1,0,0:0:0:0:
64,0,476135,1,0,0:0:0:0:
192,0,476135,1,0,0:0:0:0:
448,0,476212,1,0,0:0:0:0:
64,0,476290,1,0,0:0:0:0:
320,0,476290,1,0,0:0:0:0:
192,0,476367,1,0,0:0:0:0:
320,0,476444,1,0,0:0:0:0:
448,0,476444,1,0,0:0:0:0:
192,0,476599,1,0,0:0:0:0:
320,0,476599,1,0,0:0:0:0:
64,0,476676,1,0,0:0:0:0:
448,0,476676,1,0,0:0:0:0:
192,0,476754,1,0,0:0:0:0:
320,0,476831,1,0,0:0:0:0:
448,0,476831,1,0,0:0:0:0:
64,0,476908,1,0,0:0:0:0:
192,0,476908,1,0,0:0:0:0:
64,0,477063,1,0,0:0:0:0:
448,0,477063,1,0,0:0:0:0:
64,0,477218,1,0,0:0:0:0:
320,0,477218,1,0,0:0:0:0:
192,0,477372,1,0,0:0:0:0:
448,0,477372,1,0,0:0:0:0:
64,0,477527,1,0,0:0:0:0:
192,0,477527,1,0,0:0:0:0:
320,192,477604,1,0,0:0:0:0:
448,192,477682,1,0,0:0:0:0:
192,0,477682,1,0,0:0:0:0:
64,0,477759,1,0,0:0:0:0:
320,0,477836,1,0,0:0:0:0:
448,0,477836,1,0,0:0:0:0:
64,0,477914,1,0,0:0:0:0:
448,0,477991,1,0,0:0:0:0:
320,0,478029,1,0,0:0:0:0:
192,0,478068,1,0,0:0:0:0:
64,0,478107,1,0,0:0:0:0:
320,0,478145,1,0,0:0:0:0:
448,0,478145,1,0,0:0:0:0:
64,0,478300,1,0,0:0:0:0:
448,0,478300,1,0,0:0:0:0:
320,0,478377,1,0,0:0:0:0:
64,0,478455,1,0,0:0:0:0:
192,0,478455,1,0,0:0:0:0:
192,0,478609,1,0,0:0:0:0:
320,0,478609,1,0,0:0:0:0:
448,0,478687,1,0,0:0:0:0:
64,0,478764,1,0,0:0:0:0:
192,0,478764,1,0,0:0:0:0:
320,0,478919,1,0,0:0:0:0:
448,0,478919,1,0,0:0:0:0:
64,0,479073,1,0,0:0:0:0:
192,0,479151,1,0,0:0:0:0:
448,0,479151,1,0,0:0:0:0:
320,0,479228,1,0,0:0:0:0:
64,0,479305,1,0,0:0:0:0:
192,0,479305,1,0,0:0:0:0:
320,0,479383,1,0,0:0:0:0:
448,0,479383,1,0,0:0:0:0:
64,192,479460,1,0,0:0:0:0:
320,0,479537,1,0,0:0:0:0:
448,0,479537,1,0,0:0:0:0:
64,0,479692,1,0,0:0:0:0:
320,0,479692,1,0,0:0:0:0:
320,0,479847,1,0,0:0:0:0:
448,0,479847,1,0,0:0:0:0:
192,0,479924,1,0,0:0:0:0:
64,0,480001,1,0,0:0:0:0:
448,0,480001,1,0,0:0:0:0:
64,0,480156,1,0,0:0:0:0:
192,0,480156,1,0,0:0:0:0:
448,0,480233,1,0,0:0:0:0:
64,0,480310,1,0,0:0:0:0:
192,0,480388,1,0,0:0:0:0:
320,0,480388,1,0,0:0:0:0:
448,0,480465,1,0,0:0:0:0:
192,0,480542,1,0,0:0:0:0:
320,0,480542,1,0,0:0:0:0:
64,0,480620,1,0,0:0:0:0:
448,0,480620,1,0,0:0:0:0:
192,0,480774,1,0,0:0:0:0:
320,0,480774,1,0,0:0:0:0:
64,0,480929,1,0,0:0:0:0:
320,0,480929,1,0,0:0:0:0:
64,0,481084,1,0,0:0:0:0:
192,0,481084,1,0,0:0:0:0:
448,192,481161,1,0,0:0:0:0:
320,192,481238,1,0,0:0:0:0:
64,0,481238,1,0,0:0:0:0:
192,192,481316,1,0,0:0:0:0:
64,192,481393,1,0,0:0:0:0:
448,0,481393,1,0,0:0:0:0:
320,192,481470,1,0,0:0:0:0:
192,0,481548,1,0,0:0:0:0:
320,0,481625,1,0,0:0:0:0:
448,0,481625,1,0,0:0:0:0:
64,0,481702,1,0,0:0:0:0:
192,0,481779,1,0,0:0:0:0:
320,0,481779,1,0,0:0:0:0:
64,0,481857,1,0,0:0:0:0:
448,0,481857,1,0,0:0:0:0:
320,0,481934,1,0,0:0:0:0:
64,0,482011,1,0,0:0:0:0:
192,0,482011,1,0,0:0:0:0:
448,0,482089,1,0,0:0:0:0:
192,0,482166,1,0,0:0:0:0:
320,0,482166,1,0,0:0:0:0:
448,0,482243,1,0,0:0:0:0:
64,0,482321,1,0,0:0:0:0:
192,0,482321,1,0,0:0:0:0:
64,0,482475,1,0,0:0:0:0:
448,0,482475,1,0,0:0:0:0:
192,0,482630,1,0,0:0:0:0:
320,0,482630,1,0,0:0:0:0:
320,0,482785,1,0,0:0:0:0:
448,0,482785,1,0,0:0:0:0:
64,0,482862,1,0,0:0:0:0:
192,0,482862,1,0,0:0:0:0:
320,0,482939,1,0,0:0:0:0:
448,0,482939,1,0,0:0:0:0:
64,0,483017,1,0,0:0:0:0:
192,0,483017,1,0,0:0:0:0:
320,0,483094,1,0,0:0:0:0:
448,0,483094,1,0,0:0:0:0:
64,0,483249,1,0,0:0:0:0:
448,0,483249,1,0,0:0:0:0:
192,0,483326,1,0,0:0:0:0:
320,0,483403,1,0,0:0:0:0:
448,0,483403,1,0,0:0:0:0:
192,0,483558,1,0,0:0:0:0:
448,0,483558,1,0,0:0:0:0:
64,192,483635,1,0,0:0:0:0:
192,192,483712,1,0,0:0:0:0:
320,192,483712,1,0,0:0:0:0:
320,0,483867,1,0,0:0:0:0:
448,0,483867,1,0,0:0:0:0:
64,0,484022,1,0,0:0:0:0:
320,0,484099,1,0,0:0:0:0:
448,0,484099,1,0,0:0:0:0:
192,0,484176,1,0,0:0:0:0:
320,0,484254,1,0,0:0:0:0:
448,0,484254,1,0,0:0:0:0:
64,0,484331,1,0,0:0:0:0:
192,0,484331,1,0,0:0:0:0:
192,0,484486,1,0,0:0:0:0:
448,0,484486,1,0,0:0:0:0:
64,0,484640,1,0,0:0:0:0:
448,0,484640,1,0,0:0:0:0:
320,0,484795,1,0,0:0:0:0:
448,0,484795,1,0,0:0:0:0:
192,0,484872,1,0,0:0:0:0:
64,0,484950,1,0,0:0:0:0:
320,0,484950,1,0,0:0:0:0:
64,192,485104,1,0,0:0:0:0:
192,0,485104,1,0,0:0:0:0:
320,0,485182,1,0,0:0:0:0:
192,192,485259,1,0,0:0:0:0:
448,192,485336,1,0,0:0:0:0:
320,192,485336,1,0,0:0:0:0:
192,192,485414,1,0,0:0:0:0:
64,0,485414,1,0,0:0:0:0:
448,192,485491,1,0,0:0:0:0:
320,192,485568,1,0,0:0:0:0:
192,192,485568,1,0,0:0:0:0:
320,192,485723,1,0,0:0:0:0:
64,192,485723,1,0,0:0:0:0:
192,0,485800,1,0,0:0:0:0:
448,192,485877,1,0,0:0:0:0:
320,0,485877,1,0,0:0:0:0:
192,0,486032,1,0,0:0:0:0:
448,0,486032,1,0,0:0:0:0:
64,192,486109,1,0,0:0:0:0:
320,192,486187,1,0,0:0:0:0:
192,0,486187,1,0,0:0:0:0:
448,0,486264,1,0,0:0:0:0:
192,192,486341,1,0,0:0:0:0:
64,0,486341,1,0,0:0:0:0:
448,0,486419,1,0,0:0:0:0:
192,0,486496,1,0,0:0:0:0:
64,0,486573,1,0,0:0:0:0:
320,0,486573,1,0,0:0:0:0:
448,0,486651,1,0,0:0:0:0:
192,0,486728,1,0,0:0:0:0:
320,0,486728,1,0,0:0:0:0:
64,0,486805,1,0,0:0:0:0:
448,0,486805,1,0,0:0:0:0:
320,0,486883,1,0,0:0:0:0:
64,0,486960,1,0,0:0:0:0:
192,0,486960,1,0,0:0:0:0:
448,0,487037,1,0,0:0:0:0:
64,0,487115,1,0,0:0:0:0:
320,0,487115,1,0,0:0:0:0:
448,0,487192,1,0,0:0:0:0:
64,0,487269,1,0,0:0:0:0:
192,0,487269,1,0,0:0:0:0:
448,0,487347,1,0,0:0:0:0:
320,0,487424,1,0,0:0:0:0:
64,192,487501,1,0,0:0:0:0:
192,0,487501,1,0,0:0:0:0:
448,192,487578,1,0,0:0:0:0:
320,0,487578,1,0,0:0:0:0:
192,0,487656,1,0,0:0:0:0:
64,192,487733,1,0,0:0:0:0:
448,192,487733,1,0,0:0:0:0:
320,192,487810,1,0,0:0:0:0:
192,0,487810,1,0,0:0:0:0:
448,0,487888,1,0,0:0:0:0:
320,0,487926,1,0,0:0:0:0:
192,0,487965,1,0,0:0:0:0:
64,0,488004,1,0,0:0:0:0:
320,0,488042,1,0,0:0:0:0:
448,0,488042,1,0,0:0:0:0:
192,192,488197,1,0,0:0:0:0:
448,0,488197,1,0,0:0:0:0:
64,0,488274,1,0,0:0:0:0:
448,192,488352,1,0,0:0:0:0:
320,0,488352,1,0,0:0:0:0:
320,192,488506,1,0,0:0:0:0:
192,0,488506,1,0,0:0:0:0:
64,192,488584,1,0,0:0:0:0:
448,192,488661,1,0,0:0:0:0:
192,192,488661,1,0,0:0:0:0:
320,192,488738,1,0,0:0:0:0:
64,192,488816,1,0,0:0:0:0:
192,192,488816,1,0,0:0:0:0:
192,0,488970,1,0,0:0:0:0:
448,192,489048,1,0,0:0:0:0:
320,0,489048,1,0,0:0:0:0:
64,192,489125,1,0,0:0:0:0:
448,192,489202,1,0,0:0:0:0:
320,0,489202,1,0,0:0:0:0:
192,192,489279,1,0,0:0:0:0:
64,0,489279,1,0,0:0:0:0:
64,0,489434,1,0,0:0:0:0:
448,0,489434,1,0,0:0:0:0:
192,0,489589,1,0,0:0:0:0:
448,0,489589,1,0,0:0:0:0:
192,0,489743,1,0,0:0:0:0:
320,0,489743,1,0,0:0:0:0:
64,0,489821,1,0,0:0:0:0:
448,0,489821,1,0,0:0:0:0:
192,0,489898,1,0,0:0:0:0:
320,0,489898,1,0,0:0:0:0:
64,0,490053,1,0,0:0:0:0:
320,0,490053,1,0,0:0:0:0:
64,0,490207,1,0,0:0:0:0:
192,0,490207,1,0,0:0:0:0:
320,0,490285,1,0,0:0:0:0:
448,0,490285,1,0,0:0:0:0:
192,0,490362,1,0,0:0:0:0:
320,0,490439,1,0,0:0:0:0:
64,0,490517,1,0,0:0:0:0:
192,0,490517,1,0,0:0:0:0:
192,0,490671,1,0,0:0:0:0:
320,0,490671,1,0,0:0:0:0:
192,0,490826,1,0,0:0:0:0:
448,0,490826,1,0,0:0:0:0:
192,192,490981,1,0,0:0:0:0:
320,0,491058,1,0,0:0:0:0:
448,192,491135,1,0,0:0:0:0:
192,0,491135,1,0,0:0:0:0:
320,0,491290,1,0,0:0:0:0:
448,0,491290,1,0,0:0:0:0:
64,0,491444,1,0,0:0:0:0:
192,0,491444,1,0,0:0:0:0:
320,0,491522,1,0,0:0:0:0:
448,0,491522,1,0,0:0:0:0:
192,0,491599,1,0,0:0:0:0:
448,192,491676,1,0,0:0:0:0:
64,0,491676,1,0,0:0:0:0:
320,192,491754,1,0,0:0:0:0:
64,0,491831,1,0,0:0:0:0:
192,0,491908,1,0,0:0:0:0:
448,0,491908,1,0,0:0:0:0:
64,192,491986,1,0,0:0:0:0:
320,192,492063,1,0,0:0:0:0:
448,0,492063,1,0,0:0:0:0:
64,0,492140,1,0,0:0:0:0:
192,192,492218,1,0,0:0:0:0:
448,0,492218,1,0,0:0:0:0:
320,192,492295,1,0,0:0:0:0:
448,192,492372,1,0,0:0:0:0:
64,0,492372,1,0,0:0:0:0:
192,192,492450,1,0,0:0:0:0:
320,0,492527,1,0,0:0:0:0:
448,0,492527,1,0,0:0:0:0:
64,0,492604,1,0,0:0:0:0:
192,0,492604,1,0,0:0:0:0:
448,0,492682,1,0,0:0:0:0:
320,0,492720,1,0,0:0:0:0:
192,0,492759,1,0,0:0:0:0:
64,0,492798,1,0,0:0:0:0:
448,0,492836,1,0,0:0:0:0:
320,0,492875,1,0,0:0:0:0:
192,0,492914,1,0,0:0:0:0:
64,0,492952,1,0,0:0:0:0:
320,0,492991,1,0,0:0:0:0:
448,0,492991,1,0,0:0:0:0:
64,0,493145,1,0,0:0:0:0:
192,0,493145,1,0,0:0:0:0:
448,0,493223,1,0,0:0:0:0:
192,0,493300,1,0,0:0:0:0:
320,0,493300,1,0,0:0:0:0:
64,0,493455,1,0,0:0:0:0:
192,0,493455,1,0,0:0:0:0:
320,0,493532,1,0,0:0:0:0:
64,0,493609,1,0,0:0:0:0:
448,0,493609,1,0,0:0:0:0:
192,0,493764,1,0,0:0:0:0:
448,0,493764,1,0,0:0:0:0:
320,0,493919,1,0,0:0:0:0:
64,0,493996,1,0,0:0:0:0:
192,0,493996,1,0,0:0:0:0:
320,192,494073,1,0,0:0:0:0:
192,192,494151,1,0,0:0:0:0:
448,192,494151,1,0,0:0:0:0:
64,192,494228,1,0,0:0:0:0:
320,192,494228,1,0,0:0:0:0:
192,192,494383,1,0,0:0:0:0:
320,0,494383,1,0,0:0:0:0:
320,0,494537,1,0,0:0:0:0:
448,0,494537,1,0,0:0:0:0:
64,192,494692,1,0,0:0:0:0:
320,192,494692,1,0,0:0:0:0:
448,192,494769,1,0,0:0:0:0:
192,192,494847,1,0,0:0:0:0:
64,0,494847,1,0,0:0:0:0:
320,192,494924,1,0,0:0:0:0:
448,192,495001,1,0,0:0:0:0:
192,0,495001,1,0,0:0:0:0:
64,0,495078,1,0,0:0:0:0:
448,192,495156,1,0,0:0:0:0:
320,192,495156,1,0,0:0:0:0:
64,192,495233,1,0,0:0:0:0:
192,192,495233,1,0,0:0:0:0:
320,192,495310,1,0,0:0:0:0:
192,192,495388,1,0,0:0:0:0:
64,0,495465,1,0,0:0:0:0:
448,0,495465,1,0,0:0:0:0:
192,0,495620,1,0,0:0:0:0:
320,0,495697,1,0,0:0:0:0:
192,192,495774,1,0,0:0:0:0:
64,0,495774,1,0,0:0:0:0:
320,192,495929,1,0,0:0:0:0:
64,0,496006,1,0,0:0:0:0:
320,0,496084,1,0,0:0:0:0:
448,0,496084,1,0,0:0:0:0:
64,0,496161,1,0,0:0:0:0:
192,0,496238,1,0,0:0:0:0:
448,0,496238,1,0,0:0:0:0:
448,192,496393,1,0,0:0:0:0:
320,0,496393,1,0,0:0:0:0:
64,192,496470,1,0,0:0:0:0:
192,0,496470,1,0,0:0:0:0:
320,192,496548,1,0,0:0:0:0:
64,192,496625,1,0,0:0:0:0:
448,0,496625,1,0,0:0:0:0:
320,192,496702,1,0,0:0:0:0:
192,0,496702,1,0,0:0:0:0:
64,192,496779,1,0,0:0:0:0:
192,0,496857,1,0,0:0:0:0:
448,0,496857,1,0,0:0:0:0:
192,192,497011,1,0,0:0:0:0:
64,0,497011,1,0,0:0:0:0:
448,0,497089,1,0,0:0:0:0:
64,0,497166,1,0,0:0:0:0:
320,0,497166,1,0,0:0:0:0:
192,0,497243,1,0,0:0:0:0:
64,0,497321,1,0,0:0:0:0:
448,0,497321,1,0,0:0:0:0:
192,0,497398,1,0,0:0:0:0:
320,0,497398,1,0,0:0:0:0:
64,0,497475,1,0,0:0:0:0:
448,0,497475,1,0,0:0:0:0:
320,0,497553,1,0,0:0:0:0:
64,0,497630,1,0,0:0:0:0:
192,0,497630,1,0,0:0:0:0:
320,0,497707,1,0,0:0:0:0:
448,0,497785,1,0,0:0:0:0:
64,0,497823,1,0,0:0:0:0:
192,192,497862,1,0,0:0:0:0:
320,0,497901,1,0,0:0:0:0:
64,0,497939,1,0,0:0:0:0:
448,0,497939,1,0,0:0:0:0:
64,0,498094,1,0,0:0:0:0:
192,0,498094,1,0,0:0:0:0:
320,0,498171,1,0,0:0:0:0:
192,0,498249,1,0,0:0:0:0:
448,0,498249,1,0,0:0:0:0:
448,0,498403,1,0,0:0:0:0:
320,0,498481,1,0,0:0:0:0:
64,0,498558,1,0,0:0:0:0:
192,0,498558,1,0,0:0:0:0:
448,0,498635,1,0,0:0:0:0:
192,0,498712,1,0,0:0:0:0:
320,0,498712,1,0,0:0:0:0:
320,192,498867,1,0,0:0:0:0:
64,192,498944,1,0,0:0:0:0:
192,0,498944,1,0,0:0:0:0:
448,0,499022,1,0,0:0:0:0:
64,0,499099,1,0,0:0:0:0:
320,0,499099,1,0,0:0:0:0:
192,0,499176,1,0,0:0:0:0:
448,0,499176,1,0,0:0:0:0:
320,0,499254,1,0,0:0:0:0:
64,0,499331,1,0,0:0:0:0:
192,0,499331,1,0,0:0:0:0:
320,0,499408,1,0,0:0:0:0:
64,0,499486,1,0,0:0:0:0:
448,0,499486,1,0,0:0:0:0:
192,0,499640,1,0,0:0:0:0:
448,0,499640,1,0,0:0:0:0:
320,0,499718,1,0,0:0:0:0:
64,0,499795,1,0,0:0:0:0:
192,0,499795,1,0,0:0:0:0:
192,0,499950,1,0,0:0:0:0:
448,0,499950,1,0,0:0:0:0:
64,0,500104,1,0,0:0:0:0:
192,0,500182,1,0,0:0:0:0:
448,0,500182,1,0,0:0:0:0:
320,0,500259,1,0,0:0:0:0:
64,0,500336,1,0,0:0:0:0:
192,0,500336,1,0,0:0:0:0:
320,0,500414,1,0,0:0:0:0:
448,0,500414,1,0,0:0:0:0:
64,0,500568,1,0,0:0:0:0:
192,0,500568,1,0,0:0:0:0:
192,0,500723,1,0,0:0:0:0:
448,0,500723,1,0,0:0:0:0:
192,192,500877,1,0,0:0:0:0:
320,0,500877,1,0,0:0:0:0:
448,0,500955,1,0,0:0:0:0:
64,192,501032,1,0,0:0:0:0:
320,0,501109,1,0,0:0:0:0:
64,192,501187,1,0,0:0:0:0:
448,0,501187,1,0,0:0:0:0:
64,0,501341,1,0,0:0:0:0:
192,0,501419,1,0,0:0:0:0:
320,0,501419,1,0,0:0:0:0:
448,0,501496,1,0,0:0:0:0:
192,0,501573,1,0,0:0:0:0:
320,0,501573,1,0,0:0:0:0:
64,0,501651,1,0,0:0:0:0:
448,0,501651,1,0,0:0:0:0:
320,192,501728,1,0,0:0:0:0:
64,192,501805,1,0,0:0:0:0:
192,192,501805,1,0,0:0:0:0:
320,192,501883,1,0,0:0:0:0:
192,192,501960,1,0,0:0:0:0:
448,0,501960,1,0,0:0:0:0:
64,0,502037,1,0,0:0:0:0:
192,0,502115,1,0,0:0:0:0:
448,0,502115,1,0,0:0:0:0:
320,0,502192,1,0,0:0:0:0:
64,0,502269,1,0,0:0:0:0:
192,0,502308,1,0,0:0:0:0:
320,0,502347,1,0,0:0:0:0:
448,0,502385,1,0,0:0:0:0:
192,192,502424,1,0,0:0:0:0:
64,0,502424,1,0,0:0:0:0:
192,0,502578,1,0,0:0:0:0:
320,0,502578,1,0,0:0:0:0:
64,0,502656,1,0,0:0:0:0:
448,0,502656,1,0,0:0:0:0:
192,0,502733,1,0,0:0:0:0:
320,0,502733,1,0,0:0:0:0:
64,0,502810,1,0,0:0:0:0:
448,0,502810,1,0,0:0:0:0:
192,0,502888,1,0,0:0:0:0:
320,0,502888,1,0,0:0:0:0:
448,0,502965,1,0,0:0:0:0:
64,0,503042,1,0,0:0:0:0:
192,0,503042,1,0,0:0:0:0:
320,192,503120,1,0,0:0:0:0:
64,0,503197,1,0,0:0:0:0:
192,0,503197,1,0,0:0:0:0:
448,192,503274,1,0,0:0:0:0:
192,0,503352,1,0,0:0:0:0:
320,0,503429,1,0,0:0:0:0:
192,0,503506,1,0,0:0:0:0:
448,0,503506,1,0,0:0:0:0:
64,0,503661,1,0,0:0:0:0:
320,0,503661,1,0,0:0:0:0:
192,0,503816,1,0,0:0:0:0:
320,0,503893,1,0,0:0:0:0:
448,0,503893,1,0,0:0:0:0:
64,0,503970,1,0,0:0:0:0:
192,0,504048,1,0,0:0:0:0:
320,0,504048,1,0,0:0:0:0:
64,0,504125,1,0,0:0:0:0:
448,0,504125,1,0,0:0:0:0:
64,0,504279,1,0,0:0:0:0:
192,0,504279,1,0,0:0:0:0:
320,0,504434,1,0,0:0:0:0:
448,0,504434,1,0,0:0:0:0:
64,0,504589,1,0,0:0:0:0:
192,0,504589,1,0,0:0:0:0:
320,0,504666,1,0,0:0:0:0:
64,0,504743,1,0,0:0:0:0:
448,0,504743,1,0,0:0:0:0:
320,0,504898,1,0,0:0:0:0:
448,0,504898,1,0,0:0:0:0:
192,192,505053,1,0,0:0:0:0:
448,0,505053,1,0,0:0:0:0:
64,0,505130,1,0,0:0:0:0:
192,192,505207,1,0,0:0:0:0:
320,192,505207,1,0,0:0:0:0:
64,192,505285,1,0,0:0:0:0:
320,192,505362,1,0,0:0:0:0:
448,192,505362,1,0,0:0:0:0:
192,192,505439,1,0,0:0:0:0:
64,192,505517,1,0,0:0:0:0:
320,192,505517,1,0,0:0:0:0:
448,0,505594,1,0,0:0:0:0:
64,192,505671,1,0,0:0:0:0:
192,0,505671,1,0,0:0:0:0:
320,192,505826,1,0,0:0:0:0:
192,0,505826,1,0,0:0:0:0:
64,192,505903,1,0,0:0:0:0:
448,192,505981,1,0,0:0:0:0:
192,192,505981,1,0,0:0:0:0:
320,192,506058,1,0,0:0:0:0:
64,192,506135,1,0,0:0:0:0:
192,192,506135,1,0,0:0:0:0:
192,0,506290,1,0,0:0:0:0:
64,0,506367,1,0,0:0:0:0:
320,0,506367,1,0,0:0:0:0:
448,0,506444,1,0,0:0:0:0:
192,0,506522,1,0,0:0:0:0:
320,0,506522,1,0,0:0:0:0:
64,0,506599,1,0,0:0:0:0:
448,0,506599,1,0,0:0:0:0:
192,0,506676,1,0,0:0:0:0:
448,192,506754,1,0,0:0:0:0:
320,0,506754,1,0,0:0:0:0:
192,0,506831,1,0,0:0:0:0:
64,192,506908,1,0,0:0:0:0:
320,0,506908,1,0,0:0:0:0:
448,192,507063,1,0,0:0:0:0:
320,192,507063,1,0,0:0:0:0:
192,192,507140,1,0,0:0:0:0:
448,192,507218,1,0,0:0:0:0:
64,0,507218,1,0,0:0:0:0:
192,192,507295,1,0,0:0:0:0:
320,0,507295,1,0,0:0:0:0:
448,192,507372,1,0,0:0:0:0:
64,0,507372,1,0,0:0:0:0:
320,0,507450,1,0,0:0:0:0:
192,192,507527,1,0,0:0:0:0:
64,0,507527,1,0,0:0:0:0:
448,192,507604,1,0,0:0:0:0:
320,0,507604,1,0,0:0:0:0:
64,0,507682,1,0,0:0:0:0:
192,0,507720,1,0,0:0:0:0:
320,0,507759,1,0,0:0:0:0:
448,192,507798,1,0,0:0:0:0:
64,0,507836,1,0,0:0:0:0:
192,0,507914,1,0,0:0:0:0:
448,192,507991,1,0,0:0:0:0:
320,0,507991,1,0,0:0:0:0:
192,192,508068,1,0,0:0:0:0:
448,192,508145,1,0,0:0:0:0:
64,0,508145,1,0,0:0:0:0:
192,0,508300,1,0,0:0:0:0:
320,0,508300,1,0,0:0:0:0:
448,192,508377,1,0,0:0:0:0:
64,0,508455,1,0,0:0:0:0:
192,0,508455,1,0,0:0:0:0:
320,0,508532,1,0,0:0:0:0:
192,192,508609,1,0,0:0:0:0:
448,0,508609,1,0,0:0:0:0:
192,0,508764,1,0,0:0:0:0:
64,0,508841,1,0,0:0:0:0:
320,0,508841,1,0,0:0:0:0:
448,0,508919,1,0,0:0:0:0:
64,192,508996,1,0,0:0:0:0:
192,0,508996,1,0,0:0:0:0:
320,192,509073,1,0,0:0:0:0:
448,0,509073,1,0,0:0:0:0:
192,192,509151,1,0,0:0:0:0:
448,192,509228,1,0,0:0:0:0:
64,0,509228,1,0,0:0:0:0:
320,0,509305,1,0,0:0:0:0:
192,192,509383,1,0,0:0:0:0:
64,0,509383,1,0,0:0:0:0:
320,0,509537,1,0,0:0:0:0:
64,192,509615,1,0,0:0:0:0:
320,192,509692,1,0,0:0:0:0:
192,0,509692,1,0,0:0:0:0:
320,192,509847,1,0,0:0:0:0:
448,0,509847,1,0,0:0:0:0:
192,192,509924,1,0,0:0:0:0:
448,0,510001,1,0,0:0:0:0:
64,0,510078,1,0,0:0:0:0:
192,0,510078,1,0,0:0:0:0:
320,0,510156,1,0,0:0:0:0:
192,0,510233,1,0,0:0:0:0:
64,0,510310,1,0,0:0:0:0:
448,0,510310,1,0,0:0:0:0:
320,192,510465,1,0,0:0:0:0:
64,0,510542,1,0,0:0:0:0:
320,0,510620,1,0,0:0:0:0:
448,0,510620,1,0,0:0:0:0:
192,192,510697,1,0,0:0:0:0:
64,192,510774,1,0,0:0:0:0:
320,0,510774,1,0,0:0:0:0:
192,192,510929,1,0,0:0:0:0:
320,0,510929,1,0,0:0:0:0:
192,0,511084,1,0,0:0:0:0:
448,0,511084,1,0,0:0:0:0:
64,0,511238,1,0,0:0:0:0:
320,0,511316,1,0,0:0:0:0:
448,0,511316,1,0,0:0:0:0:
192,0,511393,1,0,0:0:0:0:
320,0,511470,1,0,0:0:0:0:
448,0,511470,1,0,0:0:0:0:
64,0,511548,1,0,0:0:0:0:
192,0,511548,1,0,0:0:0:0:
320,0,511625,1,0,0:0:0:0:
192,192,511702,1,0,0:0:0:0:
448,0,511702,1,0,0:0:0:0:
320,0,511857,1,0,0:0:0:0:
448,0,511857,1,0,0:0:0:0:
192,192,511934,1,0,0:0:0:0:
448,192,512011,1,0,0:0:0:0:
64,192,512011,1,0,0:0:0:0:
192,192,512089,1,0,0:0:0:0:
320,192,512166,1,0,0:0:0:0:
64,0,512166,1,0,0:0:0:0:
320,0,512321,1,0,0:0:0:0:
448,0,512321,1,0,0:0:0:0:
64,0,512398,1,0,0:0:0:0:
192,0,512398,1,0,0:0:0:0:
448,0,512475,1,0,0:0:0:0:
320,0,512514,1,0,0:0:0:0:
192,0,512553,1,0,0:0:0:0:
64,0,512591,1,0,0:0:0:0:
448,0,512630,1,0,0:0:0:0:
320,0,512669,1,0,0:0:0:0:
192,0,512707,1,0,0:0:0:0:
64,0,512746,1,0,0:0:0:0:
320,0,512785,1,0,0:0:0:0:
448,0,512785,1,0,0:0:0:0:
192,0,512939,1,0,0:0:0:0:
64,0,513094,1,0,0:0:0:0:
448,0,513094,1,0,0:0:0:0:
320,0,513249,1,0,0:0:0:0:
192,0,513326,1,0,0:0:0:0:
64,0,513403,1,0,0:0:0:0:
192,192,513455,1,0,0:0:0:0:
320,192,513506,1,0,0:0:0:0:
448,0,513558,1,0,0:0:0:0:
192,192,513609,1,0,0:0:0:0:
320,192,513661,1,0,0:0:0:0:
448,0,513712,1,0,0:0:0:0:
192,0,513790,1,0,0:0:0:0:
64,0,513867,1,0,0:0:0:0:
320,0,513944,1,0,0:0:0:0:
64,0,514022,1,0,0:0:0:0:
448,0,514022,1,0,0:0:0:0:
320,0,514099,1,0,0:0:0:0:
192,0,514176,1,0,0:0:0:0:
320,0,514331,1,0,0:0:0:0:
448,0,514331,1,0,0:0:0:0:
64,0,514486,1,0,0:0:0:0:
320,0,514563,1,0,0:0:0:0:
64,0,514640,1,0,0:0:0:0:
448,0,514640,1,0,0:0:0:0:
320,0,514795,1,0,0:0:0:0:
192,0,514872,1,0,0:0:0:0:
320,192,514950,1,0,0:0:0:0:
64,192,515027,1,0,0:0:0:0:
192,192,515104,1,0,0:0:0:0:
448,0,515104,1,0,0:0:0:0:
320,192,515259,1,0,0:0:0:0:
192,0,515259,1,0,0:0:0:0:
64,0,515414,1,0,0:0:0:0:
320,0,515491,1,0,0:0:0:0:
448,0,515491,1,0,0:0:0:0:
64,0,515568,1,0,0:0:0:0:
192,0,515568,1,0,0:0:0:0:
320,192,515723,1,0,0:0:0:0:
192,192,515800,1,0,0:0:0:0:
448,192,515877,1,0,0:0:0:0:
64,0,515955,1,0,0:0:0:0:
320,0,516032,1,0,0:0:0:0:
448,0,516032,1,0,0:0:0:0:
448,192,516187,1,0,0:0:0:0:
192,0,516187,1,0,0:0:0:0:
320,0,516264,1,0,0:0:0:0:
64,0,516341,1,0,0:0:0:0:
320,0,516419,1,0,0:0:0:0:
64,0,516496,1,0,0:0:0:0:
192,0,516496,1,0,0:0:0:0:
320,0,516651,1,0,0:0:0:0:
448,0,516651,1,0,0:0:0:0:
192,0,516805,1,0,0:0:0:0:
448,0,516883,1,0,0:0:0:0:
64,192,516960,1,0,0:0:0:0:
192,0,516960,1,0,0:0:0:0:
64,192,517115,1,0,0:0:0:0:
192,0,517115,1,0,0:0:0:0:
64,0,517269,1,0,0:0:0:0:
320,0,517347,1,0,0:0:0:0:
448,0,517347,1,0,0:0:0:0:
64,192,517424,1,0,0:0:0:0:
320,192,517501,1,0,0:0:0:0:
192,192,517578,1,0,0:0:0:0:
448,0,517578,1,0,0:0:0:0:
64,0,517733,1,0,0:0:0:0:
320,0,517733,1,0,0:0:0:0:
192,0,517810,1,0,0:0:0:0:
448,192,517888,1,0,0:0:0:0:
64,192,517965,1,0,0:0:0:0:
448,192,518042,1,0,0:0:0:0:
320,192,518042,1,0,0:0:0:0:
64,192,518094,1,0,0:0:0:0:
192,192,518145,1,0,0:0:0:0:
320,192,518197,1,0,0:0:0:0:
448,192,518249,1,0,0:0:0:0:
192,192,518300,1,0,0:0:0:0:
64,192,518352,1,0,0:0:0:0:
320,0,518429,1,0,0:0:0:0:
64,0,518506,1,0,0:0:0:0:
192,0,518506,1,0,0:0:0:0:
192,192,518661,1,0,0:0:0:0:
448,0,518661,1,0,0:0:0:0:
320,192,518738,1,0,0:0:0:0:
192,192,518816,1,0,0:0:0:0:
64,0,518816,1,0,0:0:0:0:
448,192,518893,1,0,0:0:0:0:
64,0,518970,1,0,0:0:0:0:
320,0,518970,1,0,0:0:0:0:
192,0,519125,1,0,0:0:0:0:
448,0,519125,1,0,0:0:0:0:
320,0,519279,1,0,0:0:0:0:
448,0,519279,1,0,0:0:0:0:
192,0,519434,1,0,0:0:0:0:
320,0,519511,1,0,0:0:0:0:
64,0,519589,1,0,0:0:0:0:
448,0,519589,1,0,0:0:0:0:
320,192,519640,1,0,0:0:0:0:
192,192,519692,1,0,0:0:0:0:
64,0,519743,1,0,0:0:0:0:
448,192,519782,1,0,0:0:0:0:
320,0,519821,1,0,0:0:0:0:
192,192,519859,1,0,0:0:0:0:
64,0,519898,1,0,0:0:0:0:
320,192,519937,1,0,0:0:0:0:
448,0,519975,1,0,0:0:0:0:
64,192,520001,1,0,0:0:0:0:
192,0,520053,1,0,0:0:0:0:
320,192,520104,1,0,0:0:0:0:
448,192,520156,1,0,0:0:0:0:
64,0,520207,1,0,0:0:0:0:
192,0,520207,1,0,0:0:0:0:
320,0,520362,1,0,0:0:0:0:
192,0,520517,1,0,0:0:0:0:
320,0,520671,1,0,0:0:0:0:
448,0,520671,1,0,0:0:0:0:
64,192,520826,1,0,0:0:0:0:
64,192,520981,1,0,0:0:0:0:
448,192,521135,1,0,0:0:0:0:
320,0,521135,1,0,0:0:0:0:
64,192,521290,1,0,0:0:0:0:
320,192,521444,1,0,0:0:0:0:
64,192,521444,1,0,0:0:0:0:
192,192,521599,1,0,0:0:0:0:
320,0,521676,1,0,0:0:0:0:
448,0,521676,1,0,0:0:0:0:
64,0,521831,1,0,0:0:0:0:
192,0,521908,1,0,0:0:0:0:
320,0,521908,1,0,0:0:0:0:
64,0,522063,1,0,0:0:0:0:
192,0,522063,1,0,0:0:0:0:
320,0,522218,1,0,0:0:0:0:
192,0,522295,1,0,0:0:0:0:
448,0,522372,1,0,0:0:0:0:
320,0,522411,1,0,0:0:0:0:
192,0,522450,1,0,0:0:0:0:
64,0,522488,1,0,0:0:0:0:
448,0,522527,1,0,0:0:0:0:
320,0,522566,1,0,0:0:0:0:
192,0,522604,1,0,0:0:0:0:
64,0,522643,1,0,0:0:0:0:
320,0,522682,1,0,0:0:0:0:
448,0,522682,1,0,0:0:0:0:
192,0,522836,1,0,0:0:0:0:
64,0,522991,1,0,0:0:0:0:
448,0,522991,1,0,0:0:0:0:
320,0,523145,1,0,0:0:0:0:
192,0,523223,1,0,0:0:0:0:
320,0,523300,1,0,0:0:0:0:
64,0,523455,1,0,0:0:0:0:
192,0,523455,1,0,0:0:0:0:
320,0,523609,1,0,0:0:0:0:
192,0,523687,1,0,0:0:0:0:
320,0,523764,1,0,0:0:0:0:
192,0,523841,1,0,0:0:0:0:
64,0,523919,128,0,524073:0:0:0:0:
448,0,523919,128,0,524073:0:0:0:0:
320,0,524073,1,0,0:0:0:0:
64,0,524228,1,0,0:0:0:0:
192,0,524228,1,0,0:0:0:0:
320,0,524383,1,0,0:0:0:0:
192,0,524460,1,0,0:0:0:0:
320,0,524537,128,0,524692:0:0:0:0:
448,0,524537,128,0,524692:0:0:0:0:
64,0,524692,1,0,0:0:0:0:
320,192,524769,1,0,0:0:0:0:
192,192,524847,1,0,0:0:0:0:
320,192,524924,1,0,0:0:0:0:
64,0,525001,1,0,0:0:0:0:
448,0,525001,1,0,0:0:0:0:
320,192,525156,1,0,0:0:0:0:
64,0,525156,1,0,0:0:0:0:
448,192,525310,1,0,0:0:0:0:
192,192,525388,1,0,0:0:0:0:
320,0,525465,1,0,0:0:0:0:
448,0,525465,1,0,0:0:0:0:
192,192,525620,1,0,0:0:0:0:
448,0,525620,1,0,0:0:0:0:
64,192,525697,1,0,0:0:0:0:
448,192,525774,1,0,0:0:0:0:
192,192,525852,1,0,0:0:0:0:
320,192,525929,1,0,0:0:0:0:
192,192,526006,1,0,0:0:0:0:
448,0,526084,1,0,0:0:0:0:
320,0,526084,1,0,0:0:0:0:
192,0,526161,1,0,0:0:0:0:
64,0,526161,1,0,0:0:0:0:
448,0,526238,1,0,0:0:0:0:
320,0,526238,1,0,0:0:0:0:
192,0,526316,1,0,0:0:0:0:
64,0,526316,1,0,0:0:0:0:
448,0,526393,1,0,0:0:0:0:
320,0,526393,1,0,0:0:0:0:
64,192,526548,1,0,0:0:0:0:
448,0,526548,1,0,0:0:0:0:
192,0,526702,1,0,0:0:0:0:
320,0,526779,1,0,0:0:0:0:
192,0,526857,1,0,0:0:0:0:
448,0,526857,1,0,0:0:0:0:
64,0,527011,1,0,0:0:0:0:
320,0,527011,1,0,0:0:0:0:
192,0,527166,1,0,0:0:0:0:
64,0,527243,1,0,0:0:0:0:
448,0,527243,1,0,0:0:0:0:
320,0,527321,1,0,0:0:0:0:
192,0,527398,1,0,0:0:0:0:
320,0,527475,1,0,0:0:0:0:
448,0,527475,1,0,0:0:0:0:
64,0,527630,1,0,0:0:0:0:
192,0,527630,1,0,0:0:0:0:
320,0,527785,1,0,0:0:0:0:
448,0,527785,1,0,0:0:0:0:
64,0,527862,1,0,0:0:0:0:
192,0,527862,1,0,0:0:0:0:
320,0,527939,1,0,0:0:0:0:
448,0,527939,1,0,0:0:0:0:
192,0,528017,1,0,0:0:0:0:
320,0,528094,1,0,0:0:0:0:
64,0,528171,1,0,0:0:0:0:
320,0,528249,128,0,528326:0:0:0:0:
448,0,528249,128,0,528326:0:0:0:0:
64,0,528326,1,0,0:0:0:0:
192,0,528403,1,0,0:0:0:0:
320,0,528403,1,0,0:0:0:0:
64,0,528558,1,0,0:0:0:0:
448,0,528558,1,0,0:0:0:0:
192,0,528635,1,0,0:0:0:0:
448,0,528712,1,0,0:0:0:0:
192,0,528790,1,0,0:0:0:0:
320,192,528867,1,0,0:0:0:0:
64,0,528867,1,0,0:0:0:0:
192,0,529022,1,0,0:0:0:0:
320,0,529022,1,0,0:0:0:0:
320,0,529176,1,0,0:0:0:0:
448,0,529176,1,0,0:0:0:0:
192,0,529331,1,0,0:0:0:0:
320,0,529408,1,0,0:0:0:0:
64,0,529486,1,0,0:0:0:0:
192,0,529486,1,0,0:0:0:0:
64,192,529640,1,0,0:0:0:0:
320,0,529640,1,0,0:0:0:0:
192,0,529718,1,0,0:0:0:0:
448,0,529795,1,0,0:0:0:0:
192,0,529872,1,0,0:0:0:0:
320,0,529950,1,0,0:0:0:0:
448,0,529950,1,0,0:0:0:0:
192,0,530104,1,0,0:0:0:0:
320,0,530104,1,0,0:0:0:0:
64,0,530259,1,0,0:0:0:0:
192,0,530414,1,0,0:0:0:0:
192,0,530568,1,0,0:0:0:0:
320,0,530568,1,0,0:0:0:0:
448,0,530723,1,0,0:0:0:0:
448,0,530877,1,0,0:0:0:0:
192,0,531032,1,0,0:0:0:0:
320,0,531032,1,0,0:0:0:0:
448,0,531187,1,0,0:0:0:0:
448,0,531341,1,0,0:0:0:0:
320,0,531496,1,0,0:0:0:0:
64,0,531573,1,0,0:0:0:0:
192,0,531573,1,0,0:0:0:0:
448,0,531728,1,0,0:0:0:0:
64,0,531805,1,0,0:0:0:0:
192,0,531805,1,0,0:0:0:0:
64,0,531960,1,0,0:0:0:0:
448,0,531960,1,0,0:0:0:0:
192,0,532115,1,0,0:0:0:0:
320,0,532192,1,0,0:0:0:0:
64,0,532269,1,0,0:0:0:0:
192,0,532308,1,0,0:0:0:0:
320,0,532347,1,0,0:0:0:0:
448,0,532385,1,0,0:0:0:0:
64,0,532424,1,0,0:0:0:0:
192,0,532462,1,0,0:0:0:0:
320,0,532501,1,0,0:0:0:0:
448,0,532540,1,0,0:0:0:0:
64,0,532578,1,0,0:0:0:0:
192,0,532578,1,0,0:0:0:0:
320,0,532733,1,0,0:0:0:0:
192,0,532888,1,0,0:0:0:0:
448,0,532888,1,0,0:0:0:0:
64,0,533042,1,0,0:0:0:0:
320,0,533120,1,0,0:0:0:0:
64,0,533197,1,0,0:0:0:0:
192,192,533249,1,0,0:0:0:0:
320,192,533300,1,0,0:0:0:0:
448,0,533352,1,0,0:0:0:0:
192,192,533403,1,0,0:0:0:0:
320,192,533455,1,0,0:0:0:0:
448,192,533506,1,0,0:0:0:0:
192,0,533584,1,0,0:0:0:0:
64,0,533661,1,0,0:0:0:0:
320,0,533738,1,0,0:0:0:0:
64,0,533816,1,0,0:0:0:0:
448,0,533816,1,0,0:0:0:0:
192,0,533970,1,0,0:0:0:0:
320,0,534125,1,0,0:0:0:0:
448,0,534125,1,0,0:0:0:0:
64,0,534279,1,0,0:0:0:0:
320,0,534357,1,0,0:0:0:0:
64,0,534434,1,0,0:0:0:0:
448,0,534434,1,0,0:0:0:0:
64,0,534589,1,0,0:0:0:0:
320,192,534666,1,0,0:0:0:0:
64,0,534743,1,0,0:0:0:0:
320,192,534821,1,0,0:0:0:0:
64,0,534898,1,0,0:0:0:0:
448,0,534898,1,0,0:0:0:0:
192,0,535053,1,0,0:0:0:0:
320,0,535053,1,0,0:0:0:0:
448,0,535207,1,0,0:0:0:0:
192,0,535285,1,0,0:0:0:0:
320,0,535362,1,0,0:0:0:0:
448,0,535362,1,0,0:0:0:0:
64,0,535517,1,0,0:0:0:0:
320,0,535517,1,0,0:0:0:0:
448,0,535594,1,0,0:0:0:0:
192,0,535671,1,0,0:0:0:0:
448,192,535749,1,0,0:0:0:0:
64,192,535749,1,0,0:0:0:0:
192,192,535826,1,0,0:0:0:0:
320,192,535826,1,0,0:0:0:0:
320,0,535981,1,0,0:0:0:0:
448,0,535981,1,0,0:0:0:0:
192,0,536058,1,0,0:0:0:0:
320,0,536135,1,0,0:0:0:0:
192,0,536212,1,0,0:0:0:0:
320,0,536290,1,0,0:0:0:0:
448,0,536290,1,0,0:0:0:0:
64,0,536444,1,0,0:0:0:0:
320,0,536444,1,0,0:0:0:0:
192,0,536599,1,0,0:0:0:0:
320,0,536676,1,0,0:0:0:0:
192,0,536754,1,0,0:0:0:0:
448,0,536754,1,0,0:0:0:0:
320,0,536908,1,0,0:0:0:0:
448,0,536908,1,0,0:0:0:0:
192,0,537063,1,0,0:0:0:0:
64,0,537140,1,0,0:0:0:0:
320,0,537140,1,0,0:0:0:0:
192,0,537218,1,0,0:0:0:0:
320,0,537295,1,0,0:0:0:0:
64,0,537372,1,0,0:0:0:0:
448,0,537372,1,0,0:0:0:0:
64,0,537527,1,0,0:0:0:0:
320,0,537527,1,0,0:0:0:0:
320,192,537682,1,0,0:0:0:0:
64,0,537759,1,0,0:0:0:0:
320,0,537836,1,0,0:0:0:0:
448,0,537836,1,0,0:0:0:0:
192,0,537991,1,0,0:0:0:0:
64,0,538068,1,0,0:0:0:0:
192,0,538145,1,0,0:0:0:0:
448,0,538145,1,0,0:0:0:0:
320,0,538223,1,0,0:0:0:0:
64,0,538300,1,0,0:0:0:0:
448,0,538300,1,0,0:0:0:0:
320,0,538455,1,0,0:0:0:0:
192,0,538532,1,0,0:0:0:0:
448,0,538609,1,0,0:0:0:0:
320,192,538661,1,0,0:0:0:0:
192,192,538712,1,0,0:0:0:0:
64,0,538764,1,0,0:0:0:0:
192,0,538841,1,0,0:0:0:0:
320,0,538919,1,0,0:0:0:0:
192,0,538996,1,0,0:0:0:0:
64,0,539073,1,0,0:0:0:0:
448,0,539073,1,0,0:0:0:0:
320,0,539228,1,0,0:0:0:0:
192,0,539305,1,0,0:0:0:0:
64,0,539383,1,0,0:0:0:0:
448,0,539383,1,0,0:0:0:0:
320,0,539537,1,0,0:0:0:0:
448,0,539537,1,0,0:0:0:0:
64,0,539615,1,0,0:0:0:0:
448,0,539692,1,0,0:0:0:0:
64,0,539769,1,0,0:0:0:0:
320,0,539847,1,0,0:0:0:0:
448,0,539847,1,0,0:0:0:0:
448,192,540001,1,0,0:0:0:0:
64,0,540001,1,0,0:0:0:0:
192,0,540156,1,0,0:0:0:0:
320,0,540310,1,0,0:0:0:0:
64,192,540465,1,0,0:0:0:0:
448,0,540465,1,0,0:0:0:0:
64,0,540620,1,0,0:0:0:0:
320,0,540620,1,0,0:0:0:0:
320,192,540774,1,0,0:0:0:0:
192,192,540929,1,0,0:0:0:0:
448,192,540929,1,0,0:0:0:0:
64,192,541006,1,0,0:0:0:0:
320,192,541084,1,0,0:0:0:0:
192,192,541238,1,0,0:0:0:0:
448,0,541238,1,0,0:0:0:0:
320,0,541393,1,0,0:0:0:0:
64,0,541470,1,0,0:0:0:0:
192,0,541470,1,0,0:0:0:0:
448,0,541548,1,0,0:0:0:0:
320,192,541586,1,0,0:0:0:0:
192,192,541625,1,0,0:0:0:0:
64,192,541664,1,0,0:0:0:0:
448,0,541702,1,0,0:0:0:0:
320,192,541741,1,0,0:0:0:0:
192,192,541779,1,0,0:0:0:0:
64,192,541818,1,0,0:0:0:0:
448,0,541857,1,0,0:0:0:0:
320,192,541857,1,0,0:0:0:0:
192,0,542011,1,0,0:0:0:0:
320,192,542089,1,0,0:0:0:0:
64,0,542166,1,0,0:0:0:0:
192,0,542205,1,0,0:0:0:0:
320,0,542243,1,0,0:0:0:0:
448,0,542282,1,0,0:0:0:0:
64,0,542321,1,0,0:0:0:0:
192,0,542359,1,0,0:0:0:0:
320,0,542398,1,0,0:0:0:0:
448,0,542437,1,0,0:0:0:0:
192,0,542475,1,0,0:0:0:0:
64,0,542475,1,0,0:0:0:0:
320,0,542630,1,0,0:0:0:0:
192,0,542785,1,0,0:0:0:0:
448,0,542785,1,0,0:0:0:0:
320,0,542939,1,0,0:0:0:0:
192,0,543017,1,0,0:0:0:0:
64,0,543094,128,0,543326:0:0:0:0:
320,0,543249,1,0,0:0:0:0:
448,0,543249,1,0,0:0:0:0:
192,0,543403,1,0,0:0:0:0:
320,0,543481,1,0,0:0:0:0:
64,0,543558,1,0,0:0:0:0:
320,192,543635,1,0,0:0:0:0:
448,192,543712,1,0,0:0:0:0:
192,0,543712,1,0,0:0:0:0:
64,0,543867,1,0,0:0:0:0:
320,0,544022,1,0,0:0:0:0:
448,0,544022,1,0,0:0:0:0:
64,0,544176,1,0,0:0:0:0:
320,0,544254,1,0,0:0:0:0:
64,0,544331,1,0,0:0:0:0:
192,0,544331,1,0,0:0:0:0:
448,0,544486,1,0,0:0:0:0:
320,0,544563,1,0,0:0:0:0:
192,0,544640,1,0,0:0:0:0:
320,0,544718,1,0,0:0:0:0:
64,0,544795,1,0,0:0:0:0:
192,0,544795,1,0,0:0:0:0:
320,0,544950,1,0,0:0:0:0:
448,0,544950,1,0,0:0:0:0:
192,0,545104,1,0,0:0:0:0:
320,0,545182,1,0,0:0:0:0:
64,0,545259,1,0,0:0:0:0:
448,0,545259,1,0,0:0:0:0:
192,0,545414,1,0,0:0:0:0:
320,0,545491,1,0,0:0:0:0:
64,0,545568,1,0,0:0:0:0:
192,0,545645,1,0,0:0:0:0:
320,0,545723,1,0,0:0:0:0:
448,0,545723,1,0,0:0:0:0:
64,0,545877,1,0,0:0:0:0:
320,0,545955,1,0,0:0:0:0:
192,0,546032,1,0,0:0:0:0:
320,0,546109,1,0,0:0:0:0:
64,0,546187,1,0,0:0:0:0:
192,0,546341,1,0,0:0:0:0:
320,0,546341,1,0,0:0:0:0:
448,0,546496,1,0,0:0:0:0:
320,0,546573,1,0,0:0:0:0:
64,0,546651,1,0,0:0:0:0:
192,0,546651,1,0,0:0:0:0:
64,0,546805,1,0,0:0:0:0:
320,0,546805,1,0,0:0:0:0:
192,0,546960,1,0,0:0:0:0:
320,0,547037,1,0,0:0:0:0:
448,0,547037,1,0,0:0:0:0:
192,0,547115,1,0,0:0:0:0:
64,0,547192,1,0,0:0:0:0:
192,0,547269,1,0,0:0:0:0:
448,0,547269,1,0,0:0:0:0:
64,0,547424,128,0,547578:0:0:0:0:
192,0,547424,128,0,547578:0:0:0:0:
320,0,547578,1,0,0:0:0:0:
448,0,547656,1,0,0:0:0:0:
64,0,547733,1,0,0:0:0:0:
192,0,547733,1,0,0:0:0:0:
320,0,547888,1,0,0:0:0:0:
192,192,547965,1,0,0:0:0:0:
320,0,548042,1,0,0:0:0:0:
64,192,548120,1,0,0:0:0:0:
320,0,548197,1,0,0:0:0:0:
448,0,548197,1,0,0:0:0:0:
64,0,548352,1,0,0:0:0:0:
320,192,548429,1,0,0:0:0:0:
192,192,548506,1,0,0:0:0:0:
320,192,548584,1,0,0:0:0:0:
64,0,548661,1,0,0:0:0:0:
448,0,548661,1,0,0:0:0:0:
320,0,548816,1,0,0:0:0:0:
192,0,548970,1,0,0:0:0:0:
448,0,548970,1,0,0:0:0:0:
320,0,549125,1,0,0:0:0:0:
192,0,549202,1,0,0:0:0:0:
64,192,549279,1,0,0:0:0:0:
448,0,549279,1,0,0:0:0:0:
320,192,549357,1,0,0:0:0:0:
448,0,549434,1,0,0:0:0:0:
320,0,549511,1,0,0:0:0:0:
448,0,549589,1,0,0:0:0:0:
64,0,549666,1,0,0:0:0:0:
192,0,549743,1,0,0:0:0:0:
64,0,549898,1,0,0:0:0:0:
448,0,549898,1,0,0:0:0:0:
192,0,550053,1,0,0:0:0:0:
192,192,550207,1,0,0:0:0:0:
64,0,550362,1,0,0:0:0:0:
448,0,550362,1,0,0:0:0:0:
192,0,550517,1,0,0:0:0:0:
192,0,550671,1,0,0:0:0:0:
64,0,550826,1,0,0:0:0:0:
448,0,550826,1,0,0:0:0:0:
320,192,550981,1,0,0:0:0:0:
320,192,551135,1,0,0:0:0:0:
448,0,551290,1,0,0:0:0:0:
192,0,551367,1,0,0:0:0:0:
320,0,551522,1,0,0:0:0:0:
64,0,551599,1,0,0:0:0:0:
192,0,551754,1,0,0:0:0:0:
448,0,551754,1,0,0:0:0:0:
64,0,551908,1,0,0:0:0:0:
320,192,551986,1,0,0:0:0:0:
192,0,552063,1,0,0:0:0:0:
64,192,552102,1,0,0:0:0:0:
448,0,552140,1,0,0:0:0:0:
320,0,552179,1,0,0:0:0:0:
192,0,552218,1,0,0:0:0:0:
64,0,552256,1,0,0:0:0:0:
448,0,552295,1,0,0:0:0:0:
320,0,552334,1,0,0:0:0:0:
192,0,552372,1,0,0:0:0:0:
192,0,552991,1,0,0:0:0:0:
192,0,553609,1,0,0:0:0:0:
192,0,554228,1,0,0:0:0:0:
320,0,554847,1,0,0:0:0:0:
320,0,555465,1,0,0:0:0:0:
448,0,556084,1,0,0:0:0:0:
64,0,556702,1,0,0:0:0:0:
320,0,557321,1,0,0:0:0:0:
64,0,557939,1,0,0:0:0:0:
64,0,558558,1,0,0:0:0:0:
64,0,559176,1,0,0:0:0:0:
320,0,559795,1,0,0:0:0:0:
320,0,560414,1,0,0:0:0:0:
448,0,561032,1,0,0:0:0:0:
192,0,561651,1,0,0:0:0:0:
320,0,562269,1,0,0:0:0:0:
192,0,562888,1,0,0:0:0:0:
192,0,563506,1,0,0:0:0:0:
192,0,564125,1,0,0:0:0:0:
320,0,564743,1,0,0:0:0:0:
320,0,565362,1,0,0:0:0:0:
448,0,565981,1,0,0:0:0:0:
64,0,566599,1,0,0:0:0:0:
320,0,567218,1,0,0:0:0:0:
64,0,567836,1,0,0:0:0:0:
64,0,568455,1,0,0:0:0:0:
64,0,569073,1,0,0:0:0:0:
320,192,579460,5,0,0:0:0:0:
448,192,579460,1,0,0:0:0:0:
64,192,579460,1,0,0:0:0:0:
192,0,579527,1,0,0:0:0:0:
320,0,579595,1,0,0:0:0:0:
448,0,579662,1,0,0:0:0:0:
192,0,579730,1,0,0:0:0:0:
64,0,579730,1,0,0:0:0:0:
320,0,579797,1,0,0:0:0:0:
64,0,579865,1,0,0:0:0:0:
192,0,579932,1,0,0:0:0:0:
448,0,580000,1,0,0:0:0:0:
64,0,580068,1,0,0:0:0:0:
448,0,580135,1,0,0:0:0:0:
320,0,580135,1,0,0:0:0:0:
192,0,580203,1,0,0:0:0:0:
64,0,580270,1,0,0:0:0:0:
320,0,580338,1,0,0:0:0:0:
192,0,580405,1,0,0:0:0:0:
448,0,580473,1,0,0:0:0:0:
192,0,580541,1,0,0:0:0:0:
64,0,580608,1,0,0:0:0:0:
320,0,580676,1,0,0:0:0:0:
192,0,580743,1,0,0:0:0:0:
448,0,580811,1,0,0:0:0:0:
320,0,580811,1,0,0:0:0:0:
64,0,580878,1,0,0:0:0:0:
192,0,580946,1,0,0:0:0:0:
320,0,581014,1,0,0:0:0:0:
64,0,581081,1,0,0:0:0:0:
448,0,581149,1,0,0:0:0:0:
192,0,581216,1,0,0:0:0:0:
64,0,581216,1,0,0:0:0:0:
320,0,581284,1,0,0:0:0:0:
448,0,581351,1,0,0:0:0:0:
192,0,581419,1,0,0:0:0:0:
320,0,581487,1,0,0:0:0:0:
64,0,581487,1,0,0:0:0:0:
448,0,581554,1,0,0:0:0:0:
192,0,581622,1,0,0:0:0:0:
64,0,581689,1,0,0:0:0:0:
448,0,581757,1,0,0:0:0:0:
192,0,581824,1,0,0:0:0:0:
448,0,581892,1,0,0:0:0:0:
320,0,581892,1,0,0:0:0:0:
448,0,582027,1,0,0:0:0:0:
192,0,582027,1,0,0:0:0:0:
64,0,582162,1,0,0:0:0:0:
192,0,582230,1,0,0:0:0:0:
320,0,582297,1,0,0:0:0:0:
64,0,582365,1,0,0:0:0:0:
448,0,582432,1,0,0:0:0:0:
320,0,582432,1,0,0:0:0:0:
192,0,582500,1,0,0:0:0:0:
64,0,582568,1,0,0:0:0:0:
320,0,582635,1,0,0:0:0:0:
192,0,582703,1,0,0:0:0:0:
448,0,582770,1,0,0:0:0:0:
192,0,582838,1,0,0:0:0:0:
320,0,582905,1,0,0:0:0:0:
448,0,582973,1,0,0:0:0:0:
64,0,582973,1,0,0:0:0:0:
192,0,583041,1,0,0:0:0:0:
320,0,583108,1,0,0:0:0:0:
64,0,583176,1,0,0:0:0:0:
448,0,583243,1,0,0:0:0:0:
192,0,583311,1,0,0:0:0:0:
448,0,583378,1,0,0:0:0:0:
320,0,583378,1,0,0:0:0:0:
192,0,583514,1,0,0:0:0:0:
448,0,583649,1,0,0:0:0:0:
320,0,583649,1,0,0:0:0:0:
64,192,583649,1,0,0:0:0:0:
320,0,583784,1,0,0:0:0:0:
192,192,583784,1,0,0:0:0:0:
64,0,583919,1,0,0:0:0:0:
448,0,583987,1,0,0:0:0:0:
192,0,584054,1,0,0:0:0:0:
64,0,584054,1,0,0:0:0:0:
320,0,584122,1,0,0:0:0:0:
448,0,584189,1,0,0:0:0:0:
192,0,584257,1,0,0:0:0:0:
320,0,584324,1,0,0:0:0:0:
64,0,584324,1,0,0:0:0:0:
192,0,584392,1,0,0:0:0:0:
448,0,584460,1,0,0:0:0:0:
320,0,584460,1,0,0:0:0:0:
64,0,584527,1,0,0:0:0:0:
448,0,584595,1,0,0:0:0:0:
320,0,584595,1,0,0:0:0:0:
192,0,584662,1,0,0:0:0:0:
64,0,584730,1,0,0:0:0:0:
448,0,584797,1,0,0:0:0:0:
192,0,584865,1,0,0:0:0:0:
64,0,584865,1,0,0:0:0:0:
320,0,585000,1,0,0:0:0:0:
192,0,585068,1,0,0:0:0:0:
448,0,585135,1,0,0:0:0:0:
320,0,585135,1,0,0:0:0:0:
64,0,585203,1,0,0:0:0:0:
192,0,585270,1,0,0:0:0:0:
320,0,585338,1,0,0:0:0:0:
64,0,585405,1,0,0:0:0:0:
448,0,585473,1,0,0:0:0:0:
192,0,585541,1,0,0:0:0:0:
64,0,585541,1,0,0:0:0:0:
448,0,585608,1,0,0:0:0:0:
320,0,585676,1,0,0:0:0:0:
64,0,585743,1,0,0:0:0:0:
192,0,585811,1,0,0:0:0:0:
448,0,585878,1,0,0:0:0:0:
192,0,585946,1,0,0:0:0:0:
320,0,586014,1,0,0:0:0:0:
64,0,586081,1,0,0:0:0:0:
192,0,586149,1,0,0:0:0:0:
448,0,586216,1,0,0:0:0:0:
64,0,586216,1,0,0:0:0:0:
320,0,586284,1,0,0:0:0:0:
192,0,586351,1,0,0:0:0:0:
448,0,586419,1,0,0:0:0:0:
64,0,586487,1,0,0:0:0:0:
320,0,586554,1,0,0:0:0:0:
192,0,586622,1,0,0:0:0:0:
64,0,586622,1,0,0:0:0:0:
448,0,586689,1,0,0:0:0:0:
320,0,586757,1,0,0:0:0:0:
64,0,586824,1,0,0:0:0:0:
448,0,586892,1,0,0:0:0:0:
192,0,586892,1,0,0:0:0:0:
320,0,586960,1,0,0:0:0:0:
192,0,587027,1,0,0:0:0:0:
64,0,587027,1,0,0:0:0:0:
320,0,587162,1,0,0:0:0:0:
192,0,587297,1,0,0:0:0:0:
64,0,587297,1,0,0:0:0:0:
448,192,587297,1,0,0:0:0:0:
448,0,587432,1,0,0:0:0:0:
320,0,587432,1,0,0:0:0:0:
192,0,587568,1,0,0:0:0:0:
64,0,587568,1,0,0:0:0:0:
448,0,587635,1,0,0:0:0:0:
64,0,587703,1,0,0:0:0:0:
192,0,587770,1,0,0:0:0:0:
320,0,587838,1,0,0:0:0:0:
448,192,587905,1,0,0:0:0:0:
64,192,587973,1,0,0:0:0:0:
192,192,587973,1,0,0:0:0:0:
320,192,588041,1,0,0:0:0:0:
448,192,588041,1,0,0:0:0:0:
64,192,588108,1,0,0:0:0:0:
192,192,588108,1,0,0:0:0:0:
448,0,588243,1,0,0:0:0:0:
64,0,588311,1,0,0:0:0:0:
448,0,588378,1,0,0:0:0:0:
192,0,588378,1,0,0:0:0:0:
320,0,588446,1,0,0:0:0:0:
64,0,588514,1,0,0:0:0:0:
192,0,588581,1,0,0:0:0:0:
320,0,588649,1,0,0:0:0:0:
64,0,588716,1,0,0:0:0:0:
448,0,588784,1,0,0:0:0:0:
320,0,588784,1,0,0:0:0:0:
192,0,588851,1,0,0:0:0:0:
64,0,588919,1,0,0:0:0:0:
320,0,588987,1,0,0:0:0:0:
448,0,589054,1,0,0:0:0:0:
192,0,589122,1,0,0:0:0:0:
448,0,589189,1,0,0:0:0:0:
320,0,589257,1,0,0:0:0:0:
64,0,589324,1,0,0:0:0:0:
448,0,589392,1,0,0:0:0:0:
192,0,589460,1,0,0:0:0:0:
64,0,589460,1,0,0:0:0:0:
320,0,589527,1,0,0:0:0:0:
448,0,589595,1,0,0:0:0:0:
64,0,589662,1,0,0:0:0:0:
192,0,589730,1,0,0:0:0:0:
320,0,589797,1,0,0:0:0:0:
448,0,589865,1,0,0:0:0:0:
192,0,589865,1,0,0:0:0:0:
64,0,589932,1,0,0:0:0:0:
320,0,590000,1,0,0:0:0:0:
448,0,590068,1,0,0:0:0:0:
192,0,590135,1,0,0:0:0:0:
64,0,590135,1,0,0:0:0:0:
320,0,590203,1,0,0:0:0:0:
448,0,590270,1,0,0:0:0:0:
192,0,590338,1,0,0:0:0:0:
448,0,590405,1,0,0:0:0:0:
320,0,590405,1,0,0:0:0:0:
64,0,590473,1,0,0:0:0:0:
448,0,590541,1,0,0:0:0:0:
192,0,590541,1,0,0:0:0:0:
192,0,590676,1,0,0:0:0:0:
64,0,590676,1,0,0:0:0:0:
320,0,590743,1,0,0:0:0:0:
448,0,590811,1,0,0:0:0:0:
192,0,590878,1,0,0:0:0:0:
64,0,590946,1,0,0:0:0:0:
320,0,591014,1,0,0:0:0:0:
448,0,591081,1,0,0:0:0:0:
64,0,591081,1,0,0:0:0:0:
192,0,591149,1,0,0:0:0:0:
320,0,591216,1,0,0:0:0:0:
448,0,591284,1,0,0:0:0:0:
64,0,591351,1,0,0:0:0:0:
320,0,591419,1,0,0:0:0:0:
64,0,591487,1,0,0:0:0:0:
192,0,591554,1,0,0:0:0:0:
448,0,591622,1,0,0:0:0:0:
320,0,591622,1,0,0:0:0:0:
192,0,591689,1,0,0:0:0:0:
64,0,591757,1,0,0:0:0:0:
320,0,591824,1,0,0:0:0:0:
192,0,591892,1,0,0:0:0:0:
448,0,591960,1,0,0:0:0:0:
320,192,592027,1,0,0:0:0:0:
192,0,592027,1,0,0:0:0:0:
64,192,592162,1,0,0:0:0:0:
448,192,592297,1,0,0:0:0:0:
320,192,592297,1,0,0:0:0:0:
192,0,592297,1,0,0:0:0:0:
64,192,592432,1,0,0:0:0:0:
320,192,592432,1,0,0:0:0:0:
448,0,592568,1,0,0:0:0:0:
192,0,592635,1,0,0:0:0:0:
448,0,592703,1,0,0:0:0:0:
64,0,592703,1,0,0:0:0:0:
320,0,592770,1,0,0:0:0:0:
192,0,592838,1,0,0:0:0:0:
448,0,592905,1,0,0:0:0:0:
320,0,592973,1,0,0:0:0:0:
64,0,592973,1,0,0:0:0:0:
192,0,593041,1,0,0:0:0:0:
448,0,593108,1,0,0:0:0:0:
320,0,593108,1,0,0:0:0:0:
64,0,593176,1,0,0:0:0:0:
448,0,593243,1,0,0:0:0:0:
320,0,593243,1,0,0:0:0:0:
192,0,593311,1,0,0:0:0:0:
64,0,593378,1,0,0:0:0:0:
320,0,593446,1,0,0:0:0:0:
448,0,593514,1,0,0:0:0:0:
192,0,593581,1,0,0:0:0:0:
320,0,593649,1,0,0:0:0:0:
64,0,593716,1,0,0:0:0:0:
448,0,593784,1,0,0:0:0:0:
320,0,593784,1,0,0:0:0:0:
192,0,593851,1,0,0:0:0:0:
64,0,593919,1,0,0:0:0:0:
448,0,593987,1,0,0:0:0:0:
192,0,594054,1,0,0:0:0:0:
320,0,594122,1,0,0:0:0:0:
192,0,594189,1,0,0:0:0:0:
64,0,594189,1,0,0:0:0:0:
448,0,594257,1,0,0:0:0:0:
320,0,594324,1,0,0:0:0:0:
64,0,594392,1,0,0:0:0:0:
448,0,594460,1,0,0:0:0:0:
320,0,594527,1,0,0:0:0:0:
448,0,594595,1,0,0:0:0:0:
64,0,594662,1,0,0:0:0:0:
320,0,594730,1,0,0:0:0:0:
192,0,594797,1,0,0:0:0:0:
448,0,594865,1,0,0:0:0:0:
320,0,594865,1,0,0:0:0:0:
192,0,594932,1,0,0:0:0:0:
64,0,595000,1,0,0:0:0:0:
448,0,595068,1,0,0:0:0:0:
320,0,595135,1,0,0:0:0:0:
192,0,595203,1,0,0:0:0:0:
448,0,595270,1,0,0:0:0:0:
320,0,595270,1,0,0:0:0:0:
64,0,595338,1,0,0:0:0:0:
192,0,595405,1,0,0:0:0:0:
320,0,595473,1,0,0:0:0:0:
64,0,595541,1,0,0:0:0:0:
448,0,595608,1,0,0:0:0:0:
192,0,595676,1,0,0:0:0:0:
64,0,595676,1,0,0:0:0:0:
320,0,595811,1,0,0:0:0:0:
448,0,595946,1,0,0:0:0:0:
192,0,595946,1,0,0:0:0:0:
64,0,595946,1,0,0:0:0:0:
192,0,596081,1,0,0:0:0:0:
320,192,596081,1,0,0:0:0:0:
448,0,596216,1,0,0:0:0:0:
64,0,596284,1,0,0:0:0:0:
448,0,596351,1,0,0:0:0:0:
320,0,596351,1,0,0:0:0:0:
192,0,596419,1,0,0:0:0:0:
64,0,596487,1,0,0:0:0:0:
192,192,596554,1,0,0:0:0:0:
320,192,596622,1,0,0:0:0:0:
448,192,596622,1,0,0:0:0:0:
64,192,596689,1,0,0:0:0:0:
192,192,596689,1,0,0:0:0:0:
320,192,596757,1,0,0:0:0:0:
448,0,596757,1,0,0:0:0:0:
192,192,596892,1,0,0:0:0:0:
448,0,596960,1,0,0:0:0:0:
192,0,597027,1,0,0:0:0:0:
64,0,597027,1,0,0:0:0:0:
448,192,597095,1,0,0:0:0:0:
320,192,597162,1,0,0:0:0:0:
192,0,597230,1,0,0:0:0:0:
448,192,597297,1,0,0:0:0:0:
320,0,597365,1,0,0:0:0:0:
448,0,597432,1,0,0:0:0:0:
64,0,597432,1,0,0:0:0:0:
192,0,597500,1,0,0:0:0:0:
320,0,597568,1,0,0:0:0:0:
64,0,597635,1,0,0:0:0:0:
448,0,597703,1,0,0:0:0:0:
320,0,597770,1,0,0:0:0:0:
448,0,597838,1,0,0:0:0:0:
64,0,597905,1,0,0:0:0:0:
320,0,597973,1,0,0:0:0:0:
192,0,598041,1,0,0:0:0:0:
448,0,598108,1,0,0:0:0:0:
320,0,598108,1,0,0:0:0:0:
64,0,598176,1,0,0:0:0:0:
192,0,598243,1,0,0:0:0:0:
320,0,598311,1,0,0:0:0:0:
64,0,598378,1,0,0:0:0:0:
448,0,598446,1,0,0:0:0:0:
192,0,598514,1,0,0:0:0:0:
64,0,598514,1,0,0:0:0:0:
448,0,598581,1,0,0:0:0:0:
320,0,598649,1,0,0:0:0:0:
64,0,598716,1,0,0:0:0:0:
448,0,598784,1,0,0:0:0:0:
192,0,598784,1,0,0:0:0:0:
320,0,598851,1,0,0:0:0:0:
192,0,598919,1,0,0:0:0:0:
64,0,598987,1,0,0:0:0:0:
320,0,599054,1,0,0:0:0:0:
192,0,599122,1,0,0:0:0:0:
448,0,599189,1,0,0:0:0:0:
320,0,599189,1,0,0:0:0:0:
64,0,599257,1,0,0:0:0:0:
448,0,599324,1,0,0:0:0:0:
192,0,599324,1,0,0:0:0:0:
64,0,599460,1,0,0:0:0:0:
192,0,599527,1,0,0:0:0:0:
320,0,599595,1,0,0:0:0:0:
64,0,599662,1,0,0:0:0:0:
448,0,599730,1,0,0:0:0:0:
320,0,599730,1,0,0:0:0:0:
192,0,599797,1,0,0:0:0:0:
64,0,599865,1,0,0:0:0:0:
320,0,599932,1,0,0:0:0:0:
192,0,600000,1,0,0:0:0:0:
64,0,600068,1,0,0:0:0:0:
192,0,600135,1,0,0:0:0:0:
448,0,600203,1,0,0:0:0:0:
320,0,600270,1,0,0:0:0:0:
64,0,600270,1,0,0:0:0:0:
192,0,600338,1,0,0:0:0:0:
320,0,600405,1,0,0:0:0:0:
64,0,600473,1,0,0:0:0:0:
448,0,600541,1,0,0:0:0:0:
192,0,600608,1,0,0:0:0:0:
448,0,600676,1,0,0:0:0:0:
320,0,600676,1,0,0:0:0:0:
192,0,600811,1,0,0:0:0:0:
448,0,600946,1,0,0:0:0:0:
320,0,600946,1,0,0:0:0:0:
64,0,600946,1,0,0:0:0:0:
320,0,601081,1,0,0:0:0:0:
448,192,601081,1,0,0:0:0:0:
64,0,601216,1,0,0:0:0:0:
448,0,601284,1,0,0:0:0:0:
192,0,601351,1,0,0:0:0:0:
64,0,601351,1,0,0:0:0:0:
320,0,601419,1,0,0:0:0:0:
448,0,601487,1,0,0:0:0:0:
192,0,601554,1,0,0:0:0:0:
320,0,601622,1,0,0:0:0:0:
64,0,601622,1,0,0:0:0:0:
448,0,601689,1,0,0:0:0:0:
192,0,601757,1,0,0:0:0:0:
64,0,601757,1,0,0:0:0:0:
320,0,601824,1,0,0:0:0:0:
192,0,601892,1,0,0:0:0:0:
64,0,601892,1,0,0:0:0:0:
320,0,601960,1,0,0:0:0:0:
448,0,602027,1,0,0:0:0:0:
192,0,602095,1,0,0:0:0:0:
448,0,602162,1,0,0:0:0:0:
320,0,602162,1,0,0:0:0:0:
64,0,602297,1,0,0:0:0:0:
192,0,602365,1,0,0:0:0:0:
448,0,602432,1,0,0:0:0:0:
64,0,602432,1,0,0:0:0:0:
320,0,602500,1,0,0:0:0:0:
192,0,602568,1,0,0:0:0:0:
448,0,602635,1,0,0:0:0:0:
64,0,602703,1,0,0:0:0:0:
320,0,602770,1,0,0:0:0:0:
192,0,602838,1,0,0:0:0:0:
64,0,602838,1,0,0:0:0:0:
448,0,602905,1,0,0:0:0:0:
320,0,602973,1,0,0:0:0:0:
64,0,603041,1,0,0:0:0:0:
192,0,603108,1,0,0:0:0:0:
448,0,603176,1,0,0:0:0:0:
192,0,603243,1,0,0:0:0:0:
320,0,603311,1,0,0:0:0:0:
64,0,603378,1,0,0:0:0:0:
192,0,603446,1,0,0:0:0:0:
448,0,603514,1,0,0:0:0:0:
64,0,603514,1,0,0:0:0:0:
320,0,603581,1,0,0:0:0:0:
192,0,603649,1,0,0:0:0:0:
448,0,603716,1,0,0:0:0:0:
64,0,603784,1,0,0:0:0:0:
320,0,603851,1,0,0:0:0:0:
192,0,603919,1,0,0:0:0:0:
64,0,603919,1,0,0:0:0:0:
448,0,603987,1,0,0:0:0:0:
192,0,604054,1,0,0:0:0:0:
320,0,604122,1,0,0:0:0:0:
448,0,604189,1,0,0:0:0:0:
64,0,604257,1,0,0:0:0:0:
448,0,604324,1,0,0:0:0:0:
320,0,604324,1,0,0:0:0:0:
192,192,604460,1,0,0:0:0:0:
320,192,604595,1,0,0:0:0:0:
448,0,604595,1,0,0:0:0:0:
64,0,604595,1,0,0:0:0:0:
64,192,604730,1,0,0:0:0:0:
192,192,604730,1,0,0:0:0:0:
320,192,604865,1,0,0:0:0:0:
448,192,604865,1,0,0:0:0:0:
192,192,604932,1,0,0:0:0:0:
320,192,605000,1,0,0:0:0:0:
448,192,605068,1,0,0:0:0:0:
192,192,605135,1,0,0:0:0:0:
64,192,605203,1,0,0:0:0:0:
448,192,605270,1,0,0:0:0:0:
320,192,605270,1,0,0:0:0:0:
192,192,605338,1,0,0:0:0:0:
64,192,605338,1,0,0:0:0:0:
448,192,605405,1,0,0:0:0:0:
320,192,605405,1,0,0:0:0:0:
64,192,605541,1,0,0:0:0:0:
448,192,605608,1,0,0:0:0:0:
192,192,605676,1,0,0:0:0:0:
64,192,605676,1,0,0:0:0:0:
320,192,605743,1,0,0:0:0:0:
448,192,605811,1,0,0:0:0:0:
64,192,605878,1,0,0:0:0:0:
320,192,605946,1,0,0:0:0:0:
192,192,606014,1,0,0:0:0:0:
320,192,606081,1,0,0:0:0:0:
448,0,606081,1,0,0:0:0:0:
64,192,606149,1,0,0:0:0:0:
192,192,606216,1,0,0:0:0:0:
448,0,606284,1,0,0:0:0:0:
320,192,606351,1,0,0:0:0:0:
64,192,606419,1,0,0:0:0:0:
320,192,606487,1,0,0:0:0:0:
448,0,606554,1,0,0:0:0:0:
64,0,606622,1,0,0:0:0:0:
320,0,606689,1,0,0:0:0:0:
192,0,606757,1,0,0:0:0:0:
64,0,606757,1,0,0:0:0:0:
448,0,606824,1,0,0:0:0:0:
320,0,606892,1,0,0:0:0:0:
64,0,606960,1,0,0:0:0:0:
192,0,607027,1,0,0:0:0:0:
320,0,607095,1,0,0:0:0:0:
448,0,607162,1,0,0:0:0:0:
192,0,607162,1,0,0:0:0:0:
64,0,607230,1,0,0:0:0:0:
320,0,607297,1,0,0:0:0:0:
448,0,607365,1,0,0:0:0:0:
192,0,607432,1,0,0:0:0:0:
64,0,607432,1,0,0:0:0:0:
320,0,607500,1,0,0:0:0:0:
448,0,607568,1,0,0:0:0:0:
192,0,607635,1,0,0:0:0:0:
448,0,607703,1,0,0:0:0:0:
320,0,607703,1,0,0:0:0:0:
64,0,607770,1,0,0:0:0:0:
448,0,607838,1,0,0:0:0:0:
192,0,607838,1,0,0:0:0:0:
320,0,607905,1,0,0:0:0:0:
192,0,607973,1,0,0:0:0:0:
64,0,607973,1,0,0:0:0:0:
320,0,608041,1,0,0:0:0:0:
448,0,608108,1,0,0:0:0:0:
192,0,608176,1,0,0:0:0:0:
64,0,608243,1,0,0:0:0:0:
320,0,608311,1,0,0:0:0:0:
448,0,608378,1,0,0:0:0:0:
64,0,608378,1,0,0:0:0:0:
192,0,608446,1,0,0:0:0:0:
320,0,608514,1,0,0:0:0:0:
448,0,608581,1,0,0:0:0:0:
64,0,608649,1,0,0:0:0:0:
320,0,608716,1,0,0:0:0:0:
64,0,608784,1,0,0:0:0:0:
192,0,608851,1,0,0:0:0:0:
448,0,608919,1,0,0:0:0:0:
320,0,608919,1,0,0:0:0:0:
192,0,608987,1,0,0:0:0:0:
64,0,609054,1,0,0:0:0:0:
320,0,609122,1,0,0:0:0:0:
192,0,609189,1,0,0:0:0:0:
448,0,609257,1,0,0:0:0:0:
192,0,609324,1,0,0:0:0:0:
64,0,609324,1,0,0:0:0:0:
320,0,609460,1,0,0:0:0:0:
448,0,609595,1,0,0:0:0:0:
192,0,609595,1,0,0:0:0:0:
64,0,609595,1,0,0:0:0:0:
320,192,609730,1,0,0:0:0:0:
192,0,609730,1,0,0:0:0:0:
448,0,609865,1,0,0:0:0:0:
192,0,609932,1,0,0:0:0:0:
448,0,610000,1,0,0:0:0:0:
64,0,610000,1,0,0:0:0:0:
320,0,610068,1,0,0:0:0:0:
192,0,610135,1,0,0:0:0:0:
448,0,610203,1,0,0:0:0:0:
320,0,610270,1,0,0:0:0:0:
64,0,610270,1,0,0:0:0:0:
192,0,610338,1,0,0:0:0:0:
448,0,610405,1,0,0:0:0:0:
320,0,610405,1,0,0:0:0:0:
64,0,610473,1,0,0:0:0:0:
448,0,610541,1,0,0:0:0:0:
320,0,610541,1,0,0:0:0:0:
192,0,610608,1,0,0:0:0:0:
64,0,610676,1,0,0:0:0:0:
320,0,610743,1,0,0:0:0:0:
448,0,610811,1,0,0:0:0:0:
192,0,610878,1,0,0:0:0:0:
320,0,610946,1,0,0:0:0:0:
64,0,611014,1,0,0:0:0:0:
448,0,611081,1,0,0:0:0:0:
320,0,611081,1,0,0:0:0:0:
192,0,611149,1,0,0:0:0:0:
64,0,611216,1,0,0:0:0:0:
448,0,611284,1,0,0:0:0:0:
192,0,611351,1,0,0:0:0:0:
320,0,611419,1,0,0:0:0:0:
192,0,611487,1,0,0:0:0:0:
64,0,611487,1,0,0:0:0:0:
448,0,611554,1,0,0:0:0:0:
320,0,611622,1,0,0:0:0:0:
192,0,611689,1,0,0:0:0:0:
64,0,611757,1,0,0:0:0:0:
448,0,611824,1,0,0:0:0:0:
64,0,611892,1,0,0:0:0:0:
192,0,611960,1,0,0:0:0:0:
320,0,612027,1,0,0:0:0:0:
64,0,612095,1,0,0:0:0:0:
448,0,612162,1,0,0:0:0:0:
192,0,612162,1,0,0:0:0:0:
64,0,612230,1,0,0:0:0:0:
320,192,612297,1,0,0:0:0:0:
192,192,612365,1,0,0:0:0:0:
448,192,612432,1,0,0:0:0:0:
64,192,612500,1,0,0:0:0:0:
448,0,612568,1,0,0:0:0:0:
320,0,612568,1,0,0:0:0:0:
192,192,612635,1,0,0:0:0:0:
64,192,612703,1,0,0:0:0:0:
320,0,612770,1,0,0:0:0:0:
192,192,612838,1,0,0:0:0:0:
448,0,612905,1,0,0:0:0:0:
192,0,612973,1,0,0:0:0:0:
64,0,612973,1,0,0:0:0:0:
320,0,613108,1,0,0:0:0:0:
448,0,613243,1,0,0:0:0:0:
192,0,613243,1,0,0:0:0:0:
64,0,613243,1,0,0:0:0:0:
192,0,613378,1,0,0:0:0:0:
320,192,613378,1,0,0:0:0:0:
64,0,613514,1,0,0:0:0:0:
448,0,613581,1,0,0:0:0:0:
64,0,613649,1,0,0:0:0:0:
192,0,613649,1,0,0:0:0:0:
320,0,613716,1,0,0:0:0:0:
448,0,613784,1,0,0:0:0:0:
192,192,613851,1,0,0:0:0:0:
64,192,613851,1,0,0:0:0:0:
320,192,613919,1,0,0:0:0:0:
448,192,613919,1,0,0:0:0:0:
64,192,613987,1,0,0:0:0:0:
448,0,614054,1,0,0:0:0:0:
320,0,614054,1,0,0:0:0:0:
192,0,614054,1,0,0:0:0:0:
64,0,614122,1,0,0:0:0:0:
192,0,614189,1,0,0:0:0:0:
320,0,614257,1,0,0:0:0:0:
192,0,614324,1,0,0:0:0:0:
64,0,614392,1,0,0:0:0:0:
448,0,614460,1,0,0:0:0:0:
320,0,614460,1,0,0:0:0:0:
64,0,614527,1,0,0:0:0:0:
192,0,614595,1,0,0:0:0:0:
320,0,614662,1,0,0:0:0:0:
448,0,614730,1,0,0:0:0:0:
64,0,614730,1,0,0:0:0:0:
192,0,614797,1,0,0:0:0:0:
320,0,614865,1,0,0:0:0:0:
64,0,614932,1,0,0:0:0:0:
192,0,615000,1,0,0:0:0:0:
64,0,615068,1,0,0:0:0:0:
448,0,615135,1,0,0:0:0:0:
320,0,615135,1,0,0:0:0:0:
192,0,615203,1,0,0:0:0:0:
448,0,615270,1,0,0:0:0:0:
320,0,615270,1,0,0:0:0:0:
64,0,615338,1,0,0:0:0:0:
448,0,615405,1,0,0:0:0:0:
320,0,615405,1,0,0:0:0:0:
192,0,615473,1,0,0:0:0:0:
64,0,615541,1,0,0:0:0:0:
320,0,615608,1,0,0:0:0:0:
448,0,615676,1,0,0:0:0:0:
192,0,615743,1,0,0:0:0:0:
448,0,615811,1,0,0:0:0:0:
320,0,615811,1,0,0:0:0:0:
64,0,615878,1,0,0:0:0:0:
320,0,615946,1,0,0:0:0:0:
192,0,616014,1,0,0:0:0:0:
448,0,616081,1,0,0:0:0:0:
320,0,616149,1,0,0:0:0:0:
192,0,616216,1,0,0:0:0:0:
64,0,616216,1,0,0:0:0:0:
448,0,616284,1,0,0:0:0:0:
320,0,616351,1,0,0:0:0:0:
192,0,616419,1,0,0:0:0:0:
448,0,616487,1,0,0:0:0:0:
320,0,616487,1,0,0:0:0:0:
192,0,616554,1,0,0:0:0:0:
64,0,616554,1,0,0:0:0:0:
448,0,616622,1,0,0:0:0:0:
320,0,616622,1,0,0:0:0:0:
192,0,616689,1,0,0:0:0:0:
64,0,616757,1,0,0:0:0:0:
320,0,616824,1,0,0:0:0:0:
192,0,616892,1,0,0:0:0:0:
64,0,616892,1,0,0:0:0:0:
448,0,616960,1,0,0:0:0:0:
64,0,617027,1,0,0:0:0:0:
192,0,617095,1,0,0:0:0:0:
448,0,617162,1,0,0:0:0:0:
320,0,617162,1,0,0:0:0:0:
64,0,617230,1,0,0:0:0:0:
448,0,617297,1,0,0:0:0:0:
192,0,617297,1,0,0:0:0:0:
320,0,617365,1,0,0:0:0:0:
192,0,617432,1,0,0:0:0:0:
64,0,617432,1,0,0:0:0:0:
448,0,617500,1,0,0:0:0:0:
192,0,617568,1,0,0:0:0:0:
320,0,617635,1,0,0:0:0:0:
448,0,617703,1,0,0:0:0:0:
192,0,617770,1,0,0:0:0:0:
320,0,617838,1,0,0:0:0:0:
64,0,617838,1,0,0:0:0:0:
192,0,617905,1,0,0:0:0:0:
448,0,617973,1,0,0:0:0:0:
320,0,617973,1,0,0:0:0:0:
64,192,618108,1,0,0:0:0:0:
320,192,618243,1,0,0:0:0:0:
448,0,618243,1,0,0:0:0:0:
192,0,618243,1,0,0:0:0:0:
64,192,618378,1,0,0:0:0:0:
192,0,618378,1,0,0:0:0:0:
448,0,618514,1,0,0:0:0:0:
320,0,618581,1,0,0:0:0:0:
448,0,618649,1,0,0:0:0:0:
192,0,618716,1,0,0:0:0:0:
320,0,618784,1,0,0:0:0:0:
64,0,618784,1,0,0:0:0:0:
448,0,618851,1,0,0:0:0:0:
192,0,618919,1,0,0:0:0:0:
320,0,618987,1,0,0:0:0:0:
192,0,619054,1,0,0:0:0:0:
64,0,619054,1,0,0:0:0:0:
448,0,619122,1,0,0:0:0:0:
320,192,619189,1,0,0:0:0:0:
192,192,619257,1,0,0:0:0:0:
320,192,619324,1,0,0:0:0:0:
448,192,619392,1,0,0:0:0:0:
192,0,619460,1,0,0:0:0:0:
64,0,619460,1,0,0:0:0:0:
320,0,619527,1,0,0:0:0:0:
192,0,619595,1,0,0:0:0:0:
64,0,619595,1,0,0:0:0:0:
448,0,619662,1,0,0:0:0:0:
192,0,619730,1,0,0:0:0:0:
64,0,619730,1,0,0:0:0:0:
320,0,619797,1,0,0:0:0:0:
448,0,619865,1,0,0:0:0:0:
320,0,619932,1,0,0:0:0:0:
192,0,620000,1,0,0:0:0:0:
448,0,620068,1,0,0:0:0:0:
192,0,620135,1,0,0:0:0:0:
64,0,620135,1,0,0:0:0:0:
320,0,620203,1,0,0:0:0:0:
64,0,620270,1,0,0:0:0:0:
448,0,620338,1,0,0:0:0:0:
320,0,620405,1,0,0:0:0:0:
64,0,620473,1,0,0:0:0:0:
448,0,620541,1,0,0:0:0:0:
320,0,620541,1,0,0:0:0:0:
192,0,620608,1,0,0:0:0:0:
64,0,620676,1,0,0:0:0:0:
320,0,620743,1,0,0:0:0:0:
192,0,620811,1,0,0:0:0:0:
64,0,620811,1,0,0:0:0:0:
448,0,620878,1,0,0:0:0:0:
320,0,620878,1,0,0:0:0:0:
192,0,620946,1,0,0:0:0:0:
64,0,620946,1,0,0:0:0:0:
448,0,621014,1,0,0:0:0:0:
320,0,621081,1,0,0:0:0:0:
192,0,621149,1,0,0:0:0:0:
320,0,621216,1,0,0:0:0:0:
64,0,621216,1,0,0:0:0:0:
448,0,621284,1,0,0:0:0:0:
192,0,621351,1,0,0:0:0:0:
320,0,621419,1,0,0:0:0:0:
64,0,621487,1,0,0:0:0:0:
192,0,621554,1,0,0:0:0:0:
448,0,621622,1,0,0:0:0:0:
64,0,621622,1,0,0:0:0:0:
192,192,621757,1,0,0:0:0:0:
448,192,621757,1,0,0:0:0:0:
320,192,621892,1,0,0:0:0:0:
64,192,621892,1,0,0:0:0:0:
448,192,621892,1,0,0:0:0:0:
64,192,622027,1,0,0:0:0:0:
192,192,622027,1,0,0:0:0:0:
448,0,622162,1,0,0:0:0:0:
320,0,622162,1,0,0:0:0:0:
192,0,622230,1,0,0:0:0:0:
320,0,622297,1,0,0:0:0:0:
64,0,622365,1,0,0:0:0:0:
448,0,622432,1,0,0:0:0:0:
192,0,622432,1,0,0:0:0:0:
64,0,622500,1,0,0:0:0:0:
448,0,622568,1,0,0:0:0:0:
320,0,622568,1,0,0:0:0:0:
192,0,622635,1,0,0:0:0:0:
64,0,622635,1,0,0:0:0:0:
448,0,622703,1,0,0:0:0:0:
320,0,622703,1,0,0:0:0:0:
192,0,622770,1,0,0:0:0:0:
64,0,622838,1,0,0:0:0:0:
320,0,622905,1,0,0:0:0:0:
64,0,622973,1,0,0:0:0:0:
192,0,623041,1,0,0:0:0:0:
448,0,623108,1,0,0:0:0:0:
320,0,623108,1,0,0:0:0:0:
64,0,623176,1,0,0:0:0:0:
192,0,623243,1,0,0:0:0:0:
320,0,623311,1,0,0:0:0:0:
448,0,623378,1,0,0:0:0:0:
192,0,623378,1,0,0:0:0:0:
64,0,623446,1,0,0:0:0:0:
320,0,623514,1,0,0:0:0:0:
64,192,623581,1,0,0:0:0:0:
192,192,623649,1,0,0:0:0:0:
64,192,623716,1,0,0:0:0:0:
320,192,623784,1,0,0:0:0:0:
448,0,623784,1,0,0:0:0:0:
192,0,623851,1,0,0:0:0:0:
320,192,623919,1,0,0:0:0:0:
448,0,623919,1,0,0:0:0:0:
64,192,623987,1,0,0:0:0:0:
320,192,624054,1,0,0:0:0:0:
448,0,624054,1,0,0:0:0:0:
64,192,624122,1,0,0:0:0:0:
192,192,624189,1,0,0:0:0:0:
320,192,624257,1,0,0:0:0:0:
448,0,624324,1,0,0:0:0:0:
192,0,624392,1,0,0:0:0:0:
448,0,624460,1,0,0:0:0:0:
320,0,624460,1,0,0:0:0:0:
64,0,624527,1,0,0:0:0:0:
192,0,624595,1,0,0:0:0:0:
448,0,624662,1,0,0:0:0:0:
64,0,624730,1,0,0:0:0:0:
320,0,624797,1,0,0:0:0:0:
448,0,624865,1,0,0:0:0:0:
192,0,624865,1,0,0:0:0:0:
64,0,624932,1,0,0:0:0:0:
320,0,625000,1,0,0:0:0:0:
192,0,625068,1,0,0:0:0:0:
448,0,625135,1,0,0:0:0:0:
320,0,625135,1,0,0:0:0:0:
192,0,625203,1,0,0:0:0:0:
64,0,625203,1,0,0:0:0:0:
448,0,625270,1,0,0:0:0:0:
320,0,625270,1,0,0:0:0:0:
64,0,625338,1,0,0:0:0:0:
192,192,625405,1,0,0:0:0:0:
320,192,625473,1,0,0:0:0:0:
448,192,625541,1,0,0:0:0:0:
64,0,625541,1,0,0:0:0:0:
320,0,625608,1,0,0:0:0:0:
64,0,625676,1,0,0:0:0:0:
192,0,625743,1,0,0:0:0:0:
448,0,625811,1,0,0:0:0:0:
320,0,625811,1,0,0:0:0:0:
64,0,625878,1,0,0:0:0:0:
448,0,625946,1,0,0:0:0:0:
192,0,625946,1,0,0:0:0:0:
320,0,626014,1,0,0:0:0:0:
192,0,626081,1,0,0:0:0:0:
64,0,626081,1,0,0:0:0:0:
448,0,626149,1,0,0:0:0:0:
320,0,626216,1,0,0:0:0:0:
64,0,626284,1,0,0:0:0:0:
192,0,626351,1,0,0:0:0:0:
320,0,626419,1,0,0:0:0:0:
448,0,626487,1,0,0:0:0:0:
64,0,626487,1,0,0:0:0:0:
192,0,626554,1,0,0:0:0:0:
320,0,626622,1,0,0:0:0:0:
64,0,626622,1,0,0:0:0:0:
192,192,626757,1,0,0:0:0:0:
448,192,626892,1,0,0:0:0:0:
320,192,626892,1,0,0:0:0:0:
64,0,626892,1,0,0:0:0:0:
448,192,627027,1,0,0:0:0:0:
192,0,627027,1,0,0:0:0:0:
320,0,627162,1,0,0:0:0:0:
448,0,627230,1,0,0:0:0:0:
320,0,627297,1,0,0:0:0:0:
64,0,627365,1,0,0:0:0:0:
448,0,627432,1,0,0:0:0:0:
192,0,627432,1,0,0:0:0:0:
320,0,627500,1,0,0:0:0:0:
64,0,627568,1,0,0:0:0:0:
192,0,627635,1,0,0:0:0:0:
448,0,627703,1,0,0:0:0:0:
64,0,627703,1,0,0:0:0:0:
320,192,627770,1,0,0:0:0:0:
192,192,627838,1,0,0:0:0:0:
448,192,627905,1,0,0:0:0:0:
320,192,627973,1,0,0:0:0:0:
448,192,628041,1,0,0:0:0:0:
64,0,628108,1,0,0:0:0:0:
192,0,628108,1,0,0:0:0:0:
320,192,628176,1,0,0:0:0:0:
64,0,628243,1,0,0:0:0:0:
192,0,628243,1,0,0:0:0:0:
448,192,628311,1,0,0:0:0:0:
64,0,628378,1,0,0:0:0:0:
192,0,628378,1,0,0:0:0:0:
320,192,628446,1,0,0:0:0:0:
192,192,628514,1,0,0:0:0:0:
64,192,628581,1,0,0:0:0:0:
320,192,628649,1,0,0:0:0:0:
192,192,628716,1,0,0:0:0:0:
448,0,628784,1,0,0:0:0:0:
320,0,628784,1,0,0:0:0:0:
64,192,628851,1,0,0:0:0:0:
192,192,628919,1,0,0:0:0:0:
320,0,628987,1,0,0:0:0:0:
448,192,629054,1,0,0:0:0:0:
64,0,629122,1,0,0:0:0:0:
448,0,629189,1,0,0:0:0:0:
192,0,629189,1,0,0:0:0:0:
320,0,629257,1,0,0:0:0:0:
64,0,629324,1,0,0:0:0:0:
192,0,629392,1,0,0:0:0:0:
448,0,629460,1,0,0:0:0:0:
320,0,629460,1,0,0:0:0:0:
192,0,629527,1,0,0:0:0:0:
64,0,629527,1,0,0:0:0:0:
448,0,629595,1,0,0:0:0:0:
320,0,629595,1,0,0:0:0:0:
64,192,629662,1,0,0:0:0:0:
192,192,629730,1,0,0:0:0:0:
448,0,629797,1,0,0:0:0:0:
192,0,629865,1,0,0:0:0:0:
64,0,629865,1,0,0:0:0:0:
320,0,629932,1,0,0:0:0:0:
448,0,630000,1,0,0:0:0:0:
64,0,630068,1,0,0:0:0:0:
192,0,630135,1,0,0:0:0:0:
448,0,630203,1,0,0:0:0:0:
192,0,630270,1,0,0:0:0:0:
64,0,630270,1,0,0:0:0:0:
448,192,630405,1,0,0:0:0:0:
192,0,630405,1,0,0:0:0:0:
448,0,630541,1,0,0:0:0:0:
320,0,630541,1,0,0:0:0:0:
64,0,630541,1,0,0:0:0:0:
192,0,630676,1,0,0:0:0:0:
64,0,630676,1,0,0:0:0:0:
448,0,630811,1,0,0:0:0:0:
320,0,630811,1,0,0:0:0:0:
64,0,630878,1,0,0:0:0:0:
448,0,630946,1,0,0:0:0:0:
64,192,631014,1,0,0:0:0:0:
192,192,631081,1,0,0:0:0:0:
320,192,631149,1,0,0:0:0:0:
192,0,631216,1,0,0:0:0:0:
64,0,631216,1,0,0:0:0:0:
320,0,631284,1,0,0:0:0:0:
448,0,631351,1,0,0:0:0:0:
192,0,631351,1,0,0:0:0:0:
64,0,631351,1,0,0:0:0:0:
320,0,631419,1,0,0:0:0:0:
64,0,631487,1,0,0:0:0:0:
448,192,631554,1,0,0:0:0:0:
64,192,631622,1,0,0:0:0:0:
192,192,631622,1,0,0:0:0:0:
320,0,631689,1,0,0:0:0:0:
448,0,631757,1,0,0:0:0:0:
192,0,631757,1,0,0:0:0:0:
64,0,631824,1,0,0:0:0:0:
320,0,631892,1,0,0:0:0:0:
192,0,631960,1,0,0:0:0:0:
448,0,632027,1,0,0:0:0:0:
320,0,632027,1,0,0:0:0:0:
64,0,632027,1,0,0:0:0:0:
192,0,632095,1,0,0:0:0:0:
448,0,632162,1,0,0:0:0:0:
320,0,632230,1,0,0:0:0:0:
64,0,632297,1,0,0:0:0:0:
192,0,632365,1,0,0:0:0:0:
448,0,632432,1,0,0:0:0:0:
320,0,632432,1,0,0:0:0:0:
64,0,632500,1,0,0:0:0:0:
448,0,632568,1,0,0:0:0:0:
320,0,632568,1,0,0:0:0:0:
192,0,632635,1,0,0:0:0:0:
448,0,632703,1,0,0:0:0:0:
320,0,632703,1,0,0:0:0:0:
64,0,632703,1,0,0:0:0:0:
192,0,632770,1,0,0:0:0:0:
320,0,632838,1,0,0:0:0:0:
64,0,632905,1,0,0:0:0:0:
192,0,632973,1,0,0:0:0:0:
320,0,633041,1,0,0:0:0:0:
448,0,633108,1,0,0:0:0:0:
192,0,633108,1,0,0:0:0:0:
64,0,633108,1,0,0:0:0:0:
320,0,633176,1,0,0:0:0:0:
192,0,633243,1,0,0:0:0:0:
64,0,633311,1,0,0:0:0:0:
448,0,633378,1,0,0:0:0:0:
192,0,633446,1,0,0:0:0:0:
448,0,633514,1,0,0:0:0:0:
64,0,633514,1,0,0:0:0:0:
320,0,633581,1,0,0:0:0:0:
192,192,633649,1,0,0:0:0:0:
448,0,633716,1,0,0:0:0:0:
192,0,633784,1,0,0:0:0:0:
64,0,633784,1,0,0:0:0:0:
448,192,633851,1,0,0:0:0:0:
320,0,633851,1,0,0:0:0:0:
192,0,633919,1,0,0:0:0:0:
64,0,633919,1,0,0:0:0:0:
448,192,633987,1,0,0:0:0:0:
320,192,634054,1,0,0:0:0:0:
64,192,634122,1,0,0:0:0:0:
448,192,634189,1,0,0:0:0:0:
192,192,634189,1,0,0:0:0:0:
64,192,634257,1,0,0:0:0:0:
320,0,634324,1,0,0:0:0:0:
192,192,634392,1,0,0:0:0:0:
64,192,634460,1,0,0:0:0:0:
448,0,634460,1,0,0:0:0:0:
320,0,634527,1,0,0:0:0:0:
192,0,634595,1,0,0:0:0:0:
64,0,634595,1,0,0:0:0:0:
448,0,634662,1,0,0:0:0:0:
320,192,634730,1,0,0:0:0:0:
64,0,634730,1,0,0:0:0:0:
192,192,634797,1,0,0:0:0:0:
448,192,634865,1,0,0:0:0:0:
64,192,634932,1,0,0:0:0:0:
448,192,635000,1,0,0:0:0:0:
320,192,635068,1,0,0:0:0:0:
192,0,635135,1,0,0:0:0:0:
64,0,635135,1,0,0:0:0:0:
320,0,635203,1,0,0:0:0:0:
448,192,635270,1,0,0:0:0:0:
192,192,635270,1,0,0:0:0:0:
320,192,635405,1,0,0:0:0:0:
448,0,635541,1,0,0:0:0:0:
64,0,635541,1,0,0:0:0:0:
192,192,635541,1,0,0:0:0:0:
320,0,635676,1,0,0:0:0:0:
448,192,635676,1,0,0:0:0:0:
64,0,635811,1,0,0:0:0:0:
320,0,635878,1,0,0:0:0:0:
192,192,635946,1,0,0:0:0:0:
64,0,635946,1,0,0:0:0:0:
448,192,636014,1,0,0:0:0:0:
192,192,636081,1,0,0:0:0:0:
320,0,636081,1,0,0:0:0:0:
64,192,636149,1,0,0:0:0:0:
192,0,636216,1,0,0:0:0:0:
320,0,636284,1,0,0:0:0:0:
448,0,636351,1,0,0:0:0:0:
192,0,636351,1,0,0:0:0:0:
64,0,636351,1,0,0:0:0:0:
320,0,636419,1,0,0:0:0:0:
448,0,636487,1,0,0:0:0:0:
64,0,636554,1,0,0:0:0:0:
320,0,636622,1,0,0:0:0:0:
448,0,636689,1,0,0:0:0:0:
192,0,636757,1,0,0:0:0:0:
64,0,636757,1,0,0:0:0:0:
320,0,636824,1,0,0:0:0:0:
192,0,636892,1,0,0:0:0:0:
64,0,636892,1,0,0:0:0:0:
448,0,636959,1,0,0:0:0:0:
320,0,637027,1,0,0:0:0:0:
192,0,637027,1,0,0:0:0:0:
64,0,637027,1,0,0:0:0:0:
448,0,637095,1,0,0:0:0:0:
192,0,637162,1,0,0:0:0:0:
320,0,637230,1,0,0:0:0:0:
64,0,637297,1,0,0:0:0:0:
448,0,637365,1,0,0:0:0:0:
320,0,637432,1,0,0:0:0:0:
192,0,637432,1,0,0:0:0:0:
64,0,637432,1,0,0:0:0:0:
448,0,637500,1,0,0:0:0:0:
192,0,637568,1,0,0:0:0:0:
320,0,637635,1,0,0:0:0:0:
64,0,637703,1,0,0:0:0:0:
192,0,637770,1,0,0:0:0:0:
448,0,637838,1,0,0:0:0:0:
64,0,637838,1,0,0:0:0:0:
320,0,637905,1,0,0:0:0:0:
192,0,637973,1,0,0:0:0:0:
448,192,638041,1,0,0:0:0:0:
192,0,638108,1,0,0:0:0:0:
64,0,638108,1,0,0:0:0:0:
448,192,638176,1,0,0:0:0:0:
320,0,638176,1,0,0:0:0:0:
192,0,638243,1,0,0:0:0:0:
64,0,638243,1,0,0:0:0:0:
448,0,638311,1,0,0:0:0:0:
320,0,638378,1,0,0:0:0:0:
64,0,638446,1,0,0:0:0:0:
448,0,638514,1,0,0:0:0:0:
320,0,638514,1,0,0:0:0:0:
192,0,638514,1,0,0:0:0:0:
64,0,638581,1,0,0:0:0:0:
320,0,638649,1,0,0:0:0:0:
448,0,638716,1,0,0:0:0:0:
192,0,638784,1,0,0:0:0:0:
64,0,638784,1,0,0:0:0:0:
320,192,638851,1,0,0:0:0:0:
448,0,638919,1,0,0:0:0:0:
64,0,638919,1,0,0:0:0:0:
448,192,639054,1,0,0:0:0:0:
320,0,639054,1,0,0:0:0:0:
448,0,639189,1,0,0:0:0:0:
192,0,639189,1,0,0:0:0:0:
64,0,639189,1,0,0:0:0:0:
192,192,639324,1,0,0:0:0:0:
320,0,639324,1,0,0:0:0:0:
448,192,639459,1,0,0:0:0:0:
64,0,639459,1,0,0:0:0:0:
448,0,639595,1,0,0:0:0:0:
192,0,639595,1,0,0:0:0:0:
64,0,639595,1,0,0:0:0:0:
320,0,639662,1,0,0:0:0:0:
64,0,639730,1,0,0:0:0:0:
192,0,639797,1,0,0:0:0:0:
448,0,639865,1,0,0:0:0:0:
320,0,639865,1,0,0:0:0:0:
192,0,639932,1,0,0:0:0:0:
64,0,639932,1,0,0:0:0:0:
448,0,640000,1,0,0:0:0:0:
320,0,640000,1,0,0:0:0:0:
192,0,640068,1,0,0:0:0:0:
64,0,640135,1,0,0:0:0:0:
320,0,640203,1,0,0:0:0:0:
448,0,640270,1,0,0:0:0:0:
64,0,640270,1,0,0:0:0:0:
192,0,640338,1,0,0:0:0:0:
448,0,640405,1,0,0:0:0:0:
320,0,640405,1,0,0:0:0:0:
64,0,640473,1,0,0:0:0:0:
192,0,640541,1,0,0:0:0:0:
320,0,640608,1,0,0:0:0:0:
448,0,640676,1,0,0:0:0:0:
192,0,640676,1,0,0:0:0:0:
64,0,640676,1,0,0:0:0:0:
320,0,640743,1,0,0:0:0:0:
64,0,640811,1,0,0:0:0:0:
192,0,640878,1,0,0:0:0:0:
448,0,640946,1,0,0:0:0:0:
320,0,641014,1,0,0:0:0:0:
192,0,641081,1,0,0:0:0:0:
64,0,641081,1,0,0:0:0:0:
448,0,641149,1,0,0:0:0:0:
192,0,641216,1,0,0:0:0:0:
64,0,641216,1,0,0:0:0:0:
320,0,641284,1,0,0:0:0:0:
448,0,641351,1,0,0:0:0:0:
192,0,641351,1,0,0:0:0:0:
64,0,641351,1,0,0:0:0:0:
320,0,641419,1,0,0:0:0:0:
64,0,641487,1,0,0:0:0:0:
448,0,641554,1,0,0:0:0:0:
320,0,641622,1,0,0:0:0:0:
192,0,641689,1,0,0:0:0:0:
448,0,641757,1,0,0:0:0:0:
320,0,641757,1,0,0:0:0:0:
64,0,641757,1,0,0:0:0:0:
192,0,641824,1,0,0:0:0:0:
320,192,641892,1,0,0:0:0:0:
448,192,641959,1,0,0:0:0:0:
192,192,642027,1,0,0:0:0:0:
64,0,642095,1,0,0:0:0:0:
448,0,642162,1,0,0:0:0:0:
192,0,642162,1,0,0:0:0:0:
320,0,642230,1,0,0:0:0:0:
64,0,642297,1,0,0:0:0:0:
192,0,642365,1,0,0:0:0:0:
448,0,642432,1,0,0:0:0:0:
320,0,642432,1,0,0:0:0:0:
192,0,642500,1,0,0:0:0:0:
64,0,642500,1,0,0:0:0:0:
448,0,642568,1,0,0:0:0:0:
320,0,642568,1,0,0:0:0:0:
64,0,642635,1,0,0:0:0:0:
192,0,642703,1,0,0:0:0:0:
448,0,642770,1,0,0:0:0:0:
64,192,642838,1,0,0:0:0:0:
320,0,642838,1,0,0:0:0:0:
192,0,642905,1,0,0:0:0:0:
320,192,642973,1,0,0:0:0:0:
64,192,643041,1,0,0:0:0:0:
192,192,643108,1,0,0:0:0:0:
448,0,643108,1,0,0:0:0:0:
320,192,643176,1,0,0:0:0:0:
64,192,643243,1,0,0:0:0:0:
192,192,643243,1,0,0:0:0:0:
448,192,643311,1,0,0:0:0:0:
64,192,643378,1,0,0:0:0:0:
320,0,643378,1,0,0:0:0:0:
192,192,643446,1,0,0:0:0:0:
448,192,643514,1,0,0:0:0:0:
64,192,643581,1,0,0:0:0:0:
448,192,643649,1,0,0:0:0:0:
320,192,643716,1,0,0:0:0:0:
64,192,643784,1,0,0:0:0:0:
192,192,643784,1,0,0:0:0:0:
320,192,643851,1,0,0:0:0:0:
192,192,643919,1,0,0:0:0:0:
448,0,643919,1,0,0:0:0:0:
320,192,644054,1,0,0:0:0:0:
64,192,644189,1,0,0:0:0:0:
448,0,644189,1,0,0:0:0:0:
192,0,644189,1,0,0:0:0:0:
320,0,644324,1,0,0:0:0:0:
64,0,644324,1,0,0:0:0:0:
192,0,644392,1,0,0:0:0:0:
320,0,644459,1,0,0:0:0:0:
448,0,644527,1,0,0:0:0:0:
192,0,644595,1,0,0:0:0:0:
64,0,644595,1,0,0:0:0:0:
320,0,644662,1,0,0:0:0:0:
448,0,644730,1,0,0:0:0:0:
64,0,644730,1,0,0:0:0:0:
192,0,644797,1,0,0:0:0:0:
320,0,644865,1,0,0:0:0:0:
64,0,644932,1,0,0:0:0:0:
448,0,645000,1,0,0:0:0:0:
320,0,645000,1,0,0:0:0:0:
192,0,645068,1,0,0:0:0:0:
448,0,645135,1,0,0:0:0:0:
320,0,645135,1,0,0:0:0:0:
64,0,645135,1,0,0:0:0:0:
192,0,645203,1,0,0:0:0:0:
448,0,645270,1,0,0:0:0:0:
320,0,645338,1,0,0:0:0:0:
192,0,645405,1,0,0:0:0:0:
64,0,645405,1,0,0:0:0:0:
448,0,645473,1,0,0:0:0:0:
192,0,645541,1,0,0:0:0:0:
64,0,645541,1,0,0:0:0:0:
320,0,645608,1,0,0:0:0:0:
448,0,645676,1,0,0:0:0:0:
192,0,645676,1,0,0:0:0:0:
64,0,645676,1,0,0:0:0:0:
320,0,645743,1,0,0:0:0:0:
64,0,645811,1,0,0:0:0:0:
192,0,645878,1,0,0:0:0:0:
320,0,645946,1,0,0:0:0:0:
448,0,646014,1,0,0:0:0:0:
320,0,646081,1,0,0:0:0:0:
192,0,646081,1,0,0:0:0:0:
64,0,646081,1,0,0:0:0:0:
448,0,646149,1,0,0:0:0:0:
64,0,646216,1,0,0:0:0:0:
192,0,646284,1,0,0:0:0:0:
320,0,646351,1,0,0:0:0:0:
64,0,646419,1,0,0:0:0:0:
448,0,646487,1,0,0:0:0:0:
320,0,646487,1,0,0:0:0:0:
192,0,646554,1,0,0:0:0:0:
64,0,646622,1,0,0:0:0:0:
320,0,646689,1,0,0:0:0:0:
192,0,646757,1,0,0:0:0:0:
64,0,646757,1,0,0:0:0:0:
448,0,646824,1,0,0:0:0:0:
320,0,646824,1,0,0:0:0:0:
192,0,646892,1,0,0:0:0:0:
64,0,646892,1,0,0:0:0:0:
448,0,646959,1,0,0:0:0:0:
320,0,647027,1,0,0:0:0:0:
192,0,647095,1,0,0:0:0:0:
448,0,647162,1,0,0:0:0:0:
320,0,647162,1,0,0:0:0:0:
64,0,647162,1,0,0:0:0:0:
192,0,647230,1,0,0:0:0:0:
320,0,647297,1,0,0:0:0:0:
448,0,647365,1,0,0:0:0:0:
64,192,647432,1,0,0:0:0:0:
192,0,647432,1,0,0:0:0:0:
320,0,647500,1,0,0:0:0:0:
448,0,647568,1,0,0:0:0:0:
64,0,647568,1,0,0:0:0:0:
448,192,647703,1,0,0:0:0:0:
320,0,647703,1,0,0:0:0:0:
448,0,647838,1,0,0:0:0:0:
192,0,647838,1,0,0:0:0:0:
64,0,647838,1,0,0:0:0:0:
64,192,647973,1,0,0:0:0:0:
192,0,647973,1,0,0:0:0:0:
448,0,648108,1,0,0:0:0:0:
320,0,648108,1,0,0:0:0:0:
64,0,648176,1,0,0:0:0:0:
320,0,648243,1,0,0:0:0:0:
192,0,648311,1,0,0:0:0:0:
448,0,648378,1,0,0:0:0:0:
320,0,648412,1,0,0:0:0:0:
64,0,648446,1,0,0:0:0:0:
192,0,648480,1,0,0:0:0:0:
448,0,648514,1,0,0:0:0:0:
320,0,648547,1,0,0:0:0:0:
64,0,648581,1,0,0:0:0:0:
192,0,648615,1,0,0:0:0:0:
448,0,648649,1,0,0:0:0:0:
320,0,648649,1,0,0:0:0:0:
