osu file format v14

[General]
AudioFilename: audio.mp3
AudioLeadIn: 0
PreviewTime: 36451
Countdown: 0
SampleSet: Normal
StackLeniency: 0.7
Mode: 1
LetterboxInBreaks: 0
WidescreenStoryboard: 1

[Editor]
Bookmarks: 111,7305,10941,21850,36395,58214,80714
DistanceSpacing: 0.8
BeatDivisor: 2
GridSize: 32
TimelineZoom: 2.899999

[Metadata]
Title:satoko torture techniques
TitleUnicode:satoko torture techniques
Artist:goreshit
ArtistUnicode:goreshit
Creator:Ulqui
Version:futsuu
Source:
Tags:electronic japanese instrumental breakcore hardcore speedcore splitshit
BeatmapID:1565271
BeatmapSetID:734550

[Difficulty]
HPDrainRate:8
CircleSize:2
OverallDifficulty:4
ApproachRate:10
SliderMultiplier:1.3
SliderTickRate:1

[Events]
//Background and Video events
0,0,"bg.jpg",0,60
//Break Periods
//Storyboard Layer 0 (Background)
//Storyboard Layer 1 (Fail)
//Storyboard Layer 2 (Pass)
//Storyboard Layer 3 (Foreground)
//Storyboard Layer 4 (Overlay)
//Storyboard Sound Samples

[TimingPoints]
167,500,4,1,0,100,1,0
1042,-100,4,1,0,40,0,0
7361,227.272727272727,4,1,0,100,1,0
36451,-100,4,1,0,100,0,1
58270,-100,4,1,0,100,0,0
65542,-100,4,1,0,100,0,1
80770,-100,4,1,0,100,0,0

[HitObjects]
192,128,167,5,12,0:0:0:0:
160,160,1167,1,0,0:0:0:0:
160,160,2167,1,0,0:0:0:0:
160,160,3167,1,0,0:0:0:0:
160,160,4167,1,0,0:0:0:0:
160,160,5167,1,0,0:0:0:0:
160,160,6167,1,0,0:0:0:0:
160,160,7361,1,4,0:0:0:0:
192,128,8270,1,4,0:0:0:0:
91,165,8951,1,8,0:0:0:0:
192,160,9179,1,4,0:0:0:0:
192,160,10088,1,0,0:0:0:0:
192,160,10429,1,8,0:0:0:0:
160,128,10770,1,8,0:0:0:0:
192,96,10997,1,0,0:0:0:0:
192,96,11338,1,8,0:0:0:0:
192,96,11679,1,8,0:0:0:0:
192,96,11906,1,0,0:0:0:0:
192,96,12247,1,8,0:0:0:0:
160,96,12815,1,0,0:0:0:0:
160,96,12929,1,8,0:0:0:0:
224,64,13156,1,8,0:0:0:0:
192,64,13383,1,8,0:0:0:0:
192,128,13497,1,8,0:0:0:0:
192,128,13724,1,0,0:0:0:0:
160,128,14179,1,0,0:0:0:0:
160,96,14633,1,8,0:0:0:0:
160,96,14974,1,8,0:0:0:0:
160,96,15201,1,8,0:0:0:0:
224,64,15429,1,8,0:0:0:0:
192,64,15542,1,8,0:0:0:0:
224,64,15997,1,0,0:0:0:0:
178,135,16110,1,0,0:0:0:0:
192,96,16224,1,0,0:0:0:0:
192,96,16451,1,0,0:0:0:0:
192,96,16565,1,8,0:0:0:0:
192,96,16792,1,8,0:0:0:0:
224,64,17020,1,8,0:0:0:0:
192,96,17133,1,8,0:0:0:0:
192,96,17360,1,8,0:0:0:0:
192,64,17815,1,8,0:0:0:0:
192,96,18270,1,0,0:0:0:0:
160,96,18497,1,8,0:0:0:0:
192,64,18610,1,8,0:0:0:0:
160,96,18724,1,8,0:0:0:0:
192,64,19065,1,8,0:0:0:0:
192,96,19179,1,8,0:0:0:0:
192,96,19520,1,8,0:0:0:0:
192,96,19860,1,8,0:0:0:0:
192,64,20088,1,0,0:0:0:0:
192,64,20315,1,8,0:0:0:0:
160,96,20770,1,8,0:0:0:0:
192,96,20997,1,8,0:0:0:0:
256,96,21224,1,0,0:0:0:0:
224,96,21451,1,8,0:0:0:0:
156,74,21565,1,8,0:0:0:0:
157,68,21792,1,8,0:0:0:0:
192,64,21906,1,8,0:0:0:0:
192,192,24406,5,0,0:0:0:0:
192,192,25315,1,0,0:0:0:0:
192,192,25542,1,4,0:0:0:0:
192,128,28270,1,0,0:0:0:0:
192,160,28497,1,8,0:0:0:0:
192,160,28724,1,8,0:0:0:0:
192,160,28951,1,8,0:0:0:0:
192,128,29065,1,8,0:0:0:0:
192,160,29179,1,0,0:0:0:0:
160,192,31679,1,0,0:0:0:0:
160,160,32588,1,8,0:0:0:0:
160,160,32815,1,8,0:0:0:0:
128,160,33156,1,8,0:0:0:0:
160,160,33497,1,8,0:0:0:0:
160,192,33724,1,8,0:0:0:0:
160,192,34065,1,8,0:0:0:0:
160,192,34406,1,8,0:0:0:0:
160,64,34520,1,8,0:0:0:0:
160,192,34633,1,0,0:0:0:0:
160,128,34860,1,0,0:0:0:0:
160,128,35088,1,0,0:0:0:0:
160,128,35315,1,0,0:0:0:0:
172,87,35542,1,8,0:0:0:0:
193,77,35656,1,8,0:0:0:0:
172,87,35770,1,8,0:0:0:0:
172,87,35997,1,8,0:0:0:0:
172,87,36224,1,8,0:0:0:0:
151,131,36451,5,8,0:0:0:0:
151,131,36792,1,8,0:0:0:0:
151,131,37133,1,8,0:0:0:0:
143,129,37474,1,0,0:0:0:0:
143,129,37701,1,8,0:0:0:0:
143,129,37929,1,8,0:0:0:0:
143,129,38156,1,8,0:0:0:0:
143,129,38270,1,8,0:0:0:0:
197,83,38724,1,0,0:0:0:0:
169,97,38838,1,8,0:0:0:0:
197,83,39179,1,8,0:0:0:0:
197,83,39520,1,8,0:0:0:0:
190,85,39860,1,8,0:0:0:0:
206,87,40315,1,8,0:0:0:0:
206,87,40542,1,8,0:0:0:0:
170,92,40770,1,8,0:0:0:0:
170,92,40997,1,8,0:0:0:0:
170,92,41224,1,8,0:0:0:0:
163,82,41679,1,8,0:0:0:0:
236,120,41792,1,8,0:0:0:0:
163,82,41906,1,8,0:0:0:0:
201,36,42133,1,0,0:0:0:0:
191,81,42360,1,8,0:0:0:0:
190,81,42815,1,0,0:0:0:0:
190,81,42929,1,8,0:0:0:0:
133,82,43270,1,0,0:0:0:0:
206,92,43497,1,0,0:0:0:0:
206,92,43724,1,8,0:0:0:0:
165,68,44065,1,8,0:0:0:0:
216,85,44406,1,8,0:0:0:0:
171,87,44633,1,8,0:0:0:0:
211,90,44974,1,8,0:0:0:0:
211,91,45315,1,8,0:0:0:0:
211,91,45429,1,8,0:0:0:0:
211,90,45542,1,8,0:0:0:0:
186,107,45770,1,8,0:0:0:0:
186,107,45997,1,8,0:0:0:0:
186,107,46224,1,8,0:0:0:0:
168,98,46451,2,0,L|448:66,1,260
170,102,47360,1,8,0:0:0:0:
170,102,47701,1,8,0:0:0:0:
170,102,48042,1,8,0:0:0:0:
170,102,48383,1,8,0:0:0:0:
170,102,48610,1,8,0:0:0:0:
170,102,49065,1,8,0:0:0:0:
170,102,49179,1,8,0:0:0:0:
196,86,49633,1,0,0:0:0:0:
196,86,49747,1,8,0:0:0:0:
196,86,50088,1,8,0:0:0:0:
196,86,50201,1,8,0:0:0:0:
196,86,50429,1,8,0:0:0:0:
196,86,50770,1,0,0:0:0:0:
196,86,50997,1,8,0:0:0:0:
161,173,51338,1,8,0:0:0:0:
169,137,51906,1,8,0:0:0:0:
169,137,52247,1,8,0:0:0:0:
169,137,52701,1,8,0:0:0:0:
169,137,52815,1,8,0:0:0:0:
169,137,53042,1,8,0:0:0:0:
169,137,53270,1,8,0:0:0:0:
169,137,53497,1,8,0:0:0:0:
169,137,53838,1,8,0:0:0:0:
169,137,54179,1,8,0:0:0:0:
175,132,54406,1,8,0:0:0:0:
175,132,54633,1,8,0:0:0:0:
175,132,54974,1,8,0:0:0:0:
174,140,55315,1,8,0:0:0:0:
174,141,55656,1,0,0:0:0:0:
174,142,55883,1,8,0:0:0:0:
165,113,56338,1,8,0:0:0:0:
165,113,56451,1,8,0:0:0:0:
165,113,56679,1,8,0:0:0:0:
165,113,57133,1,8,0:0:0:0:
165,113,57247,1,8,0:0:0:0:
165,113,57360,1,8,0:0:0:0:
165,113,57474,1,8,0:0:0:0:
165,113,57701,1,8,0:0:0:0:
165,113,58042,1,8,0:0:0:0:
160,96,58270,5,0,0:0:0:0:
192,128,58610,1,0,0:0:0:0:
186,108,58838,1,0,0:0:0:0:
192,128,59179,1,0,0:0:0:0:
192,128,59520,1,0,0:0:0:0:
172,121,59747,1,0,0:0:0:0:
192,128,60088,1,0,0:0:0:0:
192,128,60429,1,0,0:0:0:0:
172,121,60656,1,0,0:0:0:0:
192,128,60997,1,8,0:0:0:0:
168,72,61451,1,8,0:0:0:0:
168,72,61565,1,8,0:0:0:0:
224,128,61906,1,4,0:0:0:0:
192,128,62247,1,0,0:0:0:0:
166,97,62474,1,0,0:0:0:0:
224,128,62815,1,4,0:0:0:0:
192,64,63156,1,0,0:0:0:0:
164,111,63383,1,0,0:0:0:0:
192,128,63724,1,4,0:0:0:0:
192,128,64065,1,0,0:0:0:0:
164,111,64292,1,0,0:0:0:0:
192,160,64633,1,12,0:0:0:0:
191,66,65088,1,8,0:0:0:0:
181,45,65201,1,8,0:0:0:0:
238,173,65542,1,4,0:0:0:0:
173,228,65997,1,8,0:0:0:0:
185,217,66110,1,8,0:0:0:0:
185,217,66224,1,0,0:0:0:0:
185,217,66451,1,0,0:0:0:0:
185,217,66679,1,8,0:0:0:0:
185,217,66906,1,8,0:0:0:0:
185,217,67020,1,8,0:0:0:0:
185,217,67247,1,8,0:0:0:0:
185,217,67474,1,8,0:0:0:0:
196,63,67588,1,8,0:0:0:0:
185,148,68042,1,8,0:0:0:0:
184,148,68270,1,0,0:0:0:0:
186,148,68497,1,8,0:0:0:0:
185,150,68724,1,8,0:0:0:0:
185,150,68838,1,8,0:0:0:0:
185,148,69179,1,0,0:0:0:0:
186,148,69406,1,8,0:0:0:0:
217,74,69520,1,0,0:0:0:0:
161,81,69747,1,8,0:0:0:0:
174,78,70088,1,0,0:0:0:0:
182,86,70315,1,8,0:0:0:0:
182,86,70542,1,8,0:0:0:0:
173,66,70883,1,8,0:0:0:0:
173,66,71110,1,8,0:0:0:0:
173,66,71224,1,8,0:0:0:0:
173,66,71451,1,0,0:0:0:0:
173,66,71679,1,0,0:0:0:0:
173,66,71906,1,8,0:0:0:0:
173,66,72360,1,8,0:0:0:0:
182,42,72474,1,8,0:0:0:0:
178,82,72815,5,4,0:0:0:0:
229,162,73042,1,8,0:0:0:0:
229,162,73383,1,0,0:0:0:0:
229,162,73610,1,8,0:0:0:0:
229,162,73724,1,0,0:0:0:0:
229,162,73951,1,8,0:0:0:0:
229,162,74406,1,0,0:0:0:0:
229,162,74520,1,8,0:0:0:0:
229,162,74633,1,0,0:0:0:0:
196,92,74860,1,8,0:0:0:0:
196,92,75201,1,8,0:0:0:0:
188,67,75429,1,8,0:0:0:0:
196,92,75542,1,0,0:0:0:0:
166,71,75883,1,8,0:0:0:0:
166,71,75997,1,0,0:0:0:0:
166,71,76110,1,8,0:0:0:0:
166,70,76338,1,8,0:0:0:0:
166,71,76451,1,0,0:0:0:0:
191,82,76679,1,8,0:0:0:0:
193,86,77020,1,8,0:0:0:0:
206,56,77360,1,0,0:0:0:0:
205,72,77588,1,0,0:0:0:0:
206,56,77815,1,8,0:0:0:0:
206,56,77929,1,8,0:0:0:0:
206,56,78156,1,8,0:0:0:0:
202,77,78270,1,0,0:0:0:0:
205,72,78497,1,8,0:0:0:0:
201,77,78838,1,8,0:0:0:0:
171,49,79065,1,8,0:0:0:0:
171,50,79179,1,0,0:0:0:0:
165,62,79406,1,8,0:0:0:0:
165,62,79633,1,8,0:0:0:0:
165,62,79747,1,0,0:0:0:0:
186,47,80088,1,12,0:0:0:0:
186,47,80429,1,12,0:0:0:0:
186,47,80656,1,12,0:0:0:0:
