osu file format v14

[General]
AudioFilename: audio.mp3
AudioLeadIn: 0
PreviewTime: 44392
Countdown: 0
SampleSet: Normal
StackLeniency: 0.7
Mode: 0
LetterboxInBreaks: 0
WidescreenStoryboard: 1

[Editor]
Bookmarks: 14963,17248,24106,26391,33248,35534,42391,44677
DistanceSpacing: 3.9
BeatDivisor: 4
GridSize: 32
TimelineZoom: 4.299998

[Metadata]
Title:post-modern weeaboo
TitleUnicode:post-modern weeaboo
Artist:goreshit
ArtistUnicode:goreshit
Creator:Owens
Version:Ultra
Source:
Tags:
BeatmapID:4002830
BeatmapSetID:507974

[Difficulty]
HPDrainRate:6
CircleSize:4.5
OverallDifficulty:9.2
ApproachRate:9.6
SliderMultiplier:1.8
SliderTickRate:1

[Events]
//Background and Video events
0,0,"goreshit_bg.jpg",0,0
//Break Periods
//Storyboard Layer 0 (Background)
//Storyboard Layer 1 (Fail)
//Storyboard Layer 2 (Pass)
//Storyboard Layer 3 (Foreground)
//Storyboard Layer 4 (Overlay)
//Storyboard Sound Samples

[TimingPoints]
106,285.714285714286,4,1,1,100,1,0
4391,-33.3333333333333,4,1,1,100,0,0
4677,-33.3333333333333,4,2,1,80,0,0
6891,-33.3333333333333,4,2,1,5,0,0
6963,-33.3333333333333,4,2,1,100,0,0
8106,-57.1428571428571,4,1,1,100,0,0
11177,-57.1428571428571,4,1,1,5,0,0
11248,-57.1428571428571,4,1,1,100,0,0
11677,-50,4,1,1,100,0,0
11820,-44.4444444444445,4,1,1,100,0,0
11963,-40,4,1,1,100,0,0
12106,-57.1428571428571,4,1,1,100,0,0
12320,-57.1428571428571,4,1,1,5,0,0
12391,-50,4,1,1,100,0,0
12606,-50,4,1,1,5,0,0
12677,-57.1428571428571,4,1,1,100,0,0
14963,-57.1428571428571,4,2,1,100,0,0
17248,-57.1428571428571,4,1,1,100,0,0
20320,-57.1428571428571,4,1,1,5,0,0
20391,-57.1428571428571,4,1,1,100,0,0
20963,-50,4,1,1,100,0,0
21463,-50,4,1,1,5,0,0
21534,-50,4,1,1,100,0,0
21748,-50,4,1,1,5,0,0
21820,-57.1428571428571,4,1,1,100,0,0
24106,-57.1428571428571,4,2,1,100,0,0
26391,-57.1428571428571,4,1,1,100,0,0
29463,-57.1428571428571,4,1,1,5,0,0
29534,-57.1428571428571,4,1,1,100,0,0
30106,-50,4,1,1,100,0,0
30606,-50,4,1,1,5,0,0
30677,-50,4,1,1,100,0,0
30891,-50,4,1,1,5,0,0
30963,-57.1428571428571,4,1,1,100,0,0
33248,-57.1428571428571,4,2,1,100,0,0
33534,-50,4,2,1,100,0,0
34391,-57.1428571428571,4,2,1,100,0,0
35534,-57.1428571428571,4,1,1,100,0,0
38606,-57.1428571428571,4,1,1,5,0,0
38677,-57.1428571428571,4,1,1,100,0,0
39248,-50,4,1,1,100,0,0
39748,-50,4,1,1,5,0,0
39820,-50,4,1,1,100,0,0
40034,-50,4,1,1,5,0,0
40106,-57.1428571428571,4,1,1,100,0,0
42391,-57.1428571428571,4,2,1,100,0,0
42677,-50,4,2,1,100,0,0
44677,-50,4,1,1,100,0,0
48677,-66.6666666666667,4,1,1,100,0,0
49177,-66.6666666666667,4,1,1,5,0,0
49248,-50,4,1,1,100,0,0
49677,-33.3333333333333,4,1,1,100,0,0
49820,-50,4,1,1,100,0,0
58034,-50,4,1,1,5,0,0
58106,-50,4,1,1,100,0,0
58320,-50,4,1,1,5,0,0
58391,-50,4,1,1,100,0,0
70106,-100,4,1,1,100,0,0
70534,-80,4,1,1,100,0,0
70963,-66.6666666666667,4,1,1,100,0,0
72106,-57.1428571428571,4,1,1,100,0,0
79106,-33.3333333333333,4,1,1,100,0,0
79534,-57.1428571428571,4,1,1,100,0,0
80677,-50,4,1,1,100,0,0
80820,-40,4,1,1,100,0,0

[HitObjects]
64,192,2391,6,0,P|112:176|144:192,1,45,10|0,0:0|0:0,0:0:0:0:
96,96,2534,2,0,P|145:106|165:136,1,45,2|0,0:0|0:0,0:0:0:0:
224,144,2677,1,0,0:0:0:0:
208,224,2820,1,0,0:0:0:0:
240,64,2963,1,0,0:0:0:0:
304,192,3106,5,0,0:0:0:0:
320,224,3177,1,0,0:0:0:0:
320,256,3248,2,0,P|304:272|256:288,1,45,6|0,0:0|0:0,0:0:0:0:
160,288,3391,2,0,P|176:304|224:320,1,45,2|0,0:0|0:0,0:0:0:0:
352,336,3534,1,0,0:0:0:0:
272,368,3677,1,0,0:0:0:0:
432,304,3820,1,0,0:0:0:0:
448,128,3963,5,0,0:0:0:0:
452,96,4034,1,0,0:0:0:0:
456,64,4106,2,0,L|376:80,1,45,2|0,0:0|0:0,0:0:0:0:
320,128,4248,2,0,L|275:119,1,45,2|0,0:0|0:0,0:0:0:0:
116,154,4391,6,8,B|95:168|95:168|70:167|70:167|89:145,1,67.5000025749208
116,154,4463,2,8,B|102:132|102:132|103:107|103:107|125:126,1,67.5000025749208
116,154,4534,2,8,B|137:140|137:140|162:141|162:141|143:163,1,67.5000025749208
116,154,4606,2,8,B|129:175|129:175|128:200|128:200|106:181,1,67.5000025749208
116,154,4677,5,0,0:0:0:0:
154,280,4963,1,0,0:0:0:0:
266,352,5248,1,0,0:0:0:0:
397,335,5534,1,0,0:0:0:0:
486,237,5820,1,0,0:0:0:0:
492,105,6106,1,0,0:0:0:0:
480,80,6677,2,0,B|256:32|352:224|32:128,1,405.000015449525
16,128,6963,1,4,0:0:0:0:
112,272,8106,6,0,P|144:240|192:224,1,67.5000025749208,6|0,0:0|0:0,0:0:0:0:
320,272,8248,2,0,P|276:260|238:226,1,67.5000025749208
216,92,8391,2,0,P|227:135|217:185,1,67.5000025749208
100,245,8534,6,0,P|137:219|187:212,1,67.5000025749208
305,281,8677,2,0,P|264:262|232:223,1,67.5000025749208,8|0,0:0|0:0,0:0:0:0:
312,152,8820,1,0,0:0:0:0:
320,168,8891,1,0,0:0:0:0:
328,184,8963,5,0,0:0:0:0:
364,150,9034,1,0,0:0:0:0:
413,149,9105,1,0,0:0:0:0:
450,183,9177,1,0,0:0:0:0:
454,232,9248,5,2,0:0:0:0:
384,320,9391,1,0,0:0:0:0:
272,304,9534,1,0,0:0:0:0:
214,168,9677,5,2,0:0:0:0:
102,152,9820,1,8,0:0:0:0:
32,240,9963,1,0,0:0:0:0:
48,352,10106,5,2,0:0:0:0:
96,368,10177,1,0,0:0:0:0:
72,320,10248,1,0,0:0:0:0:
96,328,10320,1,0,0:0:0:0:
96,288,10391,2,0,B|120:264|120:264|176:280,1,67.5000025749208
368,288,10534,2,0,B|344:312|344:312|288:296,1,67.5000025749208
240,240,10677,5,0,0:0:0:0:
232,208,10748,1,0,0:0:0:0:
256,184,10820,1,0,0:0:0:0:
248,152,10891,1,0,0:0:0:0:
272,128,10963,2,0,B|288:80|352:80|352:80|400:128|464:112|488:56,1,236.250002253056,10|0,0:0|0:0,0:0:0:0:
416,32,11248,6,0,L|408:120,1,78.7500007510185
344,176,11391,2,0,L|352:264,1,78.7500007510185
424,344,11534,2,0,P|440:312|408:328,1,78.7500007510185
288,368,11677,2,0,P|321:356|280:344,1,90
152,312,11820,2,0,P|184:327|160:288,1,101.250003862381
56,192,11963,2,0,P|67:225|88:176,1,112.5
184,120,12106,6,0,P|229:37|261:125,1,236.250002253056,8|0,0:0|0:0,0:0:0:0:
261,125,12391,2,0,P|232:28|200:144,1,270
192,224,12677,6,0,B|256:256|256:256|352:160,1,157.500001502037,6|0,0:0|0:0,0:0:0:0:
448,48,12963,2,0,B|388:87|388:87|423:218,1,157.500001502037,2|0,0:0|0:0,0:0:0:0:
472,357,13248,2,0,B|467:285|467:285|336:250,1,157.500001502037,10|0,0:0|0:0,0:0:0:0:
352,256,13463,1,0,0:0:0:0:
352,256,13534,1,2,0:0:0:0:
128,208,13677,1,2,0:0:0:0:
208,368,13820,5,2,0:0:0:0:
272,96,13963,1,0,0:0:0:0:
128,208,14106,5,0,0:0:0:0:
97,166,14177,1,0,0:0:0:0:
72,125,14249,1,0,0:0:0:0:
120,105,14320,1,0,0:0:0:0:
168,85,14391,1,8,0:0:0:0:
368,48,14534,2,0,L|352:160,1,78.7500007510185,2|0,0:0|0:0,0:0:0:0:
272,256,14677,1,0,0:0:0:0:
384,32,14820,2,0,L|368:144,1,78.7500007510185,2|0,0:0|0:0,0:0:0:0:
256,240,14963,6,0,P|224:256|160:256,1,78.7500007510185,2|0,0:0|0:0,0:0:0:0:
16,176,15106,2,0,P|48:160|112:160,1,78.7500007510185
272,256,15248,2,0,P|240:272|176:272,1,78.7500007510185
0,160,15391,2,0,P|32:144|96:144,1,78.7500007510185
192,160,15534,5,10,0:0:0:0:
208,168,15606,1,0,0:0:0:0:
232,168,15677,1,0,0:0:0:0:
266,132,15748,1,0,0:0:0:0:
313,121,15819,1,0,0:0:0:0:
359,138,15890,1,0,0:0:0:0:
389,176,15962,1,0,0:0:0:0:
395,224,16033,1,0,0:0:0:0:
384,280,16106,6,0,B|352:296|352:296|272:272,1,78.7500007510185,10|0,0:0|0:0,0:0:0:0:
128,248,16248,2,0,B|160:232|160:232|240:256,1,78.7500007510185,8|0,0:0|0:0,0:0:0:0:
224,352,16391,1,0,0:0:0:0:
480,232,16534,5,8,0:0:0:0:
480,232,16606,1,0,0:0:0:0:
480,232,16677,2,0,P|464:168|424:128,1,78.7500007510185,10|0,0:0|0:0,0:0:0:0:
296,160,16820,2,0,P|359:178|414:163,1,78.7500007510185
464,32,16963,5,8,0:0:0:0:
396,43,17034,1,8,0:0:0:0:
329,55,17105,1,8,0:0:0:0:
262,67,17177,1,8,0:0:0:0:
194,79,17248,6,0,B|208:112|208:112|192:144|192:144|176:112,1,78.7500007510185,6|0,0:0|0:0,0:0:0:0:
272,256,17391,2,0,B|236:251|236:251|216:221|216:221|252:223,1,78.7500007510185,2|0,0:0|0:0,0:0:0:0:
79,235,17534,2,0,B|100:206|100:206|136:204|136:204|116:234,1,78.7500007510185
214,69,17677,2,0,B|222:104|222:104|201:133|201:133|191:99,1,78.7500007510185
260,257,17820,2,0,B|226:247|226:247|212:214|212:214|246:222,1,78.7500007510185,10|0,0:0|0:0,0:0:0:0:
304,160,17963,5,0,0:0:0:0:
320,152,18034,1,0,0:0:0:0:
336,152,18106,1,0,0:0:0:0:
360,160,18177,1,0,0:0:0:0:
352,208,18248,1,0,0:0:0:0:
344,256,18320,1,0,0:0:0:0:
336,304,18391,5,2,0:0:0:0:
432,240,18534,1,0,0:0:0:0:
440,352,18677,1,0,0:0:0:0:
240,264,18820,5,2,0:0:0:0:
144,328,18963,1,8,0:0:0:0:
144,224,19106,1,0,0:0:0:0:
240,144,19248,5,2,0:0:0:0:
256,160,19320,1,0,0:0:0:0:
320,128,19391,1,0,0:0:0:0:
336,144,19463,1,0,0:0:0:0:
400,112,19534,6,0,P|416:144|416:192,1,78.7500007510185
496,224,19677,2,0,P|476:253|434:277,1,78.7500007510185
368,336,19820,1,0,0:0:0:0:
341,307,19891,1,0,0:0:0:0:
306,290,19962,1,0,0:0:0:0:
267,289,20034,1,0,0:0:0:0:
230,303,20106,6,0,B|144:352|80:304|80:304|64:240|128:192,1,236.250002253056,10|0,0:0|0:0,0:0:0:0:
40,176,20391,2,0,P|72:160|136:176,1,78.7500007510185,2|0,0:0|0:0,0:0:0:0:
272,208,20534,2,0,P|236:215|179:183,1,78.7500007510185,2|0,0:0|0:0,0:0:0:0:
160,16,20677,6,0,P|176:80|160:144,1,78.7500007510185,2|0,0:0|0:0,0:0:0:0:
240,0,20820,2,0,P|256:64|240:128,1,78.7500007510185,2|0,0:0|0:0,0:0:0:0:
304,192,20963,6,0,P|306:152|320:104,1,90,2|0,0:0|0:0,0:0:0:0:
384,208,21106,2,0,P|386:168|400:120,1,90,10|0,0:0|0:0,0:0:0:0:
496,304,21248,6,0,L|480:32,1,270,10|0,0:0|0:0,0:0:0:0:
496,32,21534,2,0,L|480:301,1,270,2|0,0:0|0:0,0:0:0:0:
416,352,21820,6,0,P|320:304|224:320,1,157.500001502037,4|0,0:0|0:0,0:0:0:0:
80,352,22106,1,2,0:0:0:0:
128,176,22248,2,8,L|112:128,3,39.3750003755093
128,176,22391,2,0,P|224:224|320:208,1,157.500001502037,10|0,0:0|0:0,0:0:0:0:
432,112,22677,5,2,0:0:0:0:
416,320,22820,1,2,0:0:0:0:
320,96,22963,5,2,0:0:0:0:
336,336,23106,1,2,0:0:0:0:
224,128,23248,5,0,0:0:0:0:
208,112,23320,1,0,0:0:0:0:
128,112,23392,1,0,0:0:0:0:
112,96,23463,1,0,0:0:0:0:
32,96,23534,6,0,B|48:144|48:144|32:176|32:176|48:208|32:288,1,157.500001502037,8|10,0:0|0:0,0:0:0:0:
32,264,23748,1,0,0:0:0:0:
40,280,23820,1,8,0:0:0:0:
352,224,23963,1,10,0:0:0:0:
360,208,24034,1,0,0:0:0:0:
352,184,24106,6,0,B|328:160|328:160|272:176,1,78.7500007510185,2|0,0:0|0:0,0:0:0:0:
184,64,24248,2,0,B|160:88|160:88|176:144,1,78.7500007510185
64,232,24391,2,8,B|88:256|88:256|144:240,1,78.7500007510185
232,352,24534,2,0,B|256:328|256:328|240:272,1,78.7500007510185
208,208,24677,5,10,0:0:0:0:
215,197,24748,1,0,0:0:0:0:
221,185,24819,1,0,0:0:0:0:
226,162,24891,1,0,0:0:0:0:
210,112,24962,1,0,0:0:0:0:
234,64,25033,1,0,0:0:0:0:
284,47,25105,1,0,0:0:0:0:
332,71,25176,1,0,0:0:0:0:
368,128,25248,6,0,P|368:176|352:224,1,78.7500007510185,10|0,0:0|0:0,0:0:0:0:
432,272,25391,2,0,P|390:296|340:306,1,78.7500007510185,8|0,0:0|0:0,0:0:0:0:
256,320,25534,1,0,0:0:0:0:
16,208,25677,1,8,0:0:0:0:
16,208,25748,1,0,0:0:0:0:
16,208,25820,6,0,P|64:176|144:192,1,78.7500007510185,10|0,0:0|0:0,0:0:0:0:
0,72,25963,2,0,P|37:61|67:36,1,78.7500007510185
120,96,26106,1,8,0:0:0:0:
180,64,26177,1,0,0:0:0:0:
250,58,26248,1,8,0:0:0:0:
315,78,26320,1,0,0:0:0:0:
373,117,26391,6,0,L|368:224,1,78.7500007510185,6|0,0:0|0:0,0:0:0:0:
416,320,26534,2,0,L|326:262,1,78.7500007510185
219,255,26677,2,0,L|313:206,1,78.7500007510185
384,139,26820,6,0,L|360:242,1,78.7500007510185
391,345,26963,2,0,L|313:273,1,78.7500007510185,10|0,0:0|0:0,0:0:0:0:
224,160,27106,1,0,0:0:0:0:
216,152,27177,1,0,0:0:0:0:
200,152,27248,5,0,0:0:0:0:
176,176,27320,1,0,0:0:0:0:
128,160,27391,1,0,0:0:0:0:
80,176,27463,1,0,0:0:0:0:
16,160,27534,5,2,0:0:0:0:
48,288,27677,1,0,0:0:0:0:
176,304,27820,1,0,0:0:0:0:
288,224,27963,5,2,0:0:0:0:
416,240,28106,1,8,0:0:0:0:
448,368,28249,1,0,0:0:0:0:
254,283,28391,5,2,0:0:0:0:
301,291,28463,1,0,0:0:0:0:
267,252,28534,1,0,0:0:0:0:
298,258,28606,1,0,0:0:0:0:
288,224,28677,6,0,B|304:192|304:192|384:176,1,78.7500007510185
464,40,28820,2,0,B|448:72|448:72|368:88,1,78.7500007510185
304,96,28963,1,0,0:0:0:0:
264,99,29034,1,0,0:0:0:0:
225,103,29105,1,0,0:0:0:0:
186,107,29177,1,0,0:0:0:0:
144,160,29248,6,0,P|80:192|112:96,1,236.250002253056,10|0,0:0|0:0,0:0:0:0:
160,176,29534,2,0,B|176:208|176:208|144:288,1,78.7500007510185
64,352,29677,2,0,B|83:322|83:322|168:309,1,78.7500007510185
272,384,29820,6,0,P|288:336|288:288,1,78.7500007510185,2|0,0:0|0:0,0:0:0:0:
288,224,29963,2,0,P|277:174|253:132,1,78.7500007510185,2|0,0:0|0:0,0:0:0:0:
288,384,30106,2,0,P|304:336|304:280,1,90,2|0,0:0|0:0,0:0:0:0:
304,224,30249,2,0,P|293:174|272:128,1,90
158,186,30391,6,0,P|249:179|402:75,1,270,10|0,0:0|0:0,0:0:0:0:
395,83,30677,2,0,P|304:90|151:194,1,270,2|0,0:0|0:0,0:0:0:0:
128,288,30963,6,0,B|80:288|16:320|16:320|32:304|48:272,1,157.500001502037,6|0,0:0|0:0,0:0:0:0:
48,144,31248,1,2,0:0:0:0:
128,304,31391,2,8,L|116:348,3,39.3750003755093
128,288,31534,2,0,P|208:256|272:288,1,157.500001502037,10|0,0:0|0:0,0:0:0:0:
352,352,31820,5,2,0:0:0:0:
464,144,31963,1,2,0:0:0:0:
448,368,32106,5,2,0:0:0:0:
336,128,32248,1,0,0:0:0:0:
416,240,32391,5,0,0:0:0:0:
384,256,32463,1,0,0:0:0:0:
416,224,32534,1,0,0:0:0:0:
387,245,32606,1,0,0:0:0:0:
387,245,32677,6,0,B|294:220|335:321|206:280,1,157.500001502037,8|10,0:0|0:0,0:0:0:0:
224,288,32891,1,0,0:0:0:0:
208,284,32963,1,8,0:0:0:0:
32,160,33106,1,10,0:0:0:0:
48,152,33177,1,0,0:0:0:0:
72,160,33248,6,0,P|120:168|160:136,1,78.7500007510185,2|0,0:0|0:0,0:0:0:0:
256,64,33391,2,0,P|208:56|168:88,1,78.7500007510185
112,208,33534,2,8,P|157:190|176:144,1,90
223,32,33677,2,8,P|177:49|156:96,1,90
272,160,33820,1,10,0:0:0:0:
296,152,33891,1,0,0:0:0:0:
320,144,33963,5,0,0:0:0:0:
352,128,34035,1,0,0:0:0:0:
335,174,34106,1,0,0:0:0:0:
335,224,34177,1,0,0:0:0:0:
353,270,34249,1,0,0:0:0:0:
386,306,34320,1,0,0:0:0:0:
448,352,34379,6,0,P|464:304|448:240,1,78.7500007510185,10|0,0:0|0:0,0:0:0:0:
432,176,34534,2,0,P|428:125|460:68,1,78.7500007510185,8|0,0:0|0:0,0:0:0:0:
496,16,34677,1,0,0:0:0:0:
272,64,34820,1,8,0:0:0:0:
272,64,34891,1,0,0:0:0:0:
272,64,34963,6,0,B|240:96|240:96|144:64,1,78.7500007510185,10|0,0:0|0:0,0:0:0:0:
64,48,35106,2,0,B|107:59|107:59|128:160,1,78.7500007510185
112,232,35248,1,8,0:0:0:0:
157,280,35319,1,0,0:0:0:0:
217,309,35390,1,8,0:0:0:0:
282,316,35462,1,0,0:0:0:0:
347,299,35534,6,0,P|400:272|464:304,1,78.7500007510185,6|0,0:0|0:0,0:0:0:0:
312,160,35677,2,0,P|308:219|248:260,1,78.7500007510185,2|0,0:0|0:0,0:0:0:0:
449,199,35820,2,0,P|399:166|392:96,1,78.7500007510185
327,313,35963,6,0,P|383:295|440:336,1,78.7500007510185
316,170,36106,2,0,P|303:228|236:256,1,78.7500007510185,10|0,0:0|0:0,0:0:0:0:
208,168,36248,1,0,0:0:0:0:
200,144,36320,1,0,0:0:0:0:
200,120,36391,5,0,0:0:0:0:
208,66,36462,1,0,0:0:0:0:
169,29,36533,1,0,0:0:0:0:
116,42,36605,1,0,0:0:0:0:
97,93,36676,5,2,0:0:0:0:
288,112,36820,1,0,0:0:0:0:
80,96,36963,1,0,0:0:0:0:
192,216,37106,5,2,0:0:0:0:
1,235,37250,1,8,0:0:0:0:
209,219,37393,1,0,0:0:0:0:
112,320,37534,5,2,0:0:0:0:
144,304,37606,1,0,0:0:0:0:
176,336,37677,1,0,0:0:0:0:
224,304,37748,1,0,0:0:0:0:
272,352,37820,6,0,P|320:320|364:320,1,78.7500007510185
496,288,37963,2,0,P|448:256|404:256,1,78.7500007510185
304,224,38106,1,0,0:0:0:0:
320,176,38177,1,0,0:0:0:0:
320,128,38248,1,0,0:0:0:0:
336,80,38320,1,0,0:0:0:0:
336,32,38391,6,0,B|256:16|256:16|176:32|176:32|96:16,1,236.250002253056,10|0,0:0|0:0,0:0:0:0:
32,80,38677,2,0,P|16:128|16:176,1,78.7500007510185
112,176,38820,2,0,P|128:128|128:80,1,78.7500007510185
0,288,38963,6,0,L|96:272,1,78.7500007510185,2|0,0:0|0:0,0:0:0:0:
176,240,39106,2,0,L|253:252,1,78.7500007510185,2|0,0:0|0:0,0:0:0:0:
432,160,39248,2,0,L|336:144,1,90,2|0,0:0|0:0,0:0:0:0:
256,112,39391,2,0,L|164:124,1,90,2|0,0:0|0:0,0:0:0:0:
224,352,39534,6,0,L|512:320,1,270,10|0,0:0|0:0,0:0:0:0:
512,304,39820,2,0,L|243:333,1,270,2|0,0:0|0:0,0:0:0:0:
160,272,40106,6,0,B|160:240|112:208|112:208|128:160|176:144,1,157.500001502037,6|0,0:0|0:0,0:0:0:0:
272,80,40391,1,2,0:0:0:0:
112,48,40534,2,8,L|104:0,3,39.3750003755093
112,56,40677,2,0,B|80:112|64:148|64:148|28:168|-4:160,1,157.500001502037,2|0,0:0|0:0,0:0:0:0:
16,32,40963,5,2,0:0:0:0:
48,256,41106,1,2,0:0:0:0:
16,16,41248,5,2,0:0:0:0:
208,160,41391,1,0,0:0:0:0:
272,16,41534,5,0,0:0:0:0:
264,32,41606,1,0,0:0:0:0:
304,96,41677,1,0,0:0:0:0:
296,112,41748,1,0,0:0:0:0:
336,176,41820,6,0,P|368:224|448:176,1,157.500001502037,8|2,0:0|0:0,0:0:0:0:
448,168,42034,1,0,0:0:0:0:
448,144,42106,1,8,0:0:0:0:
416,368,42248,1,10,0:0:0:0:
400,360,42320,1,0,0:0:0:0:
384,352,42391,6,0,B|344:336|344:336|272:352,1,78.7500007510185,2|0,0:0|0:0,0:0:0:0:
144,288,42534,2,0,B|184:272|184:272|256:288,1,78.7500007510185
400,208,42677,2,8,B|360:192|360:192|288:208,1,90
112,160,42820,2,8,B|152:144|152:144|224:160,1,90
64,256,42963,5,2,0:0:0:0:
31,225,43034,1,0,0:0:0:0:
14,183,43105,1,0,0:0:0:0:
13,139,43177,1,0,0:0:0:0:
30,97,43248,1,0,0:0:0:0:
64,64,43320,1,0,0:0:0:0:
131,67,43391,1,0,0:0:0:0:
198,71,43462,1,0,0:0:0:0:
266,75,43534,6,0,P|304:96|336:160,1,90,10|0,0:0|0:0,0:0:0:0:
208,240,43677,2,0,P|206:197|245:137,1,90,8|0,0:0|0:0,0:0:0:0:
379,208,43820,1,0,0:0:0:0:
379,208,43891,1,0,0:0:0:0:
379,208,43963,2,0,P|342:230|271:226,1,90,8|0,0:0|0:0,0:0:0:0:
112,256,44106,2,0,P|148:233|219:237,1,90,10|0,0:0|0:0,0:0:0:0:
448,304,44248,5,8,0:0:0:0:
491,244,44320,1,0,0:0:0:0:
491,170,44390,1,8,0:0:0:0:
448,110,44462,1,0,0:0:0:0:
378,85,44533,1,8,0:0:0:0:
307,106,44605,1,0,0:0:0:0:
262,165,44677,6,0,P|218:221|140:231,1,90,6|0,0:0|0:0,0:0:0:0:
96,128,44820,2,0,P|166:138|214:200,1,90,2|0,0:0|0:0,0:0:0:0:
146,290,44963,2,0,P|119:223|149:151,1,90
274,75,45106,6,0,L|258:187,1,90
128,304,45248,2,0,L|115:214,1,90,10|0,0:0|0:0,0:0:0:0:
112,48,45391,1,0,0:0:0:0:
120,40,45463,1,0,0:0:0:0:
128,48,45534,5,0,0:0:0:0:
120,56,45606,1,0,0:0:0:0:
168,40,45677,1,0,0:0:0:0:
216,80,45748,1,0,0:0:0:0:
272,48,45820,5,6,0:0:0:0:
256,256,45963,1,0,0:0:0:0:
256,256,46106,1,0,0:0:0:0:
400,32,46248,5,2,0:0:0:0:
416,304,46391,1,8,0:0:0:0:
416,304,46534,1,0,0:0:0:0:
480,128,46677,5,2,0:0:0:0:
448,144,46748,1,0,0:0:0:0:
384,120,46820,1,0,0:0:0:0:
352,136,46891,1,0,0:0:0:0:
288,104,46963,2,0,B|272:144|272:144|296:240,1,90,4|0,0:0|0:0,0:0:0:0:
416,304,47106,2,0,B|389:270|389:270|294:242,1,90
256,280,47248,5,0,0:0:0:0:
220,306,47319,1,0,0:0:0:0:
175,311,47390,1,0,0:0:0:0:
134,295,47462,1,0,0:0:0:0:
106,261,47534,2,0,B|88:144|144:208|112:48,1,180,10|0,0:0|0:0,0:0:0:0:
72,16,47820,1,0,0:0:0:0:
88,248,47963,1,0,0:0:0:0:
336,88,48106,6,0,B|384:80|384:80|352:120,1,90,6|0,0:0|0:0,0:0:0:0:
262,255,48248,2,0,B|227:289|227:289|230:238,1,90,2|0,0:0|0:0,0:0:0:0:
223,76,48391,2,0,B|230:27|230:27|258:70,1,90,2|0,0:0|0:0,0:0:0:0:
360,198,48534,2,0,B|382:241|382:241|334:223,1,90,2|0,0:0|0:0,0:0:0:0:
177,180,48677,6,0,B|108:160|108:160|192:136,1,135.000005149842,10|0,0:0|0:0,0:0:0:0:
480,64,48963,2,0,L|464:304,1,202.500007724762,2|0,0:0|0:0,0:0:0:0:
464,352,49248,6,0,P|416:320|272:320,1,180,6|0,0:0|0:0,0:0:0:0:
112,352,49534,1,2,0:0:0:0:
192,176,49677,2,8,B|217:136|217:136|218:170,1,67.5000025749208
208,184,49748,2,8,B|233:144|233:144|234:178,1,67.5000025749208
224,192,49820,2,0,B|264:212|264:212|408:168,1,180,10|0,0:0|0:0,0:0:0:0:
464,48,50106,5,2,0:0:0:0:
448,304,50248,1,2,0:0:0:0:
288,32,50391,5,6,0:0:0:0:
304,304,50534,1,2,0:0:0:0:
128,48,50677,5,8,0:0:0:0:
88,83,50748,1,8,0:0:0:0:
68,133,50819,1,8,0:0:0:0:
74,186,50891,1,8,0:0:0:0:
102,232,50962,1,10,0:0:0:0:
304,320,51106,6,0,P|240:304|208:304,1,90,10|0,0:0|0:0,0:0:0:0:
64,336,51248,1,10,0:0:0:0:
74,186,51391,2,0,P|138:202|170:202,1,90,8|0,0:0|0:0,0:0:0:0:
314,170,51534,6,0,L|305:80,1,90,4|0,0:0|0:0,0:0:0:0:
407,102,51677,2,0,L|416:192,1,90
304,192,51820,2,0,L|294:86,1,90
423,118,51963,2,0,L|432:208,1,90
448,320,52106,5,8,0:0:0:0:
416,304,52177,1,0,0:0:0:0:
384,304,52249,1,0,0:0:0:0:
352,320,52320,1,0,0:0:0:0:
336,352,52391,5,0,0:0:0:0:
274,376,52462,1,0,0:0:0:0:
208,363,52533,1,0,0:0:0:0:
161,316,52605,1,0,0:0:0:0:
147,250,52677,6,0,P|160:192|208:160,1,90,4|0,0:0|0:0,0:0:0:0:
368,144,52820,2,0,P|311:161|259:136,1,90,8|0,0:0|0:0,0:0:0:0:
192,64,52963,1,0,0:0:0:0:
250,28,53034,1,0,0:0:0:0:
316,13,53106,6,0,B|318:80|318:80|325:56,1,90
478,56,53248,2,0,B|420:91|420:91|445:85,1,90,12|0,0:0|0:0,0:0:0:0:
512,160,53391,5,0,0:0:0:0:
496,176,53463,1,0,0:0:0:0:
496,192,53534,5,8,0:0:0:0:
464,240,53606,1,8,0:0:0:0:
400,224,53677,1,8,0:0:0:0:
352,272,53749,1,8,0:0:0:0:
272,256,53820,6,0,L|178:241,1,90,6|0,0:0|0:0,0:0:0:0:
16,192,53963,2,0,L|110:177,1,90,2|0,0:0|0:0,0:0:0:0:
80,352,54106,2,0,L|95:258,1,90
176,64,54249,6,0,L|191:158,1,90
272,352,54391,2,0,L|287:258,1,90,10|0,0:0|0:0,0:0:0:0:
320,120,54534,1,0,0:0:0:0:
323,100,54605,1,0,0:0:0:0:
322,80,54677,5,0,0:0:0:0:
350,115,54748,1,0,0:0:0:0:
389,136,54819,1,0,0:0:0:0:
434,140,54891,1,0,0:0:0:0:
500,117,54962,5,6,0:0:0:0:
416,16,55106,1,0,0:0:0:0:
464,256,55248,1,0,0:0:0:0:
208,192,55391,5,2,0:0:0:0:
292,293,55535,1,8,0:0:0:0:
244,53,55677,1,0,0:0:0:0:
112,112,55820,5,2,0:0:0:0:
69,98,55891,1,0,0:0:0:0:
69,53,55963,1,0,0:0:0:0:
112,39,56034,1,0,0:0:0:0:
138,75,56106,2,0,B|152:104|152:104|128:176,1,90,4|0,0:0|0:0,0:0:0:0:
32,352,56248,2,0,B|18:323|18:323|42:251,1,90
160,272,56391,5,0,0:0:0:0:
176,288,56463,1,0,0:0:0:0:
248,288,56534,1,0,0:0:0:0:
264,304,56606,1,0,0:0:0:0:
336,296,56677,6,0,P|368:208|336:104,1,180,10|0,0:0|0:0,0:0:0:0:
168,136,56963,2,0,P|248:136|296:96,1,90
480,40,57106,2,0,P|400:40|352:80,1,90
152,136,57248,6,0,L|160:232,1,90,6|0,0:0|0:0,0:0:0:0:
64,192,57391,2,0,L|72:288,1,90,2|0,0:0|0:0,0:0:0:0:
240,224,57534,2,0,L|232:320,1,90,2|0,0:0|0:0,0:0:0:0:
328,280,57677,2,0,L|320:376,1,90,2|0,0:0|0:0,0:0:0:0:
432,288,57820,6,0,B|464:128|384:192|432:16,1,270,10|0,0:0|0:0,0:0:0:0:
496,112,58106,2,0,P|368:144|224:80,1,270,2|0,0:0|0:0,0:0:0:0:
176,48,58391,6,0,B|144:96|144:96|176:224,1,180,6|0,0:0|0:0,0:0:0:0:
304,240,58677,1,2,0:0:0:0:
80,288,58820,2,8,L|72:240,3,45
80,304,58963,2,0,P|160:288|256:336,1,180,10|0,0:0|0:0,0:0:0:0:
160,384,59248,5,2,0:0:0:0:
384,352,59391,1,2,0:0:0:0:
144,368,59534,5,6,0:0:0:0:
400,336,59677,1,0,0:0:0:0:
256,192,59820,5,0,0:0:0:0:
248,200,59891,1,0,0:0:0:0:
264,128,59963,1,0,0:0:0:0:
256,136,60034,1,0,0:0:0:0:
272,64,60106,6,0,B|320:40|400:72|400:72|384:112|360:120,1,180,8|2,0:0|0:0,0:0:0:0:
374,111,60320,1,0,0:0:0:0:
374,111,60391,1,8,0:0:0:0:
104,56,60534,1,10,0:0:0:0:
104,56,60606,1,0,0:0:0:0:
104,56,60677,6,0,P|88:112|120:176,1,90,4|0,0:0|0:0,0:0:0:0:
79,294,60820,2,0,P|128:327|198:316,1,90
299,391,60963,2,8,P|344:355|356:284,1,90
458,212,61106,2,0,P|438:157|375:125,1,90
338,5,61248,5,8,0:0:0:0:
293,3,61319,1,0,0:0:0:0:
253,23,61390,1,0,0:0:0:0:
238,65,61463,1,0,0:0:0:0:
240,109,61534,1,0,0:0:0:0:
258,151,61606,1,0,0:0:0:0:
267,194,61677,1,0,0:0:0:0:
260,239,61749,1,0,0:0:0:0:
243,280,61820,6,0,L|144:288,1,90,4|0,0:0|0:0,0:0:0:0:
0,192,61963,2,0,L|99:199,1,90,8|0,0:0|0:0,0:0:0:0:
80,368,62106,1,0,0:0:0:0:
80,368,62177,1,0,0:0:0:0:
80,368,62248,6,0,L|72:268,1,90
176,112,62391,2,0,L|168:211,1,90,12|0,0:0|0:0,0:0:0:0:
240,288,62534,1,0,0:0:0:0:
240,288,62606,1,0,0:0:0:0:
240,288,62677,5,8,0:0:0:0:
281,339,62748,1,8,0:0:0:0:
346,351,62819,1,8,0:0:0:0:
403,317,62891,1,8,0:0:0:0:
425,255,62963,6,0,P|416:192|368:160,1,90,6|0,0:0|0:0,0:0:0:0:
406,33,63106,2,0,P|355:72|352:129,1,90,2|0,0:0|0:0,0:0:0:0:
224,160,63248,2,0,P|283:183|334:158,1,90
433,224,63391,6,0,P|413:164|360:141,1,90
376,9,63534,2,0,P|333:56|339:114,1,90,10|0,0:0|0:0,0:0:0:0:
224,160,63677,1,2,0:0:0:0:
223,182,63748,1,0,0:0:0:0:
230,203,63821,5,0,0:0:0:0:
200,259,63892,1,0,0:0:0:0:
136,258,63963,1,0,0:0:0:0:
108,200,64035,1,0,0:0:0:0:
148,150,64106,5,6,0:0:0:0:
192,352,64248,1,0,0:0:0:0:
16,288,64391,1,0,0:0:0:0:
363,233,64534,5,2,0:0:0:0:
320,32,64676,1,8,0:0:0:0:
496,96,64819,1,0,0:0:0:0:
363,233,64963,5,2,0:0:0:0:
352,240,65034,1,0,0:0:0:0:
288,208,65106,1,0,0:0:0:0:
280,219,65177,1,0,0:0:0:0:
208,224,65248,6,0,B|176:256|176:256|224:368,1,90,4|0,0:0|0:0,0:0:0:0:
336,368,65391,2,0,B|324:324|324:324|203:309,1,90
80,320,65534,1,0,0:0:0:0:
83,275,65605,1,0,0:0:0:0:
87,230,65676,1,0,0:0:0:0:
91,185,65748,1,0,0:0:0:0:
94,140,65820,6,0,B|128:96|128:96|272:128,1,180,10|0,0:0|0:0,0:0:0:0:
432,64,66106,1,0,0:0:0:0:
428,108,66177,1,0,0:0:0:0:
424,153,66248,1,0,0:0:0:0:
420,198,66320,1,0,0:0:0:0:
417,243,66391,6,0,B|384:288|384:288|240:256,1,180,6|8,0:0|0:0,0:0:0:0:
96,224,66677,2,0,P|80:240|56:252,1,45
96,224,66748,2,0,P|90:202|91:175,1,45
96,224,66820,2,0,P|117:229|140:244,1,45
48,80,66963,6,0,P|128:64|160:80,1,90,8|0,0:0|0:0,0:0:0:0:
224,32,67106,2,0,P|277:93|280:128,1,90
384,112,67248,1,8,0:0:0:0:
393,155,67319,1,0,0:0:0:0:
390,200,67390,1,8,0:0:0:0:
375,242,67462,1,0,0:0:0:0:
348,278,67533,5,6,0:0:0:0:
279,98,67677,1,0,0:0:0:0:
64,240,67820,5,2,0:0:0:0:
134,60,67963,2,8,L|80:48,3,45
144,80,68106,5,10,0:0:0:0:
368,48,68248,1,0,0:0:0:0:
128,192,68391,5,2,0:0:0:0:
384,240,68534,1,0,0:0:0:0:
256,32,68677,5,4,0:0:0:0:
208,320,68820,2,0,P|224:256|272:224,1,90
432,144,68963,5,0,0:0:0:0:
320,368,69106,1,0,0:0:0:0:
64,272,69248,5,10,0:0:0:0:
336,128,69391,1,2,0:0:0:0:
48,112,69534,5,2,0:0:0:0:
288,288,69677,1,2,0:0:0:0:
272,48,69820,5,4,0:0:0:0:
292,38,69891,1,0,0:0:0:0:
314,32,69962,1,0,0:0:0:0:
336,31,70034,1,0,0:0:0:0:
358,33,70106,2,8,L|352:96,1,45
336,240,70248,5,0,0:0:0:0:
369,253,70319,1,0,0:0:0:0:
404,263,70390,1,8,0:0:0:0:
439,264,70462,1,0,0:0:0:0:
474,262,70534,2,0,L|464:176,1,56.25
192,96,70677,5,0,0:0:0:0:
196,152,70748,1,0,0:0:0:0:
200,208,70819,1,0,0:0:0:0:
204,264,70891,1,0,0:0:0:0:
208,320,70963,2,0,P|144:336|112:304,1,67.5000025749208,4|0,0:0|0:0,0:0:0:0:
80,215,71106,5,8,0:0:0:0:
132,172,71177,1,0,0:0:0:0:
196,152,71248,1,0,0:0:0:0:
263,158,71320,1,0,0:0:0:0:
332,191,71391,2,0,P|380:207|428:191,1,67.5000025749208
475,159,71534,5,12,0:0:0:0:
396,141,71606,1,0,0:0:0:0:
332,191,71677,1,0,0:0:0:0:
332,272,71748,1,0,0:0:0:0:
396,323,71820,1,8,0:0:0:0:
475,305,71891,1,0,0:0:0:0:
510,232,71963,2,0,L|504:136,1,67.5000025749208,8|0,0:0|0:0,0:0:0:0:
416,32,72106,6,0,B|352:16|352:16|256:64,1,157.500001502037,6|2,0:0|0:0,0:0:0:0:
80,176,72391,2,0,B|144:192|144:192|240:144,1,157.500001502037
48,16,72677,2,0,P|32:48|32:112,1,78.7500007510185,10|0,0:0|0:0,0:0:0:0:
48,256,72820,1,0,0:0:0:0:
81,276,72891,1,0,0:0:0:0:
118,289,72962,1,0,0:0:0:0:
157,294,73034,1,0,0:0:0:0:
196,290,73105,1,0,0:0:0:0:
234,278,73177,1,0,0:0:0:0:
268,258,73248,6,0,P|304:224|400:256,1,157.500001502037,6|0,0:0|0:0,0:0:0:0:
397,251,73463,1,0,0:0:0:0:
397,251,73534,1,0,0:0:0:0:
352,320,73677,1,2,0:0:0:0:
352,128,73820,2,0,L|512:96,1,157.500001502037,8|0,0:0|0:0,0:0:0:0:
160,160,74106,2,0,L|0:128,1,157.500001502037,2|8,0:0|0:0,0:0:0:0:
232,80,74391,6,0,P|264:192|200:272,1,157.500001502037,4|8,0:0|0:0,0:0:0:0:
250,225,74606,1,0,0:0:0:0:
250,225,74677,1,0,0:0:0:0:
128,64,74820,1,0,0:0:0:0:
48,256,74963,2,0,B|80:304|80:304|192:288,1,157.500001502037,8|0,0:0|0:0,0:0:0:0:
368,256,75248,1,0,0:0:0:0:
382,219,75319,1,0,0:0:0:0:
378,181,75390,1,0,0:0:0:0:
357,148,75462,1,0,0:0:0:0:
323,129,75534,5,4,0:0:0:0:
96,80,75677,1,0,0:0:0:0:
128,208,75820,1,0,0:0:0:0:
128,208,75963,5,0,0:0:0:0:
288,32,76106,1,8,0:0:0:0:
256,240,76248,1,0,0:0:0:0:
128,96,76391,2,0,P|176:96|224:128,1,78.7500007510185
416,192,76534,2,0,P|368:192|320:160,1,78.7500007510185,8|0,0:0|0:0,0:0:0:0:
400,64,76677,5,6,0:0:0:0:
368,288,76820,1,2,0:0:0:0:
432,48,76963,5,2,0:0:0:0:
384,320,77106,2,8,L|424:312,3,39.3750003755093
336,368,77248,6,0,P|240:336|176:352,1,157.500001502037,8|0,0:0|0:0,0:0:0:0:
32,368,77534,2,0,P|107:300|125:237,1,157.500001502037
144,64,77820,5,4,0:0:0:0:
0,160,77963,1,0,0:0:0:0:
0,160,78034,1,0,0:0:0:0:
0,160,78106,1,0,0:0:0:0:
128,48,78248,1,0,0:0:0:0:
224,160,78391,6,0,L|320:144,1,78.7500007510185,8|0,0:0|0:0,0:0:0:0:
464,208,78534,2,0,L|368:192,1,78.7500007510185
208,144,78677,2,0,L|304:128,1,78.7500007510185
480,224,78820,2,0,L|384:208,1,78.7500007510185
384,80,78963,5,4,0:0:0:0:
320,288,79106,2,0,B|304:272|304:272|304:248|304:248|272:216,1,67.5000025749208
320,288,79177,2,8,B|336:272|336:272|360:272|360:272|392:240,1,67.5000025749208
320,288,79248,2,8,B|336:304|336:304|336:328|336:328|368:360,1,67.5000025749208
320,288,79320,2,8,B|304:304|304:304|280:304|280:304|248:336,1,67.5000025749208
320,288,79391,1,0,0:0:0:0:
176,240,79534,6,0,P|128:256|64:224,1,78.7500007510185,8|0,0:0|0:0,0:0:0:0:
32,160,79677,2,0,P|42:110|101:71,1,78.7500007510185
173,75,79820,2,0,P|210:108|215:179,1,78.7500007510185
128,160,79963,1,0,0:0:0:0:
128,160,80034,1,0,0:0:0:0:
128,160,80106,6,0,P|160:144|208:144,1,78.7500007510185,4|0,0:0|0:0,0:0:0:0:
336,176,80248,1,8,0:0:0:0:
374,181,80319,1,0,0:0:0:0:
410,165,80390,1,0,0:0:0:0:
432,133,80462,1,0,0:0:0:0:
434,94,80534,2,0,P|432:128|448:176,1,78.7500007510185
496,272,80677,6,0,P|416:304|336:288,1,90,12|0,0:0|0:0,0:0:0:0:
304,272,80820,2,0,P|259:270|179:304,1,112.5
32,368,80963,5,8,0:0:0:0:
64,320,81034,1,8,0:0:0:0:
16,256,81106,1,8,0:0:0:0:
80,208,81177,1,8,0:0:0:0:
0,160,81248,5,4,0:0:0:0:
