osu file format v14

[General]
AudioFilename: audio.mp3
AudioLeadIn: 0
PreviewTime: 44392
Countdown: 0
SampleSet: Soft
StackLeniency: 0.7
Mode: 0
LetterboxInBreaks: 0
WidescreenStoryboard: 0

[Editor]
DistanceSpacing: 1.3
BeatDivisor: 4
GridSize: 16
TimelineZoom: 2.4

[Metadata]
Title:post-modern weeaboo
TitleUnicode:post-modern weeaboo
Artist:goreshit
ArtistUnicode:goreshit
Creator:Owens
Version:Ultra (2017)
Source:
Tags:
BeatmapID:1080433
BeatmapSetID:507974

[Difficulty]
HPDrainRate:6
CircleSize:4
OverallDifficulty:9.2
ApproachRate:9.6
SliderMultiplier:1.4
SliderTickRate:1

[Events]
//Background and Video events
0,0,"goreshit_bg.jpg",0,0
//Break Periods
//Storyboard Layer 0 (Background)
//Storyboard Layer 1 (Fail)
//Storyboard Layer 2 (Pass)
//Storyboard Layer 3 (Foreground)
//Storyboard Layer 4 (Overlay)
//Storyboard Sound Samples

[TimingPoints]
106,285.714285714286,4,1,1,100,1,0
2392,-80,4,1,1,100,0,0
4392,-80,4,1,1,100,0,0
4677,-80,4,2,1,80,0,0
6106,-200,4,2,1,80,0,0
6606,-200,4,2,1,80,0,0
6677,-50,4,2,1,80,0,0
6891,-50,4,2,1,5,0,0
6963,-50,4,2,1,100,0,0
8106,-80,4,1,1,100,0,0
11177,-80,4,1,1,5,0,0
11248,-80,4,1,1,100,0,0
11534,-80,4,1,1,100,0,0
12106,-80,4,1,1,100,0,0
12320,-80,4,1,1,5,0,0
12391,-80,4,1,1,100,0,0
12606,-80,4,1,1,5,0,0
12677,-76.9230769230769,4,1,1,100,0,0
14963,-76.9230769230769,4,2,1,100,0,0
15820,-76.9230769230769,4,2,1,100,0,0
16106,-76.9230769230769,4,2,1,100,0,0
16963,-76.9230769230769,4,2,1,100,0,0
17248,-76.9230769230769,4,1,1,100,0,0
17392,-76.9230769230769,4,1,1,100,0,0
20320,-76.9230769230769,4,1,1,5,0,0
20391,-76.9230769230769,4,1,1,100,0,0
20677,-76.9230769230769,4,1,1,100,0,0
21249,-76.9230769230769,4,1,1,100,0,0
21463,-76.9230769230769,4,1,1,5,0,0
21534,-76.9230769230769,4,1,1,100,0,0
21748,-76.9230769230769,4,1,1,5,0,0
21820,-76.9230769230769,4,1,1,100,0,0
22249,-76.9230769230769,4,1,1,100,0,0
22392,-76.9230769230769,4,1,1,100,0,0
24106,-76.9230769230769,4,2,1,100,0,0
24677,-76.9230769230769,4,2,1,100,0,0
25249,-76.9230769230769,4,2,1,100,0,0
26106,-76.9230769230769,4,2,1,100,0,0
26391,-76.9230769230769,4,1,1,100,0,0
26534,-76.9230769230769,4,1,1,100,0,0
29463,-76.9230769230769,4,1,1,5,0,0
29534,-76.9230769230769,4,1,1,100,0,0
29820,-76.9230769230769,4,1,1,100,0,0
30392,-76.9230769230769,4,1,1,100,0,0
30606,-76.9230769230769,4,1,1,5,0,0
30677,-76.9230769230769,4,1,1,100,0,0
30891,-76.9230769230769,4,1,1,5,0,0
30963,-76.9230769230769,4,1,1,100,0,0
31392,-76.9230769230769,4,1,1,100,0,0
31534,-76.9230769230769,4,1,1,100,0,0
33248,-76.9230769230769,4,2,1,100,0,0
33249,-76.9230769230769,4,2,1,100,0,0
33820,-76.9230769230769,4,2,1,100,0,0
34392,-76.9230769230769,4,2,1,100,0,0
35249,-76.9230769230769,4,2,1,100,0,0
35534,-76.9230769230769,4,1,1,100,0,0
35677,-76.9230769230769,4,1,1,100,0,0
38606,-76.9230769230769,4,1,1,5,0,0
38677,-76.9230769230769,4,1,1,100,0,0
38963,-76.9230769230769,4,1,1,100,0,0
39534,-76.9230769230769,4,1,1,100,0,0
39748,-76.9230769230769,4,1,1,5,0,0
39820,-76.9230769230769,4,1,1,100,0,0
40034,-76.9230769230769,4,1,1,5,0,0
40106,-76.9230769230769,4,1,1,100,0,0
40534,-76.9230769230769,4,1,1,100,0,0
40677,-76.9230769230769,4,1,1,100,0,0
42391,-76.9230769230769,4,2,1,100,0,0
42392,-76.9230769230769,4,2,1,100,0,0
42963,-76.9230769230769,4,2,1,100,0,0
43534,-76.9230769230769,4,2,1,100,0,0
44463,-76.9230769230769,4,2,1,100,0,0
44534,-76.9230769230769,4,2,1,100,0,0
44606,-76.9230769230769,4,2,1,100,0,0
44677,-66.6666666666667,4,1,1,100,0,1
44820,-66.6666666666667,4,1,1,100,0,1
46963,-66.6666666666667,4,1,1,100,0,1
47392,-66.6666666666667,4,1,1,100,0,1
48106,-66.6666666666667,4,1,1,100,0,1
48677,-66.6666666666667,4,1,1,100,0,1
49177,-66.6666666666667,4,1,1,5,0,1
49248,-66.6666666666667,4,1,1,100,0,1
49677,-66.6666666666667,4,1,1,100,0,1
49820,-66.6666666666667,4,1,1,100,0,1
51534,-66.6666666666667,4,1,1,100,0,1
52106,-66.6666666666667,4,1,1,100,0,1
52677,-66.6666666666667,4,1,1,100,0,1
52963,-66.6666666666667,4,1,1,100,0,1
53106,-66.6666666666667,4,1,1,100,0,1
53606,-66.6666666666667,4,1,1,100,0,1
53677,-66.6666666666667,4,1,1,100,0,1
53749,-66.6666666666667,4,1,1,100,0,1
53820,-66.6666666666667,4,1,1,100,0,1
53963,-66.6666666666667,4,1,1,100,0,1
56963,-66.6666666666667,4,1,1,100,0,1
57820,-66.6666666666667,4,1,1,100,0,1
58034,-66.6666666666667,4,1,1,5,0,1
58106,-66.6666666666667,4,1,1,100,0,1
58320,-66.6666666666667,4,1,1,5,0,1
58391,-66.6666666666667,4,1,1,100,0,1
58820,-66.6666666666667,4,1,1,100,0,1
58963,-66.6666666666667,4,1,1,100,0,1
60677,-66.6666666666667,4,1,1,100,0,1
61249,-66.6666666666667,4,1,1,100,0,1
61820,-66.6666666666667,4,1,1,100,0,1
62106,-66.6666666666667,4,1,1,100,0,1
62249,-66.6666666666667,4,1,1,100,0,1
62534,-66.6666666666667,4,1,1,100,0,1
62677,-66.6666666666667,4,1,1,100,0,1
62749,-66.6666666666667,4,1,1,100,0,1
62820,-66.6666666666667,4,1,1,100,0,1
62892,-66.6666666666667,4,1,1,100,0,1
62963,-66.6666666666667,4,1,1,100,0,1
63106,-66.6666666666667,4,1,1,100,0,1
67534,-66.6666666666667,4,1,1,100,0,1
67820,-66.6666666666667,4,1,1,100,0,1
71820,-66.6666666666667,4,1,1,100,0,1
71892,-66.6666666666667,4,1,1,100,0,1
71963,-66.6666666666667,4,1,1,100,0,1
72034,-66.6666666666667,4,1,1,100,0,1
72106,-76.9230769230769,4,1,1,100,0,0
72249,-76.9230769230769,4,1,1,100,0,0
77106,-76.9230769230769,4,1,1,100,0,0
77249,-76.9230769230769,4,1,1,100,0,0
78392,-76.9230769230769,4,1,1,100,0,0
78963,-76.9230769230769,4,1,1,100,0,0
79106,-76.9230769230769,4,1,1,100,0,0
79392,-76.9230769230769,4,1,1,100,0,0
80677,-76.9230769230769,4,1,1,100,0,0
80820,-76.9230769230769,4,1,1,100,0,0
80963,-76.9230769230769,4,1,1,100,0,0
81034,-76.9230769230769,4,1,1,100,0,0
81106,-76.9230769230769,4,1,1,100,0,0
81177,-76.9230769230769,4,1,1,100,0,0
81249,-76.9230769230769,4,1,1,100,0,0

[HitObjects]
160,128,2392,6,8,L|176:256,1,87.5,10|2,0:0|0:0,0:0:0:0:
272,272,2677,1,0,0:0:0:0:
48,208,2820,1,0,0:0:0:0:
304,160,2963,1,0,0:0:0:0:
160,128,3106,5,0,0:0:0:0:
160,128,3177,1,0,0:0:0:0:
160,128,3249,2,8,L|176:256,1,87.5,6|2,0:0|0:0,0:0:0:0:
112,320,3534,5,0,0:0:0:0:
240,96,3677,1,0,0:0:0:0:
112,320,3820,1,0,0:0:0:0:
272,272,3963,5,0,0:0:0:0:
272,272,4034,1,0,0:0:0:0:
272,272,4106,2,8,L|256:160,1,87.5,2|2,0:0|0:0,0:0:0:0:
304,80,4392,2,0,L|288:112,7,21.875,8|8|8|8|8|8|8|8,0:0|0:0|0:0|0:0|0:0|0:0|0:0|0:0,0:0:0:0:
288,112,4677,5,0,0:0:0:0:
240,208,4963,1,0,0:0:0:0:
112,176,5249,5,0,0:0:0:0:
160,272,5534,1,0,0:0:0:0:
208,48,5820,5,0,0:0:0:0:
192,144,6106,2,0,L|168:272,1,122.5,0|0,0:0|0:0,0:0:0:0:
144,352,6677,2,0,L|112:64,1,280,0|4,0:0|0:0,0:0:0:0:
256,192,8106,6,8,L|272:320,1,87.5,6|0,0:0|0:0,0:0:0:0:
352,352,8392,5,0,0:0:0:0:
160,272,8534,1,0,0:0:0:0:
352,224,8677,2,0,L|336:112,1,87.5,8|0,0:0|0:0,0:0:0:0:
336,112,8892,5,0,0:0:0:0:
320,80,8963,1,0,0:0:0:0:
288,64,9034,1,0,0:0:0:0:
256,64,9106,2,0,L|208:96,1,43.75,0|0,0:0|0:0,0:0:0:0:
128,96,9249,6,8,P|144:144|192:176,1,87.5,2|0,0:0|0:0,0:0:0:0:
256,64,9534,1,0,0:0:0:0:
112,112,9677,6,8,P|128:160|176:192,1,87.5,2|8,0:0|0:0,0:0:0:0:
256,64,9963,1,0,0:0:0:0:
96,128,10106,5,2,0:0:0:0:
96,160,10177,1,0,0:0:0:0:
112,192,10249,1,0,0:0:0:0:
144,208,10320,1,0,0:0:0:0:
176,208,10392,5,0,0:0:0:0:
352,192,10534,1,0,0:0:0:0:
256,112,10677,1,0,0:0:0:0:
260,144,10749,1,0,0:0:0:0:
264,176,10820,1,0,0:0:0:0:
268,208,10892,1,0,0:0:0:0:
272,240,10963,6,0,P|328:272|400:224,1,131.25,10|0,0:0|0:0,0:0:0:0:
416,224,11249,1,0,0:0:0:0:
368,368,11392,1,0,0:0:0:0:
384,112,11534,6,0,L|380:160,1,43.75,0|0,0:0|0:0,0:0:0:0:
252,68,11677,2,0,L|256:116,1,43.75,0|0,0:0|0:0,0:0:0:0:
400,16,11820,5,0,0:0:0:0:
264,208,11963,1,0,0:0:0:0:
160,160,12106,2,0,L|148:0,1,131.25,8|0,0:0|0:0,0:0:0:0:
64,224,12392,2,0,L|52:64,1,131.25,0|0,0:0|0:0,0:0:0:0:
144,32,12677,6,0,L|112:192,1,136.499993751526,6|0,0:0|0:0,0:0:0:0:
64,224,12963,2,0,P|128:192|208:240,1,136.499993751526,2|0,0:0|0:0,0:0:0:0:
176,240,13249,2,0,P|239:259|298:227,1,136.499993751526,10|0,0:0|0:0,0:0:0:0:
320,208,13534,5,2,0:0:0:0:
224,128,13677,1,2,0:0:0:0:
272,336,13820,5,2,0:0:0:0:
320,96,13963,1,0,0:0:0:0:
352,224,14106,5,0,0:0:0:0:
320,240,14177,1,0,0:0:0:0:
288,240,14249,1,0,0:0:0:0:
256,224,14320,1,0,0:0:0:0:
240,192,14392,1,8,0:0:0:0:
336,96,14534,2,0,P|401:97|440:140,1,90.9999958343508,2|0,0:0|0:0,0:0:0:0:
496,224,14820,1,2,0:0:0:0:
272,336,14963,6,0,L|288:272,1,45.4999979171754,2|0,0:0|0:0,0:0:0:0:
400,208,15106,2,0,L|384:272,1,45.4999979171754,0|0,0:0|0:0,0:0:0:0:
256,352,15249,2,0,L|240:272,1,45.4999979171754,0|0,0:0|0:0,0:0:0:0:
416,192,15392,2,0,L|432:272,1,45.4999979171754,0|0,0:0|0:0,0:0:0:0:
448,352,15534,5,10,0:0:0:0:
440,348,15606,1,0,0:0:0:0:
432,344,15677,1,0,0:0:0:0:
424,340,15749,1,0,0:0:0:0:
384,320,15820,5,0,0:0:0:0:
352,336,15892,1,0,0:0:0:0:
320,336,15963,1,0,0:0:0:0:
288,320,16034,1,0,0:0:0:0:
272,288,16106,6,0,L|280:240,1,45.4999979171754,10|0,0:0|0:0,0:0:0:0:
152,147,16249,2,0,L|168:256,1,90.9999958343508,8|0,0:0|0:0,0:0:0:0:
288,304,16534,6,0,L|296:256,1,45.4999979171754,8|0,0:0|0:0,0:0:0:0:
128,128,16677,2,0,L|144:248,1,90.9999958343508,10|0,0:0|0:0,0:0:0:0:
240,160,16963,5,8,0:0:0:0:
224,128,17034,1,8,0:0:0:0:
192,112,17106,1,8,0:0:0:0:
160,112,17177,1,8,0:0:0:0:
128,128,17249,5,6,0:0:0:0:
160,320,17392,1,2,0:0:0:0:
208,208,17534,6,0,L|256:96,1,90.9999958343508,0|0,0:0|0:0,0:0:0:0:
368,80,17820,1,10,0:0:0:0:
176,96,17963,5,0,0:0:0:0:
160,128,18034,1,0,0:0:0:0:
160,160,18106,1,0,0:0:0:0:
176,192,18177,1,0,0:0:0:0:
208,208,18249,2,0,L|264:212,1,45.4999979171754,0|0,0:0|0:0,0:0:0:0:
336,160,18392,6,8,P|352:208|336:272,1,90.9999958343508,2|0,0:0|0:0,0:0:0:0:
208,208,18677,1,0,0:0:0:0:
352,160,18820,6,8,P|368:208|352:272,1,90.9999958343508,2|8,0:0|0:0,0:0:0:0:
208,208,19106,1,0,0:0:0:0:
240,352,19249,5,2,0:0:0:0:
208,368,19320,1,0,0:0:0:0:
176,368,19392,1,0,0:0:0:0:
144,352,19463,1,0,0:0:0:0:
128,320,19534,1,0,0:0:0:0:
112,192,19677,1,0,0:0:0:0:
240,160,19820,5,0,0:0:0:0:
256,192,19892,1,0,0:0:0:0:
256,224,19963,1,0,0:0:0:0:
240,256,20034,1,0,0:0:0:0:
208,272,20106,2,0,B|176:288|176:288|80:256,1,136.499993751526,10|0,0:0|0:0,0:0:0:0:
48,288,20392,5,2,0:0:0:0:
96,128,20534,1,2,0:0:0:0:
240,160,20677,6,0,L|272:96,1,45.4999979171754,2|0,0:0|0:0,0:0:0:0:
384,128,20820,2,0,L|416:64,1,45.4999979171754,2|0,0:0|0:0,0:0:0:0:
336,224,20963,5,2,0:0:0:0:
320,32,21106,1,10,0:0:0:0:
128,80,21249,6,0,L|144:224,1,136.499993751526,10|0,0:0|0:0,0:0:0:0:
176,304,21534,2,0,L|192:160,1,136.499993751526,2|0,0:0|0:0,0:0:0:0:
224,144,21820,6,0,P|256:128|320:160,1,90.9999958343508,4|0,0:0|0:0,0:0:0:0:
336,240,22034,1,0,0:0:0:0:
368,272,22106,2,0,P|403:276|443:244,1,45.4999979171754,2|0,0:0|0:0,0:0:0:0:
480,176,22249,2,0,L|464:160,3,22.7499989585877,8|8|8|8,0:0|0:0|0:0|0:0,0:0:0:0:
512,208,22391,2,0,L|508:304,1,90.9999958343508,10|0,0:0|0:0,0:0:0:0:
416,368,22677,5,2,0:0:0:0:
304,144,22820,1,2,0:0:0:0:
256,288,22963,1,2,0:0:0:0:
448,192,23106,1,2,0:0:0:0:
240,48,23249,5,0,0:0:0:0:
207,62,23320,1,0,0:0:0:0:
186,86,23392,1,0,0:0:0:0:
178,121,23463,1,0,0:0:0:0:
192,154,23534,1,8,0:0:0:0:
320,224,23677,5,10,0:0:0:0:
144,288,23820,1,8,0:0:0:0:
352,240,23963,1,10,0:0:0:0:
176,192,24106,6,0,P|176:230|192:262,1,45.4999979171754,2|0,0:0|0:0,0:0:0:0:
304,368,24249,2,0,P|304:330|288:298,1,45.4999979171754,0|0,0:0|0:0,0:0:0:0:
160,208,24392,2,0,P|172:243|198:268,1,45.4999979171754,8|8,0:0|0:0,0:0:0:0:
320,352,24534,2,0,P|307:316|281:291,1,45.4999979171754,0|0,0:0|0:0,0:0:0:0:
256,240,24677,5,10,0:0:0:0:
240,208,24749,1,0,0:0:0:0:
240,176,24820,1,0,0:0:0:0:
256,144,24892,1,0,0:0:0:0:
272,112,24963,5,0,0:0:0:0:
288,80,25035,1,0,0:0:0:0:
288,48,25106,1,0,0:0:0:0:
272,16,25178,1,0,0:0:0:0:
240,0,25249,6,0,P|224:16|208:48,1,45.4999979171754,10|0,0:0|0:0,0:0:0:0:
112,64,25392,2,0,P|112:86|136:160,1,90.9999958343508,8|0,0:0|0:0,0:0:0:0:
288,336,25677,6,0,P|304:320|320:288,1,45.4999979171754,8|0,0:0|0:0,0:0:0:0:
416,304,25820,2,0,P|416:282|392:208,1,90.9999958343508,10|0,0:0|0:0,0:0:0:0:
196,96,26106,5,8,0:0:0:0:
222,72,26177,1,0,0:0:0:0:
253,63,26249,1,8,0:0:0:0:
288,71,26320,1,0,0:0:0:0:
312,97,26391,5,6,0:0:0:0:
192,288,26534,1,0,0:0:0:0:
352,256,26677,5,0,0:0:0:0:
160,128,26820,1,0,0:0:0:0:
144,352,26963,1,10,0:0:0:0:
240,256,27106,5,0,0:0:0:0:
256,240,27177,1,0,0:0:0:0:
272,224,27249,1,0,0:0:0:0:
288,208,27320,1,0,0:0:0:0:
304,192,27392,2,0,L|336:160,1,45.4999979171754,0|0,0:0|0:0,0:0:0:0:
400,224,27534,6,8,L|384:320,1,90.9999958343508,2|0,0:0|0:0,0:0:0:0:
160,128,27820,1,0,0:0:0:0:
416,240,27963,6,8,L|400:336,1,90.9999958343508,2|8,0:0|0:0,0:0:0:0:
160,128,28249,1,0,0:0:0:0:
432,256,28392,5,2,0:0:0:0:
428,288,28463,1,0,0:0:0:0:
424,320,28534,1,0,0:0:0:0:
420,352,28606,1,0,0:0:0:0:
416,384,28677,1,0,0:0:0:0:
352,192,28820,1,0,0:0:0:0:
256,256,28963,5,0,0:0:0:0:
260,224,29034,1,0,0:0:0:0:
264,192,29105,1,0,0:0:0:0:
268,160,29177,1,0,0:0:0:0:
272,128,29249,6,0,B|288:32|288:32|240:64,1,136.499993751526,10|0,0:0|0:0,0:0:0:0:
255,53,29534,5,0,0:0:0:0:
416,208,29677,1,0,0:0:0:0:
112,208,29820,6,0,L|160:192,1,45.4999979171754,2|0,0:0|0:0,0:0:0:0:
416,112,29963,2,0,L|368:128,1,45.4999979171754,2|0,0:0|0:0,0:0:0:0:
112,112,30106,5,2,0:0:0:0:
416,208,30249,1,0,0:0:0:0:
32,160,30392,5,10,0:0:0:0:
496,160,30677,1,2,0:0:0:0:
144,256,30963,6,0,P|176:256|224:224,1,90.9999958343508,6|0,0:0|0:0,0:0:0:0:
288,112,31177,1,0,0:0:0:0:
320,144,31248,2,0,L|316:192,1,45.4999979171754,2|0,0:0|0:0,0:0:0:0:
304,288,31391,2,0,L|280:296,3,22.7499989585877,8|8|8|8,0:0|0:0|0:0|0:0,0:0:0:0:
336,320,31534,6,0,P|384:288|464:320,1,136.499993751526,10|0,0:0|0:0,0:0:0:0:
480,336,31820,1,2,0:0:0:0:
432,128,31963,1,2,0:0:0:0:
432,256,32106,5,2,0:0:0:0:
480,48,32249,1,0,0:0:0:0:
336,160,32392,5,0,0:0:0:0:
304,176,32463,1,0,0:0:0:0:
272,176,32534,1,0,0:0:0:0:
240,160,32606,1,0,0:0:0:0:
224,128,32677,1,8,0:0:0:0:
304,32,32820,6,0,L|296:80,1,45.4999979171754,10|0,0:0|0:0,0:0:0:0:
264,256,32963,1,8,0:0:0:0:
408,64,33106,2,0,L|376:112,1,45.4999979171754,10|0,0:0|0:0,0:0:0:0:
264,256,33249,6,0,L|200:248,1,45.4999979171754,2|0,0:0|0:0,0:0:0:0:
112,80,33392,2,0,L|176:88,1,45.4999979171754,0|0,0:0|0:0,0:0:0:0:
264,272,33534,2,0,L|200:264,1,45.4999979171754,8|8,0:0|0:0,0:0:0:0:
112,96,33677,2,0,L|176:104,1,45.4999979171754,8|8,0:0|0:0,0:0:0:0:
288,112,33820,5,10,0:0:0:0:
320,128,33892,1,0,0:0:0:0:
336,160,33963,1,0,0:0:0:0:
336,192,34034,1,0,0:0:0:0:
336,224,34106,5,0,0:0:0:0:
352,256,34177,1,0,0:0:0:0:
384,272,34249,2,0,P|414:280|449:273,1,45.4999979171754,0|0,0:0|0:0,0:0:0:0:
496,176,34392,6,0,P|466:168|431:175,1,45.4999979171754,0|0,0:0|0:0,0:0:0:0:
416,80,34534,2,0,P|350:84|289:57,1,90.9999958343508,8|0,0:0|0:0,0:0:0:0:
128,80,34820,6,0,L|144:128,1,45.4999979171754,8|0,0:0|0:0,0:0:0:0:
48,144,34963,2,0,L|80:240,1,90.9999958343508,10|0,0:0|0:0,0:0:0:0:
112,336,35249,5,8,0:0:0:0:
128,368,35320,1,0,0:0:0:0:
160,384,35392,1,0,0:0:0:0:
192,384,35463,1,0,0:0:0:0:
224,368,35534,6,0,P|272:352|336:352,1,90.9999958343508,6|2,0:0|0:0,0:0:0:0:
432,368,35820,1,0,0:0:0:0:
240,272,35963,1,0,0:0:0:0:
400,160,36106,1,10,0:0:0:0:
432,272,36249,5,0,0:0:0:0:
400,288,36320,1,0,0:0:0:0:
368,288,36392,1,0,0:0:0:0:
336,272,36463,1,0,0:0:0:0:
320,240,36534,1,0,0:0:0:0:
320,208,36606,1,0,0:0:0:0:
336,176,36677,6,8,P|368:128|432:104,1,90.9999958343508,2|0,0:0|0:0,0:0:0:0:
448,224,36963,1,0,0:0:0:0:
240,176,37106,6,8,P|234:125|257:61,1,90.9999958343508,2|8,0:0|0:0,0:0:0:0:
480,128,37392,1,0,0:0:0:0:
176,256,37534,5,2,0:0:0:0:
151,231,37606,1,0,0:0:0:0:
135,199,37677,1,0,0:0:0:0:
127,167,37749,1,0,0:0:0:0:
127,135,37820,5,0,0:0:0:0:
256,64,37963,1,0,0:0:0:0:
336,160,38106,1,0,0:0:0:0:
320,192,38177,1,0,0:0:0:0:
288,208,38249,1,0,0:0:0:0:
256,208,38320,1,0,0:0:0:0:
224,192,38392,6,0,P|192:160|96:160,1,136.499993751526,10|0,0:0|0:0,0:0:0:0:
80,176,38677,1,0,0:0:0:0:
160,304,38820,1,0,0:0:0:0:
176,32,38963,6,0,L|172:80,1,45.4999979171754,2|0,0:0|0:0,0:0:0:0:
288,112,39106,2,0,L|292:160,1,45.4999979171754,2|0,0:0|0:0,0:0:0:0:
416,48,39249,5,2,0:0:0:0:
400,240,39392,1,2,0:0:0:0:
288,112,39534,6,0,L|112:128,1,136.499993751526,10|0,0:0|0:0,0:0:0:0:
64,160,39820,6,0,L|199:172,1,136.499993751526,2|0,0:0|0:0,0:0:0:0:
368,224,40106,6,0,L|256:240,1,90.9999958343508,6|0,0:0|0:0,0:0:0:0:
192,288,40320,1,0,0:0:0:0:
224,320,40392,2,0,L|296:324,1,45.4999979171754,2|0,0:0|0:0,0:0:0:0:
384,336,40534,2,0,L|373:315,3,22.7499989585877,8|8|8|8,0:0|0:0|0:0|0:0,0:0:0:0:
357,283,40677,2,0,P|309:235|245:235,1,90.9999958343508,2|0,0:0|0:0,0:0:0:0:
144,240,40963,5,2,0:0:0:0:
416,176,41106,1,2,0:0:0:0:
128,160,41249,5,2,0:0:0:0:
384,256,41392,1,0,0:0:0:0:
288,96,41534,1,0,0:0:0:0:
304,64,41606,1,0,0:0:0:0:
336,48,41677,1,0,0:0:0:0:
368,48,41749,1,0,0:0:0:0:
400,64,41820,1,8,0:0:0:0:
464,160,41963,5,2,0:0:0:0:
256,80,42106,1,8,0:0:0:0:
480,176,42249,5,10,0:0:0:0:
224,112,42392,2,0,L|240:160,1,45.4999979171754,2|0,0:0|0:0,0:0:0:0:
96,208,42534,2,0,L|96:256,1,45.4999979171754,0|0,0:0|0:0,0:0:0:0:
240,96,42677,2,0,L|256:144,1,45.4999979171754,8|8,0:0|0:0,0:0:0:0:
80,224,42819,2,0,L|80:272,1,45.4999979171754,8|8,0:0|0:0,0:0:0:0:
80,368,42963,5,2,0:0:0:0:
88,364,43035,1,0,0:0:0:0:
96,360,43106,1,0,0:0:0:0:
104,356,43178,1,0,0:0:0:0:
144,336,43249,5,0,0:0:0:0:
176,352,43321,1,0,0:0:0:0:
208,352,43392,1,0,0:0:0:0:
240,336,43463,1,0,0:0:0:0:
256,304,43534,6,0,P|272:272|272:224,1,45.4999979171754,10|0,0:0|0:0,0:0:0:0:
144,112,43677,2,0,P|128:144|128:208,1,90.9999958343508,8|0,0:0|0:0,0:0:0:0:
288,336,43963,6,0,P|304:304|304:256,1,45.4999979171754,8|0,0:0|0:0,0:0:0:0:
112,80,44106,2,0,P|96:112|96:176,1,90.9999958343508,10|8,0:0|0:0,0:0:0:0:
208,208,44392,5,0,0:0:0:0:
256,176,44463,1,0,0:0:0:0:
320,160,44534,1,8,0:0:0:0:
384,160,44606,1,0,0:0:0:0:
448,176,44677,5,6,0:0:0:0:
336,320,44820,1,2,0:0:0:0:
160,176,44963,1,0,0:0:0:0:
384,112,45106,1,0,0:0:0:0:
192,320,45249,1,10,0:0:0:0:
256,80,45392,1,0,0:0:0:0:
448,240,45534,5,0,0:0:0:0:
432,282,45605,1,0,0:0:0:0:
395,317,45677,1,0,0:0:0:0:
352,337,45749,1,0,0:0:0:0:
304,336,45820,6,8,P|256:336|176:304,1,105.000004005432,6|0,0:0|0:0,0:0:0:0:
288,112,46106,1,0,0:0:0:0:
304,352,46249,6,8,P|256:352|176:320,1,105.000004005432,2|8,0:0|0:0,0:0:0:0:
288,96,46534,1,0,0:0:0:0:
160,224,46677,5,2,0:0:0:0:
128,192,46749,1,0,0:0:0:0:
112,144,46820,1,0,0:0:0:0:
112,96,46892,1,0,0:0:0:0:
128,48,46963,6,0,L|192:64,1,52.5000020027161,4|0,0:0|0:0,0:0:0:0:
272,160,47106,2,0,L|336:144,1,52.5000020027161,0|0,0:0|0:0,0:0:0:0:
384,32,47249,5,0,0:0:0:0:
448,224,47392,1,0,0:0:0:0:
448,224,47463,1,0,0:0:0:0:
448,224,47534,1,10,0:0:0:0:
464,96,47677,5,0,0:0:0:0:
368,288,47820,1,0,0:0:0:0:
448,48,47963,1,0,0:0:0:0:
384,336,48106,6,0,P|400:352|464:368,1,52.5000020027161,6|0,0:0|0:0,0:0:0:0:
272,304,48249,2,0,P|281:324|336:361,1,52.5000020027161,2|0,0:0|0:0,0:0:0:0:
176,240,48392,2,0,P|177:262|216:315,1,52.5000020027161,2|0,0:0|0:0,0:0:0:0:
112,144,48534,2,0,P|106:165|124:229,1,52.5000020027161,2|0,0:0|0:0,0:0:0:0:
208,128,48677,6,0,P|208:96|224:16,1,105.000004005432,10|0,0:0|0:0,0:0:0:0:
304,64,48892,1,0,0:0:0:0:
320,96,48963,2,0,P|320:128|304:208,1,105.000004005432,2|0,0:0|0:0,0:0:0:0:
336,288,49177,1,0,0:0:0:0:
368,272,49249,2,0,P|400:272|480:288,1,105.000004005432,6|0,0:0|0:0,0:0:0:0:
416,368,49463,5,0,0:0:0:0:
384,384,49534,2,0,L|304:368,1,52.5000020027161,2|0,0:0|0:0,0:0:0:0:
240,352,49677,2,0,L|240:384,3,26.2500010013581,8|8|8|8,0:0|0:0|0:0|0:0,0:0:0:0:
240,320,49820,2,0,P|176:288|128:320,1,105.000004005432,10|0,0:0|0:0,0:0:0:0:
48,336,50106,5,2,0:0:0:0:
272,224,50249,1,2,0:0:0:0:
32,320,50392,5,6,0:0:0:0:
304,176,50534,1,2,0:0:0:0:
16,304,50677,5,8,0:0:0:0:
160,96,50820,1,8,0:0:0:0:
160,96,50892,1,8,0:0:0:0:
160,96,50963,1,10,0:0:0:0:
128,320,51106,5,10,0:0:0:0:
320,336,51249,1,10,0:0:0:0:
240,176,51392,1,8,0:0:0:0:
227,331,51534,6,0,L|224:384,1,52.5000020027161,4|0,0:0|0:0,0:0:0:0:
339,235,51677,2,0,L|336:288,1,52.5000020027161,0|0,0:0|0:0,0:0:0:0:
243,123,51820,2,0,L|240:176,1,52.5000020027161,0|0,0:0|0:0,0:0:0:0:
355,27,51963,2,0,L|352:80,1,52.5000020027161,0|0,0:0|0:0,0:0:0:0:
343,186,52106,5,8,0:0:0:0:
341,202,52177,1,0,0:0:0:0:
340,218,52249,1,0,0:0:0:0:
339,235,52320,1,0,0:0:0:0:
320,272,52392,5,0,0:0:0:0:
288,288,52463,1,0,0:0:0:0:
256,288,52534,1,0,0:0:0:0:
224,272,52606,1,0,0:0:0:0:
208,240,52677,6,0,L|224:176,1,52.5000020027161,4|0,0:0|0:0,0:0:0:0:
144,64,52820,2,0,L|128:128,1,52.5000020027161,8|0,0:0|0:0,0:0:0:0:
96,240,52963,5,0,0:0:0:0:
144,224,53034,1,0,0:0:0:0:
192,240,53106,6,0,L|256:256,1,52.5000020027161,0|0,0:0|0:0,0:0:0:0:
304,336,53249,2,0,L|368:320,1,52.5000020027161,12|0,0:0|0:0,0:0:0:0:
464,304,53392,5,0,0:0:0:0:
468,272,53463,1,0,0:0:0:0:
472,240,53534,5,8,0:0:0:0:
464,176,53606,1,8,0:0:0:0:
416,128,53677,1,8,0:0:0:0:
352,112,53749,1,8,0:0:0:0:
288,128,53820,6,0,L|312:280,1,105.000004005432,6|2,0:0|0:0,0:0:0:0:
176,272,54106,5,0,0:0:0:0:
432,224,54249,1,0,0:0:0:0:
160,144,54392,1,10,0:0:0:0:
48,288,54534,5,0,0:0:0:0:
80,320,54606,1,0,0:0:0:0:
128,336,54677,1,0,0:0:0:0:
176,336,54749,1,0,0:0:0:0:
224,320,54820,1,0,0:0:0:0:
384,256,54963,6,8,L|288:176,1,105.000004005432,6|0,0:0|0:0,0:0:0:0:
128,64,55249,1,0,0:0:0:0:
128,336,55392,2,8,L|224:256,1,105.000004005432,2|8,0:0|0:0,0:0:0:0:
384,128,55677,1,0,0:0:0:0:
496,304,55820,5,2,0:0:0:0:
464,336,55892,1,0,0:0:0:0:
416,352,55963,1,0,0:0:0:0:
368,352,56034,1,0,0:0:0:0:
320,336,56106,5,4,0:0:0:0:
112,240,56249,1,0,0:0:0:0:
288,128,56392,1,0,0:0:0:0:
192,352,56534,2,0,L|184:284,1,52.5000020027161,0|0,0:0|0:0,0:0:0:0:
160,112,56677,1,10,0:0:0:0:
368,224,56820,5,0,0:0:0:0:
112,240,56963,6,0,L|192:236,1,52.5000020027161,0|0,0:0|0:0,0:0:0:0:
288,128,57106,2,0,L|368:132,1,52.5000020027161,0|0,0:0|0:0,0:0:0:0:
340,285,57249,6,0,L|288:288,1,52.5000020027161,6|0,0:0|0:0,0:0:0:0:
107,109,57392,2,0,L|159:111,1,52.5000020027161,2|0,0:0|0:0,0:0:0:0:
352,304,57534,2,0,L|299:306,1,52.5000020027161,2|0,0:0|0:0,0:0:0:0:
96,96,57677,2,0,L|148:98,1,52.5000020027161,2|0,0:0|0:0,0:0:0:0:
288,112,57820,6,0,L|256:224,1,105.000004005432,10|0,0:0|0:0,0:0:0:0:
320,256,58034,1,0,0:0:0:0:
352,240,58106,6,0,L|320:352,1,105.000004005432,2|0,0:0|0:0,0:0:0:0:
224,304,58392,5,6,0:0:0:0:
448,288,58534,1,0,0:0:0:0:
320,112,58677,1,2,0:0:0:0:
338,362,58820,2,0,L|336:336,3,26.2500010013581,8|8|8|8,0:0|0:0|0:0|0:0,0:0:0:0:
336,320,58963,2,0,B|336:256|292:216,1,105.000004005432,10|0,0:0|0:0,0:0:0:0:
144,192,59249,5,2,0:0:0:0:
368,160,59392,1,2,0:0:0:0:
128,160,59534,5,6,0:0:0:0:
384,192,59677,1,0,0:0:0:0:
112,224,59820,5,0,0:0:0:0:
400,128,59963,1,0,0:0:0:0:
400,128,60034,1,0,0:0:0:0:
400,128,60106,1,8,0:0:0:0:
320,320,60249,1,2,0:0:0:0:
176,48,60392,5,8,0:0:0:0:
208,288,60534,1,10,0:0:0:0:
64,192,60677,6,0,L|80:256,1,52.5000020027161,4|0,0:0|0:0,0:0:0:0:
172,258,60820,2,0,L|160:208,1,52.5000020027161,0|0,0:0|0:0,0:0:0:0:
240,144,60963,2,0,L|256:208,1,52.5000020027161,8|8,0:0|0:0,0:0:0:0:
348,210,61106,2,0,L|336:160,1,52.5000020027161,0|0,0:0|0:0,0:0:0:0:
312,88,61249,5,8,0:0:0:0:
304,84,61321,1,0,0:0:0:0:
296,80,61392,1,0,0:0:0:0:
288,76,61464,1,0,0:0:0:0:
248,56,61535,5,0,0:0:0:0:
216,72,61607,1,0,0:0:0:0:
184,72,61678,1,0,0:0:0:0:
152,56,61749,1,0,0:0:0:0:
136,24,61820,6,8,P|104:24|72:40,1,52.5000020027161,4|0,0:0|0:0,0:0:0:0:
88,120,61963,2,0,P|65:142|54:176,1,52.5000020027161,8|0,0:0|0:0,0:0:0:0:
120,232,62106,1,0,0:0:0:0:
136,264,62177,1,0,0:0:0:0:
168,280,62249,6,0,P|200:296|248:296,1,52.5000020027161,0|0,0:0|0:0,0:0:0:0:
416,224,62392,2,0,P|384:208|336:208,1,52.5000020027161,12|0,0:0|0:0,0:0:0:0:
272,192,62534,1,0,0:0:0:0:
252,188,62606,1,0,0:0:0:0:
232,184,62677,5,8,0:0:0:0:
176,144,62749,1,8,0:0:0:0:
176,80,62821,1,0,0:0:0:0:
224,32,62892,1,8,0:0:0:0:
288,32,62963,5,6,0:0:0:0:
224,288,63106,1,2,0:0:0:0:
384,64,63249,5,0,0:0:0:0:
368,336,63392,1,0,0:0:0:0:
496,48,63534,5,10,0:0:0:0:
496,208,63677,1,2,0:0:0:0:
448,224,63749,1,0,0:0:0:0:
400,224,63820,1,0,0:0:0:0:
352,208,63892,1,0,0:0:0:0:
320,176,63963,1,0,0:0:0:0:
272,48,64106,5,6,0:0:0:0:
288,336,64249,1,0,0:0:0:0:
288,336,64392,1,0,0:0:0:0:
416,176,64534,5,2,0:0:0:0:
128,192,64677,1,8,0:0:0:0:
128,192,64820,1,0,0:0:0:0:
352,96,64963,5,2,0:0:0:0:
336,144,65034,1,0,0:0:0:0:
320,192,65106,1,0,0:0:0:0:
304,240,65177,1,0,0:0:0:0:
288,288,65249,5,4,0:0:0:0:
416,176,65392,5,0,0:0:0:0:
192,336,65534,1,0,0:0:0:0:
448,272,65677,5,0,0:0:0:0:
448,272,65749,1,0,0:0:0:0:
448,272,65820,1,10,0:0:0:0:
160,256,65963,5,0,0:0:0:0:
256,96,66106,1,0,0:0:0:0:
416,176,66249,1,0,0:0:0:0:
64,128,66392,6,0,L|176:144,1,105.000004005432,6|8,0:0|0:0,0:0:0:0:
448,128,66677,2,0,L|336:144,1,105.000004005432,0|0,0:0|0:0,0:0:0:0:
112,224,66963,5,8,0:0:0:0:
384,48,67106,1,0,0:0:0:0:
480,224,67248,5,8,0:0:0:0:
448,256,67320,1,0,0:0:0:0:
400,272,67391,1,8,0:0:0:0:
352,272,67462,1,0,0:0:0:0:
304,256,67534,2,0,P|256:240|224:208,1,52.5000020027161,6|0,0:0|0:0,0:0:0:0:
176,112,67677,5,0,0:0:0:0:
208,96,67749,1,0,0:0:0:0:
240,96,67820,2,0,P|288:112|320:144,1,52.5000020027161,2|0,0:0|0:0,0:0:0:0:
272,336,67963,5,8,0:0:0:0:
240,352,68035,1,8,0:0:0:0:
208,352,68106,2,0,P|160:336|128:304,1,52.5000020027161,10|0,0:0|0:0,0:0:0:0:
48,192,68249,5,0,0:0:0:0:
96,208,68320,1,0,0:0:0:0:
144,224,68392,2,0,L|220:244,1,52.5000020027161,2|0,0:0|0:0,0:0:0:0:
304,160,68534,5,0,0:0:0:0:
352,176,68605,1,0,0:0:0:0:
400,192,68677,2,0,L|476:212,1,52.5000020027161,4|0,0:0|0:0,0:0:0:0:
320,288,68820,5,0,0:0:0:0:
288,272,68892,1,0,0:0:0:0:
272,240,68963,2,0,P|256:208|256:160,1,52.5000020027161,0|0,0:0|0:0,0:0:0:0:
416,32,69106,5,0,0:0:0:0:
448,48,69178,1,0,0:0:0:0:
464,80,69249,2,0,P|480:112|480:160,1,52.5000020027161,10|0,0:0|0:0,0:0:0:0:
464,256,69392,5,2,0:0:0:0:
464,256,69463,1,0,0:0:0:0:
464,256,69534,2,0,P|384:272|336:240,1,105.000004005432,2|2,0:0|0:0,0:0:0:0:
256,208,69749,1,0,0:0:0:0:
224,192,69820,6,0,P|173:181|125:200,1,105.000004005432,4|0,0:0|0:0,0:0:0:0:
80,288,70034,1,0,0:0:0:0:
112,304,70106,6,0,L|192:288,1,52.5000020027161,8|8,0:0|0:0,0:0:0:0:
368,256,70249,2,0,L|288:240,1,52.5000020027161,0|0,0:0|0:0,0:0:0:0:
128,208,70392,1,0,0:0:0:0:
112,176,70463,1,0,0:0:0:0:
112,144,70534,1,0,0:0:0:0:
128,112,70606,1,0,0:0:0:0:
160,96,70677,6,0,P|192:80|224:80,1,52.5000020027161,0|0,0:0|0:0,0:0:0:0:
320,128,70820,5,0,0:0:0:0:
304,160,70892,1,0,0:0:0:0:
288,192,70963,2,0,L|256:256,1,52.5000020027161,4|0,0:0|0:0,0:0:0:0:
352,288,71106,2,0,L|320:352,1,52.5000020027161,8|0,0:0|0:0,0:0:0:0:
208,336,71249,5,0,0:0:0:0:
176,320,71320,1,0,0:0:0:0:
160,288,71392,1,0,0:0:0:0:
160,256,71463,1,0,0:0:0:0:
176,224,71534,2,0,P|192:208|192:160,1,52.5000020027161,12|0,0:0|0:0,0:0:0:0:
96,144,71677,2,0,P|100:118|118:99,1,52.5000020027161,0|0,0:0|0:0,0:0:0:0:
176,64,71820,5,8,0:0:0:0:
240,48,71892,1,0,0:0:0:0:
304,48,71963,1,8,0:0:0:0:
368,64,72034,1,0,0:0:0:0:
416,112,72106,5,6,0:0:0:0:
352,288,72249,1,2,0:0:0:0:
480,224,72392,1,0,0:0:0:0:
288,160,72534,1,0,0:0:0:0:
448,320,72677,5,10,0:0:0:0:
448,320,72820,1,0,0:0:0:0:
256,256,72963,5,0,0:0:0:0:
232,282,73034,1,0,0:0:0:0:
223,313,73106,1,0,0:0:0:0:
231,348,73177,1,0,0:0:0:0:
256,368,73249,1,6,0:0:0:0:
448,256,73392,5,0,0:0:0:0:
288,176,73536,1,0,0:0:0:0:
432,96,73679,1,0,0:0:0:0:
336,256,73822,2,0,L|288:176,1,90.9999958343508,0|0,0:0|0:0,0:0:0:0:
192,192,74108,2,0,L|176:80,1,90.9999958343508,0|0,0:0|0:0,0:0:0:0:
64,16,74392,2,0,L|80:128,1,90.9999958343508,4|8,0:0|0:0,0:0:0:0:
96,224,74677,5,0,0:0:0:0:
176,96,74820,1,0,0:0:0:0:
176,96,74892,1,0,0:0:0:0:
176,96,74964,1,8,0:0:0:0:
224,288,75106,5,0,0:0:0:0:
304,160,75249,2,8,P|352:176|368:240,1,90.9999958343508,0|0,0:0|0:0,0:0:0:0:
208,304,75534,5,4,0:0:0:0:
320,144,75677,2,8,P|368:160|384:224,1,90.9999958343508,0|0,0:0|0:0,0:0:0:0:
192,320,75963,5,0,0:0:0:0:
336,128,76106,2,8,P|384:144|400:208,1,90.9999958343508,8|0,0:0|0:0,0:0:0:0:
192,112,76392,2,8,P|208:64|272:48,1,90.9999958343508,0|8,0:0|0:0,0:0:0:0:
256,240,76677,6,8,P|210:262|154:228,1,90.9999958343508,6|2,0:0|0:0,0:0:0:0:
64,160,76963,5,2,0:0:0:0:
64,304,77106,2,0,L|32:308,3,22.7499989585877,8|8|8|8,0:0|0:0|0:0|0:0,0:0:0:0:
96,336,77249,2,0,B|160:352|160:352|240:336,1,136.499993751526,8|0,0:0|0:0,0:0:0:0:
272,336,77534,2,0,B|258:266|258:266|274:202,1,136.499993751526,0|0,0:0|0:0,0:0:0:0:
320,192,77820,5,4,0:0:0:0:
128,128,77963,1,0,0:0:0:0:
128,128,78106,5,0,0:0:0:0:
368,144,78249,5,0,0:0:0:0:
128,256,78392,6,0,L|160:176,1,45.4999979171754,8|0,0:0|0:0,0:0:0:0:
256,80,78534,2,0,L|224:160,1,45.4999979171754,0|0,0:0|0:0,0:0:0:0:
96,256,78677,2,0,L|144:192,1,45.4999979171754,0|0,0:0|0:0,0:0:0:0:
288,80,78820,2,0,L|240:144,1,45.4999979171754,0|0,0:0|0:0,0:0:0:0:
64,256,78963,5,4,0:0:0:0:
224,358,79106,6,0,L|224:336,6,22.7499989585877,0|0|8|8|8|8|8,0:0|0:0|0:0|0:0|0:0|0:0|0:0,0:0:0:0:
336,256,79392,5,0,0:0:0:0:
416,128,79534,1,8,0:0:0:0:
480,272,79677,1,0,0:0:0:0:
208,192,79820,2,8,P|192:240|192:288,1,90.9999958343508,0|0,0:0|0:0,0:0:0:0:
496,272,80106,5,4,0:0:0:0:
192,192,80249,2,8,P|176:240|176:288,1,90.9999958343508,8|0,0:0|0:0,0:0:0:0:
336,256,80534,5,0,0:0:0:0:
48,208,80677,6,0,L|96:192,1,45.4999979171754,12|0,0:0|0:0,0:0:0:0:
368,128,80820,2,0,L|320:112,1,45.4999979171754,0|0,0:0|0:0,0:0:0:0:
64,48,80963,1,8,0:0:0:0:
80,64,81034,1,8,0:0:0:0:
96,80,81106,1,8,0:0:0:0:
112,96,81177,1,8,0:0:0:0:
128,112,81249,1,4,0:0:0:0:
