osu file format v14

[General]
AudioFilename: audio.mp3
AudioLeadIn: 0
PreviewTime: 44392
Countdown: 0
SampleSet: Soft
StackLeniency: 0.7
Mode: 0
LetterboxInBreaks: 0
WidescreenStoryboard: 1

[Editor]
DistanceSpacing: 1.3
BeatDivisor: 4
GridSize: 8
TimelineZoom: 2.4

[Metadata]
Title:post-modern weeaboo
TitleUnicode:post-modern weeaboo
Artist:goreshit
ArtistUnicode:goreshit
Creator:Owens
Version:Hard
Source:
Tags:
BeatmapID:1145521
BeatmapSetID:507974

[Difficulty]
HPDrainRate:5
CircleSize:4
OverallDifficulty:6
ApproachRate:8
SliderMultiplier:1
SliderTickRate:1

[Events]
//Background and Video events
0,0,"goreshit_bg.jpg",0,0
//Break Periods
2,4877,7356
//Storyboard Layer 0 (Background)
//Storyboard Layer 1 (Fail)
//Storyboard Layer 2 (Pass)
//Storyboard Layer 3 (Foreground)
//Storyboard Sound Samples

[TimingPoints]
106,285.714285714286,4,1,1,100,1,0
2392,-100,4,1,1,100,0,0
4392,-100,4,1,1,100,0,0
4677,-100,4,2,1,80,0,0
6106,-133.333333333333,4,2,1,80,0,0
6606,-66.6666666666667,4,2,1,80,0,0
6677,-100,4,2,1,80,0,0
6891,-100,4,2,1,5,0,0
6963,-100,4,2,1,100,0,0
8106,-100,4,1,1,100,0,0
11177,-100,4,1,1,5,0,0
11248,-100,4,1,1,100,0,0
11534,-100,4,1,1,100,0,0
12106,-100,4,1,1,100,0,0
12320,-100,4,1,1,5,0,0
12391,-100,4,1,1,100,0,0
12606,-100,4,1,1,5,0,0
12677,-100,4,1,1,100,0,0
14963,-100,4,2,1,100,0,0
15820,-100,4,2,1,100,0,0
16106,-100,4,2,1,100,0,0
16963,-100,4,2,1,100,0,0
17248,-100,4,1,1,100,0,0
17392,-100,4,1,1,100,0,0
20320,-100,4,1,1,5,0,0
20391,-100,4,1,1,100,0,0
20677,-100,4,1,1,100,0,0
21249,-100,4,1,1,100,0,0
21463,-100,4,1,1,5,0,0
21534,-100,4,1,1,100,0,0
21748,-100,4,1,1,5,0,0
21820,-100,4,1,1,100,0,0
22249,-100,4,1,1,100,0,0
22392,-100,4,1,1,100,0,0
24106,-100,4,2,1,100,0,0
24677,-100,4,2,1,100,0,0
25249,-100,4,2,1,100,0,0
26106,-100,4,2,1,100,0,0
26391,-100,4,1,1,100,0,0
26534,-100,4,1,1,100,0,0
29463,-100,4,1,1,5,0,0
29534,-100,4,1,1,100,0,0
29820,-100,4,1,1,100,0,0
30392,-100,4,1,1,100,0,0
30606,-100,4,1,1,5,0,0
30677,-100,4,1,1,100,0,0
30891,-100,4,1,1,5,0,0
30963,-100,4,1,1,100,0,0
31392,-100,4,1,1,100,0,0
31534,-100,4,1,1,100,0,0
32392,-100,4,1,1,100,0,0
33248,-100,4,2,1,100,0,0
33249,-100,4,2,1,100,0,0
33820,-100,4,2,1,100,0,0
34392,-100,4,2,1,100,0,0
35249,-100,4,2,1,100,0,0
35534,-100,4,1,1,100,0,0
35677,-100,4,1,1,100,0,0
38106,-100,4,1,1,100,0,0
38606,-100,4,1,1,5,0,0
38677,-100,4,1,1,100,0,0
38963,-100,4,1,1,100,0,0
39534,-100,4,1,1,100,0,0
39748,-100,4,1,1,5,0,0
39820,-100,4,1,1,100,0,0
40034,-100,4,1,1,5,0,0
40106,-100,4,1,1,100,0,0
40534,-100,4,1,1,100,0,0
40677,-100,4,1,1,100,0,0
42391,-100,4,2,1,100,0,0
42392,-100,4,2,1,100,0,0
42963,-100,4,2,1,100,0,0
43534,-100,4,2,1,100,0,0
44463,-100,4,2,1,100,0,0
44534,-100,4,2,1,100,0,0
44606,-100,4,2,1,100,0,0
44677,-80,4,1,1,100,0,1
44820,-80,4,1,1,100,0,1
46963,-80,4,1,1,100,0,1
47392,-80,4,1,1,100,0,1
48106,-80,4,1,1,100,0,1
48677,-66.6666666666667,4,1,1,100,0,1
49177,-66.6666666666667,4,1,1,5,0,1
49248,-66.6666666666667,4,1,1,100,0,1
49249,-80,4,1,1,100,0,1
49677,-80,4,1,1,100,0,1
49820,-80,4,1,1,100,0,1
51534,-80,4,1,1,100,0,1
52106,-80,4,1,1,100,0,1
52677,-80,4,1,1,100,0,1
52963,-80,4,1,1,100,0,1
53106,-80,4,1,1,100,0,1
53606,-80,4,1,1,100,0,1
53677,-80,4,1,1,100,0,1
53749,-80,4,1,1,100,0,1
53820,-80,4,1,1,100,0,1
53963,-80,4,1,1,100,0,1
56963,-80,4,1,1,100,0,1
57820,-80,4,1,1,100,0,1
58034,-80,4,1,1,5,0,1
58106,-80,4,1,1,100,0,1
58320,-80,4,1,1,5,0,1
58391,-80,4,1,1,100,0,1
58820,-80,4,1,1,100,0,1
58963,-80,4,1,1,100,0,1
60677,-80,4,1,1,100,0,1
61249,-80,4,1,1,100,0,1
61820,-80,4,1,1,100,0,1
62106,-80,4,1,1,100,0,1
62249,-80,4,1,1,100,0,1
62534,-80,4,1,1,100,0,1
62677,-80,4,1,1,100,0,1
62749,-80,4,1,1,100,0,1
62820,-80,4,1,1,100,0,1
62892,-80,4,1,1,100,0,1
62963,-80,4,1,1,100,0,1
63106,-80,4,1,1,100,0,1
67534,-80,4,1,1,100,0,1
67820,-80,4,1,1,100,0,1
71820,-80,4,1,1,100,0,1
71892,-80,4,1,1,100,0,1
71963,-80,4,1,1,100,0,1
72034,-80,4,1,1,100,0,1
72106,-100,4,1,1,100,0,0
72249,-100,4,1,1,100,0,0
77106,-100,4,1,1,100,0,0
77249,-100,4,1,1,100,0,0
78392,-100,4,1,1,100,0,0
78963,-100,4,1,1,100,0,0
79106,-100,4,1,1,100,0,0
79392,-100,4,1,1,100,0,0
80677,-100,4,1,1,100,0,0
80820,-100,4,1,1,100,0,0
80963,-100,4,1,1,100,0,0
81034,-100,4,1,1,100,0,0
81106,-100,4,1,1,100,0,0
81177,-100,4,1,1,100,0,0
81249,-200,4,1,1,100,0,0

[Colours]
Combo1 : 66,255,114
Combo2 : 66,255,255
Combo3 : 255,139,83
Combo4 : 255,79,79

[HitObjects]
112,192,2392,6,0,P|180:212|212:200,1,100,10|0,0:0|0:0,0:0:0:0:
288,160,2820,1,0,0:0:0:0:
288,160,2963,2,0,L|280:224,1,50,0|0,0:0|0:0,0:0:0:0:
304,288,3249,6,0,P|352:279|397:299,1,100,6|0,0:0|0:0,0:0:0:0:
480,352,3677,1,0,0:0:0:0:
480,352,3820,2,0,L|488:288,1,50,0|0,0:0|0:0,0:0:0:0:
432,240,4106,6,0,L|440:176,1,50,2|2,0:0|0:0,0:0:0:0:
496,128,4392,2,0,L|500:100,4,25,8|8|8|8|0,0:0|0:0|0:0|0:0|0:0,0:0:0:0:
496,128,8106,6,0,P|448:112|384:128,1,100,6|0,0:0|0:0,0:0:0:0:
311,159,8534,1,0,0:0:0:0:
311,159,8677,2,0,P|304:110|320:64,1,100,8|0,0:0|0:0,0:0:0:0:
400,128,9106,1,0,0:0:0:0:
400,128,9249,6,0,L|384:240,1,100,2|0,0:0|0:0,0:0:0:0:
304,272,9677,2,0,B|256:256|256:256|192:272,1,100,2|0,0:0|0:0,0:0:0:0:
144,336,10106,2,0,P|112:288|124:228,1,100,2|0,0:0|0:0,0:0:0:0:
144,160,10534,5,0,0:0:0:0:
144,160,10677,2,0,L|160:112,1,50,0|0,0:0|0:0,0:0:0:0:
272,64,10963,6,0,L|240:160,1,100,10|0,0:0|0:0,0:0:0:0:
208,240,11392,1,0,0:0:0:0:
272,304,11534,2,0,L|320:288,1,50,0|0,0:0|0:0,0:0:0:0:
400,336,11820,2,0,L|448:320,1,50,0|0,0:0|0:0,0:0:0:0:
496,240,12106,2,0,P|496:192|464:144,1,100,8|0,0:0|0:0,0:0:0:0:
368,128,12534,1,0,0:0:0:0:
368,128,12677,6,0,P|400:72|436:52,2,100,6|2|10,0:0|0:0|0:0,0:0:0:0:
368,288,13534,2,0,L|352:336,1,50,2|2,0:0|0:0,0:0:0:0:
272,272,13819,2,0,L|288:224,1,50,2|0,0:0|0:0,0:0:0:0:
208,160,14106,2,0,L|168:272,1,100,0|8,0:0|0:0,0:0:0:0:
208,336,14534,2,0,P|240:320|272:320,1,50,2|0,0:0|0:0,0:0:0:0:
336,320,14820,1,2,0:0:0:0:
418,321,14963,2,0,P|442:316|464:304,3,50,2|0|0|0,0:0|0:0|0:0|0:0,0:0:0:0:
464,208,15534,6,0,P|416:192|352:208,1,100,10|0,0:0|0:0,0:0:0:0:
288,240,15963,1,0,0:0:0:0:
296,96,16106,5,10,0:0:0:0:
296,96,16249,1,8,0:0:0:0:
208,192,16535,5,8,0:0:0:0:
208,192,16677,1,10,0:0:0:0:
112,176,16963,6,0,L|108:128,3,25,8|8|8|8,0:0|0:0|0:0|0:0,0:0:0:0:
112,208,17249,2,0,P|128:256|176:288,1,100,6|0,0:0|0:0,0:0:0:0:
224,364,17677,1,0,0:0:0:0:
224,364,17820,2,0,P|256:316|256:252,1,100,10|0,0:0|0:0,0:0:0:0:
200,208,18249,1,0,0:0:0:0:
200,208,18392,6,0,P|200:143|184:95,1,100,2|0,0:0|0:0,0:0:0:0:
295,159,18820,2,0,P|349:126|382:89,1,100,2|0,0:0|0:0,0:0:0:0:
288,55,19249,2,0,P|240:41|199:15,1,100,2|0,0:0|0:0,0:0:0:0:
197,14,19677,5,0,0:0:0:0:
112,32,19820,2,0,L|116:84,1,50,0|0,0:0|0:0,0:0:0:0:
128,176,20106,2,0,P|192:160|224:176,1,100,10|2,0:0|0:0,0:0:0:0:
176,256,20534,1,2,0:0:0:0:
256,288,20677,6,0,L|304:304,1,50,2|2,0:0|0:0,0:0:0:0:
400,256,20963,2,0,L|352:240,1,50,2|10,0:0|0:0,0:0:0:0:
456,320,21249,2,0,P|480:288|480:224,1,100,10|2,0:0|0:0,0:0:0:0:
352,192,21677,1,0,0:0:0:0:
352,192,21820,6,0,P|328:224|328:288,2,100,4|2|10,0:0|0:0|0:0,0:0:0:0:
472,56,22677,2,0,L|436:91,1,50,2|2,0:0|0:0,0:0:0:0:
336,80,22963,2,0,L|368:16,1,50,2|2,0:0|0:0,0:0:0:0:
256,128,23249,6,0,P|192:144|160:128,1,100,0|8,0:0|0:0,0:0:0:0:
80,80,23677,1,10,0:0:0:0:
80,80,23820,2,0,L|84:136,1,50,8|10,0:0|0:0,0:0:0:0:
124,206,24106,2,0,L|128:256,3,50,2|0|8|0,0:0|0:0|0:0|0:0,0:0:0:0:
144,352,24677,6,0,P|192:336|256:352,1,100,10|0,0:0|0:0,0:0:0:0:
320,384,25106,1,0,0:0:0:0:
352,248,25249,5,10,0:0:0:0:
352,248,25392,1,8,0:0:0:0:
480,336,25677,5,8,0:0:0:0:
480,336,25820,1,10,0:0:0:0:
440,264,26106,2,0,L|444:240,3,25,8|0|8|0,0:0|0:0|0:0|0:0,0:0:0:0:
448,208,26392,6,0,P|432:144|400:112,1,100,6|0,0:0|0:0,0:0:0:0:
304,112,26820,1,0,0:0:0:0:
304,112,26963,2,0,P|320:176|352:208,1,100,10|0,0:0|0:0,0:0:0:0:
384,288,27392,1,0,0:0:0:0:
288,272,27534,6,0,B|248:240|248:240|176:240,1,100,2|0,0:0|0:0,0:0:0:0:
116,288,27963,2,0,P|104:256|128:176,1,100,2|0,0:0|0:0,0:0:0:0:
176,128,28392,2,0,P|208:116|288:140,1,100,2|0,0:0|0:0,0:0:0:0:
224,208,28820,1,0,0:0:0:0:
224,208,28963,2,0,L|256:256,1,50,0|0,0:0|0:0,0:0:0:0:
272,336,29249,6,0,P|316:312|340:256,1,100,10|0,0:0|0:0,0:0:0:0:
320,176,29677,1,0,0:0:0:0:
320,176,29820,2,0,L|304:128,1,50,2|2,0:0|0:0,0:0:0:0:
368,48,30106,2,0,L|384:96,1,50,2|0,0:0|0:0,0:0:0:0:
416,192,30392,6,0,L|400:304,1,100,10|2,0:0|0:0,0:0:0:0:
336,352,30820,1,0,0:0:0:0:
240,320,30963,6,0,P|176:304|128:320,2,100,6|2|10,0:0|0:0|0:0,0:0:0:0:
320,192,31820,2,0,L|336:144,1,50,2|2,0:0|0:0,0:0:0:0:
224,224,32106,2,0,L|224:160,1,50,2|0,0:0|0:0,0:0:0:0:
128,224,32392,6,0,P|144:272|192:312,1,100,0|8,0:0|0:0,0:0:0:0:
272,320,32820,1,10,0:0:0:0:
272,320,32963,2,0,P|304:304|320:272,1,50,8|10,0:0|0:0,0:0:0:0:
336,208,33249,2,0,P|353:190|376:181,3,50,2|0|8|8,0:0|0:0|0:0|0:0,0:0:0:0:
456,224,33820,6,0,P|464:160|440:116,1,100,10|0,0:0|0:0,0:0:0:0:
368,80,34249,1,0,0:0:0:0:
336,208,34392,5,0,0:0:0:0:
336,208,34534,1,8,0:0:0:0:
208,144,34820,5,8,0:0:0:0:
208,144,34963,1,10,0:0:0:0:
208,240,35249,6,0,L|240:224,3,25,8|0|0|0,0:0|0:0|0:0|0:0,0:0:0:0:
176,256,35534,2,0,P|144:288|128:352,1,100,6|0,0:0|0:0,0:0:0:0:
224,336,35963,1,0,0:0:0:0:
224,336,36106,2,0,P|256:304|272:240,1,100,10|0,0:0|0:0,0:0:0:0:
224,176,36534,1,0,0:0:0:0:
224,176,36677,6,0,L|320:144,1,100,2|0,0:0|0:0,0:0:0:0:
448,256,37106,2,0,L|352:224,1,100,2|0,0:0|0:0,0:0:0:0:
224,336,37534,2,0,L|320:304,1,100,2|0,0:0|0:0,0:0:0:0:
416,352,37963,1,0,0:0:0:0:
448,256,38106,2,0,L|432:208,1,50,0|0,0:0|0:0,0:0:0:0:
448,112,38392,6,0,P|400:112|352:144,1,100,10|0,0:0|0:0,0:0:0:0:
320,224,38820,1,0,0:0:0:0:
208,240,38963,6,0,L|224:288,1,50,2|2,0:0|0:0,0:0:0:0:
320,320,39249,2,0,L|304:368,1,50,2|2,0:0|0:0,0:0:0:0:
416,272,39534,2,0,B|432:240|432:240|432:176,1,100,10|2,0:0|0:0,0:0:0:0:
336,160,40106,6,0,B|336:96|336:96|352:64,2,100,6|2|2,0:0|0:0|0:0,0:0:0:0:
272,32,40963,2,0,P|240:48|224:80,1,50,2|2,0:0|0:0,0:0:0:0:
176,0,41249,2,0,P|153:28|152:63,1,50,2|0,0:0|0:0,0:0:0:0:
64,0,41534,2,0,P|64:64|80:112,1,100,0|8,0:0|0:0,0:0:0:0:
176,144,41963,2,0,L|160:192,1,50,2|8,0:0|0:0,0:0:0:0:
128,272,42249,1,10,0:0:0:0:
40,288,42392,6,0,L|24:240,2,50,2|0|8,0:0|0:0|0:0,0:0:0:0:
72,376,42820,1,8,0:0:0:0:
160,384,42963,6,0,P|208:352|256:352,1,100,2|0,0:0|0:0,0:0:0:0:
352,368,43392,1,0,0:0:0:0:
304,272,43534,5,10,0:0:0:0:
352,208,43677,1,8,0:0:0:0:
224,240,43963,5,8,0:0:0:0:
240,160,44106,1,10,0:0:0:0:
144,272,44392,6,0,L|128:240,3,25,0|0|0|0,0:0|0:0|0:0|0:0,0:0:0:0:
112,208,44677,2,0,P|112:160|176:112,1,125,6|0,0:0|0:0,0:0:0:0:
224,208,45106,1,0,0:0:0:0:
240,192,45249,2,0,B|256:96|256:96|288:128|272:144,1,125,10|0,0:0|0:0,0:0:0:0:
352,192,45677,1,0,0:0:0:0:
368,208,45820,6,0,P|352:256|272:304,1,125,6|0,0:0|0:0,0:0:0:0:
272,208,46249,2,0,P|238:170|236:76,1,125,2|0,0:0|0:0,0:0:0:0:
320,128,46677,2,0,P|369:117|451:163,1,125,2|4,0:0|0:0,0:0:0:0:
496,224,47106,1,0,0:0:0:0:
480,240,47249,2,0,L|464:304,1,62.5,0|0,0:0|0:0,0:0:0:0:
384,352,47534,6,0,P|336:336|256:352,1,125,10|0,0:0|0:0,0:0:0:0:
160,352,47963,1,0,0:0:0:0:
144,336,48106,6,0,L|160:272,1,62.5,6|2,0:0|0:0,0:0:0:0:
256,256,48392,2,0,L|272:192,1,62.5,2|2,0:0|0:0,0:0:0:0:
224,96,48677,6,0,P|304:80|368:128,1,150.000005722046,10|2,0:0|0:0,0:0:0:0:
368,208,49106,1,0,0:0:0:0:
464,192,49249,2,0,P|464:240|400:304,2,125,6|2|10,0:0|0:0|0:0,0:0:0:0:
403,80,50106,6,0,L|464:96,1,62.5,2|2,0:0|0:0,0:0:0:0:
336,144,50392,2,0,L|272:128,1,62.5,6|2,0:0|0:0,0:0:0:0:
160,48,50677,2,0,B|176:96|176:96|160:192,1,125,8|10,0:0|0:0,0:0:0:0:
96,240,51106,2,0,L|112:304,1,62.5,10|10,0:0|0:0,0:0:0:0:
208,336,51392,1,8,0:0:0:0:
224,320,51534,6,0,P|256:304|288:304,2,62.5,4|0|0,0:0|0:0|0:0,0:0:0:0:
272,384,51963,1,0,0:0:0:0:
368,352,52106,6,0,P|384:288|336:224,1,125,8|0,0:0|0:0,0:0:0:0:
272,208,52534,1,0,0:0:0:0:
224,128,52677,6,0,L|208:96,2,31.25,4|0|8,0:0|0:0|0:0,0:0:0:0:
144,208,53106,2,0,L|160:176,2,31.25,0|0|12,0:0|0:0|0:0,0:0:0:0:
96,304,53534,2,0,L|80:272,3,31.25,8|8|8|8,0:0|0:0|0:0|0:0,0:0:0:0:
112,336,53820,6,0,P|144:352|240:352,1,125,6|0,0:0|0:0,0:0:0:0:
336,320,54249,5,0,0:0:0:0:
336,320,54392,2,0,P|365:300|413:217,1,125,10|0,0:0|0:0,0:0:0:0:
416,128,54820,1,0,0:0:0:0:
416,128,54963,6,0,B|352:144|352:144|288:128,1,125,6|0,0:0|0:0,0:0:0:0:
304,224,55392,2,0,B|246:209|246:209|182:225,1,125,2|0,0:0|0:0,0:0:0:0:
128,304,55820,2,0,P|96:256|100:180,1,125,2|4,0:0|0:0,0:0:0:0:
160,112,56249,1,0,0:0:0:0:
160,112,56392,2,0,P|192:96|240:96,1,62.5,0|0,0:0|0:0,0:0:0:0:
224,192,56677,6,0,P|304:160|316:128,1,125,10|0,0:0|0:0,0:0:0:0:
288,32,57106,1,0,0:0:0:0:
371,48,57249,2,0,L|432:64,1,62.5,6|2,0:0|0:0,0:0:0:0:
448,160,57534,2,0,L|512:144,1,62.5,2|2,0:0|0:0,0:0:0:0:
384,224,57820,2,0,B|320:240|320:240|256:224,1,125,10|2,0:0|0:0,0:0:0:0:
144,128,58392,6,0,B|208:112|208:112|272:128,2,125,6|2|10,0:0|0:0|0:0,0:0:0:0:
144,284,59249,6,0,L|160:224,1,62.5,2|2,0:0|0:0,0:0:0:0:
64,192,59534,2,0,L|48:128,1,62.5,6|0,0:0|0:0,0:0:0:0:
96,48,59820,2,0,P|160:16|224:28,1,125,0|8,0:0|0:0,0:0:0:0:
320,64,60249,2,0,L|256:96,1,62.5,2|8,0:0|0:0,0:0:0:0:
176,128,60534,1,10,0:0:0:0:
144,224,60677,6,0,L|160:288,2,62.5,4|0|8,0:0|0:0|0:0,0:0:0:0:
152,376,61106,1,0,0:0:0:0:
240,352,61249,2,0,L|256:224,1,125,8|0,0:0|0:0,0:0:0:0:
208,128,61677,1,0,0:0:0:0:
304,96,61820,6,0,L|288:48,2,31.25,4|0|8,0:0|0:0|0:0,0:0:0:0:
400,80,62249,2,0,L|400:48,2,31.25,0|0|12,0:0|0:0|0:0,0:0:0:0:
480,128,62677,2,0,L|496:80,3,31.25,8|8|8|8,0:0|0:0|0:0|0:0,0:0:0:0:
464,160,62963,2,0,B|448:208|448:208|352:224,1,125,6|0,0:0|0:0,0:0:0:0:
288,160,63392,5,0,0:0:0:0:
272,176,63534,2,0,P|256:240|296:300,1,125,10|0,0:0|0:0,0:0:0:0:
368,224,63963,1,0,0:0:0:0:
368,192,64106,6,0,P|368:128|400:64,1,125,6|0,0:0|0:0,0:0:0:0:
320,16,64534,2,0,P|264:48|193:52,1,125,2|0,0:0|0:0,0:0:0:0:
192,144,64963,2,0,P|247:176|286:235,1,125,2|4,0:0|0:0,0:0:0:0:
352,304,65392,5,0,0:0:0:0:
240,320,65534,2,0,L|160:288,1,62.5,0|0,0:0|0:0,0:0:0:0:
80,256,65820,6,0,L|96:384,2,125,10|0|6,0:0|0:0|0:0,0:0:0:0:
64,160,66534,1,8,0:0:0:0:
80,144,66677,2,0,P|112:128|144:128,1,62.5,0|0,0:0|0:0,0:0:0:0:
224,192,66963,2,0,P|240:128|216:60,1,125,8|8,0:0|0:0,0:0:0:0:
160,240,67392,1,0,0:0:0:0:
192,272,67534,6,0,B|240:288|240:288|336:272,2,125,6|2|10,0:0|0:0|0:0,0:0:0:0:
96,224,68249,1,0,0:0:0:0:
64,192,68392,2,0,L|80:128,1,62.5,2|0,0:0|0:0,0:0:0:0:
160,64,68677,6,0,P|208:48|288:64,2,125,4|0|10,0:0|0:0|0:0,0:0:0:0:
224,144,69392,1,2,0:0:0:0:
336,144,69534,2,0,L|320:208,1,62.5,2|2,0:0|0:0,0:0:0:0:
240,272,69820,6,0,P|304:304|368:304,1,125,4|8,0:0|0:0,0:0:0:0:
448,272,70249,1,0,0:0:0:0:
464,256,70392,2,0,L|480:128,1,125,0|0,0:0|0:0,0:0:0:0:
384,80,70820,2,0,L|368:208,1,125,0|8,0:0|0:0,0:0:0:0:
272,160,71249,2,0,L|288:32,1,125,0|12,0:0|0:0,0:0:0:0:
192,0,71677,1,0,0:0:0:0:
128,80,71820,6,0,L|144:128,3,31.25,8|0|8|0,0:0|0:0|0:0|0:0,0:0:0:0:
144,144,72106,2,0,P|144:208|128:256,1,100,6|0,0:0|0:0,0:0:0:0:
64,320,72534,5,0,0:0:0:0:
80,336,72677,2,0,P|128:352|192:336,1,100,10|0,0:0|0:0,0:0:0:0:
240,288,73106,1,0,0:0:0:0:
256,272,73249,6,0,P|304:264|351:280,1,100,6|0,0:0|0:0,0:0:0:0:
464,288,73677,2,0,P|433:249|423:200,1,100,2|0,0:0|0:0,0:0:0:0:
336,176,74106,2,0,L|352:128,1,50,2|8,0:0|0:0,0:0:0:0:
432,64,74392,6,0,P|384:32|336:28,1,100,4|0,0:0|0:0,0:0:0:0:
256,80,74820,1,0,0:0:0:0:
240,96,74963,2,0,P|191:88|150:59,1,100,8|0,0:0|0:0,0:0:0:0:
48,96,75392,1,0,0:0:0:0:
64,128,75534,6,0,L|96:176,1,50,4|0,0:0|0:0,0:0:0:0:
144,240,75820,2,0,P|208:224|256:240,1,100,0|8,0:0|0:0,0:0:0:0:
320,272,76249,1,0,0:0:0:0:
352,256,76392,2,0,L|368:208,1,50,0|8,0:0|0:0,0:0:0:0:
286,146,76677,6,0,L|272:48,1,100,6|2,0:0|0:0,0:0:0:0:
368,80,77106,5,8,0:0:0:0:
368,80,77249,2,0,P|416:80|464:128,2,100,8|0|4,0:0|0:0|0:0,0:0:0:0:
288,144,77963,1,0,0:0:0:0:
304,240,78106,2,0,L|384:256,1,75,0|0,0:0|0:0,0:0:0:0:
416,240,78392,6,0,P|416:208|400:176,1,50,8|0,0:0|0:0,0:0:0:0:
288,96,78677,2,0,P|288:128|304:160,1,50,0|0,0:0|0:0,0:0:0:0:
304,240,78963,6,0,P|256:224|192:240,1,100,4|8,0:0|0:0,0:0:0:0:
128,272,79392,2,0,L|160:336,2,50,0|8|0,0:0|0:0|0:0,0:0:0:0:
64,208,79820,2,0,B|80:144|80:144|112:112,1,100,0|4,0:0|0:0,0:0:0:0:
208,128,80249,2,0,P|272:128|320:96,1,100,8|0,0:0|0:0,0:0:0:0:
400,64,80677,2,0,L|384:128,1,50,12|0,0:0|0:0,0:0:0:0:
432,224,80963,6,0,L|424:256,4,25,8|8|8|8|4,0:0|0:0|0:0|0:0|0:0,0:0:0:0:
