osu file format v14

[General]
AudioFilename: audio.mp3
AudioLeadIn: 0
PreviewTime: 341627
Countdown: 0
SampleSet: None
StackLeniency: 0.2
Mode: 0
LetterboxInBreaks: 0
WidescreenStoryboard: 0

[Editor]
Bookmarks: 184703,217011,253934,290857,341627,378550,410857
DistanceSpacing: 1
BeatDivisor: 8
GridSize: 4
TimelineZoom: 2.799999

[Metadata]
Title:one way to hannover
TitleUnicode:one way to hannover
Artist:goreshit
ArtistUnicode:goreshit
Creator:PurpleSatanWeed
Version:no return
Source:
Tags:semantics: the benzo chronicles zhevulture
BeatmapID:1824536
BeatmapSetID:872800

[Difficulty]
HPDrainRate:4
CircleSize:4
OverallDifficulty:9
ApproachRate:9.5
SliderMultiplier:1.5
SliderTickRate:1

[Events]
//Background and Video events
0,0,"m0C0eJh.jpg",0,0
//Break Periods
//Storyboard Layer 0 (Background)
//Storyboard Layer 1 (Fail)
//Storyboard Layer 2 (Pass)
//Storyboard Layer 3 (Foreground)
//Storyboard Sound Samples

[TimingPoints]
18270,288.461538461538,4,2,0,100,1,0
18558,288.461538461538,4,2,0,100,1,0
152396.276564394,288.461538461538,4,2,0,100,1,0
272396,-83.3333333333333,4,2,0,100,0,0
290857,-76.9230769230769,4,2,0,100,0,1
309319,-133.333333333333,4,2,0,100,0,0
337588,-200,4,2,0,100,0,0
341627,-83.3333333333333,4,2,0,100,0,1
359800,-83.3333333333333,4,2,0,100,0,0
360088,-83.3333333333333,4,2,0,100,0,1
378550,-100,4,2,0,100,0,0

[HitObjects]
79,235,152404,6,0,P|119:260|171:261,1,75
216,214,152684,1,0,0:0:0:0:
216,214,152756,1,0,0:0:0:0:
216,214,152828,2,0,L|207:165,1,37.5
153,99,152973,1,0,0:0:0:0:
188,25,153117,1,0,0:0:0:0:
251,80,153261,1,0,0:0:0:0:
278,75,153333,1,0,0:0:0:0:
304,70,153405,2,0,L|352:62,1,37.5
430,88,153550,6,0,P|410:137|431:183,1,75
360,229,153766,1,0,0:0:0:0:
360,229,153838,2,0,L|411:257,1,37.5
473,297,153982,1,0,0:0:0:0:
473,297,154054,1,0,0:0:0:0:
473,297,154127,5,0,0:0:0:0:
445,322,154199,1,0,0:0:0:0:
411,338,154271,1,0,0:0:0:0:
373,335,154343,1,0,0:0:0:0:
338,320,154415,2,0,L|293:296,2,37.5
208,279,154631,1,0,0:0:0:0:
203,296,154703,5,0,0:0:0:0:
127,327,154848,2,0,L|115:275,1,37.5
46,221,154992,1,0,0:0:0:0:
36,235,155064,1,0,0:0:0:0:
27,249,155136,1,0,0:0:0:0:
126,101,155425,5,0,0:0:0:0:
151,90,155497,1,0,0:0:0:0:
179,89,155569,1,0,0:0:0:0:
206,98,155641,1,0,0:0:0:0:
227,116,155713,1,0,0:0:0:0:
291,184,155857,5,0,0:0:0:0:
291,184,155929,1,0,0:0:0:0:
291,184,156002,2,0,L|288:227,1,37.5
372,139,156146,2,0,L|374:92,1,37.5
448,41,156290,1,0,0:0:0:0:
448,41,156362,1,0,0:0:0:0:
448,41,156434,5,0,0:0:0:0:
303,80,156578,1,0,0:0:0:0:
178,45,156723,1,0,0:0:0:0:
178,45,156795,1,0,0:0:0:0:
178,45,156867,2,0,L|118:46,1,37.5
46,64,157011,5,0,0:0:0:0:
32,202,157155,1,0,0:0:0:0:
167,158,157300,1,0,0:0:0:0:
193,166,157372,1,0,0:0:0:0:
215,183,157444,1,0,0:0:0:0:
229,207,157516,1,0,0:0:0:0:
233,235,157588,2,0,L|218:287,1,37.5
113,268,157732,2,0,L|133:219,1,37.5
117,361,157877,1,0,0:0:0:0:
206,344,158021,5,0,0:0:0:0:
233,350,158093,1,0,0:0:0:0:
260,357,158165,1,0,0:0:0:0:
287,350,158237,1,0,0:0:0:0:
314,343,158309,1,0,0:0:0:0:
341,336,158381,1,0,0:0:0:0:
368,329,158453,1,0,0:0:0:0:
395,322,158526,1,0,0:0:0:0:
422,315,158598,2,0,L|450:306,2,18.75
405,242,158742,6,0,L|406:186,1,37.5
444,191,158886,2,0,L|392:162,1,37.5
427,125,159030,1,0,0:0:0:0:
305,168,159175,1,0,0:0:0:0:
328,40,159319,1,0,0:0:0:0:
206,83,159463,1,0,0:0:0:0:
206,83,159535,1,0,0:0:0:0:
206,83,159607,5,0,0:0:0:0:
169,173,159752,1,0,0:0:0:0:
49,66,159896,1,0,0:0:0:0:
38,91,159968,1,0,0:0:0:0:
34,119,160040,1,0,0:0:0:0:
37,147,160112,1,0,0:0:0:0:
46,173,160184,2,0,L|76:210,1,37.5
24,284,160328,1,0,0:0:0:0:
24,284,160401,1,0,0:0:0:0:
24,284,160473,1,0,0:0:0:0:
231,227,160761,5,0,0:0:0:0:
245,203,160833,1,0,0:0:0:0:
250,175,160905,1,0,0:0:0:0:
246,148,160978,1,0,0:0:0:0:
234,123,161050,1,0,0:0:0:0:
308,58,161194,1,0,0:0:0:0:
388,120,161338,1,0,0:0:0:0:
388,120,161410,1,0,0:0:0:0:
388,120,161482,2,0,L|420:153,1,37.5
464,231,161627,6,0,P|406:219|377:231,1,75
304,218,161843,1,0,0:0:0:0:
304,218,161915,2,0,L|323:277,1,37.5
255,284,162059,1,0,0:0:0:0:
255,284,162131,1,0,0:0:0:0:
255,284,162203,5,0,0:0:0:0:
229,255,162276,1,0,0:0:0:0:
223,217,162348,1,0,0:0:0:0:
230,180,162420,1,0,0:0:0:0:
255,152,162492,1,0,0:0:0:0:
289,136,162564,1,0,0:0:0:0:
326,139,162636,1,0,0:0:0:0:
359,155,162708,1,0,0:0:0:0:
380,185,162780,5,0,0:0:0:0:
341,314,162925,1,0,0:0:0:0:
154,159,163069,1,0,0:0:0:0:
270,199,163213,1,0,0:0:0:0:
177,279,163357,1,0,0:0:0:0:
80,168,163502,1,0,0:0:0:0:
86,131,163574,1,0,0:0:0:0:
110,102,163646,1,0,0:0:0:0:
154,159,163790,5,0,0:0:0:0:
225,103,163934,2,0,L|287:113,1,37.5
319,179,164078,2,0,L|260:172,1,37.5
152,227,164223,1,0,0:0:0:0:
164,252,164295,1,0,0:0:0:0:
182,273,164367,1,0,0:0:0:0:
205,289,164439,1,0,0:0:0:0:
231,300,164511,5,0,0:0:0:0:
138,359,164655,1,0,0:0:0:0:
319,344,164800,2,0,L|344:300,1,37.5
362,235,164944,1,0,0:0:0:0:
362,235,165016,1,0,0:0:0:0:
362,235,165088,1,0,0:0:0:0:
231,300,165232,1,0,0:0:0:0:
265,120,165377,5,0,0:0:0:0:
390,155,165521,1,0,0:0:0:0:
204,168,165665,1,0,0:0:0:0:
191,143,165737,1,0,0:0:0:0:
188,115,165809,1,0,0:0:0:0:
194,88,165881,1,0,0:0:0:0:
209,64,165953,5,0,0:0:0:0:
94,99,166098,1,0,0:0:0:0:
94,99,166170,1,0,0:0:0:0:
94,99,166242,1,0,0:0:0:0:
51,176,166386,2,0,L|39:208,2,18.75
127,215,166530,1,0,0:0:0:0:
127,215,166603,1,0,0:0:0:0:
127,215,166675,2,0,L|154:232,2,18.75
85,280,166819,5,0,0:0:0:0:
77,297,166891,1,0,0:0:0:0:
69,314,166963,1,0,0:0:0:0:
62,331,167035,1,0,0:0:0:0:
55,347,167107,1,0,0:0:0:0:
83,347,167179,1,0,0:0:0:0:
111,347,167252,2,0,L|143:345,2,18.75
214,351,167396,5,0,0:0:0:0:
260,238,167540,2,0,L|264:268,2,18.75
341,266,167684,1,0,0:0:0:0:
394,138,167828,2,0,L|387:164,2,18.75
303,155,167973,1,0,0:0:0:0:
266,148,168045,1,0,0:0:0:0:
229,141,168117,2,0,L|200:135,2,18.75
143,205,168261,2,0,L|148:180,6,18.75
87,290,168550,5,0,0:0:0:0:
52,156,168694,1,0,0:0:0:0:
87,290,168838,1,0,0:0:0:0:
105,310,168910,1,0,0:0:0:0:
129,325,168982,1,0,0:0:0:0:
156,332,169054,1,0,0:0:0:0:
185,328,169127,6,0,L|183:282,1,37.5
255,238,169271,2,0,L|257:287,1,37.5
298,354,169415,1,0,0:0:0:0:
312,330,169487,1,0,0:0:0:0:
327,305,169559,1,0,0:0:0:0:
328,277,169631,1,0,0:0:0:0:
329,251,169703,6,0,L|329:200,1,37.5
298,104,169848,1,0,0:0:0:0:
298,104,169920,1,0,0:0:0:0:
298,104,169992,2,0,L|343:126,1,37.5
206,104,170136,1,0,0:0:0:0:
206,104,170208,1,0,0:0:0:0:
206,104,170280,6,0,L|157:124,1,37.5
24,85,170425,1,0,0:0:0:0:
49,98,170497,1,0,0:0:0:0:
79,98,170569,1,0,0:0:0:0:
75,125,170641,1,0,0:0:0:0:
81,153,170713,1,0,0:0:0:0:
96,177,170785,1,0,0:0:0:0:
117,195,170857,1,0,0:0:0:0:
96,337,171002,5,0,0:0:0:0:
81,319,171074,1,0,0:0:0:0:
64,304,171146,1,0,0:0:0:0:
95,283,171218,1,0,0:0:0:0:
132,279,171290,1,0,0:0:0:0:
167,291,171362,1,0,0:0:0:0:
193,317,171434,6,0,L|228:353,1,37.5
309,286,171578,1,0,0:0:0:0:
309,286,171651,1,0,0:0:0:0:
309,286,171723,2,0,L|308:336,1,37.5
399,344,171867,1,0,0:0:0:0:
399,344,171939,1,0,0:0:0:0:
399,344,172011,5,0,0:0:0:0:
410,318,172083,1,0,0:0:0:0:
412,290,172155,1,0,0:0:0:0:
404,263,172228,1,0,0:0:0:0:
387,240,172300,1,0,0:0:0:0:
371,218,172372,1,0,0:0:0:0:
363,191,172444,1,0,0:0:0:0:
365,163,172516,1,0,0:0:0:0:
377,138,172588,1,0,0:0:0:0:
294,56,172732,5,0,0:0:0:0:
294,56,172804,1,0,0:0:0:0:
294,56,172877,2,0,L|250:86,1,37.5
159,80,173021,1,0,0:0:0:0:
161,97,173093,1,0,0:0:0:0:
164,114,173165,1,0,0:0:0:0:
41,99,173309,1,0,0:0:0:0:
48,224,173453,5,0,0:0:0:0:
66,244,173526,1,0,0:0:0:0:
91,257,173598,1,0,0:0:0:0:
119,261,173670,1,0,0:0:0:0:
146,255,173742,2,0,L|197:229,1,37.5
195,127,173886,2,0,L|197:175,1,37.5
117,178,174030,1,0,0:0:0:0:
278,137,174175,1,0,0:0:0:0:
278,137,174247,1,0,0:0:0:0:
278,137,174319,6,0,L|304:166,1,37.5
361,278,174463,1,0,0:0:0:0:
385,250,174535,1,0,0:0:0:0:
402,216,174607,2,0,L|411:166,1,37.5
465,85,174752,2,0,L|444:82,2,18.75
474,93,174896,5,0,0:0:0:0:
478,130,174968,1,0,0:0:0:0:
482,167,175040,2,0,L|490:238,1,37.5
473,318,175184,1,0,0:0:0:0:
377,365,175328,1,0,0:0:0:0:
377,365,175401,1,0,0:0:0:0:
377,365,175473,5,0,0:0:0:0:
355,334,175545,1,0,0:0:0:0:
323,313,175617,1,0,0:0:0:0:
287,302,175689,1,0,0:0:0:0:
249,306,175761,1,0,0:0:0:0:
151,224,175905,1,0,0:0:0:0:
144,252,175978,1,0,0:0:0:0:
137,279,176050,2,0,L|127:322,3,37.5
217,215,176338,1,0,0:0:0:0:
253,222,176410,1,0,0:0:0:0:
288,210,176482,1,0,0:0:0:0:
314,183,176554,1,0,0:0:0:0:
323,146,176627,5,0,0:0:0:0:
234,33,176771,1,0,0:0:0:0:
242,140,176915,1,0,0:0:0:0:
242,140,176987,1,0,0:0:0:0:
242,140,177059,2,0,L|184:117,1,37.5
316,70,177203,1,0,0:0:0:0:
343,73,177276,1,0,0:0:0:0:
368,86,177348,1,0,0:0:0:0:
387,107,177420,1,0,0:0:0:0:
397,134,177492,2,0,L|395:180,1,37.5
407,212,177636,2,0,L|382:251,1,37.5
363,323,177780,5,0,0:0:0:0:
389,332,177853,1,0,0:0:0:0:
416,341,177925,1,0,0:0:0:0:
442,350,177997,1,0,0:0:0:0:
468,357,178069,2,0,L|464:310,1,37.5
386,243,178213,2,0,L|361:282,1,37.5
278,332,178357,5,0,0:0:0:0:
245,350,178429,1,0,0:0:0:0:
207,355,178502,1,0,0:0:0:0:
169,349,178574,1,0,0:0:0:0:
137,328,178646,1,0,0:0:0:0:
127,291,178718,1,0,0:0:0:0:
134,254,178790,1,0,0:0:0:0:
169,240,178862,1,0,0:0:0:0:
206,262,178934,1,0,0:0:0:0:
50,289,179078,6,0,L|45:232,1,37.5
28,168,179223,1,0,0:0:0:0:
54,158,179295,1,0,0:0:0:0:
74,139,179367,1,0,0:0:0:0:
85,113,179439,1,0,0:0:0:0:
85,85,179511,2,0,L|81:27,1,37.5
13,98,179655,2,0,L|8:39,1,37.5
111,49,179800,5,0,0:0:0:0:
136,59,179872,1,0,0:0:0:0:
163,63,179944,1,0,0:0:0:0:
191,59,180016,1,0,0:0:0:0:
216,46,180088,2,0,L|227:7,1,37.5
193,131,180232,2,0,L|183:91,1,37.5
215,216,180377,2,0,L|186:186,1,37.5
276,278,180521,2,0,L|237:267,1,37.5
361,301,180665,5,0,0:0:0:0:
372,168,180809,2,0,L|368:211,1,37.5
444,140,180953,1,0,0:0:0:0:
428,116,181026,1,0,0:0:0:0:
406,99,181098,1,0,0:0:0:0:
379,92,181170,1,0,0:0:0:0:
351,94,181242,1,0,0:0:0:0:
268,190,181386,1,0,0:0:0:0:
206,50,181530,5,0,0:0:0:0:
196,76,181603,1,0,0:0:0:0:
187,103,181675,1,0,0:0:0:0:
178,129,181747,1,0,0:0:0:0:
168,156,181819,2,0,L|179:210,1,37.5
133,275,181963,1,0,0:0:0:0:
133,275,182035,1,0,0:0:0:0:
133,275,182107,5,0,0:0:0:0:
231,341,182252,2,0,L|292:343,1,37.5
359,361,182396,5,0,0:0:0:0:
352,333,182468,1,0,0:0:0:0:
345,306,182540,1,0,0:0:0:0:
338,279,182612,1,0,0:0:0:0:
331,251,182684,1,0,0:0:0:0:
337,223,182756,1,0,0:0:0:0:
344,195,182828,2,0,L|349:159,2,18.75
410,123,182973,5,0,0:0:0:0:
410,123,183045,1,0,0:0:0:0:
410,123,183117,2,0,L|346:93,1,37.5
319,49,183261,1,0,0:0:0:0:
319,49,183333,1,0,0:0:0:0:
319,49,183405,2,0,L|290:63,2,18.75
203,60,183550,1,0,0:0:0:0:
179,173,183694,2,0,L|154:162,2,18.75
80,99,183838,5,0,0:0:0:0:
72,247,183982,2,0,L|69:273,4,18.75
72,247,184703,5,0,0:0:0:0:
181,331,184848,1,0,0:0:0:0:
218,201,184992,1,0,0:0:0:0:
253,189,185064,1,0,0:0:0:0:
290,187,185136,1,0,0:0:0:0:
327,191,185208,1,0,0:0:0:0:
361,205,185280,2,0,P|380:224|406:238,1,37.5
479,114,185425,2,0,P|459:133|433:147,1,37.5
388,23,185569,1,0,0:0:0:0:
388,23,185641,1,0,0:0:0:0:
388,23,185713,2,0,P|388:51|379:79,1,37.5
172,39,185857,6,0,B|163:81|163:81|185:152,1,112.5
210,217,186146,1,0,0:0:0:0:
60,195,186290,1,0,0:0:0:0:
223,233,186434,2,0,P|235:262|238:291,1,37.5
105,370,186578,2,0,P|93:341|90:312,1,37.5
292,370,186723,1,0,0:0:0:0:
320,346,186795,1,0,0:0:0:0:
357,341,186867,1,0,0:0:0:0:
392,351,186939,1,0,0:0:0:0:
425,367,187011,6,0,P|422:319|432:276,1,75
411,186,187228,1,0,0:0:0:0:
411,186,187300,2,0,P|419:140|413:103,1,75
211,51,187588,1,0,0:0:0:0:
211,51,187660,1,0,0:0:0:0:
211,51,187732,2,0,L|154:36,1,37.5
284,141,187877,1,0,0:0:0:0:
284,141,187949,1,0,0:0:0:0:
284,141,188021,2,0,L|341:126,1,37.5
245,241,188165,5,0,0:0:0:0:
222,237,188237,1,0,0:0:0:0:
199,233,188309,1,0,0:0:0:0:
176,230,188381,1,0,0:0:0:0:
146,224,188453,2,0,P|101:229|79:240,1,37.5
38,130,188598,1,0,0:0:0:0:
38,130,188670,1,0,0:0:0:0:
38,130,188742,2,0,L|124:118,1,75
173,23,189030,1,0,0:0:0:0:
173,23,189103,1,0,0:0:0:0:
173,23,189175,2,0,L|227:31,1,37.5
352,107,189319,6,0,L|264:128,1,75
460,70,189607,2,0,L|470:119,1,37.5
364,189,189752,2,0,L|354:238,1,37.5
486,319,189896,1,0,0:0:0:0:
454,307,189968,1,0,0:0:0:0:
420,303,190040,1,0,0:0:0:0:
387,309,190112,1,0,0:0:0:0:
357,325,190184,2,0,L|256:317,1,75
210,309,190401,1,0,0:0:0:0:
210,309,190473,2,0,P|204:284|204:248,1,37.5
275,141,190617,6,0,P|281:166|281:202,1,37.5
147,152,190761,1,0,0:0:0:0:
133,129,190833,1,0,0:0:0:0:
110,115,190905,2,0,L|87:105,3,18.75
53,136,191050,2,0,L|36:209,1,75
179,58,191338,1,0,0:0:0:0:
205,72,191410,1,0,0:0:0:0:
234,79,191482,1,0,0:0:0:0:
263,79,191554,1,0,0:0:0:0:
292,71,191627,6,0,L|355:52,1,37.5
241,189,191771,2,0,L|304:208,1,37.5
397,299,191915,1,0,0:0:0:0:
403,277,191987,1,0,0:0:0:0:
405,254,192059,1,0,0:0:0:0:
402,231,192131,1,0,0:0:0:0:
393,210,192203,6,0,P|381:182|378:149,1,37.5
260,300,192348,2,0,P|272:272|275:239,1,37.5
160,168,192492,2,0,P|172:196|175:229,1,37.5
293,78,192636,2,0,P|281:106|278:139,1,37.5
28,79,192780,5,0,0:0:0:0:
83,139,192925,1,0,0:0:0:0:
123,72,193069,1,0,0:0:0:0:
123,72,193141,1,0,0:0:0:0:
123,72,193213,2,0,L|188:77,1,37.5
394,92,193357,1,0,0:0:0:0:
423,20,193502,1,0,0:0:0:0:
293,78,193646,1,0,0:0:0:0:
290,115,193718,1,0,0:0:0:0:
302,150,193790,1,0,0:0:0:0:
326,178,193862,1,0,0:0:0:0:
361,192,193934,6,0,P|375:209|388:238,1,37.5
512,301,194078,1,0,0:0:0:0:
512,301,194151,1,0,0:0:0:0:
512,301,194223,2,0,P|483:303|458:301,1,37.5
344,377,194367,2,0,P|358:345|370:330,1,37.5
240,298,194511,1,0,0:0:0:0:
240,298,194583,1,0,0:0:0:0:
240,298,194655,2,0,L|174:292,1,37.5
108,332,194800,2,0,L|54:329,1,37.5
138,194,194944,1,0,0:0:0:0:
138,194,195016,1,0,0:0:0:0:
138,194,195088,5,0,0:0:0:0:
39,93,195232,1,0,0:0:0:0:
39,93,195304,1,0,0:0:0:0:
39,93,195377,2,0,L|101:85,1,37.5
170,78,195521,2,0,L|177:47,2,18.75
272,112,195665,1,0,0:0:0:0:
307,101,195737,1,0,0:0:0:0:
344,104,195809,1,0,0:0:0:0:
378,118,195881,1,0,0:0:0:0:
377,78,195953,1,0,0:0:0:0:
396,45,196026,1,0,0:0:0:0:
431,33,196098,2,0,L|489:44,1,37.5
431,227,196242,5,0,0:0:0:0:
420,246,196314,1,0,0:0:0:0:
410,266,196386,2,0,L|423:323,1,37.5
247,315,196530,2,0,L|234:372,1,37.5
45,295,196675,1,0,0:0:0:0:
45,295,196747,1,0,0:0:0:0:
45,295,196819,6,0,L|149:282,1,75
189,255,197035,1,0,0:0:0:0:
189,255,197107,1,0,0:0:0:0:
112,63,197252,1,0,0:0:0:0:
112,63,197324,1,0,0:0:0:0:
112,63,197396,2,0,P|74:60|48:46,1,37.5
237,179,197540,2,0,P|275:176|301:162,1,37.5
491,62,197684,5,0,0:0:0:0:
454,54,197756,1,0,0:0:0:0:
418,67,197828,1,0,0:0:0:0:
392,97,197901,1,0,0:0:0:0:
390,134,197973,2,0,L|411:197,1,37.5
483,235,198117,2,0,L|504:298,1,37.5
450,350,198261,6,0,L|345:338,1,75
147,336,198550,1,0,0:0:0:0:
184,340,198622,1,0,0:0:0:0:
218,325,198694,1,0,0:0:0:0:
239,294,198766,1,0,0:0:0:0:
240,256,198838,1,0,0:0:0:0:
250,220,198910,1,0,0:0:0:0:
275,197,198982,2,0,L|308:191,2,18.75
304,179,199127,6,0,L|309:118,1,37.5
313,17,199271,1,0,0:0:0:0:
297,46,199343,1,0,0:0:0:0:
267,62,199415,1,0,0:0:0:0:
233,58,199487,1,0,0:0:0:0:
204,39,199559,2,0,P|178:44|144:57,1,37.5
37,159,199703,1,0,0:0:0:0:
122,210,199848,2,0,L|139:203,2,18.75
190,138,199992,1,0,0:0:0:0:
101,87,200136,2,0,L|84:80,2,18.75
37,159,200280,5,0,0:0:0:0:
47,195,200353,1,0,0:0:0:0:
46,232,200425,1,0,0:0:0:0:
36,268,200497,1,0,0:0:0:0:
16,300,200569,2,0,L|22:325,6,18.75
78,352,200857,5,0,0:0:0:0:
192,236,201002,1,0,0:0:0:0:
314,284,201146,1,0,0:0:0:0:
300,257,201218,1,0,0:0:0:0:
300,227,201290,1,0,0:0:0:0:
305,197,201362,1,0,0:0:0:0:
327,167,201434,5,0,0:0:0:0:
304,137,201506,1,0,0:0:0:0:
267,130,201578,1,0,0:0:0:0:
229,138,201651,1,0,0:0:0:0:
198,159,201723,2,0,P|174:157|142:145,1,37.5
92,204,201867,1,0,0:0:0:0:
92,204,201939,1,0,0:0:0:0:
92,204,202011,6,0,P|76:185|62:154,1,37.5
216,242,202155,2,0,P|232:261|246:292,1,37.5
182,359,202300,1,0,0:0:0:0:
218,351,202372,1,0,0:0:0:0:
255,348,202444,1,0,0:0:0:0:
292,349,202516,1,0,0:0:0:0:
329,352,202588,2,0,L|384:338,1,37.5
312,229,202732,2,0,L|355:193,1,37.5
249,105,202877,5,0,0:0:0:0:
284,116,202949,1,0,0:0:0:0:
321,113,203021,1,0,0:0:0:0:
355,98,203093,1,0,0:0:0:0:
382,73,203165,2,0,P|427:68|474:75,2,75
204,72,203598,2,0,P|189:56|173:18,1,37.5
291,27,203742,1,0,0:0:0:0:
294,49,203814,1,0,0:0:0:0:
297,71,203886,1,0,0:0:0:0:
300,93,203958,1,0,0:0:0:0:
299,115,204030,2,0,L|285:165,1,37.5
128,172,204175,1,0,0:0:0:0:
133,193,204247,1,0,0:0:0:0:
138,214,204319,2,0,L|174:261,1,37.5
254,364,204463,5,0,0:0:0:0:
224,342,204535,1,0,0:0:0:0:
190,327,204607,1,0,0:0:0:0:
153,323,204679,1,0,0:0:0:0:
116,328,204752,1,0,0:0:0:0:
83,344,204824,1,0,0:0:0:0:
51,362,204896,2,0,P|32:357|15:349,1,37.5
72,244,205040,2,0,P|62:227|55:210,1,37.5
124,67,205184,5,0,0:0:0:0:
163,45,205256,1,0,0:0:0:0:
207,52,205328,1,0,0:0:0:0:
240,83,205401,1,0,0:0:0:0:
240,127,205473,2,0,P|236:181|240:192,1,37.5
393,117,205617,1,0,0:0:0:0:
360,135,205689,1,0,0:0:0:0:
338,165,205761,2,0,P|342:194|356:224,1,37.5
474,281,205905,5,0,0:0:0:0:
438,268,205978,1,0,0:0:0:0:
400,269,206050,1,0,0:0:0:0:
365,283,206122,1,0,0:0:0:0:
337,308,206194,2,0,P|310:301|281:281,1,37.5
247,206,206338,1,0,0:0:0:0:
178,276,206482,5,0,0:0:0:0:
178,276,206554,1,0,0:0:0:0:
152,248,206627,1,0,0:0:0:0:
146,210,206699,1,0,0:0:0:0:
152,173,206771,1,0,0:0:0:0:
150,135,206843,1,0,0:0:0:0:
129,103,206915,1,0,0:0:0:0:
95,85,206987,1,0,0:0:0:0:
57,90,207059,2,0,L|35:98,2,18.75
147,26,207203,5,0,0:0:0:0:
184,29,207276,1,0,0:0:0:0:
221,32,207348,1,0,0:0:0:0:
258,35,207420,1,0,0:0:0:0:
295,38,207492,2,0,L|359:29,1,37.5
398,143,207636,1,0,0:0:0:0:
398,143,207708,1,0,0:0:0:0:
398,143,207780,6,0,L|437:110,1,37.5
476,237,207925,1,0,0:0:0:0:
441,223,207997,1,0,0:0:0:0:
403,224,208069,1,0,0:0:0:0:
370,242,208141,1,0,0:0:0:0:
343,268,208213,1,0,0:0:0:0:
305,272,208285,1,0,0:0:0:0:
269,260,208357,1,0,0:0:0:0:
279,295,208429,1,0,0:0:0:0:
260,328,208502,2,0,P|248:341|211:349,1,37.5
178,240,208646,1,0,0:0:0:0:
178,240,208718,1,0,0:0:0:0:
178,240,208790,2,0,P|146:232|131:215,1,37.5
9,178,208934,5,0,0:0:0:0:
37,187,209006,1,0,0:0:0:0:
66,184,209078,1,0,0:0:0:0:
93,171,209151,1,0,0:0:0:0:
117,143,209223,5,0,0:0:0:0:
117,105,209295,1,0,0:0:0:0:
139,75,209367,1,0,0:0:0:0:
175,66,209439,1,0,0:0:0:0:
210,77,209511,2,0,P|235:75|274:65,1,37.5
206,212,209655,2,0,P|191:191|163:162,1,37.5
325,147,209800,2,0,P|314:169|303:208,1,37.5
364,64,209944,1,0,0:0:0:0:
364,64,210016,1,0,0:0:0:0:
401,60,210088,5,0,0:0:0:0:
433,78,210160,1,0,0:0:0:0:
451,110,210232,1,0,0:0:0:0:
457,146,210304,1,0,0:0:0:0:
445,182,210377,2,0,L|443:242,1,37.5
340,278,210521,1,0,0:0:0:0:
340,278,210593,1,0,0:0:0:0:
340,278,210665,2,0,L|349:337,1,37.5
224,250,210809,1,0,0:0:0:0:
196,238,210881,1,0,0:0:0:0:
166,240,210953,1,0,0:0:0:0:
136,247,211026,1,0,0:0:0:0:
112,266,211098,2,0,L|47:255,1,37.5
58,114,211242,5,0,0:0:0:0:
214,65,211386,1,0,0:0:0:0:
363,140,211530,2,0,L|373:91,1,37.5
256,162,211675,1,0,0:0:0:0:
265,198,211747,1,0,0:0:0:0:
291,224,211819,1,0,0:0:0:0:
325,238,211891,1,0,0:0:0:0:
362,243,211963,2,0,P|390:242|427:247,1,37.5
249,341,212107,2,0,L|340:335,1,75
394,328,212324,1,0,0:0:0:0:
394,328,212396,5,0,0:0:0:0:
160,336,212540,2,0,L|117:318,1,37.5
215,253,212684,1,0,0:0:0:0:
197,239,212756,1,0,0:0:0:0:
179,225,212828,1,0,0:0:0:0:
161,210,212901,1,0,0:0:0:0:
143,196,212973,2,0,L|131:156,1,37.5
163,67,213117,2,0,L|151:27,1,37.5
299,112,213261,2,0,L|311:152,1,37.5
360,25,213405,2,0,L|370:60,1,37.5
512,242,213550,5,0,0:0:0:0:
482,264,213622,1,0,0:0:0:0:
445,271,213694,1,0,0:0:0:0:
408,264,213766,1,0,0:0:0:0:
373,249,213838,2,0,L|279:243,1,75
224,242,214054,1,0,0:0:0:0:
224,242,214127,2,0,P|199:255|170:285,1,37.5
242,133,214271,2,0,P|215:124|173:125,1,37.5
309,55,214415,1,0,0:0:0:0:
309,55,214487,1,0,0:0:0:0:
309,55,214559,2,0,P|296:29|266:0,1,37.5
454,45,214703,5,0,0:0:0:0:
433,77,214776,1,0,0:0:0:0:
429,114,214848,1,0,0:0:0:0:
441,149,214920,1,0,0:0:0:0:
463,178,214992,2,0,P|467:210|462:240,1,37.5
426,302,215136,2,0,L|423:320,2,18.75
358,247,215280,1,0,0:0:0:0:
321,237,215353,1,0,0:0:0:0:
283,237,215425,1,0,0:0:0:0:
246,245,215497,1,0,0:0:0:0:
209,251,215569,1,0,0:0:0:0:
171,245,215641,1,0,0:0:0:0:
136,231,215713,2,0,P|102:222|75:226,1,37.5
18,331,215857,5,0,0:0:0:0:
38,339,215929,1,0,0:0:0:0:
59,346,216002,2,0,L|93:338,2,18.75
154,325,216146,1,0,0:0:0:0:
241,354,216290,2,0,L|263:344,2,18.75
381,370,216434,5,0,0:0:0:0:
356,332,216506,1,0,0:0:0:0:
356,287,216578,1,0,0:0:0:0:
381,249,216651,1,0,0:0:0:0:
424,239,216723,2,0,L|456:242,6,18.75
408,219,217011,6,0,L|391:124,1,75
338,54,217300,1,0,0:0:0:0:
316,165,217444,1,0,0:0:0:0:
195,232,217588,1,0,0:0:0:0:
112,152,217732,1,0,0:0:0:0:
133,134,217804,1,0,0:0:0:0:
159,122,217877,1,0,0:0:0:0:
186,116,217949,1,0,0:0:0:0:
214,117,218021,2,0,L|251:131,1,37.5
165,28,218165,2,0,L|118:49,1,37.5
37,79,218309,5,0,0:0:0:0:
75,216,218453,1,0,0:0:0:0:
195,184,218598,1,0,0:0:0:0:
179,93,218742,1,0,0:0:0:0:
112,152,218886,1,0,0:0:0:0:
112,152,218958,1,0,0:0:0:0:
112,152,219030,1,0,0:0:0:0:
199,342,219175,1,0,0:0:0:0:
248,183,219319,5,0,0:0:0:0:
199,342,219463,1,0,0:0:0:0:
225,349,219535,1,0,0:0:0:0:
253,351,219607,1,0,0:0:0:0:
281,348,219679,1,0,0:0:0:0:
308,339,219752,2,0,L|310:282,1,37.5
454,352,219896,5,0,0:0:0:0:
403,245,220040,1,0,0:0:0:0:
392,220,220112,1,0,0:0:0:0:
398,194,220184,1,0,0:0:0:0:
418,177,220256,1,0,0:0:0:0:
405,153,220328,1,0,0:0:0:0:
381,141,220401,1,0,0:0:0:0:
354,144,220473,5,0,0:0:0:0:
204,119,220617,1,0,0:0:0:0:
262,188,220761,2,0,L|269:282,1,75
209,292,220978,1,0,0:0:0:0:
207,266,221050,1,0,0:0:0:0:
205,241,221122,1,0,0:0:0:0:
205,216,221194,1,0,0:0:0:0:
124,262,221338,1,0,0:0:0:0:
204,119,221482,1,0,0:0:0:0:
285,152,221627,5,0,0:0:0:0:
240,222,221771,1,0,0:0:0:0:
305,270,221915,1,0,0:0:0:0:
194,82,222059,1,0,0:0:0:0:
221,87,222131,1,0,0:0:0:0:
246,101,222203,1,0,0:0:0:0:
266,120,222276,1,0,0:0:0:0:
280,144,222348,2,0,L|283:186,1,37.5
364,118,222492,1,0,0:0:0:0:
377,142,222564,1,0,0:0:0:0:
385,169,222636,1,0,0:0:0:0:
385,197,222708,1,0,0:0:0:0:
378,224,222780,2,0,L|341:262,1,37.5
347,340,222925,5,0,0:0:0:0:
257,297,223069,1,0,0:0:0:0:
193,364,223213,1,0,0:0:0:0:
116,218,223357,2,0,B|122:173|122:173|149:140,1,75
40,169,223646,1,0,0:0:0:0:
111,83,223790,2,0,L|21:79,1,75
196,49,224078,5,0,0:0:0:0:
221,61,224151,1,0,0:0:0:0:
248,68,224223,2,0,L|266:32,1,37.5
372,47,224367,2,0,L|357:93,1,37.5
288,183,224511,1,0,0:0:0:0:
453,180,224655,5,0,0:0:0:0:
428,176,224728,1,0,0:0:0:0:
405,185,224800,1,0,0:0:0:0:
387,203,224872,1,0,0:0:0:0:
378,230,224944,2,0,L|396:284,1,37.5
274,304,225088,5,0,0:0:0:0:
372,347,225232,1,0,0:0:0:0:
179,359,225377,1,0,0:0:0:0:
229,216,225521,2,0,L|229:162,1,37.5
151,106,225665,2,0,L|162:157,1,37.5
110,234,225809,1,0,0:0:0:0:
151,106,225953,1,0,0:0:0:0:
207,46,226098,1,0,0:0:0:0:
262,101,226242,6,0,B|302:119|302:119|346:122,1,75
418,49,226530,1,0,0:0:0:0:
295,198,226675,1,0,0:0:0:0:
316,216,226747,1,0,0:0:0:0:
327,241,226819,1,0,0:0:0:0:
326,269,226891,1,0,0:0:0:0:
313,294,226963,2,0,L|278:319,1,37.5
154,283,227107,1,0,0:0:0:0:
154,283,227179,1,0,0:0:0:0:
154,283,227252,2,0,L|151:237,1,37.5
42,160,227396,2,0,L|70:191,1,37.5
176,108,227540,5,0,0:0:0:0:
136,188,227684,1,0,0:0:0:0:
231,178,227828,1,0,0:0:0:0:
202,354,227973,1,0,0:0:0:0:
212,266,228117,1,0,0:0:0:0:
280,326,228261,2,0,P|334:334|387:317,1,75
408,257,228550,1,0,0:0:0:0:
332,217,228694,5,0,0:0:0:0:
332,217,228766,1,0,0:0:0:0:
332,217,228838,2,0,L|321:171,1,37.5
406,100,228982,2,0,L|417:150,1,37.5
217,167,229127,1,0,0:0:0:0:
52,120,229271,1,0,0:0:0:0:
79,124,229343,1,0,0:0:0:0:
105,115,229415,1,0,0:0:0:0:
124,95,229487,1,0,0:0:0:0:
131,68,229559,1,0,0:0:0:0:
163,49,229631,1,0,0:0:0:0:
200,48,229703,5,0,0:0:0:0:
47,21,229848,1,0,0:0:0:0:
193,132,229992,1,0,0:0:0:0:
329,127,230136,1,0,0:0:0:0:
329,127,230208,1,0,0:0:0:0:
329,127,230280,2,0,L|325:182,1,37.5
381,307,230425,5,0,0:0:0:0:
301,255,230569,1,0,0:0:0:0:
168,307,230713,1,0,0:0:0:0:
381,307,230857,1,0,0:0:0:0:
289,343,231002,1,0,0:0:0:0:
168,307,231146,1,0,0:0:0:0:
74,339,231290,5,0,0:0:0:0:
90,309,231362,1,0,0:0:0:0:
95,275,231434,1,0,0:0:0:0:
88,241,231506,1,0,0:0:0:0:
71,211,231578,2,0,L|54:165,1,37.5
170,250,231723,2,0,L|183:299,1,37.5
218,161,231867,1,0,0:0:0:0:
245,166,231939,1,0,0:0:0:0:
273,167,232011,1,0,0:0:0:0:
301,163,232083,1,0,0:0:0:0:
328,155,232155,5,0,0:0:0:0:
389,218,232300,1,0,0:0:0:0:
449,280,232444,1,0,0:0:0:0:
301,359,232588,1,0,0:0:0:0:
358,295,232732,1,0,0:0:0:0:
449,280,232877,2,0,P|471:228|464:188,1,75
328,155,233165,1,0,0:0:0:0:
405,87,233309,5,0,0:0:0:0:
409,53,233381,1,0,0:0:0:0:
414,19,233453,1,0,0:0:0:0:
390,34,233526,1,0,0:0:0:0:
364,46,233598,1,0,0:0:0:0:
337,52,233670,1,0,0:0:0:0:
309,55,233742,1,0,0:0:0:0:
437,157,233886,1,0,0:0:0:0:
217,92,234030,1,0,0:0:0:0:
217,92,234103,1,0,0:0:0:0:
217,92,234175,2,0,L|175:87,1,37.5
30,21,234319,5,0,0:0:0:0:
0,106,234463,1,0,0:0:0:0:
66,221,234607,1,0,0:0:0:0:
31,365,234752,1,0,0:0:0:0:
52,346,234824,1,0,0:0:0:0:
78,338,234896,1,0,0:0:0:0:
157,361,235040,1,0,0:0:0:0:
250,333,235184,1,0,0:0:0:0:
310,238,235328,1,0,0:0:0:0:
389,137,235473,5,0,0:0:0:0:
404,221,235617,1,0,0:0:0:0:
261,131,235761,2,0,L|165:149,1,75
106,191,235978,1,0,0:0:0:0:
106,191,236050,2,0,L|90:136,1,37.5
81,344,236194,1,0,0:0:0:0:
85,306,236266,1,0,0:0:0:0:
81,268,236338,1,0,0:0:0:0:
117,287,236410,1,0,0:0:0:0:
157,291,236482,1,0,0:0:0:0:
196,278,236554,1,0,0:0:0:0:
228,251,236627,5,0,0:0:0:0:
242,153,236771,1,0,0:0:0:0:
322,322,236915,1,0,0:0:0:0:
420,319,237059,1,0,0:0:0:0:
386,169,237203,2,0,L|306:230,1,75
461,237,237492,1,0,0:0:0:0:
452,34,237636,1,0,0:0:0:0:
334,66,237780,6,0,P|283:68|245:88,1,75
187,135,237997,1,0,0:0:0:0:
187,135,238069,1,0,0:0:0:0:
150,154,238141,1,0,0:0:0:0:
109,161,238213,1,0,0:0:0:0:
67,161,238285,1,0,0:0:0:0:
31,150,238357,1,0,0:0:0:0:
84,243,238502,1,0,0:0:0:0:
272,181,238646,1,0,0:0:0:0:
242,209,238718,1,0,0:0:0:0:
235,249,238790,1,0,0:0:0:0:
249,287,238862,1,0,0:0:0:0:
284,308,238934,5,0,0:0:0:0:
356,269,239078,1,0,0:0:0:0:
151,336,239223,2,0,P|92:337|55:320,1,75
36,226,239439,1,0,0:0:0:0:
36,226,239511,2,0,L|34:276,1,37.5
131,190,239655,1,0,0:0:0:0:
74,46,239800,1,0,0:0:0:0:
55,121,239944,1,0,0:0:0:0:
330,151,240088,6,0,B|271:123|271:123|190:117,1,112.5
186,136,240377,1,0,0:0:0:0:
322,52,240521,1,0,0:0:0:0:
301,50,240593,1,0,0:0:0:0:
283,49,240665,2,0,L|237:46,1,37.5
410,178,240809,1,0,0:0:0:0:
412,157,240881,1,0,0:0:0:0:
413,139,240953,2,0,L|416:93,1,37.5
316,208,241098,1,0,0:0:0:0:
314,229,241170,1,0,0:0:0:0:
313,247,241242,2,0,L|310:292,1,37.5
137,323,241386,5,0,0:0:0:0:
97,242,241530,1,0,0:0:0:0:
43,307,241675,1,0,0:0:0:0:
135,156,241819,2,0,B|98:160|98:160|35:149,1,75
217,119,242107,1,0,0:0:0:0:
386,64,242252,1,0,0:0:0:0:
370,146,242396,5,0,0:0:0:0:
225,18,242540,2,0,L|221:64,1,37.5
215,165,242684,1,0,0:0:0:0:
216,140,242756,1,0,0:0:0:0:
217,119,242828,1,0,0:0:0:0:
171,123,242901,1,0,0:0:0:0:
127,111,242973,1,0,0:0:0:0:
132,232,243117,2,0,L|193:259,1,37.5
89,301,243261,5,0,0:0:0:0:
69,332,243333,1,0,0:0:0:0:
77,368,243405,1,0,0:0:0:0:
112,382,243478,1,0,0:0:0:0:
144,364,243550,1,0,0:0:0:0:
249,269,243694,1,0,0:0:0:0:
422,257,243838,2,0,L|419:361,1,75
361,182,244054,1,0,0:0:0:0:
361,182,244127,6,0,B|362:132|362:132|380:87,1,75
269,61,244415,1,0,0:0:0:0:
438,152,244559,1,0,0:0:0:0:
438,62,244703,1,0,0:0:0:0:
353,29,244848,1,0,0:0:0:0:
269,61,244992,6,0,P|226:70|181:67,1,75
113,59,245208,1,0,0:0:0:0:
91,55,245280,1,0,0:0:0:0:
113,165,245425,1,0,0:0:0:0:
90,165,245497,1,0,0:0:0:0:
64,161,245569,1,0,0:0:0:0:
99,133,245641,1,0,0:0:0:0:
143,137,245713,1,0,0:0:0:0:
178,164,245785,1,0,0:0:0:0:
196,205,245857,2,0,L|197:264,1,37.5
282,105,246002,5,0,0:0:0:0:
276,302,246146,1,0,0:0:0:0:
368,261,246290,1,0,0:0:0:0:
123,235,246434,2,0,B|168:233|168:233|231:253,1,75
158,315,246723,1,0,0:0:0:0:
316,197,246867,1,0,0:0:0:0:
176,73,247011,6,0,P|231:77|275:63,1,75
380,130,247228,1,0,0:0:0:0:
380,130,247300,1,0,0:0:0:0:
338,111,247372,1,0,0:0:0:0:
293,112,247444,1,0,0:0:0:0:
253,132,247516,1,0,0:0:0:0:
231,171,247588,1,0,0:0:0:0:
99,182,247732,5,0,0:0:0:0:
140,200,247804,1,0,0:0:0:0:
167,236,247877,1,0,0:0:0:0:
172,280,247949,1,0,0:0:0:0:
152,320,248021,1,0,0:0:0:0:
114,344,248093,1,0,0:0:0:0:
69,342,248165,1,0,0:0:0:0:
48,258,248309,1,0,0:0:0:0:
128,54,248453,6,0,B|89:43|39:54,1,75
179,157,248670,1,0,0:0:0:0:
186,132,248742,2,0,P|224:128|268:141,1,75
338,56,249030,1,0,0:0:0:0:
319,272,249175,1,0,0:0:0:0:
391,218,249319,5,0,0:0:0:0:
393,128,249463,1,0,0:0:0:0:
338,56,249607,1,0,0:0:0:0:
199,103,249752,1,0,0:0:0:0:
199,82,249824,1,0,0:0:0:0:
200,58,249896,2,0,P|157:68|122:60,1,75
64,132,250112,1,0,0:0:0:0:
41,93,250184,1,0,0:0:0:0:
38,48,250256,1,0,0:0:0:0:
55,6,250328,1,0,0:0:0:0:
127,62,250473,5,0,0:0:0:0:
84,261,250617,1,0,0:0:0:0:
170,235,250761,1,0,0:0:0:0:
257,255,250905,1,0,0:0:0:0:
301,127,251050,1,0,0:0:0:0:
391,227,251194,1,0,0:0:0:0:
257,255,251338,1,0,0:0:0:0:
133,109,251482,1,0,0:0:0:0:
76,237,251627,6,0,P|45:276|3:293,1,75
45,146,251843,1,0,0:0:0:0:
45,146,251915,1,0,0:0:0:0:
39,101,251987,1,0,0:0:0:0:
55,59,252059,1,0,0:0:0:0:
86,26,252131,1,0,0:0:0:0:
129,15,252203,1,0,0:0:0:0:
195,125,252348,5,0,0:0:0:0:
233,102,252420,1,0,0:0:0:0:
277,101,252492,1,0,0:0:0:0:
318,118,252564,1,0,0:0:0:0:
299,159,252636,1,0,0:0:0:0:
306,203,252708,1,0,0:0:0:0:
340,232,252780,1,0,0:0:0:0:
426,205,252925,1,0,0:0:0:0:
271,297,253069,5,0,0:0:0:0:
99,328,253213,1,0,0:0:0:0:
121,311,253285,1,0,0:0:0:0:
146,295,253357,5,0,0:0:0:0:
79,222,253502,5,0,0:0:0:0:
80,102,253646,5,0,0:0:0:0:
203,31,253790,5,0,0:0:0:0:
379,67,253934,5,0,0:0:0:0:
300,14,254078,1,0,0:0:0:0:
370,153,254223,1,0,0:0:0:0:
399,156,254295,1,0,0:0:0:0:
428,160,254367,2,0,L|461:137,1,37.5
379,67,254511,2,0,L|284:80,1,75
168,157,254800,1,0,0:0:0:0:
140,167,254872,1,0,0:0:0:0:
110,163,254944,1,0,0:0:0:0:
83,148,255016,1,0,0:0:0:0:
68,121,255088,6,0,P|61:82|44:45,2,75
29,267,255521,1,0,0:0:0:0:
176,253,255665,2,0,P|187:230|192:194,1,37.5
122,338,255809,1,0,0:0:0:0:
148,324,255881,1,0,0:0:0:0:
177,319,255953,1,0,0:0:0:0:
207,319,256026,1,0,0:0:0:0:
236,326,256098,1,0,0:0:0:0:
261,341,256170,1,0,0:0:0:0:
282,361,256242,6,0,L|368:352,1,75
429,337,256458,1,0,0:0:0:0:
429,337,256530,1,0,0:0:0:0:
374,232,256675,1,0,0:0:0:0:
480,156,256819,2,0,P|484:109|475:73,1,75
326,0,257107,2,0,P|322:47|331:83,1,75
374,232,257396,5,0,0:0:0:0:
346,243,257468,1,0,0:0:0:0:
318,255,257540,2,0,L|314:305,1,37.5
215,194,257684,2,0,L|219:244,1,37.5
93,263,257828,1,0,0:0:0:0:
109,95,257973,2,0,P|164:82|184:63,1,75
237,27,258189,1,0,0:0:0:0:
237,27,258261,2,0,L|298:25,1,37.5
276,137,258405,2,0,L|332:160,1,37.5
506,222,258550,6,0,L|413:230,1,75
311,297,258838,1,0,0:0:0:0:
311,296,258910,2,0,P|274:306|237:303,1,75
160,282,259127,1,0,0:0:0:0:
160,282,259199,1,0,0:0:0:0:
160,282,259271,2,0,L|92:290,1,37.5
64,206,259415,1,0,0:0:0:0:
51,178,259487,1,0,0:0:0:0:
52,148,259559,1,0,0:0:0:0:
65,121,259631,1,0,0:0:0:0:
91,106,259703,6,0,P|144:117|190:110,1,75
331,52,259992,1,0,0:0:0:0:
239,38,260136,1,0,0:0:0:0:
232,67,260208,1,0,0:0:0:0:
244,94,260280,2,0,L|251:157,1,37.5
336,154,260425,2,0,L|329:217,1,37.5
298,297,260569,2,0,P|340:283|378:287,1,75
250,367,260857,5,0,0:0:0:0:
224,351,260929,1,0,0:0:0:0:
193,346,261002,1,0,0:0:0:0:
163,349,261074,1,0,0:0:0:0:
135,361,261146,1,0,0:0:0:0:
28,302,261290,1,0,0:0:0:0:
28,302,261362,1,0,0:0:0:0:
28,302,261434,1,0,0:0:0:0:
117,196,261578,2,0,P|118:175|110:140,1,37.5
199,102,261723,2,0,P|184:86|154:67,1,37.5
245,13,261867,1,0,0:0:0:0:
245,13,261939,1,0,0:0:0:0:
245,13,262011,6,0,L|332:17,1,75
92,35,262300,1,0,0:0:0:0:
172,183,262444,1,0,0:0:0:0:
171,153,262516,1,0,0:0:0:0:
169,124,262588,2,0,L|214:90,1,37.5
274,193,262732,2,0,L|329:200,1,37.5
400,328,262877,5,0,0:0:0:0:
408,334,263021,1,0,0:0:0:0:
292,365,263165,2,0,L|202:358,1,75
19,283,263453,2,0,L|74:277,1,37.5
155,216,263598,1,0,0:0:0:0:
155,216,263670,1,0,0:0:0:0:
155,216,263742,2,0,P|156:168|142:127,1,75
22,34,264030,1,0,0:0:0:0:
44,54,264103,1,0,0:0:0:0:
73,60,264175,1,0,0:0:0:0:
102,55,264247,1,0,0:0:0:0:
128,41,264319,6,0,L|219:34,1,75
344,98,264607,2,0,L|394:93,1,37.5
256,98,264752,1,0,0:0:0:0:
245,125,264824,1,0,0:0:0:0:
234,152,264896,2,0,L|255:191,1,37.5
246,311,265040,1,0,0:0:0:0:
316,249,265184,1,0,0:0:0:0:
116,276,265328,1,0,0:0:0:0:
116,276,265401,1,0,0:0:0:0:
116,276,265473,6,0,L|34:283,2,75
288,148,265905,1,0,0:0:0:0:
288,148,265978,1,0,0:0:0:0:
288,148,266050,2,0,L|370:155,1,75
447,62,266338,2,0,L|454:105,1,37.5
344,16,266482,2,0,L|337:53,1,37.5
163,24,266627,6,0,P|182:62|177:103,1,75
92,206,266915,2,0,L|50:210,1,37.5
185,172,267059,1,0,0:0:0:0:
205,193,267131,1,0,0:0:0:0:
224,215,267203,2,0,L|197:276,1,37.5
129,352,267348,1,0,0:0:0:0:
12,232,267492,5,0,0:0:0:0:
2,223,267636,1,0,0:0:0:0:
73,130,267780,2,0,P|80:88|68:43,1,75
211,64,268069,1,0,0:0:0:0:
240,58,268141,1,0,0:0:0:0:
269,58,268213,1,0,0:0:0:0:
297,66,268285,1,0,0:0:0:0:
321,83,268357,1,0,0:0:0:0:
435,178,268502,1,0,0:0:0:0:
435,178,268574,1,0,0:0:0:0:
435,178,268646,2,0,L|484:168,1,37.5
412,290,268790,2,0,L|363:280,1,37.5
165,344,268934,6,0,L|248:328,1,75
311,316,269151,1,0,0:0:0:0:
311,316,269223,1,0,0:0:0:0:
200,242,269367,1,0,0:0:0:0:
332,199,269511,2,0,P|354:163|360:122,2,75
154,125,269944,1,0,0:0:0:0:
154,125,270016,1,0,0:0:0:0:
154,125,270088,6,0,L|242:113,1,75
74,50,270377,1,0,0:0:0:0:
57,74,270449,1,0,0:0:0:0:
47,103,270521,1,0,0:0:0:0:
46,132,270593,1,0,0:0:0:0:
53,161,270665,1,0,0:0:0:0:
68,188,270737,1,0,0:0:0:0:
90,208,270809,2,0,P|90:236|82:276,1,37.5
135,339,270953,1,0,0:0:0:0:
224,274,271098,6,0,L|263:277,2,37.5
166,186,271386,1,0,0:0:0:0:
166,186,271458,1,0,0:0:0:0:
166,186,271530,1,0,0:0:0:0:
52,87,271675,2,0,L|57:40,1,37.5
204,64,271819,5,0,0:0:0:0:
238,77,271891,1,0,0:0:0:0:
275,74,271963,1,0,0:0:0:0:
309,60,272035,1,0,0:0:0:0:
341,28,272107,1,0,0:0:0:0:
385,26,272179,1,0,0:0:0:0:
419,55,272252,1,0,0:0:0:0:
421,99,272324,1,0,0:0:0:0:
416,152,272396,6,0,P|426:206|441:258,1,89.9999972534181
275,74,272684,1,0,0:0:0:0:
183,107,272828,2,0,P|151:152|125:199,1,89.9999972534181
141,312,273117,1,0,0:0:0:0:
141,312,273189,1,0,0:0:0:0:
141,312,273261,2,0,L|191:303,1,44.999998626709
287,224,273405,2,0,L|337:233,1,44.999998626709
484,354,273550,6,0,P|434:330|378:345,1,89.9999972534181
217,381,273838,1,0,0:0:0:0:
217,381,273910,1,0,0:0:0:0:
217,381,273982,2,0,P|262:349|277:293,1,89.9999972534181
354,151,274271,2,0,P|370:137|411:114,1,44.999998626709
262,57,274415,1,0,0:0:0:0:
226,49,274487,1,0,0:0:0:0:
190,57,274559,1,0,0:0:0:0:
162,79,274631,1,0,0:0:0:0:
146,111,274703,6,0,P|78:122|35:110,1,89.9999972534181
158,264,274992,1,0,0:0:0:0:
38,223,275136,2,0,P|69:254|88:295,1,89.9999972534181
101,370,275353,1,0,0:0:0:0:
101,370,275425,1,0,0:0:0:0:
245,271,275569,1,0,0:0:0:0:
245,271,275641,1,0,0:0:0:0:
245,271,275713,1,0,0:0:0:0:
359,364,275857,5,0,0:0:0:0:
342,331,275929,1,0,0:0:0:0:
342,294,276002,1,0,0:0:0:0:
357,261,276074,1,0,0:0:0:0:
387,241,276146,2,0,L|447:219,1,44.999998626709
422,65,276290,1,0,0:0:0:0:
397,91,276362,1,0,0:0:0:0:
363,103,276434,1,0,0:0:0:0:
327,100,276506,1,0,0:0:0:0:
292,91,276578,2,0,L|255:44,1,44.999998626709
93,33,276723,1,0,0:0:0:0:
139,211,276867,1,0,0:0:0:0:
139,211,276939,1,0,0:0:0:0:
139,211,277011,6,0,L|29:208,1,89.9999972534181
290,287,277300,1,0,0:0:0:0:
199,327,277444,1,0,0:0:0:0:
245,168,277588,1,0,0:0:0:0:
271,169,277660,1,0,0:0:0:0:
297,170,277732,1,0,0:0:0:0:
323,171,277804,1,0,0:0:0:0:
350,172,277877,1,0,0:0:0:0:
464,295,278021,1,0,0:0:0:0:
464,295,278093,1,0,0:0:0:0:
464,295,278165,6,0,P|446:240|459:187,1,89.9999972534181
346,63,278453,1,0,0:0:0:0:
499,18,278598,2,0,P|460:61|407:76,1,89.9999972534181
192,43,278886,1,0,0:0:0:0:
207,65,278958,1,0,0:0:0:0:
222,86,279030,2,0,L|218:137,1,44.999998626709
131,212,279175,2,0,L|135:263,1,44.999998626709
240,377,279319,6,0,L|245:272,1,89.9999972534181
405,309,279607,1,0,0:0:0:0:
400,282,279679,1,0,0:0:0:0:
395,255,279752,1,0,0:0:0:0:
390,228,279824,1,0,0:0:0:0:
386,201,279896,1,0,0:0:0:0:
272,108,280040,2,0,L|208:123,1,44.999998626709
443,9,280184,2,0,L|507:24,1,44.999998626709
365,103,280328,1,0,0:0:0:0:
365,103,280401,1,0,0:0:0:0:
365,103,280473,6,0,P|341:40|340:3,1,89.9999972534181
501,195,280761,1,0,0:0:0:0:
466,186,280833,1,0,0:0:0:0:
430,190,280905,1,0,0:0:0:0:
397,205,280978,1,0,0:0:0:0:
374,232,281050,2,0,P|329:247|307:249,1,44.999998626709
206,244,281194,2,0,P|158:239|137:232,1,44.999998626709
38,196,281338,2,0,L|23:178,6,22.4999993133545
104,153,281627,5,0,0:0:0:0:
13,37,281771,1,0,0:0:0:0:
42,57,281843,1,0,0:0:0:0:
77,64,281915,1,0,0:0:0:0:
112,57,281987,1,0,0:0:0:0:
145,43,282059,2,0,P|197:41|267:56,2,89.9999972534181
296,127,282492,1,0,0:0:0:0:
331,134,282564,1,0,0:0:0:0:
366,126,282636,1,0,0:0:0:0:
396,106,282708,1,0,0:0:0:0:
416,76,282780,1,0,0:0:0:0:
246,30,282925,5,0,0:0:0:0:
231,52,282997,1,0,0:0:0:0:
217,75,283069,2,0,L|211:129,1,44.999998626709
208,232,283213,2,0,L|214:260,3,22.4999993133545
197,324,283357,2,0,P|162:341|96:335,1,89.9999972534181
317,367,283646,1,0,0:0:0:0:
304,333,283718,1,0,0:0:0:0:
307,297,283790,1,0,0:0:0:0:
324,265,283862,1,0,0:0:0:0:
354,245,283934,6,0,L|345:184,1,44.999998626709
198,50,284078,1,0,0:0:0:0:
300,108,284223,1,0,0:0:0:0:
377,20,284367,1,0,0:0:0:0:
377,20,284439,1,0,0:0:0:0:
377,20,284511,1,0,0:0:0:0:
460,118,284655,2,0,L|509:112,1,44.999998626709
432,238,284800,5,0,0:0:0:0:
396,231,284872,1,0,0:0:0:0:
360,224,284944,1,0,0:0:0:0:
324,217,285016,1,0,0:0:0:0:
288,211,285088,1,0,0:0:0:0:
136,290,285232,1,0,0:0:0:0:
136,290,285304,1,0,0:0:0:0:
136,290,285377,2,0,L|197:279,1,44.999998626709
285,344,285521,1,0,0:0:0:0:
177,174,285665,5,0,0:0:0:0:
177,174,285737,1,0,0:0:0:0:
177,174,285809,1,0,0:0:0:0:
232,80,285953,1,0,0:0:0:0:
267,72,286026,1,0,0:0:0:0:
302,75,286098,1,0,0:0:0:0:
331,95,286170,1,0,0:0:0:0:
350,125,286242,6,0,L|400:120,1,44.999998626709
389,282,286386,1,0,0:0:0:0:
460,204,286530,1,0,0:0:0:0:
250,268,286675,2,0,P|248:299|267:363,1,89.9999972534181
200,163,286963,1,0,0:0:0:0:
92,333,287107,1,0,0:0:0:0:
108,301,287179,1,0,0:0:0:0:
110,264,287252,1,0,0:0:0:0:
103,228,287324,1,0,0:0:0:0:
79,200,287396,6,0,P|74:121|84:93,1,89.9999972534181
283,10,287684,1,0,0:0:0:0:
200,163,287828,2,0,P|252:103|279:90,1,89.9999972534181
444,103,288117,1,0,0:0:0:0:
390,216,288261,1,0,0:0:0:0:
396,242,288333,1,0,0:0:0:0:
402,268,288405,1,0,0:0:0:0:
408,294,288478,1,0,0:0:0:0:
415,319,288550,1,0,0:0:0:0:
236,304,288694,5,0,0:0:0:0:
236,304,288766,1,0,0:0:0:0:
236,304,288838,1,0,0:0:0:0:
294,199,288982,1,0,0:0:0:0:
96,231,289127,1,0,0:0:0:0:
131,227,289199,1,0,0:0:0:0:
161,207,289271,1,0,0:0:0:0:
179,175,289343,1,0,0:0:0:0:
181,139,289415,6,0,P|170:104|153:81,1,44.999998626709
5,31,289559,2,0,P|16:66|33:89,1,44.999998626709
21,215,289703,1,0,0:0:0:0:
176,24,289848,1,0,0:0:0:0:
219,13,289920,1,0,0:0:0:0:
263,18,289992,1,0,0:0:0:0:
303,38,290064,1,0,0:0:0:0:
320,79,290136,1,0,0:0:0:0:
352,109,290208,1,0,0:0:0:0:
395,118,290280,6,0,L|451:101,1,44.999998626709
247,243,290425,2,0,L|191:226,1,44.999998626709
420,276,290569,2,0,L|437:299,6,22.4999993133545
321,281,290857,5,0,0:0:0:0:
160,293,291002,1,0,0:0:0:0:
142,264,291074,1,0,0:0:0:0:
133,237,291146,2,0,P|141:205|151:187,1,48.7499977684022
45,278,291290,1,0,0:0:0:0:
135,114,291434,2,0,P|71:91|19:98,1,97.4999955368044
227,75,291723,1,0,0:0:0:0:
261,63,291795,1,0,0:0:0:0:
297,62,291867,1,0,0:0:0:0:
332,72,291939,1,0,0:0:0:0:
363,92,292011,5,0,0:0:0:0:
288,200,292155,2,0,P|294:261|335:305,1,97.4999955368044
254,346,292372,1,0,0:0:0:0:
254,346,292444,2,0,L|226:344,6,24.3749988842011
136,312,292732,1,0,0:0:0:0:
95,227,292877,2,0,L|91:264,2,24.3749988842011
135,183,293021,1,0,0:0:0:0:
108,169,293093,1,0,0:0:0:0:
83,154,293165,6,0,P|47:103|40:40,1,97.4999955368044
142,239,293453,1,0,0:0:0:0:
259,198,293598,1,0,0:0:0:0:
258,246,293670,1,0,0:0:0:0:
279,289,293742,1,0,0:0:0:0:
317,319,293814,1,0,0:0:0:0:
365,329,293886,1,0,0:0:0:0:
435,223,294030,1,0,0:0:0:0:
441,174,294103,1,0,0:0:0:0:
448,126,294175,1,0,0:0:0:0:
454,78,294247,1,0,0:0:0:0:
461,29,294319,6,0,L|341:65,1,97.4999955368044
313,89,294535,1,0,0:0:0:0:
313,89,294607,1,0,0:0:0:0:
339,129,294679,1,0,0:0:0:0:
339,177,294752,1,0,0:0:0:0:
313,217,294824,1,0,0:0:0:0:
268,236,294896,1,0,0:0:0:0:
198,137,295040,2,0,L|197:73,1,48.7499977684022
89,198,295184,2,0,P|85:161|93:114,1,48.7499977684022
248,231,295328,2,0,P|266:215|281:180,1,48.7499977684022
117,371,295473,5,0,0:0:0:0:
268,236,295617,2,0,L|274:291,2,48.7499977684022
197,169,295833,1,0,0:0:0:0:
197,169,295905,2,0,L|191:91,1,48.7499977684022
305,61,296050,1,0,0:0:0:0:
329,184,296194,2,0,P|392:197|457:157,2,97.4999955368044
394,104,296554,1,0,0:0:0:0:
394,104,296627,6,0,L|391:36,1,48.7499977684022
305,61,296771,1,0,0:0:0:0:
305,61,296843,1,0,0:0:0:0:
305,61,296915,1,0,0:0:0:0:
156,63,297059,1,0,0:0:0:0:
156,63,297131,2,0,L|187:75,2,24.3749988842011
62,148,297348,1,0,0:0:0:0:
158,209,297492,2,0,L|159:178,6,24.3749988842011
96,301,297780,5,0,0:0:0:0:
265,262,297925,2,0,P|317:253|376:261,1,97.4999955368044
443,318,298213,2,0,L|444:253,1,48.7499977684022
360,139,298357,2,0,P|359:174|365:192,1,48.7499977684022
443,84,298502,1,0,0:0:0:0:
286,151,298646,1,0,0:0:0:0:
304,107,298718,1,0,0:0:0:0:
287,63,298790,1,0,0:0:0:0:
244,43,298862,1,0,0:0:0:0:
199,60,298934,6,0,P|141:76|92:63,1,97.4999955368044
96,210,299151,1,0,0:0:0:0:
96,210,299223,2,0,L|88:138,1,48.7499977684022
175,234,299367,1,0,0:0:0:0:
181,282,299439,1,0,0:0:0:0:
187,330,299511,1,0,0:0:0:0:
314,255,299655,1,0,0:0:0:0:
321,277,299728,1,0,0:0:0:0:
328,292,299800,1,0,0:0:0:0:
388,287,299872,1,0,0:0:0:0:
429,243,299944,1,0,0:0:0:0:
430,184,300016,1,0,0:0:0:0:
392,139,300088,1,0,0:0:0:0:
272,105,300232,5,0,0:0:0:0:
272,105,300304,1,0,0:0:0:0:
272,105,300377,2,0,P|238:107|209:109,1,48.7499977684022
116,155,300521,1,0,0:0:0:0:
268,192,300665,1,0,0:0:0:0:
229,213,300737,1,0,0:0:0:0:
191,236,300809,1,0,0:0:0:0:
71,307,300953,1,0,0:0:0:0:
113,284,301026,1,0,0:0:0:0:
139,243,301098,1,0,0:0:0:0:
139,195,301170,1,0,0:0:0:0:
116,155,301242,6,0,P|90:104|102:53,1,97.4999955368044
245,55,301458,1,0,0:0:0:0:
245,55,301530,2,0,L|190:76,1,48.7499977684022
318,153,301675,1,0,0:0:0:0:
318,153,301747,2,0,L|324:128,2,24.3749988842011
256,238,301963,1,0,0:0:0:0:
367,274,302107,2,0,L|357:299,6,24.3749988842011
261,328,302396,6,0,P|210:313|160:317,1,97.4999955368044
105,156,302684,2,0,P|88:219|95:267,1,97.4999955368044
201,182,302901,1,0,0:0:0:0:
201,182,302973,2,0,L|184:129,1,48.7499977684022
282,75,303117,1,0,0:0:0:0:
413,160,303261,1,0,0:0:0:0:
418,208,303333,1,0,0:0:0:0:
405,254,303405,1,0,0:0:0:0:
374,292,303478,1,0,0:0:0:0:
331,314,303550,6,0,P|260:312|224:328,1,97.4999955368044
162,265,303766,1,0,0:0:0:0:
162,265,303838,1,0,0:0:0:0:
154,221,303910,1,0,0:0:0:0:
147,177,303982,1,0,0:0:0:0:
131,71,304127,1,0,0:0:0:0:
131,71,304199,1,0,0:0:0:0:
131,71,304271,1,0,0:0:0:0:
261,86,304415,2,0,P|298:91|331:104,1,48.7499977684022
427,161,304559,2,0,P|392:168|373:183,1,48.7499977684022
279,219,304703,5,0,0:0:0:0:
283,32,304848,1,0,0:0:0:0:
135,96,304992,2,0,P|127:35|147:1,1,97.4999955368044
197,163,305208,1,0,0:0:0:0:
197,163,305280,2,0,P|168:184|138:187,1,48.7499977684022
38,181,305425,1,0,0:0:0:0:
107,314,305569,2,0,P|114:287|105:239,1,48.7499977684022
205,251,305713,2,0,P|219:272|257:288,1,48.7499977684022
333,272,305857,5,0,0:0:0:0:
317,91,306002,1,0,0:0:0:0:
317,91,306074,1,0,0:0:0:0:
317,91,306146,1,0,0:0:0:0:
192,141,306290,1,0,0:0:0:0:
62,116,306434,2,0,P|79:107|101:82,1,48.7499977684022
55,130,306578,1,0,0:0:0:0:
58,257,306723,2,0,P|66:233|96:204,1,48.7499977684022
174,319,306867,2,0,P|204:297|239:294,1,48.7499977684022
207,170,307011,5,0,0:0:0:0:
90,334,307155,1,0,0:0:0:0:
293,261,307300,2,0,P|326:292|382:292,1,97.4999955368044
386,140,307516,1,0,0:0:0:0:
386,140,307588,2,0,L|388:215,1,48.7499977684022
461,93,307732,1,0,0:0:0:0:
304,53,307877,1,0,0:0:0:0:
276,93,307949,1,0,0:0:0:0:
235,118,308021,1,0,0:0:0:0:
187,126,308093,1,0,0:0:0:0:
141,113,308165,6,0,L|101:77,1,48.7499977684022
8,29,308309,1,0,0:0:0:0:
18,76,308381,1,0,0:0:0:0:
29,124,308453,1,0,0:0:0:0:
16,170,308526,1,0,0:0:0:0:
2,217,308598,2,0,L|-21:273,1,48.7499977684022
122,296,308742,5,0,0:0:0:0:
165,326,308814,1,0,0:0:0:0:
216,338,308886,1,0,0:0:0:0:
269,331,308958,1,0,0:0:0:0:
314,302,309030,1,0,0:0:0:0:
351,243,309103,1,0,0:0:0:0:
355,175,309175,1,0,0:0:0:0:
319,100,309247,1,0,0:0:0:0:
244,63,309319,6,0,P|182:82|124:61,1,112.500004291535
67,51,309752,1,0,0:0:0:0:
72,148,309896,2,0,L|74:171,12,14.0625005364418
56,234,310473,6,0,L|127:260,1,56.2500021457673
168,206,310761,2,0,L|216:264,1,56.2500021457673
278,237,311050,2,0,L|290:311,1,56.2500021457673
358,319,311338,2,0,L|332:390,1,56.2500021457673
377,240,311627,6,0,P|378:204|390:159,1,56.2500021457673
318,105,311915,2,0,P|359:85|394:87,1,56.2500021457673
255,47,312203,2,0,P|214:30|182:33,1,56.2500021457673
123,122,312492,2,0,L|117:50,1,56.2500021457673
65,184,312780,5,0,0:0:0:0:
66,205,312853,1,0,0:0:0:0:
67,226,312925,1,0,0:0:0:0:
69,247,312997,1,0,0:0:0:0:
72,267,313069,2,0,L|74:300,3,28.1250010728836
118,327,313357,6,0,P|174:313|246:329,1,112.500004291535
311,367,313790,1,0,0:0:0:0:
303,270,313934,2,0,L|296:248,14,14.0625005364418
334,174,314511,6,0,P|317:136|320:100,1,56.2500021457673
179,82,314800,2,0,P|217:67|250:69,1,56.2500021457673
228,168,315088,2,0,L|162:186,1,56.2500021457673
47,140,315377,2,0,P|46:182|57:212,1,56.2500021457673
90,312,315665,5,0,0:0:0:0:
90,312,315809,1,0,0:0:0:0:
241,248,315953,2,0,L|159:242,1,56.2500021457673
235,345,316242,1,0,0:0:0:0:
235,345,316386,1,0,0:0:0:0:
337,264,316530,2,0,P|338:318|349:334,1,56.2500021457673
415,286,316819,5,0,0:0:0:0:
417,265,316891,1,0,0:0:0:0:
419,244,316963,1,0,0:0:0:0:
422,223,317035,1,0,0:0:0:0:
423,200,317107,2,0,L|392:214,3,28.1250010728836
435,108,317396,6,0,P|390:125|307:99,1,112.500004291535
375,23,317828,1,0,0:0:0:0:
240,50,317973,2,0,L|217:53,14,14.0625005364418
144,70,318550,6,0,L|133:150,1,56.2500021457673
44,143,318838,2,0,L|55:223,1,56.2500021457673
142,210,319127,2,0,L|131:290,1,56.2500021457673
46,277,319415,1,0,0:0:0:0:
46,277,319487,1,0,0:0:0:0:
46,277,319559,1,0,0:0:0:0:
104,346,319703,6,0,P|142:361|172:355,1,56.2500021457673
209,282,319992,2,0,P|246:286|268:298,1,56.2500021457673
365,344,320280,2,0,L|354:280,1,56.2500021457673
439,281,320569,2,0,L|447:216,1,56.2500021457673
351,149,320857,5,0,0:0:0:0:
369,127,320929,1,0,0:0:0:0:
381,102,321002,1,0,0:0:0:0:
386,74,321074,1,0,0:0:0:0:
382,48,321146,2,0,L|378:16,3,28.1250010728836
287,76,321434,6,0,B|229:85|229:85|168:76,1,112.500004291535
93,50,321867,1,0,0:0:0:0:
109,138,322011,2,0,L|110:155,14,14.0625005364418
113,245,322588,6,0,P|94:280|65:303,1,56.2500021457673
191,281,322877,2,0,P|191:322|183:346,1,56.2500021457673
275,313,323165,2,0,P|304:321|340:311,1,56.2500021457673
313,221,323453,2,0,L|313:201,6,14.0625005364418
261,148,323742,6,0,L|249:70,1,56.2500021457673
371,148,324030,2,0,L|383:70,1,56.2500021457673
288,26,324319,2,0,P|240:18|223:26,1,56.2500021457673
121,75,324607,2,0,P|115:114|100:131,1,56.2500021457673
63,206,324896,5,0,0:0:0:0:
68,233,324968,1,0,0:0:0:0:
82,257,325040,1,0,0:0:0:0:
104,275,325112,1,0,0:0:0:0:
130,286,325184,2,0,L|170:286,3,28.1250010728836
255,319,325473,6,0,P|258:284|255:256,1,56.2500021457673
256,113,325761,2,0,P|253:151|254:170,1,56.2500021457673
336,208,326050,2,0,L|397:205,1,56.2500021457673
353,226,326338,2,0,L|424:220,1,56.2500021457673
412,108,326627,6,0,P|393:75|361:60,1,56.2500021457673
306,113,326915,2,0,P|271:113|245:96,1,56.2500021457673
133,72,327203,2,0,L|143:-2,1,56.2500021457673
116,187,327492,2,0,L|111:217,2,28.1250010728836
38,296,327780,6,0,L|111:310,1,56.2500021457673
168,352,328069,2,0,L|239:360,1,56.2500021457673
296,244,328357,2,0,L|306:310,1,56.2500021457673
323,268,328646,2,0,L|330:332,1,56.2500021457673
405,233,328934,6,0,L|413:266,3,28.1250010728836
326,177,329223,2,0,L|319:146,3,28.1250010728836
226,183,329511,6,0,P|187:187|154:194,1,56.2500021457673
92,280,329800,2,0,L|172:265,1,56.2500021457673
88,138,330088,2,0,L|98:198,1,56.2500021457673
51,130,330377,2,0,L|60:189,1,56.2500021457673
165,89,330665,6,0,P|128:61|114:58,1,56.2500021457673
253,120,330953,2,0,P|229:147|224:167,1,56.2500021457673
157,234,331242,2,0,P|187:254|213:260,1,56.2500021457673
318,221,331530,2,0,P|349:226|371:244,1,56.2500021457673
411,349,331819,1,0,0:0:0:0:
404,97,332107,1,0,0:0:0:0:
218,130,332396,6,0,L|279:126,1,56.2500021457673
152,167,332684,2,0,L|217:162,1,56.2500021457673
58,149,332973,6,0,L|55:115,3,28.1250010728836
18,226,333261,2,0,L|22:260,3,28.1250010728836
139,303,333550,6,0,P|188:303|250:335,1,112.500004291535
346,186,334127,2,0,L|351:299,1,112.500004291535
187,160,334703,6,0,B|187:110|187:110|210:46,1,112.500004291535
411,87,335280,2,0,P|351:115|297:110,1,112.500004291535
71,81,335857,2,0,P|74:142|51:209,1,112.500004291535
257,342,336434,2,0,P|195:363|143:344,1,112.500004291535
196,246,337011,2,0,L|229:252,3,28.1250010728836
294,193,337300,2,0,L|328:197,3,28.1250010728836
384,120,337588,6,0,B|423:158|427:210|403:244|403:244|447:203|464:114|435:36|435:36|374:56|296:38|296:38|267:78|219:174|290:249|290:249|249:228|188:237|188:237|156:253|110:248,1,900
123,248,341627,5,0,0:0:0:0:
327,300,341771,1,0,0:0:0:0:
299,58,341915,1,0,0:0:0:0:
299,58,341987,1,0,0:0:0:0:
299,58,342059,2,0,P|278:119|281:172,1,89.9999972534181
144,334,342348,2,0,L|88:352,1,44.999998626709
305,214,342492,2,0,L|361:232,1,44.999998626709
150,142,342636,1,0,0:0:0:0:
150,142,342708,1,0,0:0:0:0:
150,142,342780,6,0,P|131:92|139:43,1,89.9999972534181
26,242,343069,1,0,0:0:0:0:
63,217,343141,1,0,0:0:0:0:
107,215,343213,1,0,0:0:0:0:
147,235,343285,1,0,0:0:0:0:
176,268,343357,2,0,P|197:269|236:256,1,44.999998626709
313,158,343502,2,0,P|334:157|373:170,1,44.999998626709
429,310,343646,1,0,0:0:0:0:
436,284,343718,1,0,0:0:0:0:
443,258,343790,1,0,0:0:0:0:
451,232,343862,1,0,0:0:0:0:
459,206,343934,6,0,L|441:95,1,89.9999972534181
391,53,344151,1,0,0:0:0:0:
391,53,344223,2,0,P|423:37|458:33,1,44.999998626709
313,158,344367,1,0,0:0:0:0:
118,38,344511,1,0,0:0:0:0:
118,38,344583,1,0,0:0:0:0:
118,38,344655,2,0,L|-1:31,1,89.9999972534181
265,58,344944,1,0,0:0:0:0:
85,153,345088,5,0,0:0:0:0:
126,170,345160,1,0,0:0:0:0:
149,208,345232,1,0,0:0:0:0:
154,252,345304,1,0,0:0:0:0:
139,295,345377,2,0,L|88:320,1,44.999998626709
276,228,345521,1,0,0:0:0:0:
316,247,345593,1,0,0:0:0:0:
359,259,345665,2,0,L|422:253,1,44.999998626709
238,118,345809,1,0,0:0:0:0:
256,344,345953,1,0,0:0:0:0:
422,126,346098,1,0,0:0:0:0:
422,126,346170,1,0,0:0:0:0:
422,126,346242,5,0,0:0:0:0:
193,223,346386,1,0,0:0:0:0:
323,34,346530,1,0,0:0:0:0:
116,98,346675,2,0,L|172:115,1,44.999998626709
25,49,346819,1,0,0:0:0:0:
29,93,346891,1,0,0:0:0:0:
33,137,346963,1,0,0:0:0:0:
38,181,347035,1,0,0:0:0:0:
42,225,347107,2,0,L|-14:242,1,44.999998626709
217,333,347252,1,0,0:0:0:0:
217,333,347324,1,0,0:0:0:0:
217,333,347396,6,0,P|287:332|322:311,1,89.9999972534181
252,28,347684,1,0,0:0:0:0:
171,175,347828,2,0,P|221:223|260:233,1,89.9999972534181
454,146,348117,2,0,P|489:152|505:162,1,44.999998626709
296,149,348261,2,0,P|261:143|245:133,1,44.999998626709
397,262,348405,1,0,0:0:0:0:
402,298,348478,1,0,0:0:0:0:
406,333,348550,6,0,P|363:328|310:347,1,89.9999972534181
98,354,348838,1,0,0:0:0:0:
130,322,348910,1,0,0:0:0:0:
139,278,348982,1,0,0:0:0:0:
127,234,349054,1,0,0:0:0:0:
88,209,349127,2,0,P|140:206|176:175,1,89.9999972534181
275,79,349415,2,0,P|271:40|266:18,1,44.999998626709
453,160,349559,1,0,0:0:0:0:
453,160,349631,1,0,0:0:0:0:
453,160,349703,6,0,P|457:121|462:99,1,44.999998626709
495,263,349848,1,0,0:0:0:0:
453,244,349920,1,0,0:0:0:0:
408,249,349992,1,0,0:0:0:0:
372,276,350064,1,0,0:0:0:0:
361,319,350136,1,0,0:0:0:0:
337,357,350208,1,0,0:0:0:0:
295,374,350280,2,0,L|243:365,1,44.999998626709
131,296,350425,1,0,0:0:0:0:
95,300,350497,1,0,0:0:0:0:
59,303,350569,2,0,L|30:314,6,22.4999993133545
72,229,350857,6,0,L|77:130,1,89.9999972534181
197,9,351146,1,0,0:0:0:0:
197,9,351218,1,0,0:0:0:0:
197,9,351290,2,0,L|186:71,1,44.999998626709
219,253,351434,1,0,0:0:0:0:
435,126,351578,1,0,0:0:0:0:
350,334,351723,1,0,0:0:0:0:
221,148,351867,1,0,0:0:0:0:
221,148,351939,1,0,0:0:0:0:
221,148,352011,6,0,L|112:138,1,89.9999972534181
69,178,352228,1,0,0:0:0:0:
69,178,352300,2,0,L|141:187,1,44.999998626709
290,191,352444,2,0,L|326:191,2,22.4999993133545
225,243,352588,6,0,P|208:286|218:337,1,89.9999972534181
410,157,352877,1,0,0:0:0:0:
367,141,352949,1,0,0:0:0:0:
324,125,353021,1,0,0:0:0:0:
281,110,353093,1,0,0:0:0:0:
239,94,353165,2,0,L|181:109,1,44.999998626709
55,302,353309,1,0,0:0:0:0:
7,92,353453,1,0,0:0:0:0:
178,256,353598,2,0,L|176:284,2,22.4999993133545
234,197,353742,6,0,L|336:189,1,89.9999972534181
504,307,354030,1,0,0:0:0:0:
469,300,354103,1,0,0:0:0:0:
434,294,354175,2,0,L|385:305,1,44.999998626709
197,353,354319,1,0,0:0:0:0:
323,189,354463,1,0,0:0:0:0:
102,214,354607,1,0,0:0:0:0:
102,214,354679,1,0,0:0:0:0:
102,214,354752,2,0,L|91:155,1,44.999998626709
347,77,354896,6,0,P|397:80|413:85,1,44.999998626709
238,251,355040,2,0,P|188:248|172:243,1,44.999998626709
491,149,355184,1,0,0:0:0:0:
460,176,355256,1,0,0:0:0:0:
457,216,355328,2,0,L|467:284,1,44.999998626709
286,380,355473,6,0,L|306:282,1,89.9999972534181
318,223,355689,1,0,0:0:0:0:
318,223,355761,1,0,0:0:0:0:
86,27,355905,2,0,L|106:125,1,89.9999972534181
352,43,356194,2,0,L|333:95,1,44.999998626709
142,232,356338,1,0,0:0:0:0:
144,272,356410,1,0,0:0:0:0:
146,312,356482,2,0,L|173:382,1,44.999998626709
0,193,356627,6,0,P|44:200|94:173,1,89.9999972534181
286,0,356915,1,0,0:0:0:0:
193,84,357059,2,0,P|164:118|163:175,1,89.9999972534181
268,317,357348,2,0,L|345:328,1,44.999998626709
472,178,357492,1,0,0:0:0:0:
442,198,357564,1,0,0:0:0:0:
406,202,357636,1,0,0:0:0:0:
371,193,357708,1,0,0:0:0:0:
341,172,357780,6,0,L|332:60,1,89.9999972534181
135,281,358069,1,0,0:0:0:0:
135,281,358141,1,0,0:0:0:0:
135,281,358213,2,0,L|139:200,1,44.999998626709
208,368,358357,5,0,0:0:0:0:
218,323,358429,1,0,0:0:0:0:
227,279,358502,1,0,0:0:0:0:
237,235,358574,1,0,0:0:0:0:
247,191,358646,2,0,L|244:98,1,89.9999972534181
240,26,358862,1,0,0:0:0:0:
240,26,358934,6,0,P|192:23|170:30,1,44.999998626709
359,238,359078,1,0,0:0:0:0:
404,240,359151,1,0,0:0:0:0:
441,215,359223,1,0,0:0:0:0:
464,176,359295,1,0,0:0:0:0:
465,131,359367,1,0,0:0:0:0:
448,89,359439,1,0,0:0:0:0:
408,68,359511,1,0,0:0:0:0:
363,65,359583,1,0,0:0:0:0:
326,91,359655,2,0,P|308:119|300:156,1,44.999998626709
312,323,359800,2,0,L|328:344,6,22.4999993133545
394,334,360088,6,0,L|460:336,1,44.999998626709
224,348,360232,1,0,0:0:0:0:
237,305,360304,1,0,0:0:0:0:
225,260,360377,1,0,0:0:0:0:
209,217,360449,1,0,0:0:0:0:
209,172,360521,2,0,L|246:129,1,44.999998626709
36,133,360665,1,0,0:0:0:0:
36,133,360737,1,0,0:0:0:0:
36,133,360809,2,0,L|31:76,1,44.999998626709
0,313,360953,1,0,0:0:0:0:
36,308,361026,1,0,0:0:0:0:
71,303,361098,1,0,0:0:0:0:
106,298,361170,1,0,0:0:0:0:
141,295,361242,6,0,L|193:315,1,44.999998626709
418,184,361386,1,0,0:0:0:0:
190,27,361530,1,0,0:0:0:0:
209,57,361603,1,0,0:0:0:0:
219,91,361675,2,0,P|223:110|220:130,6,22.4999993133545
158,146,361963,1,0,0:0:0:0:
28,42,362107,2,0,P|24:23|27:3,6,22.4999993133545
86,102,362396,6,0,L|84:148,1,44.999998626709
117,345,362540,1,0,0:0:0:0:
149,329,362612,1,0,0:0:0:0:
184,324,362684,2,0,P|247:320|280:306,1,89.9999972534181
330,260,362901,1,0,0:0:0:0:
330,260,362973,2,0,P|371:268|400:280,1,44.999998626709
158,146,363117,1,0,0:0:0:0:
175,104,363189,1,0,0:0:0:0:
213,81,363261,1,0,0:0:0:0:
257,80,363333,1,0,0:0:0:0:
297,99,363405,1,0,0:0:0:0:
341,106,363478,1,0,0:0:0:0:
383,91,363550,6,0,L|401:37,1,44.999998626709
120,26,363694,2,0,L|102:80,1,44.999998626709
253,270,363838,1,0,0:0:0:0:
222,237,363910,1,0,0:0:0:0:
176,237,363982,1,0,0:0:0:0:
143,267,364054,1,0,0:0:0:0:
101,285,364127,1,0,0:0:0:0:
62,261,364199,1,0,0:0:0:0:
60,216,364271,1,0,0:0:0:0:
96,189,364343,1,0,0:0:0:0:
135,209,364415,1,0,0:0:0:0:
142,253,364487,1,0,0:0:0:0:
124,294,364559,1,0,0:0:0:0:
122,338,364631,1,0,0:0:0:0:
152,371,364703,6,0,L|264:361,1,89.9999972534181
232,118,364992,2,0,P|201:124|169:146,1,44.999998626709
469,192,365136,2,0,P|499:185|531:163,1,44.999998626709
319,5,365280,1,0,0:0:0:0:
328,49,365353,1,0,0:0:0:0:
335,93,365425,2,0,L|380:159,1,44.999998626709
400,341,365569,1,0,0:0:0:0:
373,304,365641,1,0,0:0:0:0:
330,289,365713,1,0,0:0:0:0:
286,299,365785,1,0,0:0:0:0:
250,339,365857,5,0,0:0:0:0:
215,380,365929,1,0,0:0:0:0:
160,381,366002,1,0,0:0:0:0:
133,334,366074,1,0,0:0:0:0:
161,288,366146,2,0,L|205:264,1,44.999998626709
392,206,366290,2,0,P|410:202|434:199,6,22.4999993133545
317,181,366578,1,0,0:0:0:0:
294,18,366723,2,0,P|303:2|318:-16,6,22.4999993133545
278,104,367011,6,0,L|225:109,1,44.999998626709
60,3,367155,1,0,0:0:0:0:
21,189,367300,1,0,0:0:0:0:
59,165,367372,1,0,0:0:0:0:
102,175,367444,2,0,L|150:220,1,44.999998626709
252,325,367588,1,0,0:0:0:0:
290,348,367660,1,0,0:0:0:0:
334,345,367732,1,0,0:0:0:0:
364,312,367804,1,0,0:0:0:0:
400,284,367877,2,0,P|427:275|461:278,1,44.999998626709
297,167,368021,1,0,0:0:0:0:
297,167,368093,1,0,0:0:0:0:
297,167,368165,6,0,P|309:141|335:119,1,44.999998626709
512,29,368309,2,0,P|499:54|473:76,1,44.999998626709
288,14,368453,1,0,0:0:0:0:
242,19,368526,1,0,0:0:0:0:
197,24,368598,1,0,0:0:0:0:
152,30,368670,1,0,0:0:0:0:
107,35,368742,2,0,L|75:80,1,44.999998626709
234,317,368886,1,0,0:0:0:0:
391,127,369030,2,0,P|389:89|381:62,1,44.999998626709
153,239,369175,2,0,P|155:277|163:304,1,44.999998626709
503,219,369319,6,0,L|394:209,1,89.9999972534181
221,59,369607,1,0,0:0:0:0:
250,92,369679,1,0,0:0:0:0:
295,96,369752,1,0,0:0:0:0:
330,69,369824,1,0,0:0:0:0:
365,40,369896,1,0,0:0:0:0:
409,40,369968,1,0,0:0:0:0:
446,64,370040,2,0,L|462:117,1,44.999998626709
503,299,370184,1,0,0:0:0:0:
503,299,370256,1,0,0:0:0:0:
503,299,370328,2,0,L|487:352,1,44.999998626709
187,343,370473,5,0,0:0:0:0:
388,182,370617,1,0,0:0:0:0:
160,236,370761,1,0,0:0:0:0:
126,222,370833,1,0,0:0:0:0:
93,205,370905,2,0,L|67:206,6,22.4999993133545
16,156,371194,1,0,0:0:0:0:
156,70,371338,2,0,L|182:71,6,22.4999993133545
176,155,371627,6,0,L|229:148,1,44.999998626709
476,42,371771,1,0,0:0:0:0:
238,25,371915,1,0,0:0:0:0:
475,152,372059,1,0,0:0:0:0:
430,147,372131,1,0,0:0:0:0:
392,172,372203,1,0,0:0:0:0:
387,217,372276,1,0,0:0:0:0:
407,257,372348,1,0,0:0:0:0:
408,301,372420,1,0,0:0:0:0:
375,332,372492,2,0,P|351:342|315:343,1,44.999998626709
176,155,372636,1,0,0:0:0:0:
207,137,372708,1,0,0:0:0:0:
242,129,372780,6,0,P|267:125|302:133,1,44.999998626709
192,348,372925,1,0,0:0:0:0:
77,118,373069,1,0,0:0:0:0:
305,256,373213,2,0,L|246:247,1,44.999998626709
321,45,373357,1,0,0:0:0:0:
309,89,373429,1,0,0:0:0:0:
319,132,373502,1,0,0:0:0:0:
356,156,373574,1,0,0:0:0:0:
398,142,373646,2,0,L|446:154,1,44.999998626709
133,220,373790,1,0,0:0:0:0:
133,220,373862,1,0,0:0:0:0:
133,220,373934,6,0,L|235:205,1,89.9999972534181
511,278,374223,2,0,L|424:268,1,44.999998626709
219,329,374367,1,0,0:0:0:0:
219,329,374439,2,0,L|271:324,1,44.999998626709
398,357,374583,1,0,0:0:0:0:
398,357,374655,2,0,P|374:300|375:253,1,89.9999972534181
392,190,374872,1,0,0:0:0:0:
412,160,374944,1,0,0:0:0:0:
418,124,375016,1,0,0:0:0:0:
409,89,375088,6,0,P|395:34|403:2,1,89.9999972534181
489,201,375377,2,0,L|470:252,1,44.999998626709
265,87,375521,1,0,0:0:0:0:
265,87,375593,1,0,0:0:0:0:
265,87,375665,1,0,0:0:0:0:
118,306,375809,1,0,0:0:0:0:
49,96,375953,1,0,0:0:0:0:
262,254,376098,1,0,0:0:0:0:
288,277,376170,1,0,0:0:0:0:
314,301,376242,6,0,L|321:351,1,44.999998626709
76,231,376386,2,0,L|69:181,1,44.999998626709
366,158,376530,1,0,0:0:0:0:
140,57,376675,1,0,0:0:0:0:
262,254,376819,1,0,0:0:0:0:
268,218,376891,1,0,0:0:0:0:
273,182,376963,2,0,L|260:134,1,44.999998626709
131,384,377107,1,0,0:0:0:0:
125,348,377179,1,0,0:0:0:0:
120,312,377252,2,0,L|133:264,1,44.999998626709
171,13,377396,5,0,0:0:0:0:
140,57,377468,1,0,0:0:0:0:
148,110,377540,1,0,0:0:0:0:
191,141,377612,1,0,0:0:0:0:
244,141,377684,1,0,0:0:0:0:
289,112,377756,1,0,0:0:0:0:
342,110,377828,1,0,0:0:0:0:
384,144,377901,1,0,0:0:0:0:
387,197,377973,1,0,0:0:0:0:
355,240,378045,1,0,0:0:0:0:
306,262,378117,2,0,L|251:249,1,44.999998626709
14,134,378261,2,0,L|1:113,6,22.4999993133545
33,157,378550,6,0,P|35:216|7:257,1,75
48,304,378838,1,0,0:0:0:0:
117,245,378982,1,0,0:0:0:0:
202,287,379127,2,0,L|202:332,3,37.5
266,234,379415,1,0,0:0:0:0:
267,215,379487,1,0,0:0:0:0:
269,196,379559,1,0,0:0:0:0:
271,177,379631,1,0,0:0:0:0:
272,157,379703,6,0,L|303:129,3,37.5
398,156,379992,2,0,P|396:95|351:48,1,112.5
304,40,380280,1,0,0:0:0:0:
208,82,380425,1,0,0:0:0:0:
92,61,380569,1,0,0:0:0:0:
95,79,380641,1,0,0:0:0:0:
99,97,380713,1,0,0:0:0:0:
103,116,380785,1,0,0:0:0:0:
107,134,380857,1,0,0:0:0:0:
104,262,381002,6,0,L|80:211,1,37.5
104,262,381146,2,0,P|150:249|193:264,1,75
245,294,381362,1,0,0:0:0:0:
245,294,381434,2,0,L|237:333,2,37.5
242,204,381651,1,0,0:0:0:0:
242,204,381723,2,0,L|250:164,3,37.5
280,74,382011,5,0,0:0:0:0:
298,70,382083,1,0,0:0:0:0:
316,66,382155,1,0,0:0:0:0:
335,62,382228,1,0,0:0:0:0:
353,58,382300,2,0,L|391:69,3,37.5
429,172,382588,6,0,P|384:159|313:196,1,112.5
255,239,382877,1,0,0:0:0:0:
214,160,383021,1,0,0:0:0:0:
142,213,383165,2,0,L|96:243,3,37.5
56,128,383453,2,0,L|90:151,3,37.5
160,90,383742,5,0,0:0:0:0:
160,90,383814,1,0,0:0:0:0:
160,90,383886,1,0,0:0:0:0:
264,148,384030,2,0,L|272:102,3,37.5
353,41,384319,6,0,P|355:89|379:131,1,75
453,125,384535,1,0,0:0:0:0:
445,148,384607,1,0,0:0:0:0:
432,169,384679,1,0,0:0:0:0:
413,188,384752,2,0,L|383:198,3,18.75
415,211,384896,6,0,L|423:331,1,112.5
384,334,385184,2,0,P|323:309|246:316,1,112.5
221,343,385473,1,0,0:0:0:0:
176,273,385617,1,0,0:0:0:0:
113,336,385761,2,0,P|65:313|38:258,1,112.5
42,239,386050,5,0,0:0:0:0:
44,220,386122,1,0,0:0:0:0:
47,201,386194,1,0,0:0:0:0:
49,183,386266,1,0,0:0:0:0:
53,164,386338,2,0,L|90:139,3,37.5
180,101,386627,5,0,0:0:0:0:
180,101,386915,2,0,P|219:113|260:103,1,75
280,71,387131,1,0,0:0:0:0:
280,71,387203,1,0,0:0:0:0:
350,115,387348,2,0,L|394:108,4,37.5
315,187,387708,1,0,0:0:0:0:
315,187,387780,6,0,P|324:245|352:264,1,75
268,320,388069,2,0,P|224:344|169:344,1,75
94,313,388357,1,0,0:0:0:0:
97,294,388429,1,0,0:0:0:0:
100,276,388502,1,0,0:0:0:0:
103,257,388574,1,0,0:0:0:0:
105,238,388646,2,0,L|75:213,3,37.5
140,139,388934,5,0,0:0:0:0:
140,139,389078,1,0,0:0:0:0:
61,54,389223,2,0,P|114:62|176:46,1,112.5
241,98,389511,2,0,L|234:142,3,37.5
316,73,389800,2,0,L|323:29,3,37.5
346,151,390088,5,0,0:0:0:0:
342,169,390160,1,0,0:0:0:0:
338,187,390232,1,0,0:0:0:0:
335,206,390304,1,0,0:0:0:0:
331,226,390377,2,0,L|332:273,3,37.5
342,348,390665,6,0,L|260:351,1,75
179,235,390953,1,0,0:0:0:0:
179,254,391026,1,0,0:0:0:0:
178,275,391098,1,0,0:0:0:0:
86,264,391242,2,0,L|87:305,1,37.5
38,180,391386,2,0,L|38:136,3,37.5
123,190,391675,1,0,0:0:0:0:
103,107,391819,6,0,P|143:99|184:104,1,75
305,158,392107,2,0,P|244:174|208:163,1,75
275,82,392324,1,0,0:0:0:0:
275,82,392396,2,0,L|271:40,3,37.5
380,78,392684,1,0,0:0:0:0:
380,78,392756,1,0,0:0:0:0:
380,78,392828,2,0,L|379:109,2,18.75
376,173,392973,6,0,P|424:178|460:196,1,75
448,271,393261,1,0,0:0:0:0:
448,271,393333,1,0,0:0:0:0:
448,271,393405,2,0,L|417:280,4,18.75
344,331,393694,6,0,L|313:322,4,18.75
249,280,393982,2,0,L|218:289,4,18.75
140,316,394271,1,0,0:0:0:0:
140,316,394343,1,0,0:0:0:0:
140,316,394415,1,0,0:0:0:0:
139,297,394487,1,0,0:0:0:0:
139,278,394559,1,0,0:0:0:0:
138,259,394631,1,0,0:0:0:0:
137,239,394703,6,0,P|131:193|141:146,1,75
217,112,394992,1,0,0:0:0:0:
217,112,395064,1,0,0:0:0:0:
217,112,395136,1,0,0:0:0:0:
314,142,395280,2,0,L|314:184,1,37.5
377,73,395425,2,0,L|329:61,4,37.5
436,154,395857,2,0,P|429:207|403:236,1,75
366,298,396146,2,0,P|308:293|275:305,1,75
201,313,396434,5,0,0:0:0:0:
182,316,396506,1,0,0:0:0:0:
164,319,396578,1,0,0:0:0:0:
145,322,396651,1,0,0:0:0:0:
126,327,396723,2,0,L|75:338,3,37.5
28,275,397011,6,0,L|81:210,1,75
48,134,397300,2,0,P|90:130|128:152,1,75
186,192,397588,2,0,L|182:246,3,37.5
260,127,397877,2,0,L|258:173,3,37.5
329,205,398165,5,0,0:0:0:0:
327,223,398237,1,0,0:0:0:0:
326,242,398309,1,0,0:0:0:0:
325,261,398381,1,0,0:0:0:0:
322,279,398453,2,0,L|318:334,3,37.5
416,325,398742,5,0,0:0:0:0:
416,325,398886,1,0,0:0:0:0:
434,212,399030,2,0,L|448:254,3,37.5
402,102,399319,2,0,L|383:144,3,37.5
456,45,399607,5,0,0:0:0:0:
440,34,399679,1,0,0:0:0:0:
423,27,399752,1,0,0:0:0:0:
404,24,399824,1,0,0:0:0:0:
384,24,399896,2,0,L|342:40,3,37.5
292,101,400184,2,0,L|246:90,3,37.5
176,54,400473,5,0,0:0:0:0:
176,54,400617,1,0,0:0:0:0:
90,114,400761,1,0,0:0:0:0:
90,114,400833,1,0,0:0:0:0:
90,114,400905,2,0,L|94:150,2,18.75
152,187,401050,6,0,L|165:293,1,75
93,332,401266,1,0,0:0:0:0:
93,332,401338,2,0,P|133:356|180:354,1,75
240,318,401554,1,0,0:0:0:0:
240,318,401627,6,0,L|323:327,1,75
376,260,401915,2,0,L|301:251,1,75
392,338,402203,1,0,0:0:0:0:
409,332,402276,1,0,0:0:0:0:
425,322,402348,1,0,0:0:0:0:
437,308,402420,1,0,0:0:0:0:
446,291,402492,2,0,L|450:248,3,37.5
418,178,402780,5,0,0:0:0:0:
336,82,403069,1,0,0:0:0:0:
336,82,403141,1,0,0:0:0:0:
336,82,403213,1,0,0:0:0:0:
221,134,403357,2,0,L|272:143,1,37.5
165,190,403502,2,0,L|114:199,3,37.5
160,273,403790,1,0,0:0:0:0:
160,273,403862,1,0,0:0:0:0:
160,273,403934,6,0,P|208:290|239:281,1,75
325,318,404223,2,0,P|329:272|315:229,1,75
268,147,404511,2,0,L|240:177,3,37.5
297,155,404800,2,0,P|342:160|391:138,1,75
430,65,405088,5,0,0:0:0:0:
430,65,405232,1,0,0:0:0:0:
309,49,405377,1,0,0:0:0:0:
299,51,405449,1,0,0:0:0:0:
291,55,405521,2,0,L|247:66,1,37.5
188,117,405665,2,0,L|180:159,3,37.5
125,66,405953,2,0,L|133:24,3,37.5
73,127,406242,5,0,0:0:0:0:
76,145,406314,1,0,0:0:0:0:
80,163,406386,1,0,0:0:0:0:
83,182,406458,1,0,0:0:0:0:
87,201,406530,2,0,L|76:245,3,37.5
126,307,406819,5,0,0:0:0:0:
380,336,407107,2,0,L|370:248,1,75
311,171,407396,1,0,0:0:0:0:
311,171,407540,1,0,0:0:0:0:
372,131,407684,1,0,0:0:0:0:
360,116,407756,1,0,0:0:0:0:
345,105,407828,1,0,0:0:0:0:
328,98,407900,1,0,0:0:0:0:
308,96,407973,6,0,L|265:114,3,37.5
210,68,408261,2,0,L|167:86,3,37.5
132,152,408550,1,0,0:0:0:0:
132,152,408694,1,0,0:0:0:0:
195,216,408838,1,0,0:0:0:0:
195,216,408910,1,0,0:0:0:0:
195,216,408982,2,0,L|220:222,4,18.75
264,293,409271,6,0,P|312:300|351:325,1,75
392,353,409487,1,0,0:0:0:0:
392,353,409559,2,0,L|390:322,4,18.75
417,240,409848,2,0,L|415:271,4,18.75
392,149,410136,2,0,L|394:118,4,18.75
319,79,410425,1,0,0:0:0:0:
300,87,410497,1,0,0:0:0:0:
283,84,410569,2,0,L|253:88,6,18.75
251,191,410857,5,0,0:0:0:0:
