osu file format v14

[General]
AudioFilename: audio.mp3
AudioLeadIn: 0
PreviewTime: 15236
Countdown: 1
SampleSet: Soft
StackLeniency: 0.7
Mode: 0
LetterboxInBreaks: 0
WidescreenStoryboard: 0

[Editor]
Bookmarks: 17398,39019,56317,73614,90911
DistanceSpacing: 2.9
BeatDivisor: 8
GridSize: 4
TimelineZoom: 2.699999

[Metadata]
Title:najimi breakers
TitleUnicode:najimi breakers
Artist:goreshit
ArtistUnicode:goreshit
Creator:Moor
Version:a lot of breaks incoming
Source:
Tags:compilation o'er the flood looming shadow nature of dying matzcore
BeatmapID:2170336
BeatmapSetID:1038202

[Difficulty]
HPDrainRate:4
CircleSize:4.1
OverallDifficulty:8
ApproachRate:9.7
SliderMultiplier:1.4
SliderTickRate:1

[Events]
//Background and Video events
0,0,"anime-splash-in-the-ocean-water-hd-wallpaper_1920x1080.jpg",0,0
//Break Periods
//Storyboard Layer 0 (Background)
//Storyboard Layer 1 (Fail)
//Storyboard Layer 2 (Pass)
//Storyboard Layer 3 (Foreground)
//Storyboard Layer 4 (Overlay)
//Storyboard Sound Samples

[TimingPoints]
101,270.27027027027,4,2,0,100,1,0
371,-100,4,2,0,100,0,1
1046,-50,4,2,0,100,0,1
17128,-100,4,2,0,100,0,1
17398,-66.6666666666667,4,2,0,100,0,0
34695,-50,4,2,0,100,0,0
39019,-44.4444444444445,4,2,0,100,0,1
56046,-100,4,2,0,100,0,1
56317,-66.6666666666667,4,2,0,100,0,0
73614,-40,4,2,0,100,0,1
90911,-40,4,2,0,100,0,0

[HitObjects]
240,294,101,6,4,P|312:274|348:251,1,105
464,262,371,1,8,0:0:0:0:
442,234,438,1,0,0:0:0:0:
420,206,506,1,0,0:0:0:0:
399,179,573,1,0,0:0:0:0:
377,151,641,1,8,0:0:0:0:
159,189,776,5,8,0:0:0:0:
186,179,844,1,0,0:0:0:0:
218,169,911,1,0,0:0:0:0:
298,265,1046,2,2,P|294:318|225:346,1,105
163,268,1182,6,4,L|60:317,1,105
148,292,1317,2,4,L|31:346,1,105
76,130,1452,2,2,L|57:227,3,70
177,31,1722,2,8,P|216:82|282:93,1,105
190,113,1857,2,8,P|250:135|304:104,1,105
385,46,1992,2,4,L|381:129,1,70
376,218,2128,1,8,0:0:0:0:
246,339,2263,6,2,P|200:306|261:237,1,140
230,347,2465,2,2,P|184:314|190:213,1,140
244,123,2668,1,8,0:0:0:0:
282,131,2736,1,0,0:0:0:0:
321,141,2803,2,2,L|325:237,1,70
405,159,2938,1,8,0:0:0:0:
451,242,3073,1,0,0:0:0:0:
428,65,3209,6,4,B|394:37|394:37|353:62|271:39,1,140
119,24,3411,2,2,L|181:103,1,70
269,262,3614,1,8,0:0:0:0:
246,238,3681,1,0,0:0:0:0:
219,219,3749,1,8,0:0:0:0:
190,205,3816,1,0,0:0:0:0:
158,196,3884,6,2,L|100:278,1,70
13,149,4019,2,2,L|75:226,1,70
157,275,4155,2,2,L|123:360,1,70
55,95,4290,2,2,L|76:193,1,70
188,46,4425,6,2,P|236:80|334:60,1,140
440,77,4695,1,0,0:0:0:0:
480,180,4830,1,0,0:0:0:0:
282,171,4965,1,4,0:0:0:0:
380,298,5100,1,0,0:0:0:0:
173,161,5236,2,2,P|95:215|69:205,1,105
88,61,5371,2,0,B|123:97|123:97|156:83|190:80,1,105
263,43,5506,6,4,P|352:14|389:15,1,105
441,181,5641,2,4,P|417:128|354:101,1,105
282,171,5776,2,2,P|346:170|373:227,1,105
448,360,5911,2,2,P|483:318|432:283,1,105
274,335,6046,1,8,0:0:0:0:
234,334,6114,1,0,0:0:0:0:
189,331,6182,2,0,B|214:277|225:262|225:262|193:239|177:196,1,140
176,86,6452,2,2,L|173:136,2,35
261,104,6587,2,8,L|352:87,3,70
482,31,6857,6,2,P|493:107|489:126,1,70
426,194,6992,1,8,0:0:0:0:
419,152,7060,1,0,0:0:0:0:
396,121,7128,2,2,P|350:207|331:220,1,87.5
277,206,7263,1,8,0:0:0:0:
257,299,7398,1,0,0:0:0:0:
186,233,7533,2,2,P|135:196|165:143,1,105
247,79,7668,2,8,L|264:32,1,35
292,66,7736,2,8,L|311:17,1,35
335,51,7803,6,8,L|379:49,1,35
484,73,7938,2,2,L|481:127,1,35
368,119,8073,2,2,L|418:118,1,35
512,167,8209,1,8,0:0:0:0:
467,244,8344,1,0,0:0:0:0:
341,253,8479,5,8,0:0:0:0:
320,273,8546,1,0,0:0:0:0:
295,288,8614,1,8,0:0:0:0:
267,296,8681,1,0,0:0:0:0:
234,296,8749,2,2,B|185:274|185:274|146:294|146:294|110:288,1,105
202,315,8884,2,2,B|153:337|153:337|114:317|114:317|80:330,1,105
38,200,9019,5,4,0:0:0:0:
57,127,9155,1,0,0:0:0:0:
131,83,9290,2,0,L|226:84,3,70
298,150,9560,2,2,L|210:153,1,70
200,208,9695,2,2,L|282:210,1,70
429,70,9830,6,4,B|480:141|425:212|425:212|433:254,1,175
482,72,10033,2,4,B|512:153|441:208|441:208|445:254,1,175
363,150,10236,1,4,0:0:0:0:
265,282,10371,2,2,L|355:270,1,70
270,193,10506,1,8,0:0:0:0:
159,204,10641,1,8,0:0:0:0:
126,198,10708,1,0,0:0:0:0:
99,180,10776,1,0,0:0:0:0:
82,153,10843,1,0,0:0:0:0:
77,119,10911,6,2,P|135:130|199:112,1,105
298,12,11046,1,8,0:0:0:0:
217,8,11182,1,8,0:0:0:0:
154,58,11317,2,2,P|207:82|281:74,1,105
235,160,11452,1,8,0:0:0:0:
250,189,11519,1,0,0:0:0:0:
260,220,11587,1,8,0:0:0:0:
264,253,11654,1,0,0:0:0:0:
262,286,11722,6,2,P|206:289|161:303,1,70
333,320,11857,2,2,P|275:318|236:309,1,70
101,314,11992,2,2,P|96:257|143:231,1,105
124,318,12128,2,2,P|158:256|190:250,1,105
195,329,12263,1,8,0:0:0:0:
420,341,12398,6,0,P|440:278|426:229,1,105
269,202,12533,2,0,P|341:237|352:282,1,105
262,286,12668,1,0,0:0:0:0:
163,227,12803,1,8,0:0:0:0:
170,201,12870,1,0,0:0:0:0:
180,177,12938,2,2,P|189:127|235:60,1,105
342,32,13073,5,4,0:0:0:0:
425,87,13209,1,0,0:0:0:0:
439,187,13344,1,4,0:0:0:0:
429,209,13479,1,0,0:0:0:0:
428,213,13614,1,4,0:0:0:0:
454,299,13884,6,2,P|405:332|302:317,1,140
172,283,14155,1,0,0:0:0:0:
349,117,14290,1,0,0:0:0:0:
281,292,14425,1,0,0:0:0:0:
343,221,14560,1,0,0:0:0:0:
378,308,14695,2,8,L|454:349,3,70
454,253,14965,6,2,P|480:177|466:106,1,140
325,83,15236,2,2,P|320:135|261:232,1,140
83,287,15506,1,8,0:0:0:0:
79,243,15573,1,0,0:0:0:0:
84,199,15641,2,2,P|89:251|165:338,1,140
223,273,15911,1,8,0:0:0:0:
333,267,16046,1,8,0:0:0:0:
421,292,16182,2,2,P|377:342|277:337,1,140
196,125,16452,6,4,P|182:62|236:43,1,105
420,82,16587,2,4,B|379:110|379:110|367:175,1,105
342,164,16722,2,4,B|386:185|386:185|471:165,1,105
450,197,16857,2,4,B|446:147|446:147|390:93,1,105
283,86,16992,1,4,0:0:0:0:
266,221,17128,2,8,L|187:207,1,70
73,109,17398,6,2,P|57:206|60:226,1,105.000004005432
127,330,17668,1,8,0:0:0:0:
207,109,17803,1,0,0:0:0:0:
207,109,17871,1,0,0:0:0:0:
207,109,17938,1,8,0:0:0:0:
423,35,18073,2,2,P|435:100|408:176,1,105.000004005432
340,271,18344,1,8,0:0:0:0:
81,156,18479,6,4,P|128:212|182:238,1,105.000004005432
320,149,18749,1,8,0:0:0:0:
258,335,18884,1,4,0:0:0:0:
395,151,19019,1,8,0:0:0:0:
232,261,19155,1,4,0:0:0:0:
453,200,19290,1,8,0:0:0:0:
476,169,19357,1,0,0:0:0:0:
482,130,19425,1,8,0:0:0:0:
467,94,19492,1,0,0:0:0:0:
437,70,19560,6,2,P|370:101|316:97,1,105.000004005432
247,25,19830,1,8,0:0:0:0:
126,131,20033,1,8,0:0:0:0:
151,115,20100,1,4,0:0:0:0:
158,235,20303,1,8,0:0:0:0:
134,255,20371,2,2,P|189:300|243:312,1,105.000004005432
316,208,20641,5,4,0:0:0:0:
373,328,20776,1,0,0:0:0:0:
392,82,20911,1,8,0:0:0:0:
403,237,21046,1,0,0:0:0:0:
279,41,21182,2,2,P|277:123|240:178,1,105.000004005432
207,312,21452,1,8,0:0:0:0:
189,276,21519,1,0,0:0:0:0:
171,241,21587,1,0,0:0:0:0:
154,206,21654,1,0,0:0:0:0:
136,170,21722,6,2,P|192:146|252:146,1,105.000004005432
407,167,21992,1,8,0:0:0:0:
361,352,22128,1,8,0:0:0:0:
361,352,22195,1,0,0:0:0:0:
361,352,22263,1,8,0:0:0:0:
260,85,22398,1,0,0:0:0:0:
337,19,22533,1,8,0:0:0:0:
403,96,22668,1,0,0:0:0:0:
326,162,22803,6,2,P|290:245|244:277,1,105.000004005432
101,321,23073,1,8,0:0:0:0:
84,90,23209,1,8,0:0:0:0:
84,90,23276,1,0,0:0:0:0:
84,90,23344,1,8,0:0:0:0:
175,244,23479,1,8,0:0:0:0:
179,44,23614,2,2,P|197:148|216:186,1,105.000004005432
290,261,23817,1,8,0:0:0:0:
313,276,23884,6,4,P|378:266|424:228,1,105.000004005432
458,70,24155,1,8,0:0:0:0:
133,168,24357,1,8,0:0:0:0:
172,148,24425,1,4,0:0:0:0:
369,139,24628,1,8,0:0:0:0:
330,159,24695,2,2,B|314:231|245:256,1,105.000004005432
91,283,24965,5,8,0:0:0:0:
194,362,25100,1,0,0:0:0:0:
72,115,25236,1,8,0:0:0:0:
135,223,25371,1,0,0:0:0:0:
160,32,25506,2,2,P|181:85|222:145,1,105.000004005432
308,75,25776,1,8,0:0:0:0:
316,113,25843,1,0,0:0:0:0:
324,151,25911,1,0,0:0:0:0:
332,190,25979,1,0,0:0:0:0:
341,228,26046,6,2,B|316:263|316:263|217:279,1,105.000004005432
69,267,26317,1,8,0:0:0:0:
134,81,26452,1,8,0:0:0:0:
134,81,26519,1,0,0:0:0:0:
134,81,26587,1,8,0:0:0:0:
181,256,26722,1,8,0:0:0:0:
247,59,26857,2,2,B|246:100|246:100|308:183,1,105.000004005432
406,272,27128,6,2,P|450:229|469:162,1,105.000004005432
444,57,27398,1,8,0:0:0:0:
299,131,27533,1,0,0:0:0:0:
414,264,27668,2,2,P|435:206|424:137,1,105.000004005432
352,54,27938,1,8,0:0:0:0:
300,59,28005,1,0,0:0:0:0:
255,86,28073,1,0,0:0:0:0:
227,130,28140,1,0,0:0:0:0:
220,182,28209,6,2,B|201:218|201:218|124:218,1,105.000004005432
37,114,28479,1,8,0:0:0:0:
56,281,28614,1,8,0:0:0:0:
98,310,28681,1,0,0:0:0:0:
149,323,28749,1,0,0:0:0:0:
407,316,28952,1,8,0:0:0:0:
371,297,29019,2,2,B|356:278|356:278|437:225,1,105.000004005432
479,41,29290,6,4,P|433:112|386:149,1,105.000004005432
237,53,29560,1,8,0:0:0:0:
326,145,29695,1,0,0:0:0:0:
47,34,29830,2,2,P|70:91|116:130,1,105.000004005432
211,175,30100,1,8,0:0:0:0:
178,197,30167,1,0,0:0:0:0:
145,219,30235,1,0,0:0:0:0:
113,241,30302,1,0,0:0:0:0:
80,263,30371,6,2,P|134:304|187:314,1,105.000004005432
398,215,30641,1,8,0:0:0:0:
316,343,30776,1,8,0:0:0:0:
316,343,30844,1,0,0:0:0:0:
316,343,30911,1,8,0:0:0:0:
359,58,31046,2,2,P|322:136|277:157,1,105.000004005432
178,115,31317,1,0,0:0:0:0:
308,239,31452,6,4,P|234:257|168:251,1,105.000004005432
80,191,31722,1,8,0:0:0:0:
97,319,31857,1,8,0:0:0:0:
97,319,31925,1,0,0:0:0:0:
97,319,31992,1,8,0:0:0:0:
257,337,32195,1,8,0:0:0:0:
230,335,32263,1,4,0:0:0:0:
405,312,32398,1,8,0:0:0:0:
368,274,32465,1,0,0:0:0:0:
331,237,32533,6,2,P|381:189|391:126,1,105.000004005432
320,25,32803,1,8,0:0:0:0:
471,88,32938,1,0,0:0:0:0:
198,54,33073,1,8,0:0:0:0:
77,126,33276,1,8,0:0:0:0:
111,131,33344,2,4,P|131:201|177:248,1,105.000004005432
331,345,33614,5,8,0:0:0:0:
274,180,33749,1,0,0:0:0:0:
371,98,33884,1,8,0:0:0:0:
314,263,34020,1,0,0:0:0:0:
257,98,34155,1,8,0:0:0:0:
354,16,34290,1,0,0:0:0:0:
181,162,34425,5,8,0:0:0:0:
140,194,34492,1,0,0:0:0:0:
124,243,34560,1,8,0:0:0:0:
137,294,34627,1,0,0:0:0:0:
175,329,34695,6,2,L|347:334,1,140
435,336,34965,1,4,0:0:0:0:
437,244,35100,2,2,L|469:155,2,70
288,250,35371,1,4,0:0:0:0:
352,119,35506,2,2,L|187:104,1,140
80,30,35776,6,2,L|69:211,1,140
64,314,36046,1,4,0:0:0:0:
169,161,36182,2,2,L|165:251,2,70
244,36,36452,1,4,0:0:0:0:
196,171,36587,1,4,0:0:0:0:
273,47,36722,1,4,0:0:0:0:
321,48,36789,1,0,0:0:0:0:
370,49,36857,6,2,P|351:137|488:106,1,280
418,101,37263,1,4,0:0:0:0:
372,252,37398,2,2,P|282:315|195:328,1,140
124,188,37668,1,4,0:0:0:0:
125,320,37803,1,0,0:0:0:0:
213,55,37938,6,2,L|209:215,1,140
211,350,38209,1,4,0:0:0:0:
305,267,38344,2,2,L|315:186,1,70
327,77,38479,1,8,0:0:0:0:
376,93,38546,1,0,0:0:0:0:
414,128,38614,1,8,0:0:0:0:
433,177,38681,1,0,0:0:0:0:
430,228,38749,2,2,L|418:282,6,35
304,267,39019,6,4,P|228:236|176:238,1,118.125004506111
143,210,39155,2,4,P|219:179|284:185,1,118.125004506111
317,160,39290,2,4,P|243:126|181:138,1,118.125004506111
145,109,39426,2,4,P|221:78|287:84,1,118.125004506111
346,75,39560,6,2,L|443:93,3,78.7500030040742
452,148,39830,1,8,0:0:0:0:
452,180,39897,1,0,0:0:0:0:
452,212,39965,1,8,0:0:0:0:
452,244,40032,1,0,0:0:0:0:
448,321,40100,6,4,B|371:317|371:317|331:335|300:319,1,118.125004506111
421,299,40236,2,4,B|345:315|345:315|311:342|278:332,1,118.125004506111
198,249,40371,2,2,L|180:347,3,78.7500030040742
98,248,40641,6,4,P|69:171|85:117,1,118.125004506111
40,211,40776,2,4,P|31:129|63:74,1,118.125004506111
136,43,40911,2,8,L|169:77,3,39.3750015020371
170,118,41046,1,8,0:0:0:0:
362,53,41182,6,2,P|455:78|395:148,1,196.875007510186
321,141,41384,2,4,L|355:251,1,78.7500030040742
359,336,41587,1,8,0:0:0:0:
312,323,41654,1,0,0:0:0:0:
262,313,41722,6,2,P|181:337|120:340,1,118.125004506111
61,153,41857,2,2,P|96:233|141:260,1,118.125004506111
164,173,41992,2,2,L|157:39,1,118.125004506111
237,45,42128,1,4,0:0:0:0:
315,31,42263,2,2,P|344:93|443:72,1,157.500006008148
486,188,42533,5,8,0:0:0:0:
475,227,42600,1,0,0:0:0:0:
464,266,42668,1,0,0:0:0:0:
402,187,42803,6,2,P|345:233|275:215,1,118.125004506111
225,260,42938,2,2,L|177:344,3,78.7500030040742
158,249,43209,2,2,L|113:321,1,78.7500030040742
95,228,43344,2,0,P|115:159|176:183,1,118.125004506111
208,171,43479,5,8,0:0:0:0:
245,165,43546,1,0,0:0:0:0:
283,173,43614,1,8,0:0:0:0:
316,193,43681,1,0,0:0:0:0:
340,222,43749,1,8,0:0:0:0:
354,258,43816,1,0,0:0:0:0:
365,290,43884,6,2,P|399:235|375:140,1,157.500006008148
214,71,44155,2,2,B|259:19|279:125|336:50,1,118.125004506111
251,43,44290,2,2,B|308:5|299:112|380:54,1,118.125004506111
409,12,44425,2,2,P|476:103|486:173,1,157.500006008148
470,237,44695,1,4,0:0:0:0:
393,157,44830,1,0,0:0:0:0:
330,200,44965,6,2,L|346:287,2,78.7500030040742
293,125,45236,1,8,0:0:0:0:
260,160,45303,1,0,0:0:0:0:
228,196,45371,2,2,L|233:248,3,39.3750015020371
191,245,45506,6,2,L|191:344,3,78.7500030040742
180,130,45776,1,4,0:0:0:0:
139,159,45844,1,0,0:0:0:0:
124,206,45911,2,2,L|125:302,3,78.7500030040742
71,200,46182,1,4,0:0:0:0:
72,270,46317,2,2,L|74:361,3,78.7500030040742
14,240,46587,6,4,P|10:151|35:105,1,118.125004506111
123,57,46722,2,4,P|177:78|243:62,1,118.125004506111
340,44,46857,2,2,L|368:146,3,78.7500030040742
352,246,47128,2,4,P|325:160|285:133,1,118.125004506111
263,228,47263,2,4,P|253:272|190:316,1,118.125004506111
181,227,47398,2,2,L|179:149,3,78.7500030040742
87,326,47668,5,8,0:0:0:0:
85,277,47735,1,0,0:0:0:0:
83,229,47803,1,8,0:0:0:0:
81,181,47870,1,0,0:0:0:0:
33,91,47938,2,2,L|133:92,3,78.7500030040742
180,44,48209,6,4,L|207:142,1,78.7500030040742
265,193,48344,2,4,L|290:101,1,78.7500030040742
350,54,48479,2,4,L|390:159,1,78.7500030040742
423,221,48614,1,4,0:0:0:0:
330,283,48749,6,2,B|420:269|386:359|471:347,3,157.500006008148
437,256,49290,1,8,0:0:0:0:
440,220,49357,1,0,0:0:0:0:
444,184,49425,1,8,0:0:0:0:
448,148,49492,1,0,0:0:0:0:
451,112,49560,6,2,L|341:154,1,118.125004506111
346,34,49695,2,2,L|271:132,1,118.125004506111
202,194,49830,2,2,P|217:261|290:278,1,118.125004506111
292,198,49965,1,4,0:0:0:0:
167,114,50100,6,2,P|164:182|246:219,1,144.375001376867
334,205,50236,1,8,0:0:0:0:
195,92,50371,1,8,0:0:0:0:
217,140,50438,1,0,0:0:0:0:
247,180,50506,1,8,0:0:0:0:
287,205,50573,1,0,0:0:0:0:
333,221,50641,2,2,L|322:324,3,78.7500030040742
232,355,50911,1,4,0:0:0:0:
156,208,51046,5,8,0:0:0:0:
155,244,51113,1,0,0:0:0:0:
154,280,51181,1,0,0:0:0:0:
153,316,51248,1,0,0:0:0:0:
152,352,51316,1,8,0:0:0:0:
62,262,51452,5,8,0:0:0:0:
63,225,51519,1,0,0:0:0:0:
64,189,51587,1,0,0:0:0:0:
65,153,51654,1,0,0:0:0:0:
66,117,51722,1,8,0:0:0:0:
140,49,51857,5,8,0:0:0:0:
189,49,51924,1,0,0:0:0:0:
238,50,51992,2,4,P|253:131|309:146,1,118.125004506111
359,90,52128,2,4,P|344:171|293:190,1,118.125004506111
282,85,52263,2,4,P|297:166|357:184,1,118.125004506111
402,125,52399,2,4,P|387:206|330:225,1,118.125004506111
486,173,52533,6,2,L|466:264,1,78.7500030040742
444,357,52668,1,8,0:0:0:0:
399,338,52735,1,0,0:0:0:0:
354,320,52803,2,2,P|296:345|257:339,1,78.7500030040742
257,215,52938,1,8,0:0:0:0:
218,243,53005,1,0,0:0:0:0:
180,273,53073,6,2,B|144:260|144:260|81:285|45:279,1,118.125004506111
156,266,53209,2,2,B|119:279|119:279|56:254|27:264,1,118.125004506111
120,194,53344,2,2,L|113:98,3,78.7500030040742
210,118,53614,6,4,P|270:125|345:92,1,118.125004506111
413,3,53749,2,4,P|442:72|445:147,1,118.125004506111
369,185,53884,1,8,0:0:0:0:
341,224,53951,1,0,0:0:0:0:
314,264,54019,2,0,P|252:304|183:306,1,118.125004506111
98,350,54155,6,2,L|96:208,1,118.125004506111
58,154,54290,2,2,P|97:99|141:143,1,118.125004506111
194,209,54425,1,4,0:0:0:0:
62,318,54560,2,2,L|119:189,1,118.125004506111
162,80,54695,2,2,P|220:46|244:107,1,118.125004506111
208,230,54830,1,4,0:0:0:0:
261,334,54965,6,8,P|347:339|386:300,1,118.125004506111
331,182,55100,2,8,L|441:263,1,118.125004506111
462,339,55236,1,4,0:0:0:0:
277,261,55371,2,8,P|358:288|413:261,1,118.125004506111
469,205,55506,2,8,P|458:131|413:77,1,118.125004506111
305,35,55641,1,4,0:0:0:0:
490,160,55776,6,2,P|448:97|384:72,1,118.125004506111
269,75,55911,1,8,0:0:0:0:
356,159,56046,2,4,L|251:182,1,105
71,216,56317,6,2,P|80:279|123:333,1,105.000004005432
258,337,56587,1,8,0:0:0:0:
162,128,56722,1,8,0:0:0:0:
162,128,56790,1,0,0:0:0:0:
162,128,56857,2,2,P|217:73|254:62,1,105.000004005432
406,34,57128,1,8,0:0:0:0:
337,173,57263,1,0,0:0:0:0:
461,113,57398,6,2,P|462:180|444:251,1,105.000004005432
312,345,57668,1,8,0:0:0:0:
485,307,57803,1,0,0:0:0:0:
198,274,57938,2,2,P|250:270|305:240,1,105.000004005432
362,40,58209,1,8,0:0:0:0:
88,86,58344,5,4,0:0:0:0:
139,93,58411,1,0,0:0:0:0:
191,101,58479,2,2,P|155:156|98:202,1,105.000004005432
10,179,58749,1,8,0:0:0:0:
85,290,58884,5,8,0:0:0:0:
133,309,58951,1,0,0:0:0:0:
185,317,59019,2,2,P|212:265|272:224,1,105.000004005432
337,69,59222,1,8,0:0:0:0:
361,82,59290,2,2,P|370:167|409:212,1,105.000004005432
451,337,59560,5,4,0:0:0:0:
492,134,59695,1,0,0:0:0:0:
359,334,59830,2,2,P|354:268|311:205,1,105.000004005432
185,76,60100,1,8,0:0:0:0:
324,147,60236,1,0,0:0:0:0:
62,161,60371,1,8,0:0:0:0:
114,161,60438,1,0,0:0:0:0:
160,183,60506,1,8,0:0:0:0:
193,224,60573,1,0,0:0:0:0:
185,324,60641,6,2,L|321:302,1,105.000004005432
437,171,60911,1,8,0:0:0:0:
445,349,61046,1,8,0:0:0:0:
445,349,61114,1,0,0:0:0:0:
445,349,61182,2,2,L|382:253,1,105.000004005432
335,46,61452,2,2,P|326:130|300:185,1,105.000004005432
60,247,61722,5,4,0:0:0:0:
329,235,61857,2,2,P|265:239|212:211,1,105.000004005432
104,48,62128,1,8,0:0:0:0:
104,48,62195,1,0,0:0:0:0:
104,48,62263,2,2,P|122:122|176:158,1,105.000004005432
314,66,62533,1,8,0:0:0:0:
194,324,62668,5,4,0:0:0:0:
194,324,62736,1,0,0:0:0:0:
194,324,62803,2,2,L|336:322,1,105.000004005432
462,202,63073,1,8,0:0:0:0:
426,357,63209,1,0,0:0:0:0:
402,75,63344,2,2,P|376:169|349:197,1,105.000004005432
161,229,63546,1,8,0:0:0:0:
195,216,63614,2,2,P|264:163|284:113,1,105.000004005432
115,40,63884,5,4,0:0:0:0:
285,163,64019,1,0,0:0:0:0:
138,53,64155,1,4,0:0:0:0:
308,176,64290,1,0,0:0:0:0:
423,191,64425,1,4,0:0:0:0:
396,77,64560,1,0,0:0:0:0:
185,134,64695,5,8,0:0:0:0:
134,148,64762,1,0,0:0:0:0:
94,181,64830,1,8,0:0:0:0:
71,228,64897,1,0,0:0:0:0:
69,280,64965,6,2,L|208:254,1,105.000004005432
336,178,65236,1,8,0:0:0:0:
232,342,65371,1,8,0:0:0:0:
232,342,65438,1,0,0:0:0:0:
232,342,65506,2,2,P|300:338|350:312,1,105.000004005432
420,143,65776,1,8,0:0:0:0:
472,331,65911,1,0,0:0:0:0:
356,49,66046,6,2,P|298:81|224:97,1,105.000004005432
96,83,66317,1,8,0:0:0:0:
254,204,66452,1,8,0:0:0:0:
254,204,66519,1,0,0:0:0:0:
254,204,66587,1,0,0:0:0:0:
40,236,66722,2,2,P|84:273|158:296,1,105.000004005432
277,370,66992,5,8,0:0:0:0:
301,323,67059,1,0,0:0:0:0:
326,277,67128,2,2,P|390:268|429:226,1,105.000004005432
366,62,67398,1,8,0:0:0:0:
487,142,67533,1,0,0:0:0:0:
140,34,67668,2,2,P|171:77|237:106,1,105.000004005432
340,138,67871,1,8,0:0:0:0:
364,156,67938,2,2,P|309:198|250:216,1,105.000004005432
90,199,68209,5,4,0:0:0:0:
252,335,68344,1,0,0:0:0:0:
130,130,68479,1,8,0:0:0:0:
183,295,68614,1,0,0:0:0:0:
176,64,68749,1,8,0:0:0:0:
344,237,68884,2,2,L|349:167,1,52.5000020027161
365,43,69019,5,4,0:0:0:0:
407,72,69086,1,0,0:0:0:0:
438,114,69154,1,8,0:0:0:0:
454,164,69222,1,0,0:0:0:0:
453,216,69290,6,2,P|413:160|352:135,1,105.000004005432
142,184,69560,1,8,0:0:0:0:
270,79,69695,1,8,0:0:0:0:
270,79,69763,1,0,0:0:0:0:
270,79,69830,2,2,P|192:67|135:79,1,105.000004005432
52,226,70100,1,8,0:0:0:0:
51,69,70236,1,0,0:0:0:0:
129,320,70371,6,2,P|169:256|221:219,1,105.000004005432
328,205,70641,1,8,0:0:0:0:
297,324,70776,1,8,0:0:0:0:
297,324,70844,1,0,0:0:0:0:
297,324,70911,2,2,P|368:323|425:294,1,105.000004005432
446,77,71182,1,8,0:0:0:0:
240,30,71317,5,4,0:0:0:0:
240,30,71384,1,0,0:0:0:0:
240,30,71452,2,2,P|233:89|209:141,1,105.000004005432
80,234,71722,1,8,0:0:0:0:
205,226,71857,1,0,0:0:0:0:
99,320,71992,1,8,0:0:0:0:
259,270,72128,1,0,0:0:0:0:
184,373,72263,1,8,0:0:0:0:
324,276,72399,1,0,0:0:0:0:
453,48,72533,6,2,P|420:100|341:140,1,105.000004005432
239,63,72736,1,8,0:0:0:0:
254,92,72803,2,2,P|287:144|366:184,1,105.000004005432
428,117,73006,1,8,0:0:0:0:
413,146,73073,2,2,P|380:198|301:238,1,105.000004005432
127,199,73344,5,4,0:0:0:0:
123,250,73411,1,0,0:0:0:0:
147,297,73479,1,4,0:0:0:0:
189,327,73546,1,0,0:0:0:0:
230,333,73614,5,0,0:0:0:0:
342,335,73749,1,0,0:0:0:0:
222,248,73884,1,0,0:0:0:0:
359,262,74019,1,0,0:0:0:0:
117,112,74155,5,0,0:0:0:0:
227,122,74290,1,0,0:0:0:0:
89,165,74425,1,0,0:0:0:0:
256,75,74560,1,4,0:0:0:0:
218,198,74830,5,4,0:0:0:0:
125,331,74965,1,0,0:0:0:0:
233,322,75100,1,0,0:0:0:0:
95,279,75235,1,0,0:0:0:0:
262,369,75370,1,4,0:0:0:0:
440,344,75506,6,2,P|404:282|371:254,1,87.5
408,135,75776,5,8,0:0:0:0:
334,65,75911,1,0,0:0:0:0:
396,176,76046,5,8,0:0:0:0:
397,33,76182,1,0,0:0:0:0:
369,203,76317,5,8,0:0:0:0:
475,44,76452,1,0,0:0:0:0:
327,220,76587,2,2,P|273:182|220:74,1,175
141,141,76992,6,2,P|177:219|245:273,1,175
475,44,77263,1,8,0:0:0:0:
370,212,77398,1,0,0:0:0:0:
397,33,77533,1,8,0:0:0:0:
341,124,77669,1,8,0:0:0:0:
314,94,77735,1,0,0:0:0:0:
282,72,77803,1,8,0:0:0:0:
242,61,77870,1,0,0:0:0:0:
202,58,77938,5,0,0:0:0:0:
123,212,78073,1,0,0:0:0:0:
182,99,78209,1,0,0:0:0:0:
138,252,78344,1,0,0:0:0:0:
121,23,78479,1,0,0:0:0:0:
38,101,78614,1,0,0:0:0:0:
32,229,78749,1,0,0:0:0:0:
130,324,78884,1,4,0:0:0:0:
137,285,79155,1,4,0:0:0:0:
115,188,79290,1,0,0:0:0:0:
128,106,79425,1,0,0:0:0:0:
186,52,79560,1,0,0:0:0:0:
256,31,79695,2,2,L|249:139,1,87.5
179,183,79830,6,2,L|192:86,1,87.5
286,186,79965,1,8,0:0:0:0:
351,178,80032,1,0,0:0:0:0:
416,170,80100,5,8,0:0:0:0:
436,278,80236,1,0,0:0:0:0:
416,170,80371,5,8,0:0:0:0:
440,322,80506,1,0,0:0:0:0:
416,170,80641,5,8,0:0:0:0:
444,368,80776,1,0,0:0:0:0:
462,42,80911,2,2,P|420:69|285:69,1,175
271,82,81317,6,2,P|357:88|434:49,1,175
444,368,81587,1,0,0:0:0:0:
416,170,81722,1,8,0:0:0:0:
440,322,81857,5,8,0:0:0:0:
416,170,81992,1,4,0:0:0:0:
372,166,82059,1,0,0:0:0:0:
329,171,82127,1,4,0:0:0:0:
287,182,82194,1,0,0:0:0:0:
247,201,82263,1,0,0:0:0:0:
161,230,82398,1,0,0:0:0:0:
206,151,82533,1,0,0:0:0:0:
103,158,82668,1,0,0:0:0:0:
137,28,82803,6,4,L|156:122,1,87.5
47,117,82938,2,4,L|27:211,1,87.5
23,285,83073,2,4,P|71:323|195:338,1,175
308,342,83479,6,4,P|221:334|150:286,1,175
156,204,83750,1,0,0:0:0:0:
282,115,83885,1,0,0:0:0:0:
213,260,84020,1,0,0:0:0:0:
347,235,84155,1,0,0:0:0:0:
270,317,84290,2,2,L|288:231,1,87.5
353,47,84425,5,8,0:0:0:0:
381,68,84560,1,0,0:0:0:0:
418,110,84695,5,8,0:0:0:0:
452,192,84830,1,0,0:0:0:0:
407,319,84965,5,8,0:0:0:0:
248,167,85100,1,0,0:0:0:0:
295,352,85236,5,8,0:0:0:0:
320,98,85371,2,2,P|282:52|161:54,1,175
122,78,85641,6,2,P|206:71|268:129,1,175
244,384,85911,1,0,0:0:0:0:
197,199,86047,5,8,0:0:0:0:
356,351,86182,1,0,0:0:0:0:
395,226,86317,5,4,0:0:0:0:
364,195,86384,1,0,0:0:0:0:
356,152,86452,1,4,0:0:0:0:
371,112,86519,1,0,0:0:0:0:
406,87,86587,6,2,L|313:82,1,87.5
223,42,86722,2,2,L|316:37,1,87.5
362,101,86857,6,2,L|269:96,1,87.5
135,86,86992,2,2,L|228:81,1,87.5
314,131,87128,6,4,L|221:126,1,87.5
48,128,87263,2,4,L|141:123,1,87.5
196,164,87398,2,4,P|146:195|177:311,1,175
446,253,87803,1,4,0:0:0:0:
384,148,87939,2,4,L|297:144,1,87.5
204,153,88074,6,4,L|291:148,1,87.5
334,99,88210,2,2,L|246:94,1,87.5
156,123,88345,6,2,L|243:118,1,87.5
286,55,88480,2,2,L|198:50,1,87.5
111,87,88614,2,2,L|198:82,1,87.5
390,196,88749,5,4,0:0:0:0:
228,301,88884,1,0,0:0:0:0:
390,196,89019,5,4,0:0:0:0:
228,301,89154,1,0,0:0:0:0:
469,243,89290,6,2,P|410:281|297:265,1,175
287,23,89560,1,4,0:0:0:0:
163,224,89695,1,0,0:0:0:0:
312,131,89830,5,8,0:0:0:0:
104,129,89965,1,0,0:0:0:0:
265,243,90100,1,4,0:0:0:0:
214,117,90235,1,0,0:0:0:0:
217,226,90371,1,8,0:0:0:0:
287,23,90506,1,0,0:0:0:0:
444,108,90641,5,4,0:0:0:0:
471,155,90708,1,0,0:0:0:0:
483,208,90776,1,4,0:0:0:0:
479,262,90843,1,0,0:0:0:0:
459,312,90911,5,8,0:0:0:0:
335,341,91046,1,0,0:0:0:0:
436,307,91182,1,8,0:0:0:0:
312,336,91317,1,0,0:0:0:0:
377,248,91452,5,8,0:0:0:0:
383,227,91519,1,0,0:0:0:0:
385,205,91587,1,0,0:0:0:0:
383,183,91654,1,0,0:0:0:0:
377,162,91722,1,8,0:0:0:0:
368,142,91789,1,0,0:0:0:0:
355,124,91857,1,0,0:0:0:0:
340,109,91924,1,0,0:0:0:0:
321,97,91992,5,8,0:0:0:0:
214,110,92128,1,0,0:0:0:0:
285,73,92263,1,8,0:0:0:0:
177,85,92399,1,0,0:0:0:0:
302,213,92533,5,8,0:0:0:0:
308,244,92600,1,0,0:0:0:0:
298,275,92668,1,0,0:0:0:0:
275,298,92735,1,0,0:0:0:0:
243,307,92803,1,8,0:0:0:0:
212,300,92870,1,0,0:0:0:0:
187,278,92938,1,0,0:0:0:0:
176,248,93005,1,0,0:0:0:0:
180,216,93073,5,8,0:0:0:0:
169,60,93209,1,0,0:0:0:0:
283,59,93344,2,8,P|241:104|119:151,1,175,8|0,0:0|0:0,0:0:0:0:
32,149,93614,5,8,0:0:0:0:
23,180,93681,1,0,0:0:0:0:
22,213,93749,1,0,0:0:0:0:
27,245,93816,1,0,0:0:0:0:
38,276,93884,1,8,0:0:0:0:
55,304,93951,1,0,0:0:0:0:
78,328,94019,1,0,0:0:0:0:
105,346,94086,1,0,0:0:0:0:
135,359,94155,5,8,0:0:0:0:
234,249,94290,1,0,0:0:0:0:
172,362,94425,1,8,0:0:0:0:
270,251,94560,1,8,0:0:0:0:
295,225,94627,1,0,0:0:0:0:
319,197,94695,2,2,P|378:228|455:154,1,175
460,68,94965,5,8,0:0:0:0:
404,70,95032,1,0,0:0:0:0:
352,84,95100,1,8,0:0:0:0:
302,109,95167,1,0,0:0:0:0:
