osu file format v14

[General]
AudioFilename: 03. looming shadow of a tree long gone 1.050x (pitch raised).mp3
AudioLeadIn: 0
PreviewTime: 103021
Countdown: 0
SampleSet: Drum
StackLeniency: 0.7
Mode: 3
LetterboxInBreaks: 0
SpecialStyle: 0
WidescreenStoryboard: 0

[Editor]
DistanceSpacing: 0.8
BeatDivisor: 4
GridSize: 16
TimelineZoom: 2

[Metadata]
Title:looming shadow of a tree long gone
TitleUnicode:looming shadow of a tree long gone
Artist:goreshit
ArtistUnicode:goreshit
Creator:Shoegazer
Version:asphyxia 1.05x (233bpm)
Source:
Tags:semantic compositions on death and its meaning breakcore
BeatmapID:3079174
BeatmapSetID:360765

[Difficulty]
HPDrainRate:8.5
CircleSize:4
OverallDifficulty:8.5
ApproachRate:9
SliderMultiplier:1.4
SliderTickRate:1

[Events]
//Background and Video events
0,0,"looming.jpg",0,0
//Break Periods
//Storyboard Layer 0 (Background)
//Storyboard Layer 1 (Fail)
//Storyboard Layer 2 (Pass)
//Storyboard Layer 3 (Foreground)
//Storyboard Layer 4 (Overlay)
//Storyboard Sound Samples

[TimingPoints]
4180,257.4,4,3,0,35,1,0

[HitObjects]
64,192,4180,5,0,0:0:0:0:
448,192,4180,1,0,0:0:0:0:
320,192,4180,1,0,0:0:0:0:
192,192,4309,1,0,0:0:0:0:
448,192,4438,1,0,0:0:0:0:
192,192,4438,1,0,0:0:0:0:
320,192,4566,1,0,0:0:0:0:
192,192,4630,1,0,0:0:0:0:
448,192,4695,1,0,0:0:0:0:
64,192,4760,1,0,0:0:0:0:
448,192,4823,1,0,0:0:0:0:
192,192,4823,1,0,0:0:0:0:
64,192,4952,1,0,0:0:0:0:
320,192,5017,1,0,0:0:0:0:
192,192,5080,1,0,0:0:0:0:
448,192,5145,1,0,0:0:0:0:
192,192,5210,1,0,0:0:0:0:
320,192,5274,1,0,0:0:0:0:
64,192,5339,1,0,0:0:0:0:
448,192,5402,1,0,0:0:0:0:
320,192,5467,1,0,0:0:0:0:
64,192,5467,1,0,0:0:0:0:
448,192,5596,1,0,0:0:0:0:
64,192,5660,1,0,0:0:0:0:
320,192,5724,1,0,0:0:0:0:
192,192,5789,1,0,0:0:0:0:
320,192,5853,1,0,0:0:0:0:
64,192,5853,1,0,0:0:0:0:
192,192,5981,1,0,0:0:0:0:
448,192,6046,1,0,0:0:0:0:
320,192,6111,1,0,0:0:0:0:
64,192,6111,1,0,0:0:0:0:
448,192,6240,1,0,0:0:0:0:
192,192,6303,1,0,0:0:0:0:
320,192,6368,1,0,0:0:0:0:
64,192,6432,1,0,0:0:0:0:
448,192,6497,1,0,0:0:0:0:
320,192,6497,1,0,0:0:0:0:
448,192,6625,1,0,0:0:0:0:
192,192,6625,1,0,0:0:0:0:
64,192,6754,1,0,0:0:0:0:
448,192,6819,1,0,0:0:0:0:
192,192,6882,1,0,0:0:0:0:
320,192,6947,1,0,0:0:0:0:
448,192,7011,1,0,0:0:0:0:
192,192,7011,1,0,0:0:0:0:
320,192,7140,1,0,0:0:0:0:
192,192,7204,1,0,0:0:0:0:
448,192,7269,1,0,0:0:0:0:
64,192,7333,1,0,0:0:0:0:
448,192,7398,1,0,0:0:0:0:
192,192,7461,1,0,0:0:0:0:
320,192,7526,1,0,0:0:0:0:
64,192,7526,1,0,0:0:0:0:
192,192,7655,1,0,0:0:0:0:
448,192,7720,1,0,0:0:0:0:
64,192,7783,1,0,0:0:0:0:
320,192,7848,1,0,0:0:0:0:
448,192,7912,1,0,0:0:0:0:
64,192,7912,1,0,0:0:0:0:
320,192,8057,1,0,0:0:0:0:
320,192,8170,1,0,0:0:0:0:
192,192,8170,1,0,0:0:0:0:
64,192,8170,1,0,0:0:0:0:
192,192,8299,1,0,0:0:0:0:
64,192,8299,1,0,0:0:0:0:
448,192,8427,1,0,0:0:0:0:
448,192,8556,1,0,0:0:0:0:
64,192,8556,1,0,0:0:0:0:
192,192,8684,1,0,0:0:0:0:
448,192,8749,1,0,0:0:0:0:
64,192,8813,1,0,0:0:0:0:
320,192,8878,1,0,0:0:0:0:
448,192,8941,1,0,0:0:0:0:
64,192,8941,1,0,0:0:0:0:
448,192,9071,1,0,0:0:0:0:
64,192,9071,1,0,0:0:0:0:
320,192,9200,1,0,0:0:0:0:
448,192,9263,1,0,0:0:0:0:
192,192,9328,1,0,0:0:0:0:
64,192,9328,1,0,0:0:0:0:
320,192,9457,1,0,0:0:0:0:
320,192,9585,1,0,0:0:0:0:
192,192,9585,1,0,0:0:0:0:
64,192,9714,1,0,0:0:0:0:
320,192,9779,1,0,0:0:0:0:
192,192,9842,1,0,0:0:0:0:
448,192,9907,1,0,0:0:0:0:
320,192,9972,1,0,0:0:0:0:
192,192,9972,1,0,0:0:0:0:
448,192,10100,1,0,0:0:0:0:
64,192,10164,1,0,0:0:0:0:
320,192,10229,1,0,0:0:0:0:
192,192,10293,1,0,0:0:0:0:
320,192,10358,1,0,0:0:0:0:
64,192,10422,1,0,0:0:0:0:
448,192,10486,1,0,0:0:0:0:
192,192,10551,1,0,0:0:0:0:
448,192,10615,1,0,0:0:0:0:
64,192,10615,1,0,0:0:0:0:
192,192,10743,1,0,0:0:0:0:
448,192,10808,1,0,0:0:0:0:
64,192,10873,1,0,0:0:0:0:
320,192,10937,1,0,0:0:0:0:
448,192,11001,1,0,0:0:0:0:
64,192,11001,1,0,0:0:0:0:
320,192,11130,1,0,0:0:0:0:
192,192,11194,1,0,0:0:0:0:
448,192,11259,1,0,0:0:0:0:
64,192,11322,1,0,0:0:0:0:
448,192,11387,1,0,0:0:0:0:
192,192,11387,1,0,0:0:0:0:
64,192,11532,1,0,0:0:0:0:
448,192,11644,1,0,0:0:0:0:
320,192,11644,1,0,0:0:0:0:
64,192,11644,1,0,0:0:0:0:
448,192,11773,1,0,0:0:0:0:
320,192,11773,1,0,0:0:0:0:
192,192,11902,1,0,0:0:0:0:
448,192,12031,1,0,0:0:0:0:
192,192,12031,1,0,0:0:0:0:
320,192,12160,1,0,0:0:0:0:
64,192,12223,1,0,0:0:0:0:
448,192,12288,1,0,0:0:0:0:
320,192,12288,1,0,0:0:0:0:
192,192,12353,1,0,0:0:0:0:
64,192,12353,1,0,0:0:0:0:
448,192,12417,1,0,0:0:0:0:
320,192,12417,1,0,0:0:0:0:
192,192,12545,1,0,0:0:0:0:
448,192,12674,1,0,0:0:0:0:
192,192,12674,1,0,0:0:0:0:
320,192,12803,1,0,0:0:0:0:
192,192,12867,1,0,0:0:0:0:
448,192,12932,1,0,0:0:0:0:
64,192,12996,1,0,0:0:0:0:
448,192,13060,1,0,0:0:0:0:
192,192,13060,1,0,0:0:0:0:
64,192,13189,1,0,0:0:0:0:
320,192,13254,1,0,0:0:0:0:
192,192,13318,1,0,0:0:0:0:
448,192,13382,1,0,0:0:0:0:
192,192,13446,1,0,0:0:0:0:
320,192,13511,1,0,0:0:0:0:
64,192,13575,1,0,0:0:0:0:
448,192,13640,1,0,0:0:0:0:
320,192,13703,1,0,0:0:0:0:
64,192,13703,1,0,0:0:0:0:
448,192,13833,1,0,0:0:0:0:
64,192,13897,1,0,0:0:0:0:
320,192,13961,1,0,0:0:0:0:
192,192,14025,1,0,0:0:0:0:
320,192,14090,1,0,0:0:0:0:
64,192,14090,1,0,0:0:0:0:
192,192,14219,1,0,0:0:0:0:
448,192,14283,1,0,0:0:0:0:
320,192,14347,1,0,0:0:0:0:
64,192,14347,1,0,0:0:0:0:
448,192,14476,1,0,0:0:0:0:
192,192,14540,1,0,0:0:0:0:
320,192,14604,1,0,0:0:0:0:
64,192,14669,1,0,0:0:0:0:
448,192,14734,1,0,0:0:0:0:
320,192,14734,1,0,0:0:0:0:
448,192,14862,1,0,0:0:0:0:
192,192,14862,1,0,0:0:0:0:
64,192,14991,1,0,0:0:0:0:
448,192,15055,1,0,0:0:0:0:
192,192,15120,1,0,0:0:0:0:
320,192,15184,1,0,0:0:0:0:
448,192,15248,1,0,0:0:0:0:
192,192,15248,1,0,0:0:0:0:
320,192,15377,1,0,0:0:0:0:
192,192,15441,1,0,0:0:0:0:
448,192,15505,1,0,0:0:0:0:
64,192,15570,1,0,0:0:0:0:
448,192,15635,1,0,0:0:0:0:
192,192,15699,1,0,0:0:0:0:
320,192,15763,1,0,0:0:0:0:
64,192,15763,1,0,0:0:0:0:
192,192,15892,1,0,0:0:0:0:
448,192,15956,1,0,0:0:0:0:
64,192,16020,1,0,0:0:0:0:
320,192,16084,1,0,0:0:0:0:
448,192,16149,1,0,0:0:0:0:
64,192,16149,1,0,0:0:0:0:
320,192,16294,1,0,0:0:0:0:
448,192,16406,1,0,0:0:0:0:
320,192,16406,1,0,0:0:0:0:
192,192,16406,1,0,0:0:0:0:
192,192,16535,1,0,0:0:0:0:
64,192,16535,1,0,0:0:0:0:
448,192,16664,1,0,0:0:0:0:
448,192,16793,1,0,0:0:0:0:
64,192,16793,1,0,0:0:0:0:
192,192,16921,1,0,0:0:0:0:
448,192,16985,1,0,0:0:0:0:
64,192,17050,1,0,0:0:0:0:
320,192,17115,1,0,0:0:0:0:
448,192,17179,1,0,0:0:0:0:
64,192,17179,1,0,0:0:0:0:
448,192,17307,1,0,0:0:0:0:
64,192,17307,1,0,0:0:0:0:
320,192,17436,1,0,0:0:0:0:
448,192,17500,1,0,0:0:0:0:
192,192,17565,1,0,0:0:0:0:
64,192,17565,1,0,0:0:0:0:
320,192,17694,1,0,0:0:0:0:
320,192,17822,1,0,0:0:0:0:
192,192,17822,1,0,0:0:0:0:
64,192,17951,1,0,0:0:0:0:
320,192,18016,1,0,0:0:0:0:
192,192,18080,1,0,0:0:0:0:
448,192,18144,1,0,0:0:0:0:
320,192,18208,1,0,0:0:0:0:
192,192,18208,1,0,0:0:0:0:
448,192,18337,1,0,0:0:0:0:
64,192,18401,1,0,0:0:0:0:
320,192,18465,1,0,0:0:0:0:
192,192,18530,1,0,0:0:0:0:
320,192,18595,1,0,0:0:0:0:
64,192,18659,1,0,0:0:0:0:
448,192,18723,1,0,0:0:0:0:
192,192,18787,1,0,0:0:0:0:
448,192,18852,1,0,0:0:0:0:
64,192,18852,1,0,0:0:0:0:
192,192,18980,1,0,0:0:0:0:
448,192,19045,1,0,0:0:0:0:
64,192,19109,1,0,0:0:0:0:
320,192,19174,1,0,0:0:0:0:
448,192,19238,1,0,0:0:0:0:
64,192,19238,1,0,0:0:0:0:
320,192,19366,1,0,0:0:0:0:
192,192,19431,1,0,0:0:0:0:
448,192,19496,1,0,0:0:0:0:
64,192,19560,1,0,0:0:0:0:
448,192,19624,1,0,0:0:0:0:
192,192,19624,1,0,0:0:0:0:
64,192,19769,1,0,0:0:0:0:
320,192,19881,1,0,0:0:0:0:
192,192,19881,1,0,0:0:0:0:
64,192,19881,1,0,0:0:0:0:
448,192,20010,1,0,0:0:0:0:
320,192,20010,1,0,0:0:0:0:
64,192,20139,1,0,0:0:0:0:
320,192,20267,1,0,0:0:0:0:
64,192,20267,1,0,0:0:0:0:
448,192,20397,1,0,0:0:0:0:
192,192,20460,1,0,0:0:0:0:
448,192,20525,1,0,0:0:0:0:
320,192,20525,1,0,0:0:0:0:
192,192,20589,1,0,0:0:0:0:
64,192,20589,1,0,0:0:0:0:
448,192,20654,1,0,0:0:0:0:
320,192,20654,1,0,0:0:0:0:
192,192,20782,1,0,0:0:0:0:
448,192,20911,1,0,0:0:0:0:
192,192,20911,1,0,0:0:0:0:
320,192,21040,1,0,0:0:0:0:
192,192,21104,1,0,0:0:0:0:
448,192,21168,1,0,0:0:0:0:
64,192,21233,1,0,0:0:0:0:
448,192,21297,1,0,0:0:0:0:
192,192,21297,1,0,0:0:0:0:
64,192,21426,1,0,0:0:0:0:
320,192,21490,1,0,0:0:0:0:
192,192,21555,1,0,0:0:0:0:
448,192,21619,1,0,0:0:0:0:
192,192,21683,1,0,0:0:0:0:
320,192,21747,1,0,0:0:0:0:
64,192,21812,1,0,0:0:0:0:
448,192,21877,1,0,0:0:0:0:
320,192,21940,1,0,0:0:0:0:
64,192,21940,1,0,0:0:0:0:
448,192,22069,1,0,0:0:0:0:
64,192,22134,1,0,0:0:0:0:
320,192,22198,1,0,0:0:0:0:
192,192,22262,1,0,0:0:0:0:
320,192,22327,1,0,0:0:0:0:
64,192,22327,1,0,0:0:0:0:
192,192,22456,1,0,0:0:0:0:
448,192,22520,1,0,0:0:0:0:
320,192,22584,1,0,0:0:0:0:
64,192,22584,1,0,0:0:0:0:
448,192,22713,1,0,0:0:0:0:
192,192,22778,1,0,0:0:0:0:
320,192,22841,1,0,0:0:0:0:
64,192,22906,1,0,0:0:0:0:
448,192,22970,1,0,0:0:0:0:
320,192,22970,1,0,0:0:0:0:
448,192,23099,1,0,0:0:0:0:
192,192,23099,1,0,0:0:0:0:
64,192,23227,1,0,0:0:0:0:
448,192,23292,1,0,0:0:0:0:
192,192,23357,1,0,0:0:0:0:
320,192,23420,1,0,0:0:0:0:
448,192,23485,1,0,0:0:0:0:
192,192,23485,1,0,0:0:0:0:
320,192,23614,1,0,0:0:0:0:
192,192,23678,1,0,0:0:0:0:
448,192,23742,1,0,0:0:0:0:
64,192,23807,1,0,0:0:0:0:
448,192,23871,1,0,0:0:0:0:
192,192,23936,1,0,0:0:0:0:
320,192,24000,1,0,0:0:0:0:
64,192,24000,1,0,0:0:0:0:
192,192,24128,1,0,0:0:0:0:
448,192,24193,1,0,0:0:0:0:
64,192,24258,1,0,0:0:0:0:
320,192,24321,1,0,0:0:0:0:
448,192,24386,1,0,0:0:0:0:
64,192,24386,1,0,0:0:0:0:
320,192,24531,1,0,0:0:0:0:
320,192,24643,1,0,0:0:0:0:
192,192,24643,1,0,0:0:0:0:
64,192,24643,1,0,0:0:0:0:
192,192,24772,1,0,0:0:0:0:
64,192,24772,1,0,0:0:0:0:
448,192,24900,1,0,0:0:0:0:
448,192,25029,1,0,0:0:0:0:
64,192,25029,1,0,0:0:0:0:
192,192,25159,1,0,0:0:0:0:
448,192,25222,1,0,0:0:0:0:
64,192,25287,1,0,0:0:0:0:
320,192,25351,1,0,0:0:0:0:
448,192,25416,1,0,0:0:0:0:
64,192,25416,1,0,0:0:0:0:
448,192,25544,1,0,0:0:0:0:
64,192,25544,1,0,0:0:0:0:
320,192,25673,1,0,0:0:0:0:
448,192,25738,1,0,0:0:0:0:
192,192,25801,1,0,0:0:0:0:
64,192,25801,1,0,0:0:0:0:
192,192,25930,1,0,0:0:0:0:
320,192,26059,1,0,0:0:0:0:
192,192,26059,1,0,0:0:0:0:
64,192,26188,1,0,0:0:0:0:
320,192,26252,1,0,0:0:0:0:
192,192,26317,1,0,0:0:0:0:
448,192,26380,1,0,0:0:0:0:
320,192,26445,1,0,0:0:0:0:
192,192,26445,1,0,0:0:0:0:
448,192,26574,1,0,0:0:0:0:
64,192,26639,1,0,0:0:0:0:
320,192,26702,1,0,0:0:0:0:
192,192,26767,1,0,0:0:0:0:
320,192,26831,1,0,0:0:0:0:
64,192,26896,1,0,0:0:0:0:
448,192,26960,1,0,0:0:0:0:
192,192,27024,1,0,0:0:0:0:
448,192,27089,1,0,0:0:0:0:
64,192,27089,1,0,0:0:0:0:
192,192,27218,1,0,0:0:0:0:
448,192,27281,1,0,0:0:0:0:
64,192,27346,1,0,0:0:0:0:
320,192,27410,1,0,0:0:0:0:
448,192,27475,1,0,0:0:0:0:
64,192,27475,1,0,0:0:0:0:
320,192,27603,1,0,0:0:0:0:
192,192,27668,1,0,0:0:0:0:
448,192,27732,1,0,0:0:0:0:
64,192,27797,1,0,0:0:0:0:
448,192,27860,1,0,0:0:0:0:
192,192,27860,1,0,0:0:0:0:
64,192,28005,1,0,0:0:0:0:
448,192,28119,1,0,0:0:0:0:
320,192,28119,1,0,0:0:0:0:
64,192,28119,1,0,0:0:0:0:
448,192,28247,1,0,0:0:0:0:
320,192,28247,1,0,0:0:0:0:
192,192,28376,1,0,0:0:0:0:
448,192,28504,1,0,0:0:0:0:
192,192,28504,1,0,0:0:0:0:
320,192,28633,1,0,0:0:0:0:
64,192,28698,1,0,0:0:0:0:
448,192,28761,1,0,0:0:0:0:
320,192,28761,1,0,0:0:0:0:
192,192,28826,1,0,0:0:0:0:
64,192,28826,1,0,0:0:0:0:
448,192,28890,1,0,0:0:0:0:
320,192,28890,1,0,0:0:0:0:
192,192,29020,1,0,0:0:0:0:
448,192,29148,1,0,0:0:0:0:
192,192,29148,1,0,0:0:0:0:
320,192,29277,1,0,0:0:0:0:
192,192,29340,1,0,0:0:0:0:
448,192,29405,1,0,0:0:0:0:
64,192,29470,1,0,0:0:0:0:
448,192,29534,1,0,0:0:0:0:
192,192,29534,1,0,0:0:0:0:
64,192,29662,1,0,0:0:0:0:
320,192,29727,1,0,0:0:0:0:
192,192,29791,1,0,0:0:0:0:
448,192,29856,1,0,0:0:0:0:
64,192,29920,1,0,0:0:0:0:
320,192,29984,1,0,0:0:0:0:
64,192,30049,1,0,0:0:0:0:
448,192,30113,1,0,0:0:0:0:
320,192,30178,1,0,0:0:0:0:
64,192,30178,1,0,0:0:0:0:
448,192,30306,1,0,0:0:0:0:
64,192,30370,1,0,0:0:0:0:
320,192,30435,1,0,0:0:0:0:
192,192,30500,1,0,0:0:0:0:
320,192,30563,1,0,0:0:0:0:
64,192,30563,1,0,0:0:0:0:
192,192,30692,1,0,0:0:0:0:
448,192,30757,1,0,0:0:0:0:
320,192,30820,1,0,0:0:0:0:
64,192,30820,1,0,0:0:0:0:
448,192,30950,1,0,0:0:0:0:
192,192,31014,1,0,0:0:0:0:
320,192,31079,1,0,0:0:0:0:
64,192,31142,1,0,0:0:0:0:
448,192,31207,1,0,0:0:0:0:
320,192,31207,1,0,0:0:0:0:
448,192,31336,1,0,0:0:0:0:
192,192,31336,1,0,0:0:0:0:
64,192,31464,1,0,0:0:0:0:
448,192,31529,1,0,0:0:0:0:
192,192,31593,1,0,0:0:0:0:
320,192,31658,1,0,0:0:0:0:
448,192,31721,1,0,0:0:0:0:
192,192,31721,1,0,0:0:0:0:
320,192,31851,1,0,0:0:0:0:
64,192,31915,1,0,0:0:0:0:
320,192,31980,1,0,0:0:0:0:
192,192,32043,1,0,0:0:0:0:
320,192,32108,1,0,0:0:0:0:
64,192,32172,1,0,0:0:0:0:
448,192,32237,1,0,0:0:0:0:
192,192,32237,1,0,0:0:0:0:
64,192,32365,1,0,0:0:0:0:
320,192,32430,1,0,0:0:0:0:
192,192,32494,1,0,0:0:0:0:
448,192,32559,1,0,0:0:0:0:
320,192,32622,1,0,0:0:0:0:
192,192,32622,1,0,0:0:0:0:
448,192,32767,1,0,0:0:0:0:
448,192,32880,1,0,0:0:0:0:
320,192,32880,1,0,0:0:0:0:
192,192,32880,1,0,0:0:0:0:
192,192,33009,1,0,0:0:0:0:
64,192,33009,1,0,0:0:0:0:
448,192,33138,1,0,0:0:0:0:
448,192,33266,1,0,0:0:0:0:
64,192,33266,1,0,0:0:0:0:
192,192,33395,1,0,0:0:0:0:
448,192,33460,1,0,0:0:0:0:
64,192,33523,1,0,0:0:0:0:
320,192,33588,1,0,0:0:0:0:
448,192,33652,1,0,0:0:0:0:
64,192,33652,1,0,0:0:0:0:
448,192,33781,1,0,0:0:0:0:
64,192,33781,1,0,0:0:0:0:
320,192,33910,1,0,0:0:0:0:
448,192,33974,1,0,0:0:0:0:
192,192,34039,1,0,0:0:0:0:
64,192,34039,1,0,0:0:0:0:
192,192,34167,1,0,0:0:0:0:
320,192,34296,1,0,0:0:0:0:
192,192,34296,1,0,0:0:0:0:
64,192,34424,1,0,0:0:0:0:
320,192,34489,1,0,0:0:0:0:
192,192,34553,1,0,0:0:0:0:
448,192,34618,1,0,0:0:0:0:
320,192,34682,1,0,0:0:0:0:
192,192,34682,1,0,0:0:0:0:
448,192,34811,1,0,0:0:0:0:
64,192,34875,1,0,0:0:0:0:
320,192,34940,1,0,0:0:0:0:
192,192,35003,1,0,0:0:0:0:
320,192,35068,1,0,0:0:0:0:
64,192,35132,1,0,0:0:0:0:
448,192,35197,1,0,0:0:0:0:
192,192,35261,1,0,0:0:0:0:
448,192,35325,1,0,0:0:0:0:
64,192,35325,1,0,0:0:0:0:
320,192,35390,1,0,0:0:0:0:
192,192,35454,1,0,0:0:0:0:
448,192,35519,1,0,0:0:0:0:
64,192,35582,1,0,0:0:0:0:
320,192,35647,1,0,0:0:0:0:
448,192,35712,1,0,0:0:0:0:
64,192,35712,1,0,0:0:0:0:
320,192,35840,1,0,0:0:0:0:
64,192,35904,1,0,0:0:0:0:
448,192,35969,1,0,0:0:0:0:
192,192,36033,1,0,0:0:0:0:
448,192,36098,1,0,0:0:0:0:
64,192,36098,1,0,0:0:0:0:
448,192,36226,1,0,0:0:0:0:
320,192,36355,1,0,0:0:0:0:
192,192,36355,1,0,0:0:0:0:
64,192,36355,1,0,0:0:0:0:
448,192,36483,1,0,0:0:0:0:
320,192,36483,1,0,0:0:0:0:
64,192,36613,1,0,0:0:0:0:
448,192,36741,1,0,0:0:0:0:
64,192,36741,1,0,0:0:0:0:
320,192,36870,1,0,0:0:0:0:
64,192,36934,1,0,0:0:0:0:
448,192,36999,1,0,0:0:0:0:
320,192,36999,1,0,0:0:0:0:
192,192,37063,1,0,0:0:0:0:
448,192,37127,1,0,0:0:0:0:
320,192,37127,1,0,0:0:0:0:
64,192,37127,1,0,0:0:0:0:
192,192,37256,1,0,0:0:0:0:
320,192,37384,1,0,0:0:0:0:
64,192,37384,1,0,0:0:0:0:
448,192,37513,1,0,0:0:0:0:
320,192,37513,1,0,0:0:0:0:
192,192,37578,1,0,0:0:0:0:
448,192,37642,1,0,0:0:0:0:
64,192,37706,1,0,0:0:0:0:
448,192,37771,1,0,0:0:0:0:
320,192,37771,1,0,0:0:0:0:
64,192,37900,1,0,0:0:0:0:
320,192,37963,1,0,0:0:0:0:
192,192,38028,1,0,0:0:0:0:
448,192,38093,1,0,0:0:0:0:
192,192,38157,1,0,0:0:0:0:
64,192,38157,1,0,0:0:0:0:
320,192,38221,1,0,0:0:0:0:
192,192,38285,1,0,0:0:0:0:
64,192,38285,1,0,0:0:0:0:
448,192,38350,1,0,0:0:0:0:
192,192,38414,1,0,0:0:0:0:
64,192,38414,1,0,0:0:0:0:
448,192,38543,1,0,0:0:0:0:
64,192,38607,1,0,0:0:0:0:
320,192,38672,1,0,0:0:0:0:
192,192,38736,1,0,0:0:0:0:
448,192,38800,1,0,0:0:0:0:
320,192,38800,1,0,0:0:0:0:
192,192,38929,1,0,0:0:0:0:
448,192,38994,1,0,0:0:0:0:
320,192,39058,1,0,0:0:0:0:
64,192,39058,1,0,0:0:0:0:
192,192,39186,1,0,0:0:0:0:
64,192,39186,1,0,0:0:0:0:
320,192,39251,1,0,0:0:0:0:
448,192,39315,1,0,0:0:0:0:
64,192,39380,1,0,0:0:0:0:
448,192,39444,1,0,0:0:0:0:
320,192,39444,1,0,0:0:0:0:
192,192,39508,1,0,0:0:0:0:
64,192,39508,1,0,0:0:0:0:
448,192,39573,1,0,0:0:0:0:
320,192,39573,1,0,0:0:0:0:
192,192,39701,1,0,0:0:0:0:
320,192,39765,1,0,0:0:0:0:
192,192,39830,1,0,0:0:0:0:
64,192,39830,1,0,0:0:0:0:
448,192,39894,1,0,0:0:0:0:
320,192,39959,1,0,0:0:0:0:
64,192,39959,1,0,0:0:0:0:
448,192,40087,1,0,0:0:0:0:
320,192,40087,1,0,0:0:0:0:
64,192,40152,1,0,0:0:0:0:
448,192,40216,1,0,0:0:0:0:
320,192,40216,1,0,0:0:0:0:
192,192,40280,1,0,0:0:0:0:
448,192,40344,1,0,0:0:0:0:
320,192,40344,1,0,0:0:0:0:
64,192,40409,1,0,0:0:0:0:
448,192,40474,1,0,0:0:0:0:
192,192,40474,1,0,0:0:0:0:
64,192,40602,1,0,0:0:0:0:
320,192,40666,1,0,0:0:0:0:
192,192,40731,1,0,0:0:0:0:
64,192,40731,1,0,0:0:0:0:
448,192,40795,1,0,0:0:0:0:
320,192,40860,1,0,0:0:0:0:
192,192,40860,1,0,0:0:0:0:
448,192,41004,1,0,0:0:0:0:
448,192,41117,1,0,0:0:0:0:
320,192,41117,1,0,0:0:0:0:
192,192,41117,1,0,0:0:0:0:
192,192,41245,1,0,0:0:0:0:
64,192,41245,1,0,0:0:0:0:
320,192,41375,1,0,0:0:0:0:
448,192,41503,1,0,0:0:0:0:
64,192,41503,1,0,0:0:0:0:
448,192,41632,1,0,0:0:0:0:
320,192,41632,1,0,0:0:0:0:
192,192,41696,1,0,0:0:0:0:
320,192,41760,1,0,0:0:0:0:
64,192,41825,1,0,0:0:0:0:
448,192,41889,1,0,0:0:0:0:
320,192,41889,1,0,0:0:0:0:
448,192,42018,1,0,0:0:0:0:
64,192,42018,1,0,0:0:0:0:
192,192,42146,1,0,0:0:0:0:
64,192,42211,1,0,0:0:0:0:
448,192,42275,1,0,0:0:0:0:
320,192,42275,1,0,0:0:0:0:
448,192,42404,1,0,0:0:0:0:
320,192,42404,1,0,0:0:0:0:
448,192,42533,1,0,0:0:0:0:
320,192,42533,1,0,0:0:0:0:
64,192,42661,1,0,0:0:0:0:
320,192,42725,1,0,0:0:0:0:
192,192,42790,1,0,0:0:0:0:
448,192,42855,1,0,0:0:0:0:
192,192,42919,1,0,0:0:0:0:
64,192,42919,1,0,0:0:0:0:
448,192,43047,1,0,0:0:0:0:
64,192,43112,1,0,0:0:0:0:
320,192,43176,1,0,0:0:0:0:
192,192,43240,1,0,0:0:0:0:
448,192,43305,1,0,0:0:0:0:
320,192,43305,1,0,0:0:0:0:
64,192,43369,1,0,0:0:0:0:
448,192,43434,1,0,0:0:0:0:
192,192,43498,1,0,0:0:0:0:
448,192,43562,1,0,0:0:0:0:
320,192,43562,1,0,0:0:0:0:
192,192,43626,1,0,0:0:0:0:
64,192,43626,1,0,0:0:0:0:
448,192,43691,1,0,0:0:0:0:
320,192,43691,1,0,0:0:0:0:
64,192,43756,1,0,0:0:0:0:
192,192,43820,1,0,0:0:0:0:
448,192,43884,1,0,0:0:0:0:
320,192,43948,1,0,0:0:0:0:
192,192,43948,1,0,0:0:0:0:
64,192,44077,1,0,0:0:0:0:
448,192,44141,1,0,0:0:0:0:
192,192,44206,1,0,0:0:0:0:
64,192,44206,1,0,0:0:0:0:
320,192,44270,1,0,0:0:0:0:
448,192,44335,1,0,0:0:0:0:
192,192,44335,1,0,0:0:0:0:
448,192,44463,1,0,0:0:0:0:
320,192,44463,1,0,0:0:0:0:
448,192,44592,1,0,0:0:0:0:
320,192,44592,1,0,0:0:0:0:
192,192,44592,1,0,0:0:0:0:
192,192,44720,1,0,0:0:0:0:
64,192,44720,1,0,0:0:0:0:
448,192,44849,1,0,0:0:0:0:
320,192,44849,1,0,0:0:0:0:
320,192,44978,1,0,0:0:0:0:
192,192,44978,1,0,0:0:0:0:
448,192,45106,1,0,0:0:0:0:
64,192,45171,1,0,0:0:0:0:
448,192,45236,1,0,0:0:0:0:
320,192,45236,1,0,0:0:0:0:
192,192,45300,1,0,0:0:0:0:
64,192,45300,1,0,0:0:0:0:
448,192,45364,1,0,0:0:0:0:
320,192,45364,1,0,0:0:0:0:
192,192,45493,1,0,0:0:0:0:
320,192,45621,1,0,0:0:0:0:
64,192,45621,1,0,0:0:0:0:
448,192,45750,1,0,0:0:0:0:
320,192,45750,1,0,0:0:0:0:
192,192,45815,1,0,0:0:0:0:
448,192,45879,1,0,0:0:0:0:
64,192,45943,1,0,0:0:0:0:
448,192,46007,1,0,0:0:0:0:
320,192,46007,1,0,0:0:0:0:
64,192,46137,1,0,0:0:0:0:
320,192,46200,1,0,0:0:0:0:
192,192,46265,1,0,0:0:0:0:
448,192,46329,1,0,0:0:0:0:
192,192,46394,1,0,0:0:0:0:
64,192,46394,1,0,0:0:0:0:
320,192,46458,1,0,0:0:0:0:
192,192,46522,1,0,0:0:0:0:
64,192,46522,1,0,0:0:0:0:
448,192,46587,1,0,0:0:0:0:
192,192,46651,1,0,0:0:0:0:
64,192,46651,1,0,0:0:0:0:
448,192,46780,1,0,0:0:0:0:
64,192,46844,1,0,0:0:0:0:
320,192,46908,1,0,0:0:0:0:
192,192,46973,1,0,0:0:0:0:
448,192,47037,1,0,0:0:0:0:
320,192,47037,1,0,0:0:0:0:
192,192,47166,1,0,0:0:0:0:
448,192,47230,1,0,0:0:0:0:
320,192,47295,1,0,0:0:0:0:
64,192,47295,1,0,0:0:0:0:
192,192,47423,1,0,0:0:0:0:
64,192,47423,1,0,0:0:0:0:
448,192,47487,1,0,0:0:0:0:
192,192,47552,1,0,0:0:0:0:
320,192,47617,1,0,0:0:0:0:
192,192,47680,1,0,0:0:0:0:
64,192,47680,1,0,0:0:0:0:
448,192,47745,1,0,0:0:0:0:
320,192,47745,1,0,0:0:0:0:
192,192,47809,1,0,0:0:0:0:
64,192,47809,1,0,0:0:0:0:
320,192,47938,1,0,0:0:0:0:
192,192,48002,1,0,0:0:0:0:
448,192,48067,1,0,0:0:0:0:
320,192,48067,1,0,0:0:0:0:
64,192,48131,1,0,0:0:0:0:
448,192,48196,1,0,0:0:0:0:
192,192,48196,1,0,0:0:0:0:
192,192,48324,1,0,0:0:0:0:
64,192,48324,1,0,0:0:0:0:
448,192,48388,1,0,0:0:0:0:
192,192,48453,1,0,0:0:0:0:
64,192,48453,1,0,0:0:0:0:
320,192,48518,1,0,0:0:0:0:
192,192,48581,1,0,0:0:0:0:
64,192,48581,1,0,0:0:0:0:
448,192,48646,1,0,0:0:0:0:
320,192,48710,1,0,0:0:0:0:
64,192,48710,1,0,0:0:0:0:
192,192,48839,1,0,0:0:0:0:
448,192,48903,1,0,0:0:0:0:
192,192,48968,1,0,0:0:0:0:
64,192,48968,1,0,0:0:0:0:
320,192,49032,1,0,0:0:0:0:
448,192,49097,1,0,0:0:0:0:
64,192,49097,1,0,0:0:0:0:
320,192,49241,1,0,0:0:0:0:
448,192,49354,1,0,0:0:0:0:
320,192,49354,1,0,0:0:0:0:
192,192,49354,1,0,0:0:0:0:
192,192,49482,1,0,0:0:0:0:
64,192,49482,1,0,0:0:0:0:
320,192,49611,1,0,0:0:0:0:
448,192,49740,1,0,0:0:0:0:
64,192,49740,1,0,0:0:0:0:
448,192,49868,1,0,0:0:0:0:
320,192,49868,1,0,0:0:0:0:
192,192,49933,1,0,0:0:0:0:
320,192,49998,1,0,0:0:0:0:
64,192,50061,1,0,0:0:0:0:
448,192,50126,1,0,0:0:0:0:
320,192,50126,1,0,0:0:0:0:
448,192,50255,1,0,0:0:0:0:
64,192,50255,1,0,0:0:0:0:
192,192,50383,1,0,0:0:0:0:
64,192,50448,1,0,0:0:0:0:
448,192,50512,1,0,0:0:0:0:
320,192,50512,1,0,0:0:0:0:
448,192,50640,1,0,0:0:0:0:
320,192,50640,1,0,0:0:0:0:
448,192,50769,1,0,0:0:0:0:
320,192,50769,1,0,0:0:0:0:
64,192,50899,1,0,0:0:0:0:
320,192,50962,1,0,0:0:0:0:
192,192,51027,1,0,0:0:0:0:
448,192,51091,1,0,0:0:0:0:
192,192,51156,1,0,0:0:0:0:
64,192,51156,1,0,0:0:0:0:
448,192,51284,1,0,0:0:0:0:
64,192,51349,1,0,0:0:0:0:
320,192,51413,1,0,0:0:0:0:
192,192,51478,1,0,0:0:0:0:
448,192,51541,1,0,0:0:0:0:
320,192,51541,1,0,0:0:0:0:
64,192,51606,1,0,0:0:0:0:
448,192,51670,1,0,0:0:0:0:
192,192,51735,1,0,0:0:0:0:
448,192,51799,1,0,0:0:0:0:
320,192,51799,1,0,0:0:0:0:
192,192,51863,1,0,0:0:0:0:
64,192,51863,1,0,0:0:0:0:
448,192,51928,1,0,0:0:0:0:
320,192,51928,1,0,0:0:0:0:
64,192,51992,1,0,0:0:0:0:
192,192,52057,1,0,0:0:0:0:
448,192,52120,1,0,0:0:0:0:
320,192,52185,1,0,0:0:0:0:
192,192,52185,1,0,0:0:0:0:
64,192,52314,1,0,0:0:0:0:
448,192,52379,1,0,0:0:0:0:
192,192,52442,1,0,0:0:0:0:
64,192,52442,1,0,0:0:0:0:
320,192,52507,1,0,0:0:0:0:
448,192,52571,1,0,0:0:0:0:
192,192,52571,1,0,0:0:0:0:
448,192,52700,1,0,0:0:0:0:
320,192,52700,1,0,0:0:0:0:
448,192,52829,1,0,0:0:0:0:
320,192,52829,1,0,0:0:0:0:
192,192,52829,1,0,0:0:0:0:
192,192,52958,1,0,0:0:0:0:
64,192,52958,1,0,0:0:0:0:
448,192,53086,1,0,0:0:0:0:
320,192,53086,1,0,0:0:0:0:
320,192,53215,1,0,0:0:0:0:
192,192,53215,1,0,0:0:0:0:
448,192,53343,1,0,0:0:0:0:
64,192,53408,1,0,0:0:0:0:
448,192,53472,1,0,0:0:0:0:
320,192,53472,1,0,0:0:0:0:
192,192,53537,1,0,0:0:0:0:
448,192,53600,1,0,0:0:0:0:
320,192,53600,1,0,0:0:0:0:
64,192,53600,1,0,0:0:0:0:
320,192,53730,1,0,0:0:0:0:
448,192,53859,1,0,0:0:0:0:
192,192,53859,1,0,0:0:0:0:
192,192,53987,1,0,0:0:0:0:
64,192,53987,1,0,0:0:0:0:
320,192,54051,1,0,0:0:0:0:
64,192,54116,1,0,0:0:0:0:
320,192,54180,1,0,0:0:0:0:
192,192,54244,1,0,0:0:0:0:
64,192,54244,1,0,0:0:0:0:
448,192,54373,1,0,0:0:0:0:
192,192,54438,1,0,0:0:0:0:
320,192,54501,1,0,0:0:0:0:
64,192,54566,1,0,0:0:0:0:
448,192,54630,1,0,0:0:0:0:
320,192,54630,1,0,0:0:0:0:
192,192,54695,1,0,0:0:0:0:
448,192,54760,1,0,0:0:0:0:
320,192,54760,1,0,0:0:0:0:
192,192,54823,1,0,0:0:0:0:
448,192,54888,1,0,0:0:0:0:
320,192,54888,1,0,0:0:0:0:
64,192,55017,1,0,0:0:0:0:
320,192,55080,1,0,0:0:0:0:
192,192,55145,1,0,0:0:0:0:
320,192,55210,1,0,0:0:0:0:
192,192,55274,1,0,0:0:0:0:
64,192,55274,1,0,0:0:0:0:
320,192,55402,1,0,0:0:0:0:
64,192,55467,1,0,0:0:0:0:
448,192,55531,1,0,0:0:0:0:
192,192,55531,1,0,0:0:0:0:
448,192,55660,1,0,0:0:0:0:
320,192,55660,1,0,0:0:0:0:
192,192,55724,1,0,0:0:0:0:
64,192,55789,1,0,0:0:0:0:
448,192,55853,1,0,0:0:0:0:
192,192,55918,1,0,0:0:0:0:
64,192,55918,1,0,0:0:0:0:
448,192,55981,1,0,0:0:0:0:
320,192,55981,1,0,0:0:0:0:
192,192,56046,1,0,0:0:0:0:
64,192,56046,1,0,0:0:0:0:
320,192,56175,1,0,0:0:0:0:
64,192,56240,1,0,0:0:0:0:
448,192,56303,1,0,0:0:0:0:
320,192,56303,1,0,0:0:0:0:
64,192,56368,1,0,0:0:0:0:
448,192,56432,1,0,0:0:0:0:
192,192,56432,1,0,0:0:0:0:
192,192,56560,1,0,0:0:0:0:
64,192,56560,1,0,0:0:0:0:
320,192,56625,1,0,0:0:0:0:
192,192,56690,1,0,0:0:0:0:
64,192,56690,1,0,0:0:0:0:
320,192,56754,1,0,0:0:0:0:
192,192,56819,1,0,0:0:0:0:
64,192,56819,1,0,0:0:0:0:
448,192,56882,1,0,0:0:0:0:
320,192,56947,1,0,0:0:0:0:
64,192,56947,1,0,0:0:0:0:
448,192,57076,1,0,0:0:0:0:
64,192,57140,1,0,0:0:0:0:
448,192,57204,1,0,0:0:0:0:
320,192,57204,1,0,0:0:0:0:
64,192,57269,1,0,0:0:0:0:
320,192,57333,1,0,0:0:0:0:
192,192,57333,1,0,0:0:0:0:
64,192,57478,1,0,0:0:0:0:
320,192,57591,1,0,0:0:0:0:
192,192,57591,1,0,0:0:0:0:
64,192,57591,1,0,0:0:0:0:
448,192,57720,1,0,0:0:0:0:
320,192,57720,1,0,0:0:0:0:
192,192,57848,1,0,0:0:0:0:
448,192,57977,1,0,0:0:0:0:
64,192,57977,1,0,0:0:0:0:
192,192,58105,1,0,0:0:0:0:
64,192,58105,1,0,0:0:0:0:
320,192,58170,1,0,0:0:0:0:
192,192,58234,1,0,0:0:0:0:
320,192,58299,1,0,0:0:0:0:
192,192,58362,1,0,0:0:0:0:
64,192,58362,1,0,0:0:0:0:
448,192,58492,1,0,0:0:0:0:
64,192,58492,1,0,0:0:0:0:
320,192,58620,1,0,0:0:0:0:
448,192,58684,1,0,0:0:0:0:
192,192,58749,1,0,0:0:0:0:
64,192,58749,1,0,0:0:0:0:
192,192,58878,1,0,0:0:0:0:
64,192,58878,1,0,0:0:0:0:
192,192,59006,1,0,0:0:0:0:
64,192,59006,1,0,0:0:0:0:
448,192,59135,1,0,0:0:0:0:
192,192,59200,1,0,0:0:0:0:
320,192,59263,1,0,0:0:0:0:
192,192,59328,1,0,0:0:0:0:
448,192,59392,1,0,0:0:0:0:
320,192,59392,1,0,0:0:0:0:
64,192,59521,1,0,0:0:0:0:
320,192,59585,1,0,0:0:0:0:
192,192,59650,1,0,0:0:0:0:
320,192,59714,1,0,0:0:0:0:
192,192,59779,1,0,0:0:0:0:
64,192,59779,1,0,0:0:0:0:
448,192,59842,1,0,0:0:0:0:
64,192,59907,1,0,0:0:0:0:
320,192,59972,1,0,0:0:0:0:
192,192,60036,1,0,0:0:0:0:
64,192,60036,1,0,0:0:0:0:
448,192,60100,1,0,0:0:0:0:
320,192,60100,1,0,0:0:0:0:
192,192,60164,1,0,0:0:0:0:
64,192,60164,1,0,0:0:0:0:
448,192,60229,1,0,0:0:0:0:
320,192,60293,1,0,0:0:0:0:
64,192,60358,1,0,0:0:0:0:
320,192,60422,1,0,0:0:0:0:
192,192,60422,1,0,0:0:0:0:
448,192,60551,1,0,0:0:0:0:
192,192,60615,1,0,0:0:0:0:
448,192,60680,1,0,0:0:0:0:
320,192,60680,1,0,0:0:0:0:
192,192,60743,1,0,0:0:0:0:
320,192,60808,1,0,0:0:0:0:
64,192,60808,1,0,0:0:0:0:
192,192,60937,1,0,0:0:0:0:
64,192,60937,1,0,0:0:0:0:
320,192,61065,1,0,0:0:0:0:
192,192,61065,1,0,0:0:0:0:
64,192,61065,1,0,0:0:0:0:
448,192,61194,1,0,0:0:0:0:
320,192,61194,1,0,0:0:0:0:
192,192,61322,1,0,0:0:0:0:
64,192,61322,1,0,0:0:0:0:
448,192,61452,1,0,0:0:0:0:
64,192,61452,1,0,0:0:0:0:
192,192,61580,1,0,0:0:0:0:
320,192,61644,1,0,0:0:0:0:
192,192,61709,1,0,0:0:0:0:
64,192,61709,1,0,0:0:0:0:
448,192,61773,1,0,0:0:0:0:
320,192,61773,1,0,0:0:0:0:
192,192,61838,1,0,0:0:0:0:
64,192,61838,1,0,0:0:0:0:
320,192,61966,1,0,0:0:0:0:
448,192,62095,1,0,0:0:0:0:
192,192,62095,1,0,0:0:0:0:
192,192,62223,1,0,0:0:0:0:
64,192,62223,1,0,0:0:0:0:
320,192,62288,1,0,0:0:0:0:
64,192,62353,1,0,0:0:0:0:
320,192,62417,1,0,0:0:0:0:
192,192,62481,1,0,0:0:0:0:
64,192,62481,1,0,0:0:0:0:
448,192,62610,1,0,0:0:0:0:
192,192,62674,1,0,0:0:0:0:
320,192,62739,1,0,0:0:0:0:
64,192,62803,1,0,0:0:0:0:
448,192,62867,1,0,0:0:0:0:
320,192,62867,1,0,0:0:0:0:
192,192,62932,1,0,0:0:0:0:
448,192,62996,1,0,0:0:0:0:
320,192,62996,1,0,0:0:0:0:
192,192,63060,1,0,0:0:0:0:
448,192,63124,1,0,0:0:0:0:
320,192,63124,1,0,0:0:0:0:
64,192,63254,1,0,0:0:0:0:
320,192,63318,1,0,0:0:0:0:
192,192,63382,1,0,0:0:0:0:
320,192,63446,1,0,0:0:0:0:
192,192,63511,1,0,0:0:0:0:
64,192,63511,1,0,0:0:0:0:
320,192,63640,1,0,0:0:0:0:
64,192,63703,1,0,0:0:0:0:
448,192,63768,1,0,0:0:0:0:
192,192,63768,1,0,0:0:0:0:
448,192,63897,1,0,0:0:0:0:
320,192,63897,1,0,0:0:0:0:
64,192,63961,1,0,0:0:0:0:
320,192,64025,1,0,0:0:0:0:
192,192,64090,1,0,0:0:0:0:
448,192,64154,1,0,0:0:0:0:
320,192,64154,1,0,0:0:0:0:
192,192,64219,1,0,0:0:0:0:
64,192,64219,1,0,0:0:0:0:
448,192,64283,1,0,0:0:0:0:
320,192,64283,1,0,0:0:0:0:
192,192,64412,1,0,0:0:0:0:
448,192,64476,1,0,0:0:0:0:
192,192,64540,1,0,0:0:0:0:
64,192,64540,1,0,0:0:0:0:
448,192,64604,1,0,0:0:0:0:
320,192,64669,1,0,0:0:0:0:
64,192,64669,1,0,0:0:0:0:
448,192,64798,1,0,0:0:0:0:
320,192,64798,1,0,0:0:0:0:
64,192,64862,1,0,0:0:0:0:
448,192,64926,1,0,0:0:0:0:
320,192,64926,1,0,0:0:0:0:
192,192,64991,1,0,0:0:0:0:
448,192,65055,1,0,0:0:0:0:
320,192,65055,1,0,0:0:0:0:
64,192,65120,1,0,0:0:0:0:
448,192,65184,1,0,0:0:0:0:
192,192,65184,1,0,0:0:0:0:
64,192,65313,1,0,0:0:0:0:
320,192,65377,1,0,0:0:0:0:
192,192,65441,1,0,0:0:0:0:
64,192,65441,1,0,0:0:0:0:
320,192,65505,1,0,0:0:0:0:
448,192,65570,1,0,0:0:0:0:
192,192,65570,1,0,0:0:0:0:
320,192,65715,1,0,0:0:0:0:
320,192,65827,1,0,0:0:0:0:
192,192,65827,1,0,0:0:0:0:
64,192,65827,1,0,0:0:0:0:
448,192,65956,1,0,0:0:0:0:
320,192,65956,1,0,0:0:0:0:
192,192,66084,1,0,0:0:0:0:
448,192,66214,1,0,0:0:0:0:
64,192,66214,1,0,0:0:0:0:
192,192,66342,1,0,0:0:0:0:
64,192,66342,1,0,0:0:0:0:
320,192,66406,1,0,0:0:0:0:
192,192,66471,1,0,0:0:0:0:
320,192,66535,1,0,0:0:0:0:
192,192,66600,1,0,0:0:0:0:
64,192,66600,1,0,0:0:0:0:
448,192,66728,1,0,0:0:0:0:
64,192,66728,1,0,0:0:0:0:
320,192,66857,1,0,0:0:0:0:
448,192,66921,1,0,0:0:0:0:
192,192,66985,1,0,0:0:0:0:
64,192,66985,1,0,0:0:0:0:
192,192,67115,1,0,0:0:0:0:
64,192,67115,1,0,0:0:0:0:
192,192,67243,1,0,0:0:0:0:
64,192,67243,1,0,0:0:0:0:
448,192,67372,1,0,0:0:0:0:
192,192,67436,1,0,0:0:0:0:
320,192,67500,1,0,0:0:0:0:
192,192,67565,1,0,0:0:0:0:
448,192,67629,1,0,0:0:0:0:
320,192,67629,1,0,0:0:0:0:
64,192,67758,1,0,0:0:0:0:
448,192,67822,1,0,0:0:0:0:
192,192,67886,1,0,0:0:0:0:
320,192,67951,1,0,0:0:0:0:
192,192,68016,1,0,0:0:0:0:
64,192,68016,1,0,0:0:0:0:
448,192,68080,1,0,0:0:0:0:
64,192,68144,1,0,0:0:0:0:
320,192,68208,1,0,0:0:0:0:
192,192,68273,1,0,0:0:0:0:
64,192,68273,1,0,0:0:0:0:
448,192,68337,1,0,0:0:0:0:
320,192,68337,1,0,0:0:0:0:
192,192,68401,1,0,0:0:0:0:
64,192,68401,1,0,0:0:0:0:
448,192,68465,1,0,0:0:0:0:
320,192,68530,1,0,0:0:0:0:
64,192,68595,1,0,0:0:0:0:
320,192,68659,1,0,0:0:0:0:
192,192,68659,1,0,0:0:0:0:
448,192,68787,1,0,0:0:0:0:
192,192,68852,1,0,0:0:0:0:
448,192,68916,1,0,0:0:0:0:
320,192,68916,1,0,0:0:0:0:
192,192,68980,1,0,0:0:0:0:
320,192,69045,1,0,0:0:0:0:
64,192,69045,1,0,0:0:0:0:
192,192,69174,1,0,0:0:0:0:
64,192,69174,1,0,0:0:0:0:
320,192,69302,1,0,0:0:0:0:
192,192,69302,1,0,0:0:0:0:
64,192,69302,1,0,0:0:0:0:
448,192,69431,1,0,0:0:0:0:
320,192,69431,1,0,0:0:0:0:
192,192,69560,1,0,0:0:0:0:
64,192,69560,1,0,0:0:0:0:
320,192,69688,1,0,0:0:0:0:
192,192,69688,1,0,0:0:0:0:
448,192,69817,1,0,0:0:0:0:
320,192,69849,1,0,0:0:0:0:
64,192,69881,1,0,0:0:0:0:
192,192,69914,1,0,0:0:0:0:
448,192,69946,1,0,0:0:0:0:
320,192,69978,1,0,0:0:0:0:
64,192,70010,1,0,0:0:0:0:
192,192,70042,1,0,0:0:0:0:
448,192,70075,1,0,0:0:0:0:
320,192,70075,1,0,0:0:0:0:
448,192,70460,1,0,0:0:0:0:
320,192,70460,1,0,0:0:0:0:
448,192,70718,1,0,0:0:0:0:
320,192,70718,1,0,0:0:0:0:
448,192,71104,1,0,0:0:0:0:
320,192,71104,1,0,0:0:0:0:
448,192,71233,1,0,0:0:0:0:
320,192,71233,1,0,0:0:0:0:
448,192,71361,1,0,0:0:0:0:
320,192,71361,1,0,0:0:0:0:
448,192,71747,1,0,0:0:0:0:
320,192,71747,1,0,0:0:0:0:
448,192,72134,1,0,0:0:0:0:
320,192,72134,1,0,0:0:0:0:
448,192,72391,1,0,0:0:0:0:
320,192,72391,1,0,0:0:0:0:
192,192,72456,1,0,0:0:0:0:
64,192,72456,1,0,0:0:0:0:
448,192,72520,1,0,0:0:0:0:
320,192,72520,1,0,0:0:0:0:
448,192,72778,1,0,0:0:0:0:
320,192,72778,1,0,0:0:0:0:
448,192,73035,1,0,0:0:0:0:
320,192,73035,1,0,0:0:0:0:
448,192,73163,1,0,0:0:0:0:
320,192,73163,1,0,0:0:0:0:
448,192,73292,1,0,0:0:0:0:
320,192,73292,1,0,0:0:0:0:
448,192,73678,1,0,0:0:0:0:
320,192,73678,1,0,0:0:0:0:
448,192,74064,1,0,0:0:0:0:
320,192,74064,1,0,0:0:0:0:
320,192,74193,1,0,0:0:0:0:
192,192,74193,1,0,0:0:0:0:
320,192,74579,1,0,0:0:0:0:
192,192,74579,1,0,0:0:0:0:
320,192,74837,1,0,0:0:0:0:
192,192,74837,1,0,0:0:0:0:
320,192,75222,1,0,0:0:0:0:
192,192,75222,1,0,0:0:0:0:
320,192,75351,1,0,0:0:0:0:
192,192,75351,1,0,0:0:0:0:
320,192,75480,1,0,0:0:0:0:
192,192,75480,1,0,0:0:0:0:
320,192,75866,1,0,0:0:0:0:
192,192,75866,1,0,0:0:0:0:
320,192,76252,1,0,0:0:0:0:
192,192,76252,1,0,0:0:0:0:
320,192,76509,1,0,0:0:0:0:
192,192,76509,1,0,0:0:0:0:
448,192,76574,1,0,0:0:0:0:
64,192,76574,1,0,0:0:0:0:
320,192,76639,1,0,0:0:0:0:
192,192,76639,1,0,0:0:0:0:
320,192,76896,1,0,0:0:0:0:
192,192,76896,1,0,0:0:0:0:
320,192,77153,1,0,0:0:0:0:
192,192,77153,1,0,0:0:0:0:
320,192,77281,1,0,0:0:0:0:
192,192,77281,1,0,0:0:0:0:
320,192,77410,1,0,0:0:0:0:
192,192,77410,1,0,0:0:0:0:
320,192,77797,1,0,0:0:0:0:
192,192,77797,1,0,0:0:0:0:
320,192,78182,1,0,0:0:0:0:
192,192,78182,1,0,0:0:0:0:
192,192,78311,1,0,0:0:0:0:
64,192,78311,1,0,0:0:0:0:
192,192,78698,1,0,0:0:0:0:
64,192,78698,1,0,0:0:0:0:
192,192,78955,1,0,0:0:0:0:
64,192,78955,1,0,0:0:0:0:
192,192,79340,1,0,0:0:0:0:
64,192,79340,1,0,0:0:0:0:
192,192,79470,1,0,0:0:0:0:
64,192,79470,1,0,0:0:0:0:
192,192,79599,1,0,0:0:0:0:
64,192,79599,1,0,0:0:0:0:
192,192,79984,1,0,0:0:0:0:
64,192,79984,1,0,0:0:0:0:
192,192,80370,1,0,0:0:0:0:
64,192,80370,1,0,0:0:0:0:
192,192,80628,1,0,0:0:0:0:
64,192,80628,1,0,0:0:0:0:
448,192,80692,1,0,0:0:0:0:
320,192,80692,1,0,0:0:0:0:
192,192,80757,1,0,0:0:0:0:
64,192,80757,1,0,0:0:0:0:
192,192,81014,1,0,0:0:0:0:
64,192,81014,1,0,0:0:0:0:
192,192,81271,1,0,0:0:0:0:
64,192,81271,1,0,0:0:0:0:
192,192,81400,1,0,0:0:0:0:
64,192,81400,1,0,0:0:0:0:
192,192,81529,1,0,0:0:0:0:
64,192,81529,1,0,0:0:0:0:
192,192,81915,1,0,0:0:0:0:
64,192,81915,1,0,0:0:0:0:
192,192,82301,1,0,0:0:0:0:
64,192,82301,1,0,0:0:0:0:
448,192,82430,1,0,0:0:0:0:
320,192,82430,1,0,0:0:0:0:
448,192,82816,1,0,0:0:0:0:
320,192,82816,1,0,0:0:0:0:
448,192,83073,1,0,0:0:0:0:
320,192,83073,1,0,0:0:0:0:
448,192,83460,1,0,0:0:0:0:
320,192,83460,1,0,0:0:0:0:
448,192,83588,1,0,0:0:0:0:
320,192,83588,1,0,0:0:0:0:
448,192,83717,1,0,0:0:0:0:
320,192,83717,1,0,0:0:0:0:
448,192,84102,1,0,0:0:0:0:
320,192,84102,1,0,0:0:0:0:
448,192,84489,1,0,0:0:0:0:
320,192,84489,1,0,0:0:0:0:
448,192,84746,1,0,0:0:0:0:
320,192,84746,1,0,0:0:0:0:
192,192,84811,1,0,0:0:0:0:
64,192,84811,1,0,0:0:0:0:
448,192,84875,1,0,0:0:0:0:
320,192,84875,1,0,0:0:0:0:
448,192,85132,1,0,0:0:0:0:
320,192,85132,1,0,0:0:0:0:
448,192,85390,1,0,0:0:0:0:
320,192,85390,1,0,0:0:0:0:
448,192,85519,1,0,0:0:0:0:
320,192,85519,1,0,0:0:0:0:
448,192,85647,1,0,0:0:0:0:
320,192,85647,1,0,0:0:0:0:
448,192,86033,1,0,0:0:0:0:
320,192,86033,1,0,0:0:0:0:
448,192,86291,1,0,0:0:0:0:
320,192,86322,1,0,0:0:0:0:
64,192,86355,1,0,0:0:0:0:
192,192,86387,1,0,0:0:0:0:
448,192,86420,1,0,0:0:0:0:
320,192,86452,1,0,0:0:0:0:
64,192,86483,1,0,0:0:0:0:
192,192,86516,1,0,0:0:0:0:
448,192,86548,1,0,0:0:0:0:
320,192,86548,1,0,0:0:0:0:
192,192,86677,1,0,0:0:0:0:
320,192,86805,1,0,0:0:0:0:
64,192,86805,1,0,0:0:0:0:
448,192,86934,1,0,0:0:0:0:
320,192,86934,1,0,0:0:0:0:
64,192,86999,1,0,0:0:0:0:
448,192,87063,1,0,0:0:0:0:
192,192,87127,1,0,0:0:0:0:
448,192,87192,1,0,0:0:0:0:
320,192,87192,1,0,0:0:0:0:
192,192,87320,1,0,0:0:0:0:
320,192,87384,1,0,0:0:0:0:
192,192,87449,1,0,0:0:0:0:
448,192,87513,1,0,0:0:0:0:
192,192,87578,1,0,0:0:0:0:
64,192,87578,1,0,0:0:0:0:
320,192,87642,1,0,0:0:0:0:
192,192,87706,1,0,0:0:0:0:
64,192,87706,1,0,0:0:0:0:
448,192,87771,1,0,0:0:0:0:
192,192,87835,1,0,0:0:0:0:
64,192,87835,1,0,0:0:0:0:
448,192,87963,1,0,0:0:0:0:
192,192,88028,1,0,0:0:0:0:
448,192,88093,1,0,0:0:0:0:
64,192,88157,1,0,0:0:0:0:
448,192,88221,1,0,0:0:0:0:
320,192,88221,1,0,0:0:0:0:
64,192,88350,1,0,0:0:0:0:
320,192,88414,1,0,0:0:0:0:
448,192,88479,1,0,0:0:0:0:
192,192,88479,1,0,0:0:0:0:
448,192,88607,1,0,0:0:0:0:
320,192,88607,1,0,0:0:0:0:
64,192,88672,1,0,0:0:0:0:
320,192,88736,1,0,0:0:0:0:
192,192,88800,1,0,0:0:0:0:
448,192,88864,1,0,0:0:0:0:
320,192,88864,1,0,0:0:0:0:
192,192,88929,1,0,0:0:0:0:
64,192,88929,1,0,0:0:0:0:
448,192,88994,1,0,0:0:0:0:
320,192,88994,1,0,0:0:0:0:
64,192,89122,1,0,0:0:0:0:
320,192,89186,1,0,0:0:0:0:
448,192,89251,1,0,0:0:0:0:
192,192,89251,1,0,0:0:0:0:
320,192,89380,1,0,0:0:0:0:
192,192,89380,1,0,0:0:0:0:
448,192,89508,1,0,0:0:0:0:
320,192,89508,1,0,0:0:0:0:
192,192,89573,1,0,0:0:0:0:
448,192,89637,1,0,0:0:0:0:
320,192,89637,1,0,0:0:0:0:
64,192,89701,1,0,0:0:0:0:
448,192,89765,1,0,0:0:0:0:
320,192,89765,1,0,0:0:0:0:
192,192,89830,1,0,0:0:0:0:
320,192,89894,1,0,0:0:0:0:
64,192,89894,1,0,0:0:0:0:
192,192,90023,1,0,0:0:0:0:
320,192,90087,1,0,0:0:0:0:
192,192,90152,1,0,0:0:0:0:
64,192,90152,1,0,0:0:0:0:
448,192,90216,1,0,0:0:0:0:
320,192,90280,1,0,0:0:0:0:
192,192,90280,1,0,0:0:0:0:
448,192,90425,1,0,0:0:0:0:
448,192,90538,1,0,0:0:0:0:
320,192,90538,1,0,0:0:0:0:
192,192,90538,1,0,0:0:0:0:
192,192,90666,1,0,0:0:0:0:
64,192,90666,1,0,0:0:0:0:
320,192,90795,1,0,0:0:0:0:
448,192,90924,1,0,0:0:0:0:
64,192,90924,1,0,0:0:0:0:
192,192,91053,1,0,0:0:0:0:
64,192,91053,1,0,0:0:0:0:
448,192,91117,1,0,0:0:0:0:
192,192,91181,1,0,0:0:0:0:
320,192,91245,1,0,0:0:0:0:
192,192,91310,1,0,0:0:0:0:
64,192,91310,1,0,0:0:0:0:
320,192,91439,1,0,0:0:0:0:
64,192,91439,1,0,0:0:0:0:
320,192,91567,1,0,0:0:0:0:
192,192,91632,1,0,0:0:0:0:
448,192,91696,1,0,0:0:0:0:
320,192,91696,1,0,0:0:0:0:
448,192,91825,1,0,0:0:0:0:
320,192,91825,1,0,0:0:0:0:
448,192,91954,1,0,0:0:0:0:
320,192,91954,1,0,0:0:0:0:
64,192,92082,1,0,0:0:0:0:
448,192,92146,1,0,0:0:0:0:
64,192,92211,1,0,0:0:0:0:
320,192,92275,1,0,0:0:0:0:
192,192,92340,1,0,0:0:0:0:
64,192,92340,1,0,0:0:0:0:
448,192,92468,1,0,0:0:0:0:
192,192,92533,1,0,0:0:0:0:
320,192,92597,1,0,0:0:0:0:
64,192,92597,1,0,0:0:0:0:
448,192,92661,1,0,0:0:0:0:
192,192,92725,1,0,0:0:0:0:
64,192,92725,1,0,0:0:0:0:
320,192,92790,1,0,0:0:0:0:
192,192,92855,1,0,0:0:0:0:
64,192,92919,1,0,0:0:0:0:
448,192,92983,1,0,0:0:0:0:
320,192,92983,1,0,0:0:0:0:
192,192,93047,1,0,0:0:0:0:
64,192,93047,1,0,0:0:0:0:
448,192,93112,1,0,0:0:0:0:
320,192,93112,1,0,0:0:0:0:
192,192,93176,1,0,0:0:0:0:
64,192,93240,1,0,0:0:0:0:
320,192,93305,1,0,0:0:0:0:
192,192,93369,1,0,0:0:0:0:
64,192,93369,1,0,0:0:0:0:
320,192,93498,1,0,0:0:0:0:
64,192,93562,1,0,0:0:0:0:
448,192,93626,1,0,0:0:0:0:
320,192,93626,1,0,0:0:0:0:
192,192,93691,1,0,0:0:0:0:
320,192,93756,1,0,0:0:0:0:
64,192,93756,1,0,0:0:0:0:
192,192,93884,1,0,0:0:0:0:
64,192,93884,1,0,0:0:0:0:
448,192,94013,1,0,0:0:0:0:
320,192,94013,1,0,0:0:0:0:
192,192,94013,1,0,0:0:0:0:
448,192,94141,1,0,0:0:0:0:
320,192,94141,1,0,0:0:0:0:
192,192,94270,1,0,0:0:0:0:
64,192,94270,1,0,0:0:0:0:
448,192,94399,1,0,0:0:0:0:
192,192,94399,1,0,0:0:0:0:
64,192,94527,1,0,0:0:0:0:
320,192,94592,1,0,0:0:0:0:
192,192,94656,1,0,0:0:0:0:
64,192,94656,1,0,0:0:0:0:
448,192,94720,1,0,0:0:0:0:
320,192,94720,1,0,0:0:0:0:
192,192,94785,1,0,0:0:0:0:
64,192,94785,1,0,0:0:0:0:
448,192,94914,1,0,0:0:0:0:
320,192,95042,1,0,0:0:0:0:
64,192,95042,1,0,0:0:0:0:
448,192,95171,1,0,0:0:0:0:
320,192,95171,1,0,0:0:0:0:
64,192,95236,1,0,0:0:0:0:
448,192,95300,1,0,0:0:0:0:
192,192,95364,1,0,0:0:0:0:
448,192,95428,1,0,0:0:0:0:
320,192,95428,1,0,0:0:0:0:
192,192,95557,1,0,0:0:0:0:
320,192,95621,1,0,0:0:0:0:
192,192,95686,1,0,0:0:0:0:
448,192,95750,1,0,0:0:0:0:
192,192,95815,1,0,0:0:0:0:
64,192,95815,1,0,0:0:0:0:
320,192,95879,1,0,0:0:0:0:
192,192,95943,1,0,0:0:0:0:
64,192,95943,1,0,0:0:0:0:
448,192,96007,1,0,0:0:0:0:
192,192,96072,1,0,0:0:0:0:
64,192,96072,1,0,0:0:0:0:
448,192,96200,1,0,0:0:0:0:
192,192,96265,1,0,0:0:0:0:
448,192,96329,1,0,0:0:0:0:
64,192,96394,1,0,0:0:0:0:
448,192,96458,1,0,0:0:0:0:
320,192,96458,1,0,0:0:0:0:
192,192,96587,1,0,0:0:0:0:
320,192,96651,1,0,0:0:0:0:
448,192,96716,1,0,0:0:0:0:
192,192,96716,1,0,0:0:0:0:
448,192,96844,1,0,0:0:0:0:
320,192,96844,1,0,0:0:0:0:
64,192,96908,1,0,0:0:0:0:
320,192,96973,1,0,0:0:0:0:
192,192,97037,1,0,0:0:0:0:
448,192,97101,1,0,0:0:0:0:
320,192,97101,1,0,0:0:0:0:
192,192,97166,1,0,0:0:0:0:
64,192,97166,1,0,0:0:0:0:
448,192,97230,1,0,0:0:0:0:
320,192,97230,1,0,0:0:0:0:
64,192,97359,1,0,0:0:0:0:
320,192,97423,1,0,0:0:0:0:
448,192,97487,1,0,0:0:0:0:
192,192,97487,1,0,0:0:0:0:
320,192,97617,1,0,0:0:0:0:
192,192,97617,1,0,0:0:0:0:
448,192,97745,1,0,0:0:0:0:
320,192,97745,1,0,0:0:0:0:
192,192,97809,1,0,0:0:0:0:
448,192,97874,1,0,0:0:0:0:
320,192,97874,1,0,0:0:0:0:
64,192,97938,1,0,0:0:0:0:
448,192,98002,1,0,0:0:0:0:
320,192,98002,1,0,0:0:0:0:
192,192,98067,1,0,0:0:0:0:
320,192,98131,1,0,0:0:0:0:
64,192,98131,1,0,0:0:0:0:
192,192,98260,1,0,0:0:0:0:
320,192,98324,1,0,0:0:0:0:
192,192,98388,1,0,0:0:0:0:
64,192,98388,1,0,0:0:0:0:
448,192,98453,1,0,0:0:0:0:
320,192,98518,1,0,0:0:0:0:
192,192,98518,1,0,0:0:0:0:
448,192,98662,1,0,0:0:0:0:
448,192,98775,1,0,0:0:0:0:
320,192,98775,1,0,0:0:0:0:
192,192,98775,1,0,0:0:0:0:
192,192,98903,1,0,0:0:0:0:
64,192,98903,1,0,0:0:0:0:
320,192,99032,1,0,0:0:0:0:
448,192,99160,1,0,0:0:0:0:
64,192,99160,1,0,0:0:0:0:
192,192,99289,1,0,0:0:0:0:
64,192,99289,1,0,0:0:0:0:
448,192,99354,1,0,0:0:0:0:
192,192,99418,1,0,0:0:0:0:
320,192,99482,1,0,0:0:0:0:
192,192,99547,1,0,0:0:0:0:
64,192,99547,1,0,0:0:0:0:
320,192,99676,1,0,0:0:0:0:
64,192,99676,1,0,0:0:0:0:
320,192,99804,1,0,0:0:0:0:
192,192,99868,1,0,0:0:0:0:
448,192,99933,1,0,0:0:0:0:
320,192,99933,1,0,0:0:0:0:
448,192,100061,1,0,0:0:0:0:
320,192,100061,1,0,0:0:0:0:
448,192,100190,1,0,0:0:0:0:
320,192,100190,1,0,0:0:0:0:
64,192,100319,1,0,0:0:0:0:
448,192,100383,1,0,0:0:0:0:
64,192,100448,1,0,0:0:0:0:
320,192,100512,1,0,0:0:0:0:
192,192,100577,1,0,0:0:0:0:
64,192,100577,1,0,0:0:0:0:
448,192,100705,1,0,0:0:0:0:
192,192,100769,1,0,0:0:0:0:
320,192,100834,1,0,0:0:0:0:
64,192,100834,1,0,0:0:0:0:
448,192,100899,1,0,0:0:0:0:
192,192,100962,1,0,0:0:0:0:
64,192,100962,1,0,0:0:0:0:
320,192,101027,1,0,0:0:0:0:
192,192,101091,1,0,0:0:0:0:
64,192,101156,1,0,0:0:0:0:
448,192,101220,1,0,0:0:0:0:
320,192,101220,1,0,0:0:0:0:
192,192,101284,1,0,0:0:0:0:
64,192,101284,1,0,0:0:0:0:
448,192,101349,1,0,0:0:0:0:
320,192,101349,1,0,0:0:0:0:
192,192,101413,1,0,0:0:0:0:
64,192,101478,1,0,0:0:0:0:
320,192,101541,1,0,0:0:0:0:
448,192,101606,1,0,0:0:0:0:
64,192,101606,1,0,0:0:0:0:
192,192,101735,1,0,0:0:0:0:
448,192,101799,1,0,0:0:0:0:
192,192,101863,1,0,0:0:0:0:
64,192,101863,1,0,0:0:0:0:
320,192,101928,1,0,0:0:0:0:
448,192,101992,1,0,0:0:0:0:
192,192,101992,1,0,0:0:0:0:
448,192,102120,1,0,0:0:0:0:
320,192,102120,1,0,0:0:0:0:
320,192,102249,1,0,0:0:0:0:
192,192,102249,1,0,0:0:0:0:
64,192,102249,1,0,0:0:0:0:
448,192,102379,1,0,0:0:0:0:
64,192,102379,1,0,0:0:0:0:
448,192,102507,1,0,0:0:0:0:
320,192,102507,1,0,0:0:0:0:
448,192,102636,1,0,0:0:0:0:
192,192,102636,1,0,0:0:0:0:
320,192,102764,1,0,0:0:0:0:
192,192,102829,1,0,0:0:0:0:
448,192,102893,1,0,0:0:0:0:
64,192,102893,1,0,0:0:0:0:
320,192,102958,1,0,0:0:0:0:
448,192,103021,1,0,0:0:0:0:
192,192,103021,1,0,0:0:0:0:
64,192,103021,1,0,0:0:0:0:
192,192,103150,1,0,0:0:0:0:
448,192,103280,1,0,0:0:0:0:
64,192,103280,1,0,0:0:0:0:
320,192,103408,1,0,0:0:0:0:
192,192,103472,1,0,0:0:0:0:
448,192,103537,1,0,0:0:0:0:
320,192,103537,1,0,0:0:0:0:
192,192,103665,1,0,0:0:0:0:
448,192,103794,1,0,0:0:0:0:
64,192,103794,1,0,0:0:0:0:
320,192,103922,1,0,0:0:0:0:
192,192,103987,1,0,0:0:0:0:
448,192,104051,1,0,0:0:0:0:
320,192,104051,1,0,0:0:0:0:
448,192,104180,1,0,0:0:0:0:
320,192,104180,1,0,0:0:0:0:
448,192,104309,1,0,0:0:0:0:
64,192,104309,1,0,0:0:0:0:
320,192,104438,1,0,0:0:0:0:
192,192,104501,1,0,0:0:0:0:
448,192,104566,1,0,0:0:0:0:
320,192,104566,1,0,0:0:0:0:
64,192,104695,1,0,0:0:0:0:
448,192,104823,1,0,0:0:0:0:
192,192,104823,1,0,0:0:0:0:
448,192,104952,1,0,0:0:0:0:
64,192,104952,1,0,0:0:0:0:
320,192,105017,1,0,0:0:0:0:
192,192,105080,1,0,0:0:0:0:
64,192,105080,1,0,0:0:0:0:
320,192,105210,1,0,0:0:0:0:
448,192,105339,1,0,0:0:0:0:
64,192,105339,1,0,0:0:0:0:
192,192,105467,1,0,0:0:0:0:
320,192,105531,1,0,0:0:0:0:
192,192,105596,1,0,0:0:0:0:
64,192,105596,1,0,0:0:0:0:
320,192,105724,1,0,0:0:0:0:
448,192,105853,1,0,0:0:0:0:
64,192,105853,1,0,0:0:0:0:
192,192,105981,1,0,0:0:0:0:
320,192,106046,1,0,0:0:0:0:
192,192,106111,1,0,0:0:0:0:
64,192,106111,1,0,0:0:0:0:
448,192,106240,1,0,0:0:0:0:
320,192,106240,1,0,0:0:0:0:
192,192,106303,1,0,0:0:0:0:
64,192,106303,1,0,0:0:0:0:
448,192,106368,1,0,0:0:0:0:
320,192,106368,1,0,0:0:0:0:
448,192,106497,1,0,0:0:0:0:
320,192,106497,1,0,0:0:0:0:
64,192,106560,1,0,0:0:0:0:
192,192,106625,1,0,0:0:0:0:
448,192,106754,1,0,0:0:0:0:
320,192,106882,1,0,0:0:0:0:
64,192,106882,1,0,0:0:0:0:
448,192,107011,1,0,0:0:0:0:
64,192,107011,1,0,0:0:0:0:
448,192,107140,1,0,0:0:0:0:
320,192,107140,1,0,0:0:0:0:
192,192,107269,1,0,0:0:0:0:
448,192,107398,1,0,0:0:0:0:
64,192,107398,1,0,0:0:0:0:
320,192,107526,1,0,0:0:0:0:
192,192,107591,1,0,0:0:0:0:
448,192,107655,1,0,0:0:0:0:
320,192,107655,1,0,0:0:0:0:
192,192,107783,1,0,0:0:0:0:
448,192,107912,1,0,0:0:0:0:
64,192,107912,1,0,0:0:0:0:
320,192,108041,1,0,0:0:0:0:
192,192,108105,1,0,0:0:0:0:
448,192,108170,1,0,0:0:0:0:
320,192,108170,1,0,0:0:0:0:
192,192,108299,1,0,0:0:0:0:
448,192,108427,1,0,0:0:0:0:
64,192,108427,1,0,0:0:0:0:
320,192,108556,1,0,0:0:0:0:
192,192,108620,1,0,0:0:0:0:
448,192,108684,1,0,0:0:0:0:
320,192,108684,1,0,0:0:0:0:
64,192,108749,1,0,0:0:0:0:
192,192,108813,1,0,0:0:0:0:
448,192,108941,1,0,0:0:0:0:
192,192,108941,1,0,0:0:0:0:
448,192,109071,1,0,0:0:0:0:
64,192,109071,1,0,0:0:0:0:
320,192,109135,1,0,0:0:0:0:
192,192,109200,1,0,0:0:0:0:
64,192,109200,1,0,0:0:0:0:
320,192,109328,1,0,0:0:0:0:
448,192,109457,1,0,0:0:0:0:
64,192,109457,1,0,0:0:0:0:
192,192,109585,1,0,0:0:0:0:
64,192,109585,1,0,0:0:0:0:
320,192,109650,1,0,0:0:0:0:
192,192,109714,1,0,0:0:0:0:
64,192,109714,1,0,0:0:0:0:
320,192,109842,1,0,0:0:0:0:
448,192,109972,1,0,0:0:0:0:
64,192,109972,1,0,0:0:0:0:
192,192,110100,1,0,0:0:0:0:
320,192,110164,1,0,0:0:0:0:
192,192,110229,1,0,0:0:0:0:
64,192,110229,1,0,0:0:0:0:
192,192,110358,1,0,0:0:0:0:
64,192,110358,1,0,0:0:0:0:
448,192,110486,1,0,0:0:0:0:
64,192,110486,1,0,0:0:0:0:
320,192,110615,1,0,0:0:0:0:
192,192,110680,1,0,0:0:0:0:
448,192,110743,1,0,0:0:0:0:
320,192,110743,1,0,0:0:0:0:
192,192,110873,1,0,0:0:0:0:
320,192,111001,1,0,0:0:0:0:
64,192,111001,1,0,0:0:0:0:
448,192,111130,1,0,0:0:0:0:
64,192,111130,1,0,0:0:0:0:
192,192,111194,1,0,0:0:0:0:
448,192,111259,1,0,0:0:0:0:
320,192,111259,1,0,0:0:0:0:
192,192,111387,1,0,0:0:0:0:
448,192,111516,1,0,0:0:0:0:
64,192,111516,1,0,0:0:0:0:
320,192,111644,1,0,0:0:0:0:
192,192,111709,1,0,0:0:0:0:
448,192,111773,1,0,0:0:0:0:
320,192,111773,1,0,0:0:0:0:
192,192,111902,1,0,0:0:0:0:
448,192,112031,1,0,0:0:0:0:
64,192,112031,1,0,0:0:0:0:
320,192,112160,1,0,0:0:0:0:
192,192,112223,1,0,0:0:0:0:
448,192,112288,1,0,0:0:0:0:
320,192,112288,1,0,0:0:0:0:
448,192,112417,1,0,0:0:0:0:
320,192,112417,1,0,0:0:0:0:
448,192,112545,1,0,0:0:0:0:
64,192,112545,1,0,0:0:0:0:
320,192,112674,1,0,0:0:0:0:
192,192,112739,1,0,0:0:0:0:
448,192,112803,1,0,0:0:0:0:
320,192,112803,1,0,0:0:0:0:
64,192,112867,1,0,0:0:0:0:
192,192,112932,1,0,0:0:0:0:
448,192,113060,1,0,0:0:0:0:
192,192,113060,1,0,0:0:0:0:
448,192,113189,1,0,0:0:0:0:
64,192,113189,1,0,0:0:0:0:
320,192,113254,1,0,0:0:0:0:
192,192,113318,1,0,0:0:0:0:
64,192,113318,1,0,0:0:0:0:
320,192,113446,1,0,0:0:0:0:
448,192,113575,1,0,0:0:0:0:
64,192,113575,1,0,0:0:0:0:
192,192,113703,1,0,0:0:0:0:
320,192,113768,1,0,0:0:0:0:
192,192,113833,1,0,0:0:0:0:
64,192,113833,1,0,0:0:0:0:
320,192,113961,1,0,0:0:0:0:
448,192,114090,1,0,0:0:0:0:
64,192,114090,1,0,0:0:0:0:
192,192,114219,1,0,0:0:0:0:
320,192,114283,1,0,0:0:0:0:
192,192,114347,1,0,0:0:0:0:
64,192,114347,1,0,0:0:0:0:
448,192,114476,1,0,0:0:0:0:
320,192,114476,1,0,0:0:0:0:
192,192,114540,1,0,0:0:0:0:
64,192,114540,1,0,0:0:0:0:
448,192,114604,1,0,0:0:0:0:
320,192,114604,1,0,0:0:0:0:
192,192,114734,1,0,0:0:0:0:
64,192,114798,1,0,0:0:0:0:
448,192,114862,1,0,0:0:0:0:
320,192,114862,1,0,0:0:0:0:
192,192,114991,1,0,0:0:0:0:
320,192,115120,1,0,0:0:0:0:
64,192,115120,1,0,0:0:0:0:
448,192,115248,1,0,0:0:0:0:
64,192,115248,1,0,0:0:0:0:
448,192,115377,1,0,0:0:0:0:
320,192,115377,1,0,0:0:0:0:
192,192,115505,1,0,0:0:0:0:
448,192,115635,1,0,0:0:0:0:
64,192,115635,1,0,0:0:0:0:
320,192,115763,1,0,0:0:0:0:
192,192,115827,1,0,0:0:0:0:
448,192,115892,1,0,0:0:0:0:
320,192,115892,1,0,0:0:0:0:
192,192,116020,1,0,0:0:0:0:
448,192,116149,1,0,0:0:0:0:
64,192,116149,1,0,0:0:0:0:
64,192,116278,1,0,0:0:0:0:
448,192,116406,1,0,0:0:0:0:
320,192,116406,1,0,0:0:0:0:
192,192,116535,1,0,0:0:0:0:
448,192,116664,1,0,0:0:0:0:
64,192,116664,1,0,0:0:0:0:
320,192,116793,1,0,0:0:0:0:
192,192,116857,1,0,0:0:0:0:
448,192,116921,1,0,0:0:0:0:
320,192,116921,1,0,0:0:0:0:
64,192,116985,1,0,0:0:0:0:
192,192,117050,1,0,0:0:0:0:
320,192,117179,1,0,0:0:0:0:
192,192,117179,1,0,0:0:0:0:
448,192,117307,1,0,0:0:0:0:
64,192,117307,1,0,0:0:0:0:
448,192,117436,1,0,0:0:0:0:
320,192,117436,1,0,0:0:0:0:
192,192,117565,1,0,0:0:0:0:
448,192,117694,1,0,0:0:0:0:
64,192,117694,1,0,0:0:0:0:
192,192,117822,1,0,0:0:0:0:
64,192,117822,1,0,0:0:0:0:
320,192,117886,1,0,0:0:0:0:
192,192,117951,1,0,0:0:0:0:
64,192,117951,1,0,0:0:0:0:
320,192,118080,1,0,0:0:0:0:
448,192,118208,1,0,0:0:0:0:
64,192,118208,1,0,0:0:0:0:
192,192,118337,1,0,0:0:0:0:
320,192,118401,1,0,0:0:0:0:
192,192,118465,1,0,0:0:0:0:
64,192,118465,1,0,0:0:0:0:
192,192,118595,1,0,0:0:0:0:
64,192,118595,1,0,0:0:0:0:
448,192,118723,1,0,0:0:0:0:
64,192,118723,1,0,0:0:0:0:
448,192,118852,1,0,0:0:0:0:
320,192,118980,1,0,0:0:0:0:
64,192,118980,1,0,0:0:0:0:
192,192,119109,1,0,0:0:0:0:
64,192,119109,1,0,0:0:0:0:
448,192,119238,1,0,0:0:0:0:
320,192,119270,1,0,0:0:0:0:
192,192,119302,1,0,0:0:0:0:
64,192,119335,1,0,0:0:0:0:
448,192,119366,1,0,0:0:0:0:
320,192,119399,1,0,0:0:0:0:
192,192,119431,1,0,0:0:0:0:
64,192,119463,1,0,0:0:0:0:
448,192,119496,1,0,0:0:0:0:
320,192,119496,1,0,0:0:0:0:
64,192,119624,1,0,0:0:0:0:
448,192,119753,1,0,0:0:0:0:
320,192,119753,1,0,0:0:0:0:
64,192,119753,1,0,0:0:0:0:
192,192,119881,1,0,0:0:0:0:
64,192,119946,1,0,0:0:0:0:
448,192,120010,1,0,0:0:0:0:
320,192,120010,1,0,0:0:0:0:
64,192,120139,1,0,0:0:0:0:
448,192,120267,1,0,0:0:0:0:
320,192,120267,1,0,0:0:0:0:
64,192,120267,1,0,0:0:0:0:
192,192,120397,1,0,0:0:0:0:
64,192,120460,1,0,0:0:0:0:
448,192,120525,1,0,0:0:0:0:
320,192,120525,1,0,0:0:0:0:
448,192,120654,1,0,0:0:0:0:
320,192,120654,1,0,0:0:0:0:
448,192,120782,1,0,0:0:0:0:
320,192,120782,1,0,0:0:0:0:
64,192,120782,1,0,0:0:0:0:
192,192,120911,1,0,0:0:0:0:
64,192,120976,1,0,0:0:0:0:
448,192,121040,1,0,0:0:0:0:
320,192,121040,1,0,0:0:0:0:
192,192,121168,1,0,0:0:0:0:
448,192,121297,1,0,0:0:0:0:
192,192,121297,1,0,0:0:0:0:
448,192,121426,1,0,0:0:0:0:
64,192,121426,1,0,0:0:0:0:
320,192,121490,1,0,0:0:0:0:
192,192,121555,1,0,0:0:0:0:
64,192,121555,1,0,0:0:0:0:
448,192,121683,1,0,0:0:0:0:
448,192,121812,1,0,0:0:0:0:
192,192,121812,1,0,0:0:0:0:
64,192,121812,1,0,0:0:0:0:
320,192,121940,1,0,0:0:0:0:
448,192,122005,1,0,0:0:0:0:
192,192,122069,1,0,0:0:0:0:
64,192,122069,1,0,0:0:0:0:
448,192,122198,1,0,0:0:0:0:
448,192,122327,1,0,0:0:0:0:
192,192,122327,1,0,0:0:0:0:
64,192,122327,1,0,0:0:0:0:
320,192,122456,1,0,0:0:0:0:
448,192,122520,1,0,0:0:0:0:
192,192,122584,1,0,0:0:0:0:
64,192,122584,1,0,0:0:0:0:
448,192,122713,1,0,0:0:0:0:
320,192,122713,1,0,0:0:0:0:
192,192,122778,1,0,0:0:0:0:
64,192,122778,1,0,0:0:0:0:
448,192,122841,1,0,0:0:0:0:
320,192,122841,1,0,0:0:0:0:
448,192,122970,1,0,0:0:0:0:
320,192,122970,1,0,0:0:0:0:
64,192,123035,1,0,0:0:0:0:
192,192,123099,1,0,0:0:0:0:
320,192,123227,1,0,0:0:0:0:
320,192,123357,1,0,0:0:0:0:
64,192,123357,1,0,0:0:0:0:
448,192,123485,1,0,0:0:0:0:
64,192,123485,1,0,0:0:0:0:
448,192,123614,1,0,0:0:0:0:
320,192,123614,1,0,0:0:0:0:
64,192,123742,1,0,0:0:0:0:
448,192,123871,1,0,0:0:0:0:
320,192,123871,1,0,0:0:0:0:
64,192,123871,1,0,0:0:0:0:
192,192,124000,1,0,0:0:0:0:
64,192,124064,1,0,0:0:0:0:
448,192,124128,1,0,0:0:0:0:
320,192,124128,1,0,0:0:0:0:
64,192,124258,1,0,0:0:0:0:
448,192,124386,1,0,0:0:0:0:
320,192,124386,1,0,0:0:0:0:
64,192,124386,1,0,0:0:0:0:
192,192,124515,1,0,0:0:0:0:
64,192,124579,1,0,0:0:0:0:
448,192,124643,1,0,0:0:0:0:
320,192,124643,1,0,0:0:0:0:
64,192,124772,1,0,0:0:0:0:
448,192,124900,1,0,0:0:0:0:
320,192,124900,1,0,0:0:0:0:
64,192,124900,1,0,0:0:0:0:
192,192,125029,1,0,0:0:0:0:
64,192,125094,1,0,0:0:0:0:
448,192,125159,1,0,0:0:0:0:
320,192,125159,1,0,0:0:0:0:
64,192,125222,1,0,0:0:0:0:
192,192,125287,1,0,0:0:0:0:
448,192,125416,1,0,0:0:0:0:
192,192,125416,1,0,0:0:0:0:
448,192,125544,1,0,0:0:0:0:
64,192,125544,1,0,0:0:0:0:
320,192,125608,1,0,0:0:0:0:
192,192,125673,1,0,0:0:0:0:
64,192,125673,1,0,0:0:0:0:
448,192,125801,1,0,0:0:0:0:
448,192,125930,1,0,0:0:0:0:
192,192,125930,1,0,0:0:0:0:
64,192,125930,1,0,0:0:0:0:
192,192,126059,1,0,0:0:0:0:
64,192,126059,1,0,0:0:0:0:
320,192,126123,1,0,0:0:0:0:
192,192,126188,1,0,0:0:0:0:
64,192,126188,1,0,0:0:0:0:
448,192,126317,1,0,0:0:0:0:
448,192,126445,1,0,0:0:0:0:
192,192,126445,1,0,0:0:0:0:
64,192,126445,1,0,0:0:0:0:
320,192,126574,1,0,0:0:0:0:
448,192,126639,1,0,0:0:0:0:
192,192,126702,1,0,0:0:0:0:
64,192,126702,1,0,0:0:0:0:
192,192,126831,1,0,0:0:0:0:
64,192,126831,1,0,0:0:0:0:
448,192,126960,1,0,0:0:0:0:
192,192,126960,1,0,0:0:0:0:
64,192,126960,1,0,0:0:0:0:
320,192,127089,1,0,0:0:0:0:
448,192,127153,1,0,0:0:0:0:
192,192,127218,1,0,0:0:0:0:
64,192,127218,1,0,0:0:0:0:
320,192,127346,1,0,0:0:0:0:
320,192,127475,1,0,0:0:0:0:
64,192,127475,1,0,0:0:0:0:
448,192,127603,1,0,0:0:0:0:
64,192,127603,1,0,0:0:0:0:
192,192,127668,1,0,0:0:0:0:
448,192,127732,1,0,0:0:0:0:
320,192,127732,1,0,0:0:0:0:
64,192,127860,1,0,0:0:0:0:
448,192,127989,1,0,0:0:0:0:
320,192,127989,1,0,0:0:0:0:
64,192,127989,1,0,0:0:0:0:
192,192,128119,1,0,0:0:0:0:
64,192,128182,1,0,0:0:0:0:
448,192,128247,1,0,0:0:0:0:
320,192,128247,1,0,0:0:0:0:
64,192,128376,1,0,0:0:0:0:
448,192,128504,1,0,0:0:0:0:
320,192,128504,1,0,0:0:0:0:
64,192,128504,1,0,0:0:0:0:
192,192,128633,1,0,0:0:0:0:
64,192,128698,1,0,0:0:0:0:
448,192,128761,1,0,0:0:0:0:
320,192,128761,1,0,0:0:0:0:
448,192,128890,1,0,0:0:0:0:
320,192,128890,1,0,0:0:0:0:
448,192,129020,1,0,0:0:0:0:
320,192,129020,1,0,0:0:0:0:
64,192,129020,1,0,0:0:0:0:
192,192,129148,1,0,0:0:0:0:
64,192,129212,1,0,0:0:0:0:
448,192,129277,1,0,0:0:0:0:
320,192,129277,1,0,0:0:0:0:
64,192,129340,1,0,0:0:0:0:
192,192,129405,1,0,0:0:0:0:
448,192,129534,1,0,0:0:0:0:
192,192,129534,1,0,0:0:0:0:
448,192,129662,1,0,0:0:0:0:
64,192,129662,1,0,0:0:0:0:
320,192,129727,1,0,0:0:0:0:
192,192,129791,1,0,0:0:0:0:
64,192,129791,1,0,0:0:0:0:
448,192,129920,1,0,0:0:0:0:
448,192,130049,1,0,0:0:0:0:
192,192,130049,1,0,0:0:0:0:
64,192,130049,1,0,0:0:0:0:
320,192,130178,1,0,0:0:0:0:
448,192,130241,1,0,0:0:0:0:
192,192,130306,1,0,0:0:0:0:
64,192,130306,1,0,0:0:0:0:
448,192,130435,1,0,0:0:0:0:
448,192,130563,1,0,0:0:0:0:
192,192,130563,1,0,0:0:0:0:
64,192,130563,1,0,0:0:0:0:
320,192,130692,1,0,0:0:0:0:
448,192,130757,1,0,0:0:0:0:
192,192,130820,1,0,0:0:0:0:
64,192,130820,1,0,0:0:0:0:
448,192,130950,1,0,0:0:0:0:
320,192,130950,1,0,0:0:0:0:
192,192,131014,1,0,0:0:0:0:
64,192,131014,1,0,0:0:0:0:
448,192,131079,1,0,0:0:0:0:
320,192,131079,1,0,0:0:0:0:
192,192,131207,1,0,0:0:0:0:
64,192,131271,1,0,0:0:0:0:
448,192,131336,1,0,0:0:0:0:
320,192,131336,1,0,0:0:0:0:
192,192,131464,1,0,0:0:0:0:
320,192,131593,1,0,0:0:0:0:
64,192,131593,1,0,0:0:0:0:
448,192,131721,1,0,0:0:0:0:
64,192,131721,1,0,0:0:0:0:
448,192,131851,1,0,0:0:0:0:
320,192,131851,1,0,0:0:0:0:
64,192,131980,1,0,0:0:0:0:
448,192,132108,1,0,0:0:0:0:
320,192,132108,1,0,0:0:0:0:
64,192,132108,1,0,0:0:0:0:
192,192,132237,1,0,0:0:0:0:
64,192,132301,1,0,0:0:0:0:
448,192,132365,1,0,0:0:0:0:
320,192,132365,1,0,0:0:0:0:
64,192,132494,1,0,0:0:0:0:
448,192,132622,1,0,0:0:0:0:
320,192,132622,1,0,0:0:0:0:
64,192,132622,1,0,0:0:0:0:
192,192,132751,1,0,0:0:0:0:
448,192,132880,1,0,0:0:0:0:
320,192,132880,1,0,0:0:0:0:
64,192,133009,1,0,0:0:0:0:
448,192,133138,1,0,0:0:0:0:
320,192,133138,1,0,0:0:0:0:
64,192,133138,1,0,0:0:0:0:
192,192,133266,1,0,0:0:0:0:
64,192,133331,1,0,0:0:0:0:
448,192,133395,1,0,0:0:0:0:
320,192,133395,1,0,0:0:0:0:
64,192,133460,1,0,0:0:0:0:
192,192,133523,1,0,0:0:0:0:
320,192,133652,1,0,0:0:0:0:
192,192,133652,1,0,0:0:0:0:
448,192,133781,1,0,0:0:0:0:
64,192,133781,1,0,0:0:0:0:
192,192,133910,1,0,0:0:0:0:
64,192,133910,1,0,0:0:0:0:
448,192,134039,1,0,0:0:0:0:
448,192,134167,1,0,0:0:0:0:
192,192,134167,1,0,0:0:0:0:
64,192,134167,1,0,0:0:0:0:
192,192,134296,1,0,0:0:0:0:
64,192,134296,1,0,0:0:0:0:
320,192,134360,1,0,0:0:0:0:
192,192,134424,1,0,0:0:0:0:
64,192,134424,1,0,0:0:0:0:
448,192,134553,1,0,0:0:0:0:
448,192,134682,1,0,0:0:0:0:
192,192,134682,1,0,0:0:0:0:
64,192,134682,1,0,0:0:0:0:
320,192,134811,1,0,0:0:0:0:
448,192,134875,1,0,0:0:0:0:
192,192,134940,1,0,0:0:0:0:
64,192,134940,1,0,0:0:0:0:
192,192,135068,1,0,0:0:0:0:
64,192,135068,1,0,0:0:0:0:
448,192,135197,1,0,0:0:0:0:
192,192,135197,1,0,0:0:0:0:
64,192,135197,1,0,0:0:0:0:
448,192,135325,1,0,0:0:0:0:
320,192,135454,1,0,0:0:0:0:
64,192,135454,1,0,0:0:0:0:
192,192,135582,1,0,0:0:0:0:
64,192,135582,1,0,0:0:0:0:
448,192,135712,1,0,0:0:0:0:
320,192,135776,1,0,0:0:0:0:
64,192,135840,1,0,0:0:0:0:
192,192,135873,1,0,0:0:0:0:
320,192,135904,1,0,0:0:0:0:
448,192,135969,1,0,0:0:0:0:
192,192,135969,1,0,0:0:0:0:
64,192,135969,1,0,0:0:0:0:
320,192,136098,1,0,0:0:0:0:
192,192,136226,1,0,0:0:0:0:
64,192,136226,1,0,0:0:0:0:
448,192,136355,1,0,0:0:0:0:
64,192,136355,1,0,0:0:0:0:
448,192,136483,1,0,0:0:0:0:
320,192,136483,1,0,0:0:0:0:
192,192,136548,1,0,0:0:0:0:
64,192,136613,1,0,0:0:0:0:
320,192,136677,1,0,0:0:0:0:
448,192,136741,1,0,0:0:0:0:
192,192,136741,1,0,0:0:0:0:
64,192,136741,1,0,0:0:0:0:
320,192,136870,1,0,0:0:0:0:
192,192,136999,1,0,0:0:0:0:
64,192,136999,1,0,0:0:0:0:
448,192,137127,1,0,0:0:0:0:
192,192,137127,1,0,0:0:0:0:
64,192,137127,1,0,0:0:0:0:
192,192,137256,1,0,0:0:0:0:
64,192,137256,1,0,0:0:0:0:
320,192,137320,1,0,0:0:0:0:
448,192,137384,1,0,0:0:0:0:
192,192,137449,1,0,0:0:0:0:
448,192,137513,1,0,0:0:0:0:
320,192,137513,1,0,0:0:0:0:
64,192,137513,1,0,0:0:0:0:
192,192,137642,1,0,0:0:0:0:
448,192,137771,1,0,0:0:0:0:
320,192,137771,1,0,0:0:0:0:
448,192,137900,1,0,0:0:0:0:
320,192,137900,1,0,0:0:0:0:
64,192,137900,1,0,0:0:0:0:
448,192,138028,1,0,0:0:0:0:
320,192,138028,1,0,0:0:0:0:
64,192,138028,1,0,0:0:0:0:
448,192,138157,1,0,0:0:0:0:
192,192,138157,1,0,0:0:0:0:
192,192,138285,1,0,0:0:0:0:
64,192,138285,1,0,0:0:0:0:
448,192,138414,1,0,0:0:0:0:
64,192,138414,1,0,0:0:0:0:
448,192,138543,1,0,0:0:0:0:
320,192,138543,1,0,0:0:0:0:
192,192,138607,1,0,0:0:0:0:
64,192,138672,1,0,0:0:0:0:
320,192,138736,1,0,0:0:0:0:
448,192,138800,1,0,0:0:0:0:
192,192,138800,1,0,0:0:0:0:
64,192,138800,1,0,0:0:0:0:
320,192,138929,1,0,0:0:0:0:
192,192,139058,1,0,0:0:0:0:
64,192,139058,1,0,0:0:0:0:
448,192,139186,1,0,0:0:0:0:
320,192,139186,1,0,0:0:0:0:
64,192,139186,1,0,0:0:0:0:
192,192,139251,1,0,0:0:0:0:
448,192,139315,1,0,0:0:0:0:
320,192,139315,1,0,0:0:0:0:
448,192,139444,1,0,0:0:0:0:
320,192,139444,1,0,0:0:0:0:
448,192,139573,1,0,0:0:0:0:
192,192,139573,1,0,0:0:0:0:
64,192,139573,1,0,0:0:0:0:
320,192,139701,1,0,0:0:0:0:
192,192,139830,1,0,0:0:0:0:
64,192,139830,1,0,0:0:0:0:
448,192,139959,1,0,0:0:0:0:
192,192,139959,1,0,0:0:0:0:
64,192,139959,1,0,0:0:0:0:
320,192,140023,1,0,0:0:0:0:
448,192,140087,1,0,0:0:0:0:
192,192,140087,1,0,0:0:0:0:
64,192,140087,1,0,0:0:0:0:
320,192,140216,1,0,0:0:0:0:
192,192,140344,1,0,0:0:0:0:
64,192,140344,1,0,0:0:0:0:
448,192,140474,1,0,0:0:0:0:
64,192,140474,1,0,0:0:0:0:
448,192,140602,1,0,0:0:0:0:
320,192,140602,1,0,0:0:0:0:
192,192,140666,1,0,0:0:0:0:
64,192,140731,1,0,0:0:0:0:
320,192,140795,1,0,0:0:0:0:
448,192,140860,1,0,0:0:0:0:
192,192,140860,1,0,0:0:0:0:
64,192,140860,1,0,0:0:0:0:
320,192,140988,1,0,0:0:0:0:
192,192,141117,1,0,0:0:0:0:
64,192,141117,1,0,0:0:0:0:
448,192,141245,1,0,0:0:0:0:
64,192,141245,1,0,0:0:0:0:
448,192,141375,1,0,0:0:0:0:
320,192,141375,1,0,0:0:0:0:
192,192,141439,1,0,0:0:0:0:
64,192,141503,1,0,0:0:0:0:
320,192,141567,1,0,0:0:0:0:
448,192,141632,1,0,0:0:0:0:
192,192,141632,1,0,0:0:0:0:
64,192,141632,1,0,0:0:0:0:
320,192,141760,1,0,0:0:0:0:
192,192,141889,1,0,0:0:0:0:
64,192,141889,1,0,0:0:0:0:
448,192,142018,1,0,0:0:0:0:
192,192,142018,1,0,0:0:0:0:
64,192,142018,1,0,0:0:0:0:
448,192,142146,1,0,0:0:0:0:
192,192,142146,1,0,0:0:0:0:
64,192,142146,1,0,0:0:0:0:
320,192,142275,1,0,0:0:0:0:
64,192,142275,1,0,0:0:0:0:
448,192,142404,1,0,0:0:0:0:
320,192,142404,1,0,0:0:0:0:
448,192,142533,1,0,0:0:0:0:
320,192,142533,1,0,0:0:0:0:
64,192,142533,1,0,0:0:0:0:
448,192,142661,1,0,0:0:0:0:
320,192,142661,1,0,0:0:0:0:
192,192,142725,1,0,0:0:0:0:
64,192,142790,1,0,0:0:0:0:
320,192,142855,1,0,0:0:0:0:
448,192,142919,1,0,0:0:0:0:
192,192,142919,1,0,0:0:0:0:
64,192,142919,1,0,0:0:0:0:
320,192,143047,1,0,0:0:0:0:
192,192,143176,1,0,0:0:0:0:
64,192,143176,1,0,0:0:0:0:
448,192,143305,1,0,0:0:0:0:
192,192,143305,1,0,0:0:0:0:
64,192,143305,1,0,0:0:0:0:
192,192,143434,1,0,0:0:0:0:
64,192,143434,1,0,0:0:0:0:
320,192,143498,1,0,0:0:0:0:
448,192,143562,1,0,0:0:0:0:
192,192,143626,1,0,0:0:0:0:
448,192,143691,1,0,0:0:0:0:
320,192,143691,1,0,0:0:0:0:
64,192,143691,1,0,0:0:0:0:
192,192,143820,1,0,0:0:0:0:
448,192,143948,1,0,0:0:0:0:
320,192,143948,1,0,0:0:0:0:
448,192,144077,1,0,0:0:0:0:
64,192,144077,1,0,0:0:0:0:
192,192,144141,1,0,0:0:0:0:
448,192,144206,1,0,0:0:0:0:
320,192,144206,1,0,0:0:0:0:
64,192,144206,1,0,0:0:0:0:
192,192,144335,1,0,0:0:0:0:
448,192,144463,1,0,0:0:0:0:
320,192,144463,1,0,0:0:0:0:
448,192,144592,1,0,0:0:0:0:
64,192,144592,1,0,0:0:0:0:
192,192,144720,1,0,0:0:0:0:
64,192,144720,1,0,0:0:0:0:
320,192,144785,1,0,0:0:0:0:
448,192,144849,1,0,0:0:0:0:
192,192,144914,1,0,0:0:0:0:
448,192,144978,1,0,0:0:0:0:
320,192,144978,1,0,0:0:0:0:
64,192,144978,1,0,0:0:0:0:
192,192,145106,1,0,0:0:0:0:
448,192,145236,1,0,0:0:0:0:
320,192,145236,1,0,0:0:0:0:
448,192,145364,1,0,0:0:0:0:
320,192,145364,1,0,0:0:0:0:
64,192,145364,1,0,0:0:0:0:
448,192,145493,1,0,0:0:0:0:
320,192,145493,1,0,0:0:0:0:
192,192,145557,1,0,0:0:0:0:
64,192,145621,1,0,0:0:0:0:
320,192,145686,1,0,0:0:0:0:
448,192,145750,1,0,0:0:0:0:
192,192,145750,1,0,0:0:0:0:
64,192,145750,1,0,0:0:0:0:
320,192,145879,1,0,0:0:0:0:
192,192,146007,1,0,0:0:0:0:
64,192,146007,1,0,0:0:0:0:
448,192,146137,1,0,0:0:0:0:
192,192,146137,1,0,0:0:0:0:
64,192,146137,1,0,0:0:0:0:
448,192,146265,1,0,0:0:0:0:
192,192,146265,1,0,0:0:0:0:
64,192,146265,1,0,0:0:0:0:
320,192,146394,1,0,0:0:0:0:
64,192,146394,1,0,0:0:0:0:
448,192,146522,1,0,0:0:0:0:
320,192,146522,1,0,0:0:0:0:
448,192,146651,1,0,0:0:0:0:
64,192,146651,1,0,0:0:0:0:
192,192,146780,1,0,0:0:0:0:
64,192,146780,1,0,0:0:0:0:
320,192,146844,1,0,0:0:0:0:
448,192,146908,1,0,0:0:0:0:
192,192,146973,1,0,0:0:0:0:
448,192,147037,1,0,0:0:0:0:
320,192,147037,1,0,0:0:0:0:
64,192,147037,1,0,0:0:0:0:
192,192,147166,1,0,0:0:0:0:
448,192,147295,1,0,0:0:0:0:
320,192,147295,1,0,0:0:0:0:
448,192,147423,1,0,0:0:0:0:
320,192,147423,1,0,0:0:0:0:
64,192,147423,1,0,0:0:0:0:
192,192,147487,1,0,0:0:0:0:
448,192,147552,1,0,0:0:0:0:
320,192,147552,1,0,0:0:0:0:
64,192,147617,1,0,0:0:0:0:
192,192,147680,1,0,0:0:0:0:
320,192,147745,1,0,0:0:0:0:
448,192,147809,1,0,0:0:0:0:
192,192,147809,1,0,0:0:0:0:
64,192,147809,1,0,0:0:0:0:
320,192,147938,1,0,0:0:0:0:
192,192,148067,1,0,0:0:0:0:
64,192,148067,1,0,0:0:0:0:
448,192,148196,1,0,0:0:0:0:
64,192,148196,1,0,0:0:0:0:
320,192,148260,1,0,0:0:0:0:
448,192,148324,1,0,0:0:0:0:
192,192,148324,1,0,0:0:0:0:
64,192,148324,1,0,0:0:0:0:
320,192,148453,1,0,0:0:0:0:
192,192,148581,1,0,0:0:0:0:
64,192,148581,1,0,0:0:0:0:
448,192,148710,1,0,0:0:0:0:
64,192,148710,1,0,0:0:0:0:
448,192,148839,1,0,0:0:0:0:
320,192,148839,1,0,0:0:0:0:
192,192,148903,1,0,0:0:0:0:
64,192,148968,1,0,0:0:0:0:
320,192,149032,1,0,0:0:0:0:
448,192,149097,1,0,0:0:0:0:
192,192,149097,1,0,0:0:0:0:
64,192,149097,1,0,0:0:0:0:
320,192,149225,1,0,0:0:0:0:
192,192,149354,1,0,0:0:0:0:
64,192,149354,1,0,0:0:0:0:
448,192,149482,1,0,0:0:0:0:
64,192,149482,1,0,0:0:0:0:
448,192,149611,1,0,0:0:0:0:
320,192,149611,1,0,0:0:0:0:
192,192,149676,1,0,0:0:0:0:
64,192,149740,1,0,0:0:0:0:
320,192,149804,1,0,0:0:0:0:
448,192,149868,1,0,0:0:0:0:
192,192,149868,1,0,0:0:0:0:
64,192,149868,1,0,0:0:0:0:
320,192,149998,1,0,0:0:0:0:
192,192,150126,1,0,0:0:0:0:
64,192,150126,1,0,0:0:0:0:
448,192,150255,1,0,0:0:0:0:
192,192,150255,1,0,0:0:0:0:
64,192,150255,1,0,0:0:0:0:
448,192,150383,1,0,0:0:0:0:
192,192,150383,1,0,0:0:0:0:
448,192,150512,1,0,0:0:0:0:
64,192,150512,1,0,0:0:0:0:
192,192,150640,1,0,0:0:0:0:
448,192,150769,1,0,0:0:0:0:
64,192,150769,1,0,0:0:0:0:
192,192,150899,1,0,0:0:0:0:
320,192,150962,1,0,0:0:0:0:
448,192,151027,1,0,0:0:0:0:
192,192,151091,1,0,0:0:0:0:
448,192,151156,1,0,0:0:0:0:
64,192,151156,1,0,0:0:0:0:
192,192,151284,1,0,0:0:0:0:
320,192,151413,1,0,0:0:0:0:
448,192,151541,1,0,0:0:0:0:
64,192,151541,1,0,0:0:0:0:
320,192,151670,1,0,0:0:0:0:
192,192,151735,1,0,0:0:0:0:
64,192,151799,1,0,0:0:0:0:
320,192,151863,1,0,0:0:0:0:
448,192,151928,1,0,0:0:0:0:
64,192,151928,1,0,0:0:0:0:
320,192,152057,1,0,0:0:0:0:
192,192,152185,1,0,0:0:0:0:
448,192,152314,1,0,0:0:0:0:
64,192,152314,1,0,0:0:0:0:
320,192,152379,1,0,0:0:0:0:
448,192,152442,1,0,0:0:0:0:
192,192,152442,1,0,0:0:0:0:
64,192,152442,1,0,0:0:0:0:
320,192,152571,1,0,0:0:0:0:
448,192,152700,1,0,0:0:0:0:
192,192,152700,1,0,0:0:0:0:
192,192,152829,1,0,0:0:0:0:
64,192,152829,1,0,0:0:0:0:
320,192,152893,1,0,0:0:0:0:
64,192,152958,1,0,0:0:0:0:
448,192,153021,1,0,0:0:0:0:
192,192,153086,1,0,0:0:0:0:
64,192,153086,1,0,0:0:0:0:
448,192,153215,1,0,0:0:0:0:
192,192,153280,1,0,0:0:0:0:
320,192,153343,1,0,0:0:0:0:
64,192,153408,1,0,0:0:0:0:
448,192,153472,1,0,0:0:0:0:
320,192,153472,1,0,0:0:0:0:
192,192,153537,1,0,0:0:0:0:
448,192,153600,1,0,0:0:0:0:
320,192,153600,1,0,0:0:0:0:
64,192,153665,1,0,0:0:0:0:
448,192,153730,1,0,0:0:0:0:
320,192,153730,1,0,0:0:0:0:
64,192,153859,1,0,0:0:0:0:
448,192,153922,1,0,0:0:0:0:
192,192,153987,1,0,0:0:0:0:
320,192,154051,1,0,0:0:0:0:
192,192,154116,1,0,0:0:0:0:
64,192,154116,1,0,0:0:0:0:
320,192,154244,1,0,0:0:0:0:
64,192,154309,1,0,0:0:0:0:
448,192,154373,1,0,0:0:0:0:
192,192,154373,1,0,0:0:0:0:
448,192,154501,1,0,0:0:0:0:
320,192,154501,1,0,0:0:0:0:
192,192,154566,1,0,0:0:0:0:
64,192,154630,1,0,0:0:0:0:
448,192,154695,1,0,0:0:0:0:
192,192,154760,1,0,0:0:0:0:
64,192,154760,1,0,0:0:0:0:
448,192,154823,1,0,0:0:0:0:
320,192,154823,1,0,0:0:0:0:
192,192,154888,1,0,0:0:0:0:
64,192,154888,1,0,0:0:0:0:
320,192,155017,1,0,0:0:0:0:
192,192,155080,1,0,0:0:0:0:
448,192,155145,1,0,0:0:0:0:
320,192,155145,1,0,0:0:0:0:
64,192,155210,1,0,0:0:0:0:
448,192,155274,1,0,0:0:0:0:
192,192,155274,1,0,0:0:0:0:
192,192,155402,1,0,0:0:0:0:
64,192,155402,1,0,0:0:0:0:
448,192,155467,1,0,0:0:0:0:
192,192,155531,1,0,0:0:0:0:
64,192,155531,1,0,0:0:0:0:
320,192,155596,1,0,0:0:0:0:
192,192,155660,1,0,0:0:0:0:
64,192,155660,1,0,0:0:0:0:
448,192,155724,1,0,0:0:0:0:
320,192,155789,1,0,0:0:0:0:
64,192,155789,1,0,0:0:0:0:
448,192,155918,1,0,0:0:0:0:
192,192,155981,1,0,0:0:0:0:
448,192,156046,1,0,0:0:0:0:
320,192,156046,1,0,0:0:0:0:
64,192,156111,1,0,0:0:0:0:
320,192,156175,1,0,0:0:0:0:
192,192,156175,1,0,0:0:0:0:
64,192,156320,1,0,0:0:0:0:
320,192,156432,1,0,0:0:0:0:
192,192,156432,1,0,0:0:0:0:
64,192,156432,1,0,0:0:0:0:
448,192,156560,1,0,0:0:0:0:
320,192,156560,1,0,0:0:0:0:
192,192,156690,1,0,0:0:0:0:
448,192,156819,1,0,0:0:0:0:
64,192,156819,1,0,0:0:0:0:
192,192,156947,1,0,0:0:0:0:
64,192,156947,1,0,0:0:0:0:
320,192,157011,1,0,0:0:0:0:
192,192,157076,1,0,0:0:0:0:
448,192,157140,1,0,0:0:0:0:
192,192,157204,1,0,0:0:0:0:
64,192,157204,1,0,0:0:0:0:
448,192,157333,1,0,0:0:0:0:
64,192,157333,1,0,0:0:0:0:
320,192,157461,1,0,0:0:0:0:
448,192,157526,1,0,0:0:0:0:
192,192,157591,1,0,0:0:0:0:
64,192,157591,1,0,0:0:0:0:
192,192,157720,1,0,0:0:0:0:
64,192,157720,1,0,0:0:0:0:
192,192,157848,1,0,0:0:0:0:
64,192,157848,1,0,0:0:0:0:
448,192,157977,1,0,0:0:0:0:
192,192,158041,1,0,0:0:0:0:
320,192,158105,1,0,0:0:0:0:
64,192,158170,1,0,0:0:0:0:
448,192,158234,1,0,0:0:0:0:
320,192,158234,1,0,0:0:0:0:
64,192,158362,1,0,0:0:0:0:
448,192,158427,1,0,0:0:0:0:
192,192,158492,1,0,0:0:0:0:
320,192,158556,1,0,0:0:0:0:
192,192,158620,1,0,0:0:0:0:
64,192,158620,1,0,0:0:0:0:
448,192,158684,1,0,0:0:0:0:
64,192,158749,1,0,0:0:0:0:
320,192,158813,1,0,0:0:0:0:
192,192,158878,1,0,0:0:0:0:
64,192,158878,1,0,0:0:0:0:
448,192,158941,1,0,0:0:0:0:
320,192,158941,1,0,0:0:0:0:
192,192,159006,1,0,0:0:0:0:
64,192,159006,1,0,0:0:0:0:
448,192,159071,1,0,0:0:0:0:
320,192,159135,1,0,0:0:0:0:
64,192,159200,1,0,0:0:0:0:
320,192,159263,1,0,0:0:0:0:
192,192,159263,1,0,0:0:0:0:
448,192,159392,1,0,0:0:0:0:
64,192,159457,1,0,0:0:0:0:
448,192,159521,1,0,0:0:0:0:
320,192,159521,1,0,0:0:0:0:
192,192,159585,1,0,0:0:0:0:
320,192,159650,1,0,0:0:0:0:
64,192,159650,1,0,0:0:0:0:
192,192,159779,1,0,0:0:0:0:
64,192,159779,1,0,0:0:0:0:
320,192,159907,1,0,0:0:0:0:
192,192,159907,1,0,0:0:0:0:
64,192,159907,1,0,0:0:0:0:
448,192,160036,1,0,0:0:0:0:
320,192,160036,1,0,0:0:0:0:
192,192,160164,1,0,0:0:0:0:
64,192,160164,1,0,0:0:0:0:
320,192,160293,1,0,0:0:0:0:
192,192,160293,1,0,0:0:0:0:
64,192,160422,1,0,0:0:0:0:
320,192,160486,1,0,0:0:0:0:
192,192,160551,1,0,0:0:0:0:
64,192,160551,1,0,0:0:0:0:
448,192,160615,1,0,0:0:0:0:
320,192,160615,1,0,0:0:0:0:
192,192,160680,1,0,0:0:0:0:
64,192,160680,1,0,0:0:0:0:
320,192,160808,1,0,0:0:0:0:
448,192,160937,1,0,0:0:0:0:
192,192,160937,1,0,0:0:0:0:
192,192,161065,1,0,0:0:0:0:
64,192,161065,1,0,0:0:0:0:
320,192,161130,1,0,0:0:0:0:
64,192,161194,1,0,0:0:0:0:
448,192,161259,1,0,0:0:0:0:
192,192,161322,1,0,0:0:0:0:
64,192,161322,1,0,0:0:0:0:
448,192,161452,1,0,0:0:0:0:
192,192,161516,1,0,0:0:0:0:
320,192,161580,1,0,0:0:0:0:
64,192,161644,1,0,0:0:0:0:
448,192,161709,1,0,0:0:0:0:
320,192,161709,1,0,0:0:0:0:
192,192,161773,1,0,0:0:0:0:
448,192,161838,1,0,0:0:0:0:
320,192,161838,1,0,0:0:0:0:
64,192,161902,1,0,0:0:0:0:
448,192,161966,1,0,0:0:0:0:
320,192,161966,1,0,0:0:0:0:
64,192,162095,1,0,0:0:0:0:
448,192,162160,1,0,0:0:0:0:
192,192,162223,1,0,0:0:0:0:
320,192,162288,1,0,0:0:0:0:
192,192,162353,1,0,0:0:0:0:
64,192,162353,1,0,0:0:0:0:
320,192,162481,1,0,0:0:0:0:
64,192,162545,1,0,0:0:0:0:
448,192,162610,1,0,0:0:0:0:
192,192,162610,1,0,0:0:0:0:
448,192,162739,1,0,0:0:0:0:
320,192,162739,1,0,0:0:0:0:
64,192,162803,1,0,0:0:0:0:
320,192,162867,1,0,0:0:0:0:
192,192,162932,1,0,0:0:0:0:
448,192,162996,1,0,0:0:0:0:
320,192,162996,1,0,0:0:0:0:
192,192,163060,1,0,0:0:0:0:
64,192,163060,1,0,0:0:0:0:
448,192,163124,1,0,0:0:0:0:
320,192,163124,1,0,0:0:0:0:
192,192,163254,1,0,0:0:0:0:
320,192,163318,1,0,0:0:0:0:
192,192,163382,1,0,0:0:0:0:
64,192,163382,1,0,0:0:0:0:
448,192,163446,1,0,0:0:0:0:
320,192,163511,1,0,0:0:0:0:
64,192,163511,1,0,0:0:0:0:
448,192,163640,1,0,0:0:0:0:
320,192,163640,1,0,0:0:0:0:
64,192,163703,1,0,0:0:0:0:
448,192,163768,1,0,0:0:0:0:
320,192,163768,1,0,0:0:0:0:
192,192,163833,1,0,0:0:0:0:
448,192,163897,1,0,0:0:0:0:
320,192,163897,1,0,0:0:0:0:
64,192,163961,1,0,0:0:0:0:
448,192,164025,1,0,0:0:0:0:
192,192,164025,1,0,0:0:0:0:
320,192,164154,1,0,0:0:0:0:
64,192,164219,1,0,0:0:0:0:
448,192,164283,1,0,0:0:0:0:
320,192,164283,1,0,0:0:0:0:
192,192,164347,1,0,0:0:0:0:
448,192,164412,1,0,0:0:0:0:
64,192,164412,1,0,0:0:0:0:
192,192,164557,1,0,0:0:0:0:
320,192,164669,1,0,0:0:0:0:
192,192,164669,1,0,0:0:0:0:
64,192,164669,1,0,0:0:0:0:
448,192,164798,1,0,0:0:0:0:
320,192,164798,1,0,0:0:0:0:
192,192,164926,1,0,0:0:0:0:
448,192,165055,1,0,0:0:0:0:
64,192,165055,1,0,0:0:0:0:
192,192,165184,1,0,0:0:0:0:
64,192,165184,1,0,0:0:0:0:
320,192,165248,1,0,0:0:0:0:
192,192,165313,1,0,0:0:0:0:
448,192,165377,1,0,0:0:0:0:
192,192,165441,1,0,0:0:0:0:
64,192,165441,1,0,0:0:0:0:
448,192,165570,1,0,0:0:0:0:
64,192,165570,1,0,0:0:0:0:
320,192,165699,1,0,0:0:0:0:
448,192,165763,1,0,0:0:0:0:
192,192,165827,1,0,0:0:0:0:
64,192,165827,1,0,0:0:0:0:
192,192,165956,1,0,0:0:0:0:
64,192,165956,1,0,0:0:0:0:
192,192,166084,1,0,0:0:0:0:
64,192,166084,1,0,0:0:0:0:
448,192,166214,1,0,0:0:0:0:
192,192,166278,1,0,0:0:0:0:
320,192,166342,1,0,0:0:0:0:
64,192,166406,1,0,0:0:0:0:
448,192,166471,1,0,0:0:0:0:
320,192,166471,1,0,0:0:0:0:
64,192,166600,1,0,0:0:0:0:
448,192,166664,1,0,0:0:0:0:
192,192,166728,1,0,0:0:0:0:
320,192,166793,1,0,0:0:0:0:
192,192,166857,1,0,0:0:0:0:
64,192,166857,1,0,0:0:0:0:
448,192,166921,1,0,0:0:0:0:
64,192,166985,1,0,0:0:0:0:
320,192,167050,1,0,0:0:0:0:
192,192,167115,1,0,0:0:0:0:
64,192,167115,1,0,0:0:0:0:
448,192,167179,1,0,0:0:0:0:
320,192,167179,1,0,0:0:0:0:
192,192,167243,1,0,0:0:0:0:
64,192,167243,1,0,0:0:0:0:
448,192,167307,1,0,0:0:0:0:
320,192,167372,1,0,0:0:0:0:
64,192,167436,1,0,0:0:0:0:
320,192,167500,1,0,0:0:0:0:
192,192,167500,1,0,0:0:0:0:
448,192,167629,1,0,0:0:0:0:
64,192,167694,1,0,0:0:0:0:
448,192,167758,1,0,0:0:0:0:
320,192,167758,1,0,0:0:0:0:
192,192,167822,1,0,0:0:0:0:
320,192,167886,1,0,0:0:0:0:
64,192,167886,1,0,0:0:0:0:
192,192,168016,1,0,0:0:0:0:
64,192,168016,1,0,0:0:0:0:
320,192,168144,1,0,0:0:0:0:
192,192,168144,1,0,0:0:0:0:
64,192,168144,1,0,0:0:0:0:
448,192,168273,1,0,0:0:0:0:
320,192,168273,1,0,0:0:0:0:
192,192,168401,1,0,0:0:0:0:
64,192,168401,1,0,0:0:0:0:
320,192,168530,1,0,0:0:0:0:
192,192,168530,1,0,0:0:0:0:
64,192,168659,1,0,0:0:0:0:
448,192,168723,1,0,0:0:0:0:
192,192,168787,1,0,0:0:0:0:
64,192,168787,1,0,0:0:0:0:
320,192,168852,1,0,0:0:0:0:
448,192,168916,1,0,0:0:0:0:
192,192,168916,1,0,0:0:0:0:
64,192,168916,1,0,0:0:0:0:
320,192,169045,1,0,0:0:0:0:
448,192,169174,1,0,0:0:0:0:
192,192,169174,1,0,0:0:0:0:
192,192,169302,1,0,0:0:0:0:
64,192,169302,1,0,0:0:0:0:
320,192,169366,1,0,0:0:0:0:
64,192,169431,1,0,0:0:0:0:
320,192,169496,1,0,0:0:0:0:
192,192,169560,1,0,0:0:0:0:
64,192,169560,1,0,0:0:0:0:
448,192,169688,1,0,0:0:0:0:
192,192,169753,1,0,0:0:0:0:
320,192,169817,1,0,0:0:0:0:
64,192,169881,1,0,0:0:0:0:
448,192,169946,1,0,0:0:0:0:
320,192,169946,1,0,0:0:0:0:
192,192,170010,1,0,0:0:0:0:
448,192,170075,1,0,0:0:0:0:
320,192,170075,1,0,0:0:0:0:
192,192,170139,1,0,0:0:0:0:
448,192,170203,1,0,0:0:0:0:
320,192,170203,1,0,0:0:0:0:
64,192,170332,1,0,0:0:0:0:
320,192,170397,1,0,0:0:0:0:
192,192,170460,1,0,0:0:0:0:
320,192,170525,1,0,0:0:0:0:
192,192,170589,1,0,0:0:0:0:
64,192,170589,1,0,0:0:0:0:
320,192,170718,1,0,0:0:0:0:
64,192,170782,1,0,0:0:0:0:
448,192,170846,1,0,0:0:0:0:
192,192,170846,1,0,0:0:0:0:
448,192,170976,1,0,0:0:0:0:
320,192,170976,1,0,0:0:0:0:
192,192,171040,1,0,0:0:0:0:
64,192,171104,1,0,0:0:0:0:
448,192,171168,1,0,0:0:0:0:
192,192,171233,1,0,0:0:0:0:
64,192,171233,1,0,0:0:0:0:
448,192,171297,1,0,0:0:0:0:
320,192,171297,1,0,0:0:0:0:
192,192,171361,1,0,0:0:0:0:
64,192,171361,1,0,0:0:0:0:
320,192,171490,1,0,0:0:0:0:
64,192,171555,1,0,0:0:0:0:
448,192,171619,1,0,0:0:0:0:
320,192,171619,1,0,0:0:0:0:
64,192,171683,1,0,0:0:0:0:
448,192,171747,1,0,0:0:0:0:
192,192,171747,1,0,0:0:0:0:
192,192,171877,1,0,0:0:0:0:
64,192,171877,1,0,0:0:0:0:
320,192,171940,1,0,0:0:0:0:
192,192,172005,1,0,0:0:0:0:
64,192,172005,1,0,0:0:0:0:
320,192,172069,1,0,0:0:0:0:
192,192,172134,1,0,0:0:0:0:
64,192,172134,1,0,0:0:0:0:
448,192,172198,1,0,0:0:0:0:
320,192,172262,1,0,0:0:0:0:
64,192,172262,1,0,0:0:0:0:
448,192,172391,1,0,0:0:0:0:
64,192,172456,1,0,0:0:0:0:
448,192,172520,1,0,0:0:0:0:
320,192,172520,1,0,0:0:0:0:
64,192,172584,1,0,0:0:0:0:
320,192,172648,1,0,0:0:0:0:
192,192,172648,1,0,0:0:0:0:
64,192,172793,1,0,0:0:0:0:
320,192,172906,1,0,0:0:0:0:
192,192,172906,1,0,0:0:0:0:
64,192,172906,1,0,0:0:0:0:
448,192,173035,1,0,0:0:0:0:
320,192,173035,1,0,0:0:0:0:
192,192,173163,1,0,0:0:0:0:
448,192,173292,1,0,0:0:0:0:
64,192,173292,1,0,0:0:0:0:
192,192,173420,1,0,0:0:0:0:
64,192,173420,1,0,0:0:0:0:
320,192,173485,1,0,0:0:0:0:
192,192,173549,1,0,0:0:0:0:
320,192,173614,1,0,0:0:0:0:
192,192,173678,1,0,0:0:0:0:
64,192,173678,1,0,0:0:0:0:
448,192,173807,1,0,0:0:0:0:
64,192,173807,1,0,0:0:0:0:
320,192,173936,1,0,0:0:0:0:
448,192,174000,1,0,0:0:0:0:
192,192,174064,1,0,0:0:0:0:
64,192,174064,1,0,0:0:0:0:
192,192,174193,1,0,0:0:0:0:
64,192,174193,1,0,0:0:0:0:
192,192,174321,1,0,0:0:0:0:
64,192,174321,1,0,0:0:0:0:
448,192,174450,1,0,0:0:0:0:
192,192,174515,1,0,0:0:0:0:
320,192,174579,1,0,0:0:0:0:
192,192,174643,1,0,0:0:0:0:
448,192,174708,1,0,0:0:0:0:
320,192,174708,1,0,0:0:0:0:
64,192,174837,1,0,0:0:0:0:
320,192,174900,1,0,0:0:0:0:
192,192,174965,1,0,0:0:0:0:
320,192,175029,1,0,0:0:0:0:
192,192,175094,1,0,0:0:0:0:
64,192,175094,1,0,0:0:0:0:
448,192,175159,1,0,0:0:0:0:
64,192,175222,1,0,0:0:0:0:
320,192,175287,1,0,0:0:0:0:
192,192,175351,1,0,0:0:0:0:
64,192,175351,1,0,0:0:0:0:
448,192,175416,1,0,0:0:0:0:
320,192,175416,1,0,0:0:0:0:
192,192,175480,1,0,0:0:0:0:
64,192,175480,1,0,0:0:0:0:
448,192,175544,1,0,0:0:0:0:
320,192,175608,1,0,0:0:0:0:
64,192,175673,1,0,0:0:0:0:
320,192,175738,1,0,0:0:0:0:
192,192,175738,1,0,0:0:0:0:
448,192,175866,1,0,0:0:0:0:
192,192,175930,1,0,0:0:0:0:
448,192,175995,1,0,0:0:0:0:
320,192,175995,1,0,0:0:0:0:
192,192,176059,1,0,0:0:0:0:
320,192,176123,1,0,0:0:0:0:
64,192,176123,1,0,0:0:0:0:
192,192,176252,1,0,0:0:0:0:
64,192,176252,1,0,0:0:0:0:
320,192,176380,1,0,0:0:0:0:
192,192,176380,1,0,0:0:0:0:
64,192,176380,1,0,0:0:0:0:
448,192,176509,1,0,0:0:0:0:
320,192,176509,1,0,0:0:0:0:
192,192,176639,1,0,0:0:0:0:
64,192,176639,1,0,0:0:0:0:
448,192,176767,1,0,0:0:0:0:
64,192,176767,1,0,0:0:0:0:
192,192,176896,1,0,0:0:0:0:
320,192,176960,1,0,0:0:0:0:
192,192,177024,1,0,0:0:0:0:
64,192,177024,1,0,0:0:0:0:
448,192,177089,1,0,0:0:0:0:
320,192,177089,1,0,0:0:0:0:
192,192,177153,1,0,0:0:0:0:
64,192,177153,1,0,0:0:0:0:
320,192,177281,1,0,0:0:0:0:
448,192,177410,1,0,0:0:0:0:
192,192,177410,1,0,0:0:0:0:
192,192,177540,1,0,0:0:0:0:
64,192,177540,1,0,0:0:0:0:
320,192,177603,1,0,0:0:0:0:
64,192,177668,1,0,0:0:0:0:
320,192,177732,1,0,0:0:0:0:
192,192,177797,1,0,0:0:0:0:
64,192,177797,1,0,0:0:0:0:
448,192,177925,1,0,0:0:0:0:
192,192,177989,1,0,0:0:0:0:
320,192,178054,1,0,0:0:0:0:
64,192,178119,1,0,0:0:0:0:
448,192,178182,1,0,0:0:0:0:
320,192,178182,1,0,0:0:0:0:
192,192,178247,1,0,0:0:0:0:
448,192,178311,1,0,0:0:0:0:
320,192,178311,1,0,0:0:0:0:
192,192,178376,1,0,0:0:0:0:
448,192,178440,1,0,0:0:0:0:
320,192,178440,1,0,0:0:0:0:
64,192,178569,1,0,0:0:0:0:
320,192,178633,1,0,0:0:0:0:
192,192,178698,1,0,0:0:0:0:
320,192,178761,1,0,0:0:0:0:
192,192,178826,1,0,0:0:0:0:
64,192,178826,1,0,0:0:0:0:
320,192,178955,1,0,0:0:0:0:
64,192,179020,1,0,0:0:0:0:
448,192,179083,1,0,0:0:0:0:
192,192,179083,1,0,0:0:0:0:
448,192,179212,1,0,0:0:0:0:
320,192,179212,1,0,0:0:0:0:
64,192,179277,1,0,0:0:0:0:
320,192,179340,1,0,0:0:0:0:
192,192,179405,1,0,0:0:0:0:
448,192,179470,1,0,0:0:0:0:
320,192,179470,1,0,0:0:0:0:
192,192,179534,1,0,0:0:0:0:
64,192,179534,1,0,0:0:0:0:
448,192,179599,1,0,0:0:0:0:
320,192,179599,1,0,0:0:0:0:
192,192,179727,1,0,0:0:0:0:
448,192,179791,1,0,0:0:0:0:
192,192,179856,1,0,0:0:0:0:
64,192,179856,1,0,0:0:0:0:
448,192,179920,1,0,0:0:0:0:
320,192,179984,1,0,0:0:0:0:
64,192,179984,1,0,0:0:0:0:
448,192,180113,1,0,0:0:0:0:
320,192,180113,1,0,0:0:0:0:
64,192,180178,1,0,0:0:0:0:
448,192,180241,1,0,0:0:0:0:
320,192,180241,1,0,0:0:0:0:
192,192,180306,1,0,0:0:0:0:
448,192,180370,1,0,0:0:0:0:
320,192,180370,1,0,0:0:0:0:
64,192,180435,1,0,0:0:0:0:
448,192,180500,1,0,0:0:0:0:
192,192,180500,1,0,0:0:0:0:
64,192,180628,1,0,0:0:0:0:
320,192,180692,1,0,0:0:0:0:
192,192,180757,1,0,0:0:0:0:
64,192,180757,1,0,0:0:0:0:
320,192,180820,1,0,0:0:0:0:
448,192,180885,1,0,0:0:0:0:
192,192,180885,1,0,0:0:0:0:
320,192,181030,1,0,0:0:0:0:
320,192,181142,1,0,0:0:0:0:
192,192,181142,1,0,0:0:0:0:
64,192,181142,1,0,0:0:0:0:
448,192,181271,1,0,0:0:0:0:
320,192,181271,1,0,0:0:0:0:
192,192,181400,1,0,0:0:0:0:
448,192,181529,1,0,0:0:0:0:
64,192,181529,1,0,0:0:0:0:
192,192,181658,1,0,0:0:0:0:
64,192,181658,1,0,0:0:0:0:
320,192,181721,1,0,0:0:0:0:
192,192,181786,1,0,0:0:0:0:
320,192,181851,1,0,0:0:0:0:
192,192,181915,1,0,0:0:0:0:
64,192,181915,1,0,0:0:0:0:
448,192,182043,1,0,0:0:0:0:
64,192,182043,1,0,0:0:0:0:
320,192,182172,1,0,0:0:0:0:
448,192,182237,1,0,0:0:0:0:
192,192,182301,1,0,0:0:0:0:
64,192,182301,1,0,0:0:0:0:
192,192,182430,1,0,0:0:0:0:
64,192,182430,1,0,0:0:0:0:
192,192,182559,1,0,0:0:0:0:
64,192,182559,1,0,0:0:0:0:
448,192,182687,1,0,0:0:0:0:
192,192,182751,1,0,0:0:0:0:
320,192,182816,1,0,0:0:0:0:
192,192,182880,1,0,0:0:0:0:
448,192,182944,1,0,0:0:0:0:
320,192,182944,1,0,0:0:0:0:
64,192,183073,1,0,0:0:0:0:
448,192,183138,1,0,0:0:0:0:
192,192,183201,1,0,0:0:0:0:
320,192,183266,1,0,0:0:0:0:
192,192,183331,1,0,0:0:0:0:
64,192,183331,1,0,0:0:0:0:
448,192,183395,1,0,0:0:0:0:
64,192,183460,1,0,0:0:0:0:
320,192,183523,1,0,0:0:0:0:
192,192,183588,1,0,0:0:0:0:
64,192,183588,1,0,0:0:0:0:
448,192,183652,1,0,0:0:0:0:
320,192,183652,1,0,0:0:0:0:
192,192,183717,1,0,0:0:0:0:
64,192,183717,1,0,0:0:0:0:
448,192,183781,1,0,0:0:0:0:
320,192,183845,1,0,0:0:0:0:
64,192,183910,1,0,0:0:0:0:
320,192,183974,1,0,0:0:0:0:
192,192,183974,1,0,0:0:0:0:
448,192,184102,1,0,0:0:0:0:
192,192,184167,1,0,0:0:0:0:
448,192,184232,1,0,0:0:0:0:
320,192,184232,1,0,0:0:0:0:
192,192,184296,1,0,0:0:0:0:
320,192,184360,1,0,0:0:0:0:
64,192,184360,1,0,0:0:0:0:
192,192,184489,1,0,0:0:0:0:
64,192,184489,1,0,0:0:0:0:
320,192,184618,1,0,0:0:0:0:
192,192,184618,1,0,0:0:0:0:
64,192,184618,1,0,0:0:0:0:
448,192,184746,1,0,0:0:0:0:
320,192,184746,1,0,0:0:0:0:
192,192,184875,1,0,0:0:0:0:
64,192,184875,1,0,0:0:0:0:
320,192,185003,1,0,0:0:0:0:
192,192,185003,1,0,0:0:0:0:
448,192,185132,1,0,0:0:0:0:
320,192,185164,1,0,0:0:0:0:
64,192,185197,1,0,0:0:0:0:
192,192,185229,1,0,0:0:0:0:
448,192,185261,1,0,0:0:0:0:
320,192,185293,1,0,0:0:0:0:
64,192,185325,1,0,0:0:0:0:
192,192,185358,1,0,0:0:0:0:
448,192,185390,1,0,0:0:0:0:
320,192,185390,1,0,0:0:0:0:
