osu file format v14

[General]
AudioFilename: audio.ogg
AudioLeadIn: 0
PreviewTime: 23597
Countdown: 0
SampleSet: Soft
StackLeniency: 0.7
Mode: 0
LetterboxInBreaks: 0
WidescreenStoryboard: 0

[Editor]
Bookmarks: 11011,24804,68942,135149,179287,201356,223425,245494,248252,292390,336528
DistanceSpacing: 1
BeatDivisor: 4
GridSize: 32
TimelineZoom: 2.6

[Metadata]
Title:lonely
TitleUnicode:lonely
Artist:goreshit
ArtistUnicode:goreshit
Creator:riot1133
Version:forsaken
Source:
Tags:english electronic gnb drum n bass dnb whenever you're youre lonely livin' living joy don't dont stop movin remix
BeatmapID:4066074
BeatmapSetID:1961900

[Difficulty]
HPDrainRate:5
CircleSize:3.8
OverallDifficulty:9.6
ApproachRate:9.8
SliderMultiplier:1.6
SliderTickRate:1

[Events]
//Background and Video events
0,0,"wallhaven-1pq1rv_2560x1440.jpg",0,0
//Break Periods
//Storyboard Layer 0 (Background)
//Storyboard Layer 1 (Fail)
//Storyboard Layer 2 (Pass)
//Storyboard Layer 3 (Foreground)
//Storyboard Layer 4 (Overlay)
//Storyboard Sound Samples

[TimingPoints]
177,344.827586206897,4,2,0,50,1,0
11211,-83.3333333333333,4,2,0,60,0,0
21728,-66.6666666666667,4,2,0,60,0,0
25004,-50,4,2,0,75,0,1
30177,-33.3333333333333,4,2,0,75,0,1
30521,-50,4,2,0,75,0,1
41211,-33.3333333333333,4,2,0,75,0,1
41556,-50,4,2,0,75,0,1
69142,-66.6666666666667,4,2,0,60,0,0
135349,-50,4,2,0,75,0,1
179487,-66.6666666666667,4,2,0,60,0,0
247935,-133.333333333333,4,2,0,60,0,0
248108,-66.6666666666667,4,2,0,60,0,0
248452,-50,4,2,0,75,0,1
292590,-66.6666666666667,4,2,0,60,0,0

[Colours]
Combo1 : 44,111,160
Combo2 : 218,190,82

[HitObjects]
350,156,177,5,0,0:0:0:0:
286,200,521,1,8,0:0:0:0:
286,200,694,2,0,P|246:210|205:230,2,80,0|0|8,3:2|0:0|0:0,0:0:0:0:
319,113,1211,1,0,0:0:0:0:
319,113,1383,1,0,0:0:0:0:
468,57,1556,5,0,3:2:0:0:
411,122,1728,2,0,P|422:164|428:204,1,80,0|8,3:2|0:0,0:0:0:0:
368,267,2073,2,0,P|317:279|284:378,1,160,0|8,3:2|0:0,0:0:0:0:
163,227,2590,2,0,L|125:238,2,40
0,286,2935,6,0,B|90:287|49:348|137:368,1,160,0|8,3:2|0:0,0:0:0:0:
246,252,3452,2,0,P|229:290|217:332,2,80,0|0|8,3:2|0:0|0:0,0:0:0:0:
336,314,3970,1,0,0:0:0:0:
336,314,4142,1,0,0:0:0:0:
245,162,4314,5,0,3:2:0:0:
151,236,4487,1,0,3:2:0:0:
240,146,4659,1,8,0:0:0:0:
325,210,4832,2,0,P|371:220|483:272,1,160,0|8,3:2|0:0,0:0:0:0:
504,142,5349,2,0,L|496:185,3,40
495,122,5694,6,0,P|414:45|371:64,1,160,4|8,3:2|0:0,0:0:0:0:
239,146,6211,2,0,P|282:144|324:129,1,80,0|0,3:2|0:0,0:0:0:0:
177,65,6556,1,8,0:0:0:0:
177,65,6728,1,8,0:0:0:0:
134,189,6901,1,0,0:0:0:0:
17,76,7073,6,0,P|37:139|40:162,2,80,0|0|8,3:2|3:2|0:0,0:0:0:0:
78,14,7590,1,0,3:2:0:0:
0,266,7935,1,8,0:0:0:0:
0,266,8108,2,0,L|11:315,2,40,8|0|0,0:0|0:0|0:0,0:0:0:0:
117,363,8452,6,0,P|165:352|277:345,1,160,0|8,3:2|0:0,0:0:0:0:
409,374,8970,2,0,P|374:351|364:308,1,80,0|0,3:2|0:0,0:0:0:0:
422,250,9314,1,8,0:0:0:0:
422,250,9487,1,8,0:0:0:0:
292,223,9659,1,0,0:0:0:0:
483,120,9832,5,0,3:2:0:0:
509,259,10004,1,0,3:2:0:0:
471,113,10177,1,8,0:0:0:0:
370,181,10349,1,0,3:2:0:0:
144,25,10694,1,8,0:0:0:0:
220,87,10866,5,8,0:0:0:0:
272,79,10952,1,8,0:0:0:0:
324,72,11038,1,8,0:0:0:0:
376,65,11124,1,8,0:0:0:0:
428,58,11211,6,0,B|456:70|456:70|444:191,1,143.999995605469,4|0,3:2|0:0,0:0:0:0:
459,201,11556,1,8,0:0:0:0:
244,129,11728,1,0,3:2:0:0:
244,129,11901,1,0,0:0:0:0:
314,218,12073,2,0,P|287:220|263:200,1,47.9999985351563,8|0,0:0|0:0,0:0:0:0:
140,201,12245,2,0,P|160:189|184:192,1,47.9999985351563,8|0,0:0|0:0,0:0:0:0:
209,276,12418,1,0,3:2:0:0:
0,129,12590,6,0,B|17:135|17:135|30:309,2,191.999994140625,0|8|0,3:2|0:0|0:0,0:0:0:0:
65,31,13452,1,8,0:0:0:0:
65,31,13539,1,0,0:0:0:0:
65,31,13625,2,0,P|141:44|177:41,1,95.9999970703126,8|0,0:0|3:2,0:0:0:0:
399,28,13970,6,0,B|306:26|331:88|278:105,1,143.999995605469,0|0,3:2|0:0,0:0:0:0:
265,97,14314,1,8,0:0:0:0:
376,200,14487,1,0,3:2:0:0:
376,200,14659,1,0,0:0:0:0:
447,102,14832,2,0,L|453:155,1,47.9999985351563,8|0,0:0|0:0,0:0:0:0:
507,266,15004,2,0,L|512:218,1,47.9999985351563,8|0,0:0|0:0,0:0:0:0:
370,283,15177,1,0,3:2:0:0:
293,243,15349,6,0,P|239:251|206:331,1,143.999995605469,0|0,3:2|0:0,0:0:0:0:
192,347,15694,2,0,P|139:359|93:376,1,95.9999970703126,8|0,0:0|3:2,0:0:0:0:
12,181,16039,2,0,B|92:171|79:259|124:269,2,143.999995605469,0|0|0,0:0|0:0|3:2,0:0:0:0:
48,72,16642,1,0,3:2:0:0:
68,64,16728,6,0,P|141:83|212:91,1,143.999995605469,4|0,3:2|0:0,0:0:0:0:
229,81,17073,1,8,0:0:0:0:
209,250,17245,1,0,3:2:0:0:
209,250,17418,1,0,0:0:0:0:
352,148,17590,2,0,P|332:165|305:162,1,47.9999985351563,8|0,0:0|0:0,0:0:0:0:
394,236,17763,2,0,P|370:236|353:252,1,47.9999985351563,8|0,0:0|0:0,0:0:0:0:
442,133,17935,1,0,3:2:0:0:
266,241,18108,6,0,P|302:122|338:60,2,191.999994140625,0|8|0,3:2|0:0|0:0,0:0:0:0:
106,317,18970,1,8,0:0:0:0:
106,317,19056,1,0,0:0:0:0:
106,317,19142,2,0,P|166:331|179:368,1,95.9999970703126,8|0,0:0|3:2,0:0:0:0:
365,357,19487,6,0,B|394:350|394:350|416:227,1,143.999995605469,0|0,3:2|0:0,0:0:0:0:
437,224,19832,1,8,0:0:0:0:
512,342,20004,1,0,3:2:0:0:
512,342,20177,1,0,0:0:0:0:
334,243,20349,2,0,L|331:191,1,47.9999985351563,8|0,0:0|0:0,0:0:0:0:
407,103,20521,2,0,L|404:150,1,47.9999985351563,8|0,0:0|0:0,0:0:0:0:
252,164,20694,1,0,3:2:0:0:
297,12,20866,6,0,P|268:64|189:65,1,143.999995605469,0|0,3:2|0:0,0:0:0:0:
176,53,21211,2,0,P|143:13|97:25,1,95.9999970703126,8|0,0:0|3:2,0:0:0:0:
16,283,21556,1,0,0:0:0:0:
20,28,21728,2,0,P|37:58|45:98,1,60.0000022888184,8|0,0:0|0:0,0:0:0:0:
86,239,21901,5,8,0:0:0:0:
156,244,21987,1,8,0:0:0:0:
228,248,22073,1,8,0:0:0:0:
299,253,22159,1,8,0:0:0:0:
453,79,23970,5,8,0:0:0:0:
440,95,24487,6,0,L|376:87,1,60.0000022888184,8|0,0:0|0:0,0:0:0:0:
302,122,24659,2,0,L|307:157,2,30.0000011444092,8|0|0,0:0|0:0|0:0,0:0:0:0:
231,71,24832,2,0,L|236:36,2,30.0000011444092,8|0|0,0:0|0:0|0:0,0:0:0:0:
25,124,25004,6,0,B|39:144|39:144|176:167,1,160,6|0,3:2|0:0,0:0:0:0:
196,155,25263,1,0,0:0:0:0:
236,255,25349,5,10,0:0:0:0:
157,252,25435,1,0,0:0:0:0:
114,298,25521,1,0,0:0:0:0:
121,337,25608,1,0,0:0:0:0:
26,309,25694,6,0,P|21:273|10:229,1,80,2|0,0:0|0:0,0:0:0:0:
298,179,25866,5,0,3:2:0:0:
257,110,25952,2,0,P|221:132|230:190,1,80,2|8,0:0|0:0,0:0:0:0:
417,127,26125,5,0,0:0:0:0:
459,59,26211,2,0,P|421:39|375:76,1,80,2|0,0:0|0:0,0:0:0:0:
441,328,26383,5,2,3:2:0:0:
465,251,26470,1,0,0:0:0:0:
388,227,26556,1,0,0:0:0:0:
364,304,26642,1,0,0:0:0:0:
347,317,26728,5,10,0:0:0:0:
292,328,26814,1,0,0:0:0:0:
235,334,26901,2,0,P|198:321|151:314,1,80
1,137,27073,2,0,P|38:124|85:117,1,80,2|0,0:0|0:0,0:0:0:0:
285,35,27245,5,0,3:2:0:0:
213,69,27332,1,2,3:2:0:0:
296,22,27418,2,0,P|340:33|372:75,1,80,8|0,0:0|0:0,0:0:0:0:
396,286,27590,2,0,P|404:247|419:205,1,80,2|0,3:2|0:0,0:0:0:0:
450,40,27763,6,0,B|368:34|381:115|323:128,1,160,2|0,3:2|0:0,0:0:0:0:
314,145,28021,1,0,0:0:0:0:
208,200,28108,5,10,0:0:0:0:
180,206,28194,1,0,0:0:0:0:
123,191,28280,1,0,0:0:0:0:
76,128,28366,1,0,0:0:0:0:
117,36,28452,5,2,0:0:0:0:
139,25,28539,1,0,0:0:0:0:
164,29,28625,1,0,3:2:0:0:
196,99,28711,5,2,0:0:0:0:
174,110,28798,1,8,0:0:0:0:
149,106,28884,1,0,0:0:0:0:
250,36,28970,5,2,0:0:0:0:
318,75,29056,1,0,0:0:0:0:
386,38,29142,6,0,P|333:96|380:162,1,160,2|0,3:2|0:0,0:0:0:0:
507,296,29401,1,0,0:0:0:0:
496,270,29487,6,0,P|393:249|335:247,1,160,10|0,0:0|0:0,0:0:0:0:
325,263,29745,1,0,0:0:0:0:
193,236,29832,6,0,P|154:236|127:264,1,80,2|0,0:0|0:0,0:0:0:0:
165,341,30004,2,0,P|203:339|230:310,1,80,0|2,3:2|3:2,0:0:0:0:
225,52,30177,6,0,P|259:10|345:28,1,120.000004577637,8|8,0:0|0:0,0:0:0:0:
379,134,30349,2,0,P|345:176|258:157,1,120.000004577637,2|0,3:2|3:2,0:0:0:0:
22,22,30521,6,0,P|63:127|78:177,1,160,6|0,3:2|0:0,0:0:0:0:
65,193,30780,1,0,0:0:0:0:
112,303,30866,5,10,0:0:0:0:
190,316,30952,1,0,0:0:0:0:
269,329,31038,1,0,0:0:0:0:
348,342,31124,1,0,0:0:0:0:
484,289,31211,6,0,P|457:319|432:360,1,80,2|0,0:0|0:0,0:0:0:0:
278,131,31383,5,0,3:2:0:0:
333,189,31470,2,0,P|325:229|323:276,1,80,2|8,0:0|0:0,0:0:0:0:
76,155,31642,5,0,0:0:0:0:
152,177,31729,2,0,P|165:215|187:257,1,80,2|0,0:0|0:0,0:0:0:0:
495,190,31901,6,0,B|418:194|448:122|366:93,1,160,2|0,3:2|0:0,0:0:0:0:
366,74,32159,1,0,0:0:0:0:
302,24,32245,5,10,0:0:0:0:
280,37,32332,1,0,0:0:0:0:
216,103,32418,5,0,0:0:0:0:
137,92,32505,1,0,0:0:0:0:
99,24,32590,6,0,P|83:62|59:101,1,80,2|0,0:0|0:0,0:0:0:0:
69,191,32763,2,0,P|36:215|-4:237,1,80,0|2,3:2|3:2,0:0:0:0:
318,163,32935,6,0,P|285:187|244:209,1,80,8|0,0:0|0:0,0:0:0:0:
208,292,33108,2,0,P|167:297|121:295,1,80,2|0,3:2|0:0,0:0:0:0:
319,61,33280,6,0,P|358:142|441:148,1,160,2|0,3:2|0:0,0:0:0:0:
439,142,33539,1,0,0:0:0:0:
419,377,33625,6,0,B|397:373|397:373|371:220,1,160,10|0,0:0|0:0,0:0:0:0:
351,224,33883,1,0,0:0:0:0:
268,317,33970,5,2,0:0:0:0:
236,321,34056,1,0,0:0:0:0:
204,325,34142,1,0,3:2:0:0:
158,254,34228,5,2,0:0:0:0:
78,243,34314,1,8,0:0:0:0:
0,232,34400,1,0,0:0:0:0:
16,337,34487,5,2,0:0:0:0:
36,331,34573,1,0,0:0:0:0:
93,233,34659,6,0,B|101:155|101:155|108:148|108:148|115:72,1,160,2|0,3:2|0:0,0:0:0:0:
95,56,34918,1,0,0:0:0:0:
208,129,35004,5,10,0:0:0:0:
260,71,35090,1,0,0:0:0:0:
241,24,35177,2,0,P|202:18|149:4,1,80
204,210,35349,6,0,P|247:200|295:191,1,80,2|0,0:0|0:0,0:0:0:0:
505,86,35521,5,0,3:2:0:0:
435,54,35608,1,2,3:2:0:0:
423,131,35694,5,8,0:0:0:0:
445,124,35780,1,8,0:0:0:0:
495,151,35866,1,2,3:2:0:0:
488,224,35952,1,0,3:2:0:0:
413,264,36039,6,0,P|326:216|331:132,1,160,6|0,3:2|0:0,0:0:0:0:
297,152,36297,1,0,0:0:0:0:
195,226,36383,5,10,0:0:0:0:
184,246,36470,1,0,0:0:0:0:
106,266,36556,5,0,0:0:0:0:
106,288,36643,1,0,0:0:0:0:
156,354,36728,6,0,P|199:358|239:369,1,80,2|0,0:0|0:0,0:0:0:0:
222,77,36901,5,0,3:2:0:0:
169,149,36987,2,0,P|208:152|247:162,1,80,2|8,0:0|0:0,0:0:0:0:
368,6,37159,5,0,0:0:0:0:
422,78,37245,2,0,P|382:81|343:91,1,80,2|0,0:0|0:0,0:0:0:0:
428,361,37418,6,0,B|350:354|363:301|299:273,1,160,2|0,3:2|0:0,0:0:0:0:
285,257,37677,1,0,0:0:0:0:
222,380,37763,5,10,0:0:0:0:
195,374,37849,1,0,0:0:0:0:
165,369,37935,2,0,P|128:374|80:385,1,80
40,150,38108,5,2,0:0:0:0:
72,222,38194,1,0,0:0:0:0:
151,229,38280,1,0,3:2:0:0:
223,177,38366,5,2,3:2:0:0:
265,185,38452,1,8,0:0:0:0:
290,216,38539,1,0,0:0:0:0:
369,252,38625,5,2,3:2:0:0:
390,248,38712,1,0,0:0:0:0:
408,129,38797,6,0,P|358:76|270:93,1,160,2|0,3:2|0:0,0:0:0:0:
259,72,39056,1,0,0:0:0:0:
198,148,39142,6,0,P|185:189|177:238,1,80,10|0,0:0|0:0,0:0:0:0:
325,301,39314,2,0,P|312:264|304:225,1,80
461,212,39487,6,0,P|441:177|375:174,1,80,2|0,0:0|0:0,0:0:0:0:
164,245,39659,5,0,3:2:0:0:
124,312,39745,1,2,0:0:0:0:
182,366,39832,2,0,P|225:373|264:386,1,80,8|0,0:0|0:0,0:0:0:0:
289,199,40004,2,0,P|250:186|211:180,1,80,2|0,0:0|0:0,0:0:0:0:
5,127,40177,6,0,P|119:41|96:2,1,160,2|0,3:2|0:0,0:0:0:0:
103,49,40435,1,0,0:0:0:0:
279,39,40521,5,10,0:0:0:0:
301,66,40608,1,0,0:0:0:0:
314,125,40694,1,0,0:0:0:0:
274,202,40780,1,0,0:0:0:0:
182,251,40866,6,0,P|147:228|140:193,1,80,2|0,0:0|0:0,0:0:0:0:
211,147,41039,2,0,P|246:170|253:205,1,80,0|2,3:2|3:2,0:0:0:0:
512,250,41211,6,0,P|510:308|467:348,1,120.000004577637,8|8,0:0|0:0,0:0:0:0:
354,289,41384,2,0,P|355:230|398:190,1,120.000004577637,2|0,3:2|3:2,0:0:0:0:
462,32,41556,5,6,3:2:0:0:
382,42,41642,1,0,0:0:0:0:
303,53,41728,1,0,0:0:0:0:
224,64,41814,1,0,0:0:0:0:
151,116,41901,6,0,P|120:105|64:95,1,80,10|0,0:0|0:0,0:0:0:0:
40,244,42073,2,0,P|70:254|127:265,1,80
370,302,42245,5,2,0:0:0:0:
348,309,42332,1,0,0:0:0:0:
325,316,42418,1,0,3:2:0:0:
278,239,42504,5,2,0:0:0:0:
255,235,42591,1,8,0:0:0:0:
232,229,42677,1,0,0:0:0:0:
352,201,42763,5,2,0:0:0:0:
369,215,42850,1,0,0:0:0:0:
446,183,42935,6,0,P|508:125|480:59,1,160,2|0,3:2|0:0,0:0:0:0:
488,40,43194,1,0,0:0:0:0:
393,7,43280,5,10,0:0:0:0:
314,21,43366,1,0,0:0:0:0:
235,35,43452,2,0,P|198:24|152:15,1,80
57,219,43625,6,0,P|17:190|20:131,1,80,2|0,0:0|0:0,0:0:0:0:
304,155,43797,5,0,3:2:0:0:
242,207,43883,2,0,P|200:198|145:193,1,80,2|8,3:2|0:0,0:0:0:0:
363,368,44056,5,0,0:0:0:0:
301,316,44142,2,0,P|259:325|204:330,1,80,2|0,3:2|0:0,0:0:0:0:
6,372,44314,6,0,B|83:369|69:295|130:277,1,160,2|0,3:2|0:0,0:0:0:0:
147,287,44573,1,0,0:0:0:0:
258,89,44659,5,10,0:0:0:0:
202,31,44745,1,0,0:0:0:0:
123,49,44832,1,0,0:0:0:0:
102,126,44918,1,0,0:0:0:0:
158,185,45004,6,0,P|279:206|326:206,1,160,2|0,0:0|3:2,0:0:0:0:
336,195,45263,1,2,0:0:0:0:
472,237,45349,6,0,P|437:236|393:281,1,80,8|0,0:0|0:0,0:0:0:0:
435,352,45521,2,0,P|470:353|514:308,1,80,2|0,0:0|0:0,0:0:0:0:
502,130,45694,5,2,3:2:0:0:
473,57,45780,1,0,0:0:0:0:
409,47,45866,1,0,3:2:0:0:
379,61,45952,1,0,0:0:0:0:
322,130,46039,6,0,P|364:143|406:150,1,80,10|0,0:0|0:0,0:0:0:0:
174,225,46211,2,0,P|216:211|258:205,1,80,0|0,3:2|0:0,0:0:0:0:
96,39,46383,6,0,L|87:-14,1,40,10|0,0:0|0:0,0:0:0:0:
81,55,46470,2,0,L|28:64,1,40,8|0,0:0|0:0,0:0:0:0:
97,67,46556,2,0,L|106:120,1,40,0|0,3:2|0:0,0:0:0:0:
112,51,46643,2,0,L|165:42,1,40,2|0,3:2|0:0,0:0:0:0:
265,79,46728,6,0,L|258:118,1,40,8|0,0:0|0:0,0:0:0:0:
251,186,46815,2,0,L|257:146,1,40,8|0,0:0|0:0,0:0:0:0:
203,124,46901,2,0,L|242:130,1,40,8|0,3:2|0:0,0:0:0:0:
313,141,46988,2,0,L|273:134,1,40,10|0,3:2|0:0,0:0:0:0:
276,267,47073,6,0,B|363:267|357:359|397:369,1,160,6|0,3:2|0:0,0:0:0:0:
409,361,47332,1,0,0:0:0:0:
280,349,47418,5,10,0:0:0:0:
205,327,47504,1,0,0:0:0:0:
195,250,47590,2,0,P|212:208|256:190,1,80
512,46,47763,6,0,P|496:86|484:128,1,80,2|0,0:0|0:0,0:0:0:0:
441,278,47935,2,0,P|429:239|414:202,1,80,0|2,3:2|0:0,0:0:0:0:
254,17,48108,5,8,0:0:0:0:
175,30,48194,1,0,0:0:0:0:
142,119,48280,5,2,0:0:0:0:
167,127,48366,1,0,0:0:0:0:
257,148,48452,6,0,B|242:167|242:167|170:159|119:210,1,160,2|0,3:2|0:0,0:0:0:0:
95,206,48711,1,0,0:0:0:0:
0,277,48797,5,10,0:0:0:0:
79,286,48883,1,0,0:0:0:0:
158,295,48969,1,0,0:0:0:0:
238,304,49055,1,0,0:0:0:0:
308,244,49142,6,0,P|294:205|276:162,1,80,2|0,0:0|0:0,0:0:0:0:
418,34,49314,5,0,3:2:0:0:
500,34,49401,2,0,P|493:81|429:95,1,80,2|8,3:2|0:0,0:0:0:0:
195,138,49573,5,0,0:0:0:0:
195,56,49660,2,0,P|242:63|256:127,1,80,2|0,3:2|0:0,0:0:0:0:
504,190,49832,6,0,B|414:182|426:277|388:288,1,160,2|0,3:2|0:0,0:0:0:0:
375,311,50090,1,0,0:0:0:0:
254,204,50177,6,0,P|219:217|168:225,1,80,10|0,0:0|0:0,0:0:0:0:
12,151,50349,2,0,P|51:157|88:171,1,80
168,325,50521,5,2,0:0:0:0:
190,349,50608,1,0,0:0:0:0:
247,348,50694,1,0,3:2:0:0:
294,286,50780,1,2,0:0:0:0:
259,181,50866,5,8,0:0:0:0:
234,188,50952,1,0,0:0:0:0:
147,109,51039,5,2,0:0:0:0:
172,116,51125,1,0,0:0:0:0:
266,55,51211,6,0,B|264:27|264:27|130:9,1,160,2|0,3:2|0:0,0:0:0:0:
111,22,51470,1,0,0:0:0:0:
15,130,51556,5,10,0:0:0:0:
53,122,51642,1,0,0:0:0:0:
31,108,51728,1,0,0:0:0:0:
39,147,51814,1,0,0:0:0:0:
147,192,51901,6,0,P|192:177|250:170,1,80,2|0,0:0|0:0,0:0:0:0:
66,306,52073,5,0,3:2:0:0:
76,324,52159,1,2,3:2:0:0:
165,325,52245,5,8,0:0:0:0:
205,257,52332,1,8,0:0:0:0:
289,265,52418,5,2,3:2:0:0:
301,289,52504,1,0,3:2:0:0:
254,357,52590,6,0,B|232:373|317:350|269:319|316:269|374:282,1,160,6|0,3:2|0:0,0:0:0:0:
385,270,52849,1,0,0:0:0:0:
461,382,52935,6,0,P|467:344|480:295,1,80,10|0,0:0|0:0,0:0:0:0:
377,36,53108,5,0,0:0:0:0:
397,52,53194,1,0,0:0:0:0:
424,46,53280,5,2,0:0:0:0:
352,74,53366,1,0,0:0:0:0:
331,146,53452,1,0,3:2:0:0:
260,177,53539,1,2,0:0:0:0:
186,154,53625,6,0,P|194:199|199:235,1,80,8|0,0:0|0:0,0:0:0:0:
384,280,53797,2,0,P|388:240|396:201,1,80,2|0,0:0|0:0,0:0:0:0:
229,78,53970,6,0,B|220:106|220:106|70:121,1,160,2|0,3:2|0:0,0:0:0:0:
72,140,54228,1,0,0:0:0:0:
29,238,54314,5,10,0:0:0:0:
108,251,54401,1,0,0:0:0:0:
186,264,54487,2,0,P|226:249|270:237,1,80
451,17,54659,5,2,0:0:0:0:
484,89,54745,1,0,0:0:0:0:
424,143,54832,1,0,3:2:0:0:
310,152,54918,5,2,3:2:0:0:
351,110,55004,1,8,0:0:0:0:
409,126,55091,1,0,0:0:0:0:
495,196,55177,5,2,3:2:0:0:
487,218,55263,1,0,0:0:0:0:
435,323,55349,6,0,B|426:295|426:295|276:280,1,160,2|0,3:2|0:0,0:0:0:0:
273,297,55608,1,0,0:0:0:0:
124,384,55694,6,0,P|117:341|106:299,1,80,10|0,0:0|0:0,0:0:0:0:
211,172,55866,2,0,P|201:210|195:250,1,80
41,121,56039,5,2,0:0:0:0:
67,47,56125,1,0,0:0:0:0:
134,6,56211,1,0,3:2:0:0:
212,18,56297,1,2,0:0:0:0:
275,77,56383,6,0,P|295:109|349:114,1,80,8|0,0:0|0:0,0:0:0:0:
481,40,56556,2,0,P|442:48|421:81,1,80,2|0,0:0|0:0,0:0:0:0:
462,298,56728,5,2,3:2:0:0:
472,273,56814,1,0,0:0:0:0:
366,270,56900,5,0,0:0:0:0:
377,293,56986,1,0,0:0:0:0:
307,341,57073,6,0,P|270:331|223:326,1,80,10|0,0:0|0:0,0:0:0:0:
51,349,57245,2,0,P|87:358|135:364,1,80
183,13,57418,6,0,P|149:13|114:61,1,80,2|0,0:0|0:0,0:0:0:0:
8,231,57590,5,0,3:2:0:0:
88,225,57677,1,2,3:2:0:0:
174,162,57763,5,8,0:0:0:0:
181,186,57849,1,8,0:0:0:0:
259,261,57935,5,2,3:2:0:0:
272,242,58021,1,0,3:2:0:0:
362,171,58108,5,6,3:2:0:0:
283,156,58194,1,0,0:0:0:0:
204,141,58280,1,0,0:0:0:0:
125,126,58366,1,0,0:0:0:0:
64,56,58452,6,0,P|110:48|150:35,1,80,10|0,0:0|0:0,0:0:0:0:
324,26,58625,2,0,P|285:14|246:8,1,80
250,288,58797,5,2,0:0:0:0:
237,211,58883,1,0,0:0:0:0:
284,148,58969,1,0,3:2:0:0:
361,138,59055,1,2,0:0:0:0:
432,187,59142,6,0,P|475:180|515:178,1,80,8|0,0:0|0:0,0:0:0:0:
490,25,59314,2,0,P|447:32|407:34,1,80,2|0,0:0|0:0,0:0:0:0:
134,37,59487,5,2,3:2:0:0:
211,24,59573,1,0,0:0:0:0:
274,71,59659,1,0,0:0:0:0:
284,148,59745,1,0,0:0:0:0:
215,205,59832,6,0,P|208:168|194:119,1,80,10|0,0:0|0:0,0:0:0:0:
382,271,60004,2,0,P|388:234|403:185,1,80
369,0,60177,5,2,0:0:0:0:
289,11,60263,1,0,0:0:0:0:
211,24,60349,1,0,3:2:0:0:
133,36,60435,1,2,3:2:0:0:
50,9,60521,6,0,P|59:51|66:99,1,80,8|0,0:0|0:0,0:0:0:0:
0,244,60694,2,0,P|5:204|14:165,1,80,2|0,3:2|0:0,0:0:0:0:
189,103,60866,5,2,3:2:0:0:
267,116,60952,1,0,0:0:0:0:
346,130,61038,1,0,0:0:0:0:
425,144,61124,1,0,0:0:0:0:
467,220,61211,5,10,0:0:0:0:
413,224,61297,1,0,0:0:0:0:
360,229,61383,1,0,0:0:0:0:
307,234,61469,1,0,0:0:0:0:
278,310,61556,6,0,P|320:317|363:333,1,80,2|0,0:0|0:0,0:0:0:0:
121,276,61728,5,0,3:2:0:0:
159,209,61814,2,0,P|198:194|244:186,1,80,2|8,0:0|0:0,0:0:0:0:
14,217,61987,5,0,0:0:0:0:
13,139,62073,2,0,P|40:106|75:76,1,80,2|0,0:0|0:0,0:0:0:0:
306,7,62245,5,2,3:2:0:0:
347,74,62332,1,0,0:0:0:0:
335,123,62418,1,0,0:0:0:0:
312,146,62504,1,0,0:0:0:0:
189,97,62590,6,0,P|228:84|279:77,1,80,10|0,0:0|0:0,0:0:0:0:
505,199,62763,2,0,P|466:186|415:179,1,80
231,206,62935,6,0,P|194:237|189:284,1,80,2|0,0:0|0:0,0:0:0:0:
398,370,63108,5,0,3:2:0:0:
411,350,63194,1,2,3:2:0:0:
347,269,63280,5,8,0:0:0:0:
268,277,63366,1,8,0:0:0:0:
220,339,63452,1,2,3:2:0:0:
169,346,63538,1,0,3:2:0:0:
101,276,63625,6,0,P|130:211|237:204,1,160,6|0,3:2|0:0,0:0:0:0:
232,178,63883,1,0,0:0:0:0:
385,56,63970,6,0,P|348:67|301:74,1,80,10|0,0:0|0:0,0:0:0:0:
140,7,64142,2,0,P|179:13|217:24,1,80
503,151,64314,5,2,0:0:0:0:
425,145,64400,1,0,0:0:0:0:
366,196,64486,1,0,3:2:0:0:
361,274,64572,1,2,0:0:0:0:
294,330,64659,6,0,P|287:289|277:248,1,80,8|0,0:0|0:0,0:0:0:0:
208,111,64832,2,0,P|198:149|192:189,1,80,2|0,0:0|0:0,0:0:0:0:
0,384,65004,5,2,3:2:0:0:
3,306,65090,1,0,0:0:0:0:
62,255,65176,1,0,0:0:0:0:
140,261,65262,1,0,0:0:0:0:
193,335,65349,6,0,P|154:336|110:346,1,80,10|0,0:0|0:0,0:0:0:0:
0,156,65521,2,0,P|39:163|79:165,1,80
192,23,65694,5,2,0:0:0:0:
202,102,65780,1,0,0:0:0:0:
212,181,65866,1,0,3:2:0:0:
222,261,65952,1,2,3:2:0:0:
290,316,66039,6,0,P|334:324|371:338,1,80,8|0,0:0|0:0,0:0:0:0:
401,137,66211,2,0,P|356:128|320:115,1,80,2|0,3:2|0:0,0:0:0:0:
8,73,66383,5,2,3:2:0:0:
13,50,66470,1,0,0:0:0:0:
57,27,66556,1,0,0:0:0:0:
129,45,66642,1,0,0:0:0:0:
157,118,66728,1,10,0:0:0:0:
135,192,66814,1,0,0:0:0:0:
170,263,66901,1,0,0:0:0:0:
248,282,66987,1,0,0:0:0:0:
312,233,67073,5,2,0:0:0:0:
297,219,67159,1,0,0:0:0:0:
278,210,67245,1,0,3:2:0:0:
217,158,67332,5,2,0:0:0:0:
232,144,67418,1,8,0:0:0:0:
251,135,67504,1,0,0:0:0:0:
309,57,67590,5,2,0:0:0:0:
382,89,67677,1,0,0:0:0:0:
454,57,67763,6,0,P|433:95|419:135,1,80,2|0,3:2|0:0,0:0:0:0:
504,276,67935,2,0,P|482:245|429:236,1,80,0|0,3:2|0:0,0:0:0:0:
217,62,68108,6,0,P|237:100|252:140,1,80,10|0,0:0|0:0,0:0:0:0:
167,281,68280,2,0,P|189:250|242:241,1,80,0|0,3:2|0:0,0:0:0:0:
396,356,68452,5,10,0:0:0:0:
406,333,68539,1,8,0:0:0:0:
299,273,68625,5,0,3:2:0:0:
315,348,68711,1,2,3:2:0:0:
381,243,68797,5,8,0:0:0:0:
390,163,68883,1,8,0:0:0:0:
399,83,68969,1,10,3:2:0:0:
407,4,69055,1,8,3:2:0:0:
318,50,69142,6,0,P|288:51|243:62,3,60.0000022888184,4|0|0|0,3:2|0:0|0:0|0:0,0:0:0:0:
175,107,69487,2,0,P|174:77|160:38,1,60.0000022888184,8|0,0:0|0:0,0:0:0:0:
0,206,69659,6,0,P|30:207|75:218,3,60.0000022888184
185,246,70004,2,0,P|156:260|123:268,1,60.0000022888184,0|0,3:2|0:0,0:0:0:0:
246,322,70177,2,0,P|267:300|284:276,1,60.0000022888184,8|0,0:0|0:0,0:0:0:0:
384,252,70349,2,0,P|381:284|372:316,1,60.0000022888184
429,118,70521,6,0,P|396:107|382:75,3,60.0000022888184,0|0|0|0,3:2|0:0|0:0|0:0,0:0:0:0:
437,17,70866,2,0,P|469:27|484:60,1,60.0000022888184,8|0,0:0|0:0,0:0:0:0:
318,159,71039,6,0,P|292:181|257:178,3,60.0000022888184
234,101,71384,2,0,P|259:78|294:81,1,60.0000022888184,0|0,3:2|0:0,0:0:0:0:
127,113,71556,6,0,P|120:79|140:50,1,60.0000022888184,8|0,0:0|0:0,0:0:0:0:
83,211,71728,2,0,P|50:200|35:168,1,60.0000022888184,0|0,3:2|0:0,0:0:0:0:
218,246,71901,5,0,3:2:0:0:
218,246,71987,1,0,0:0:0:0:
218,246,72073,2,0,P|189:248|153:256,1,60.0000022888184
113,354,72245,2,0,P|142:356|178:364,1,60.0000022888184,8|0,0:0|0:0,0:0:0:0:
304,215,72418,6,0,P|333:221|363:223,3,60.0000022888184
412,367,72763,2,0,P|406:338|404:308,1,60.0000022888184,0|0,3:2|0:0,0:0:0:0:
497,284,72935,2,0,P|503:255|505:225,1,60.0000022888184,8|0,0:0|0:0,0:0:0:0:
485,112,73108,1,0,0:0:0:0:
480,122,73194,1,0,0:0:0:0:
477,131,73280,6,0,P|447:142|432:174,3,60.0000022888184,0|0|0|0,3:2|0:0|0:0|0:0,0:0:0:0:
295,134,73625,2,0,P|327:125|354:123,1,60.0000022888184,8|0,0:0|0:0,0:0:0:0:
207,48,73797,6,0,P|191:72|163:82,3,60.0000022888184
57,154,74142,2,0,P|28:150|0:141,1,60.0000022888184,0|0,3:2|0:0,0:0:0:0:
2,32,74314,2,0,P|31:22|60:18,1,60.0000022888184,8|0,0:0|0:0,0:0:0:0:
181,195,74487,1,0,3:2:0:0:
174,230,74573,1,0,3:2:0:0:
167,265,74659,6,0,P|161:300|151:336,3,60.0000022888184,0|0|0|0,3:2|0:0|0:0|0:0,0:0:0:0:
66,384,75004,2,0,P|58:354|54:325,1,60.0000022888184,8|0,0:0|0:0,0:0:0:0:
27,151,75177,6,0,P|48:122|84:118,3,60.0000022888184
153,45,75521,2,0,P|123:37|94:34,1,60.0000022888184,0|0,3:2|0:0,0:0:0:0:
233,111,75694,2,0,P|262:103|291:100,1,60.0000022888184,8|0,0:0|0:0,0:0:0:0:
227,210,75866,2,0,P|197:202|168:199,1,60.0000022888184,0|0,3:2|0:0,0:0:0:0:
399,32,76039,6,0,P|429:36|470:47,3,60.0000022888184,0|0|0|0,3:2|0:0|0:0|0:0,0:0:0:0:
402,180,76383,2,0,P|406:149|417:109,1,60.0000022888184,8|0,0:0|0:0,0:0:0:0:
276,211,76556,6,0,P|282:240|287:269,3,60.0000022888184
399,347,76901,6,0,P|391:317|387:288,1,60.0000022888184,0|0,3:2|0:0,0:0:0:0:
415,204,77073,2,0,P|394:182|375:158,1,60.0000022888184,8|0,0:0|0:0,0:0:0:0:
358,72,77245,2,0,P|329:63|301:52,1,60.0000022888184,0|0,3:2|0:0,0:0:0:0:
107,32,77418,5,0,3:2:0:0:
107,32,77504,1,0,0:0:0:0:
107,32,77590,2,0,P|134:21|163:12,1,60.0000022888184
220,118,77763,2,0,P|187:121|161:89,1,60.0000022888184,8|0,0:0|0:0,0:0:0:0:
0,271,77935,6,0,P|27:281|56:290,3,60.0000022888184
138,244,78280,2,0,P|150:216|159:183,1,60.0000022888184,0|0,3:2|0:0,0:0:0:0:
86,53,78452,2,0,P|93:81|106:109,1,60.0000022888184,8|0,0:0|0:0,0:0:0:0:
309,218,78625,1,0,0:0:0:0:
306,227,78711,1,8,0:0:0:0:
303,237,78797,6,0,L|313:299,2,60.0000022888184,0|0|0,3:2|0:0|0:0,0:0:0:0:
365,148,79056,1,0,3:2:0:0:
381,131,79142,2,0,P|416:139|453:141,1,60.0000022888184,8|0,0:0|0:0,0:0:0:0:
291,81,79314,2,0,P|255:89|219:91,2,60.0000022888184
150,40,79573,5,8,3:2:0:0:
129,56,79659,1,0,3:2:0:0:
105,56,79745,1,0,3:2:0:0:
37,103,79832,5,8,0:0:0:0:
43,162,79918,1,8,0:0:0:0:
49,222,80004,1,0,3:2:0:0:
55,282,80090,1,0,3:2:0:0:
118,338,80177,6,0,P|147:329|176:326,3,60.0000022888184,6|0|0|0,3:2|0:0|0:0|0:0,0:0:0:0:
242,259,80521,2,0,P|271:267|300:271,3,60.0000022888184,10|0|2|0,0:0|0:0|0:0|0:0,0:0:0:0:
426,347,80866,6,0,P|387:340|372:306,1,60.0000022888184,2|0,0:0|0:0,0:0:0:0:
376,245,81039,5,0,3:2:0:0:
385,227,81125,2,0,P|371:189|393:159,1,60.0000022888184,2|8,0:0|0:0,0:0:0:0:
448,132,81297,5,0,0:0:0:0:
468,131,81383,2,0,P|493:100|530:104,1,60.0000022888184,2|0,0:0|0:0,0:0:0:0:
401,16,81556,6,0,P|370:26|335:30,3,60.0000022888184,0|0|0|0,3:2|0:0|0:0|0:0,0:0:0:0:
227,88,81901,2,0,P|256:91|284:101,1,60.0000022888184,8|0,0:0|0:0,0:0:0:0:
264,218,82073,6,0,P|234:214|206:204,3,60.0000022888184
70,221,82418,6,0,P|102:217|132:242,1,60.0000022888184,0|0,3:2|0:0,0:0:0:0:
178,329,82590,2,0,P|165:358|128:372,1,60.0000022888184,8|0,0:0|0:0,0:0:0:0:
30,368,82763,2,0,P|10:342|17:303,1,60.0000022888184,0|0,3:2|0:0,0:0:0:0:
87,109,82935,5,0,3:2:0:0:
87,109,83021,1,0,0:0:0:0:
87,109,83108,2,0,P|118:112|156:122,1,60.0000022888184
198,44,83280,2,0,P|229:40|267:31,1,60.0000022888184,8|0,0:0|0:0,0:0:0:0:
483,51,83452,6,0,P|451:54|414:64,3,60.0000022888184
362,129,83797,2,0,P|365:160|375:198,1,60.0000022888184,0|0,3:2|0:0,0:0:0:0:
453,233,83970,2,0,P|484:229|522:220,1,60.0000022888184,8|0,0:0|0:0,0:0:0:0:
431,316,84142,1,0,0:0:0:0:
405,319,84228,1,0,0:0:0:0:
385,321,84314,6,0,B|321:312|313:376|278:375,1,120.000004577637,2|0,3:2|0:0,0:0:0:0:
147,337,84573,1,0,0:0:0:0:
159,319,84659,6,0,P|190:308|224:303,1,60.0000022888184,10|0,0:0|0:0,0:0:0:0:
260,231,84832,2,0,P|292:238|324:249,1,60.0000022888184,2|0,0:0|0:0,0:0:0:0:
425,75,85004,6,0,P|396:60|362:76,1,60.0000022888184,2|0,0:0|0:0,0:0:0:0:
478,148,85177,1,0,3:2:0:0:
478,148,85263,1,2,0:0:0:0:
478,148,85349,2,0,P|504:130|508:93,1,60.0000022888184,8|0,0:0|0:0,0:0:0:0:
386,152,85521,2,0,P|356:154|321:161,1,60.0000022888184,2|0,3:2|3:2,0:0:0:0:
185,35,85694,6,0,P|155:40|125:42,3,60.0000022888184,2|0|0|0,3:2|0:0|0:0|0:0,0:0:0:0:
30,117,86039,2,0,P|59:122|89:124,3,60.0000022888184,10|0|2|0,0:0|0:0|0:0|0:0,0:0:0:0:
210,185,86383,6,0,P|178:196|159:225,1,60.0000022888184,2|0,0:0|0:0,0:0:0:0:
100,310,86556,5,0,3:2:0:0:
118,296,86642,2,0,P|150:303|186:305,1,60.0000022888184,2|8,0:0|0:0,0:0:0:0:
279,269,86814,5,0,0:0:0:0:
287,247,86900,2,0,P|319:237|350:220,1,60.0000022888184,2|0,0:0|0:0,0:0:0:0:
474,372,87073,6,0,P|442:373|413:347,3,60.0000022888184,0|0|0|0,3:2|0:0|0:0|0:0,0:0:0:0:
484,229,87418,2,0,P|476:260|466:292,1,60.0000022888184,8|0,0:0|0:0,0:0:0:0:
287,247,87590,6,0,P|318:245|345:216,3,60.0000022888184
444,158,87935,6,0,P|414:157|375:149,1,60.0000022888184,0|0,3:2|0:0,0:0:0:0:
318,74,88108,2,0,P|288:79|258:80,1,60.0000022888184,8|0,0:0|0:0,0:0:0:0:
174,124,88280,2,0,P|144:123|105:115,1,60.0000022888184,0|0,3:2|0:0,0:0:0:0:
0,246,88452,5,0,3:2:0:0:
0,246,88539,1,0,0:0:0:0:
0,246,88625,2,0,P|30:247|69:255,1,60.0000022888184
66,369,88797,2,0,P|35:357|23:321,1,60.0000022888184,8|0,0:0|0:0,0:0:0:0:
138,193,88970,6,0,P|167:199|206:202,3,60.0000022888184
234,321,89314,2,0,P|233:351|225:390,1,60.0000022888184,0|0,3:2|0:0,0:0:0:0:
317,296,89487,2,0,P|318:266|326:227,1,60.0000022888184,8|0,0:0|0:0,0:0:0:0:
386,353,89659,2,0,P|417:352|454:361,1,60.0000022888184
500,95,89832,6,0,P|486:125|479:153,1,60.0000022888184,2|0,3:2|0:0,0:0:0:0:
417,241,90004,2,0,P|408:212|396:184,1,60.0000022888184,0|0,3:2|0:0,0:0:0:0:
250,60,90177,2,0,P|282:47|325:61,1,60.0000022888184,10|0,0:0|0:0,0:0:0:0:
320,139,90349,2,0,P|288:151|245:138,1,60.0000022888184,2|0,3:2|0:0,0:0:0:0:
61,71,90521,5,2,3:2:0:0:
118,66,90607,1,8,0:0:0:0:
156,110,90693,1,0,3:2:0:0:
143,166,90779,1,2,3:2:0:0:
65,215,90866,5,8,0:0:0:0:
144,222,90952,1,8,0:0:0:0:
224,229,91038,1,10,0:0:0:0:
304,236,91124,1,8,0:0:0:0:
381,278,91211,6,0,P|372:313|369:340,3,60.0000022888184,6|0|0|0,3:2|0:0|0:0|0:0,0:0:0:0:
447,219,91556,2,0,P|481:213|511:214,1,60.0000022888184,10|0,0:0|0:0,0:0:0:0:
432,134,91728,2,0,P|461:133|491:128,1,60.0000022888184,2|0,0:0|0:0,0:0:0:0:
428,49,91901,6,0,P|396:51|366:89,1,60.0000022888184,2|0,0:0|0:0,0:0:0:0:
298,135,92073,5,0,3:2:0:0:
283,123,92159,2,0,P|251:116|223:115,1,60.0000022888184,2|8,0:0|0:0,0:0:0:0:
149,69,92332,5,0,0:0:0:0:
134,81,92418,2,0,P|102:87|74:89,1,60.0000022888184,2|0,0:0|0:0,0:0:0:0:
24,245,92590,5,0,3:2:0:0:
19,274,92676,1,0,0:0:0:0:
29,301,92762,1,0,0:0:0:0:
53,320,92848,1,0,0:0:0:0:
80,323,92935,2,0,P|114:328|149:339,1,60.0000022888184,8|0,0:0|0:0,0:0:0:0:
293,328,93108,6,0,P|261:334|224:349,3,60.0000022888184
446,339,93452,6,0,P|419:347|383:367,1,60.0000022888184,0|0,3:2|0:0,0:0:0:0:
343,246,93625,2,0,P|315:240|274:238,1,60.0000022888184,8|0,0:0|0:0,0:0:0:0:
300,113,93797,2,0,P|278:94|244:72,1,60.0000022888184,0|0,3:2|0:0,0:0:0:0:
484,51,93970,5,0,3:2:0:0:
490,80,94056,1,0,0:0:0:0:
483,108,94142,1,0,0:0:0:0:
463,130,94228,1,0,0:0:0:0:
435,141,94314,2,0,P|406:147|374:160,1,60.0000022888184,8|0,0:0|0:0,0:0:0:0:
286,125,94487,5,0,0:0:0:0:
256,118,94573,1,0,0:0:0:0:
227,112,94659,1,0,0:0:0:0:
197,108,94745,1,0,0:0:0:0:
167,106,94832,2,0,P|134:108|84:117,1,60.0000022888184,0|0,3:2|0:0,0:0:0:0:
41,197,95004,6,0,P|73:200|112:213,1,60.0000022888184,8|0,0:0|0:0,0:0:0:0:
167,273,95177,1,0,0:0:0:0:
165,284,95263,1,0,0:0:0:0:
163,295,95349,5,2,3:2:0:0:
192,292,95435,1,0,0:0:0:0:
222,289,95521,2,0,P|254:293|288:299,1,60.0000022888184
355,224,95694,5,10,0:0:0:0:
384,226,95780,1,0,0:0:0:0:
414,230,95866,2,0,P|446:226|480:220,1,60.0000022888184,2|0,0:0|0:0,0:0:0:0:
372,44,96039,6,0,P|380:79|385:114,1,60.0000022888184,2|0,0:0|0:0,0:0:0:0:
276,60,96211,1,0,3:2:0:0:
276,60,96297,1,2,0:0:0:0:
276,60,96383,2,0,P|280:89|287:118,1,60.0000022888184,8|0,0:0|0:0,0:0:0:0:
180,175,96556,2,0,P|186:145|191:116,1,60.0000022888184,2|0,3:2|3:2,0:0:0:0:
33,35,96728,5,6,3:2:0:0:
33,35,96814,1,0,0:0:0:0:
33,35,96901,2,0,P|41:71|47:103,1,60.0000022888184
6,218,97073,2,0,P|38:216|76:238,1,60.0000022888184,10|0,0:0|0:0,0:0:0:0:
176,291,97245,2,0,P|148:301|118:299,1,60.0000022888184,2|0,0:0|0:0,0:0:0:0:
152,198,97418,5,2,0:0:0:0:
181,193,97504,1,0,0:0:0:0:
210,188,97590,1,0,3:2:0:0:
252,220,97677,5,2,0:0:0:0:
281,225,97763,1,8,0:0:0:0:
310,230,97849,1,0,0:0:0:0:
362,207,97935,5,2,0:0:0:0:
391,200,98021,1,0,0:0:0:0:
461,254,98108,6,0,P|452:288|446:326,3,60.0000022888184,0|0|0|0,3:2|0:0|0:0|0:0,0:0:0:0:
364,363,98452,2,0,P|358:333|350:304,1,60.0000022888184,8|0,0:0|0:0,0:0:0:0:
277,142,98625,6,0,P|246:136|208:163,3,60.0000022888184
126,218,98970,6,0,P|157:221|188:229,1,60.0000022888184,0|0,3:2|0:0,0:0:0:0:
113,339,99142,2,0,P|81:335|51:328,1,60.0000022888184,8|0,0:0|0:0,0:0:0:0:
0,166,99314,2,0,P|29:158|58:155,1,60.0000022888184,0|0,3:2|0:0,0:0:0:0:
106,15,99487,5,0,3:2:0:0:
134,6,99573,1,0,0:0:0:0:
163,11,99659,1,0,0:0:0:0:
187,30,99745,1,0,0:0:0:0:
199,57,99832,2,0,P|205:92|207:119,1,60.0000022888184,8|0,0:0|0:0,0:0:0:0:
290,217,100004,5,0,0:0:0:0:
290,217,100090,1,0,0:0:0:0:
290,217,100177,2,0,P|293:182|298:151,1,60.0000022888184
374,61,100349,2,0,P|378:90|380:120,1,60.0000022888184,0|0,3:2|0:0,0:0:0:0:
497,117,100521,2,8,P|487:153|482:183,1,60.0000022888184,8|0,0:0|0:0,0:0:0:0:
502,265,100694,1,0,0:0:0:0:
489,289,100780,1,8,0:0:0:0:
470,304,100866,6,0,P|439:305|407:317,2,60.0000022888184,2|0|0,3:2|0:0|0:0,0:0:0:0:
394,221,101125,1,0,3:2:0:0:
374,206,101211,2,0,P|344:195|309:193,1,60.0000022888184,10|0,0:0|0:0,0:0:0:0:
256,126,101383,2,0,P|224:131|193:147,1,60.0000022888184,2|0,0:0|0:0,0:0:0:0:
187,298,101556,5,2,0:0:0:0:
137,243,101642,1,8,3:2:0:0:
95,239,101728,1,0,3:2:0:0:
67,251,101814,1,2,3:2:0:0:
107,319,101901,5,8,0:0:0:0:
95,239,101987,1,8,0:0:0:0:
83,160,102073,1,2,3:2:0:0:
72,81,102159,1,0,3:2:0:0:
131,23,102245,6,0,P|165:28|208:41,1,60.0000022888184,6|0,3:2|0:0,0:0:0:0:
302,98,102418,2,0,P|267:103|225:116,1,60.0000022888184
199,235,102590,5,10,0:0:0:0:
199,235,102677,1,0,0:0:0:0:
199,235,102763,2,0,P|208:267|234:286,1,60.0000022888184,2|0,0:0|0:0,0:0:0:0:
504,212,102935,6,0,P|490:245|481:277,1,60.0000022888184,2|0,0:0|0:0,0:0:0:0:
402,338,103108,5,0,3:2:0:0:
384,322,103194,2,0,P|375:293|363:265,1,60.0000022888184,2|8,0:0|0:0,0:0:0:0:
331,134,103366,5,0,0:0:0:0:
313,150,103452,2,0,P|304:178|292:206,1,60.0000022888184,2|0,0:0|0:0,0:0:0:0:
205,120,103625,5,0,3:2:0:0:
195,91,103711,1,0,0:0:0:0:
175,69,103797,1,0,0:0:0:0:
148,57,103883,1,0,0:0:0:0:
120,58,103970,2,0,P|87:64|54:75,1,60.0000022888184,8|0,0:0|0:0,0:0:0:0:
19,173,104142,2,0,P|53:179|88:189,3,60.0000022888184
43,336,104487,6,0,P|37:306|29:277,1,60.0000022888184,0|0,3:2|0:0,0:0:0:0:
155,231,104659,2,0,P|162:260|168:289,1,60.0000022888184,8|0,0:0|0:0,0:0:0:0:
293,241,104832,2,0,P|287:212|280:183,1,60.0000022888184,0|0,3:2|0:0,0:0:0:0:
421,110,105004,6,0,P|406:139|376:151,3,60.0000022888184,0|0|0|0,3:2|0:0|0:0|0:0,0:0:0:0:
431,230,105349,2,0,P|465:232|491:238,1,60.0000022888184,8|0,0:0|0:0,0:0:0:0:
300,258,105521,6,0,P|315:287|345:299,3,60.0000022888184
237,354,105866,2,0,P|207:357|167:368,1,60.0000022888184,0|0,3:2|0:0,0:0:0:0:
101,260,106039,2,0,P|130:263|171:274,1,60.0000022888184,8|0,0:0|0:0,0:0:0:0:
294,51,106211,1,0,0:0:0:0:
289,80,106297,1,0,0:0:0:0:
284,109,106383,5,2,3:2:0:0:
284,109,106470,1,0,0:0:0:0:
284,109,106556,2,0,P|253:112|220:123,1,60.0000022888184
98,38,106728,2,0,P|126:46|156:49,1,60.0000022888184,10|0,0:0|0:0,0:0:0:0:
166,192,106901,2,0,P|135:195|102:206,1,60.0000022888184,2|0,0:0|0:0,0:0:0:0:
11,302,107073,6,0,P|25:334|53:348,2,60.0000022888184,2|0|0,0:0|0:0|3:2,0:0:0:0:
133,327,107332,2,0,P|167:330|193:313,2,60.0000022888184,2|8|0,0:0|0:0|0:0,0:0:0:0:
286,217,107590,2,0,P|277:252|274:284,1,60.0000022888184,2|0,3:2|3:2,0:0:0:0:
351,343,107763,5,6,3:2:0:0:
378,355,107849,1,0,0:0:0:0:
407,355,107935,1,0,0:0:0:0:
434,342,108021,1,0,0:0:0:0:
454,320,108108,2,0,P|458:291|467:254,1,60.0000022888184,10|0,0:0|0:0,0:0:0:0:
491,125,108280,5,2,0:0:0:0:
491,125,108366,1,0,0:0:0:0:
491,125,108452,2,0,P|461:129|425:142,1,60.0000022888184,2|0,0:0|0:0,0:0:0:0:
281,62,108625,5,0,3:2:0:0:
296,79,108711,2,0,P|287:117|284:145,1,60.0000022888184,2|8,0:0|0:0,0:0:0:0:
211,285,108883,5,0,0:0:0:0:
197,271,108969,2,0,P|192:242|186:213,1,60.0000022888184,2|0,0:0|0:0,0:0:0:0:
127,25,109142,6,0,P|99:31|66:41,3,60.0000022888184,0|0|0|0,3:2|0:0|0:0|0:0,0:0:0:0:
21,117,109487,2,0,P|27:144|37:178,1,60.0000022888184,8|0,0:0|0:0,0:0:0:0:
184,126,109659,6,0,P|216:127|245:147,3,60.0000022888184
200,286,110004,6,0,P|196:255|187:224,1,60.0000022888184,0|0,3:2|0:0,0:0:0:0:
339,100,110177,2,0,P|342:130|352:162,1,60.0000022888184,8|0,0:0|0:0,0:0:0:0:
297,336,110349,2,0,P|300:306|308:277,1,60.0000022888184,0|0,3:2|0:0,0:0:0:0:
491,123,110521,5,0,3:2:0:0:
494,152,110607,1,0,0:0:0:0:
483,180,110693,1,0,0:0:0:0:
462,200,110779,1,0,0:0:0:0:
433,208,110866,2,0,L|371:198,1,60.0000022888184,8|0,0:0|0:0,0:0:0:0:
239,143,111039,5,0,0:0:0:0:
209,146,111125,1,0,0:0:0:0:
179,153,111211,1,0,0:0:0:0:
151,162,111297,1,0,0:0:0:0:
124,174,111383,2,0,P|99:186|67:198,1,60.0000022888184,0|0,3:2|0:0,0:0:0:0:
0,268,111556,2,0,P|28:277|55:291,1,60.0000022888184,8|0,0:0|0:0,0:0:0:0:
136,364,111728,5,0,0:0:0:0:
136,364,111814,1,0,0:0:0:0:
136,364,111901,2,0,P|168:368|201:378,1,60.0000022888184,2|0,3:2|0:0,0:0:0:0:
297,258,112073,2,0,P|289:286|285:316,1,60.0000022888184,0|0,3:2|0:0,0:0:0:0:
139,158,112245,6,0,P|146:186|150:216,1,60.0000022888184,10|0,0:0|0:0,0:0:0:0:
65,229,112418,2,0,P|57:200|53:170,1,60.0000022888184,2|0,3:2|0:0,0:0:0:0:
150,27,112590,5,2,3:2:0:0:
218,71,112677,1,8,3:2:0:0:
287,45,112763,1,0,3:2:0:0:
303,3,112849,1,2,3:2:0:0:
374,46,112935,5,8,0:0:0:0:
381,125,113021,1,8,0:0:0:0:
388,205,113107,1,10,0:0:0:0:
395,285,113193,1,8,0:0:0:0:
374,307,113280,6,0,P|345:311|311:318,1,60.0000022888184,6|0,3:2|0:0,0:0:0:0:
233,370,113452,2,0,P|203:364|173:359,1,60.0000022888184
9,197,113625,5,10,0:0:0:0:
35,184,113711,1,0,0:0:0:0:
65,184,113797,1,2,0:0:0:0:
92,198,113883,1,0,0:0:0:0:
110,221,113970,2,0,P|118:255|121:288,1,60.0000022888184,2|0,0:0|0:0,0:0:0:0:
272,132,114142,5,0,3:2:0:0:
254,153,114228,1,2,0:0:0:0:
271,174,114314,1,8,0:0:0:0:
295,160,114400,1,0,0:0:0:0:
285,134,114487,2,0,P|248:120|212:116,1,60.0000022888184,2|0,0:0|0:0,0:0:0:0:
11,27,114659,6,0,P|19:66|44:82,1,60.0000022888184,0|0,3:2|0:0,0:0:0:0:
167,30,114832,1,0,0:0:0:0:
167,30,114918,1,0,0:0:0:0:
167,30,115004,2,0,P|136:23|96:22,1,60.0000022888184,8|0,0:0|0:0,0:0:0:0:
0,172,115177,6,0,P|29:173|59:180,1,60.0000022888184
128,245,115349,1,0,0:0:0:0:
187,237,115435,1,0,0:0:0:0:
247,229,115521,1,0,3:2:0:0:
306,221,115607,1,0,0:0:0:0:
366,214,115694,2,0,P|392:226|409:257,1,60.0000022888184,8|0,0:0|0:0,0:0:0:0:
457,363,115866,2,0,P|473:337|500:325,1,60.0000022888184,0|0,3:2|0:0,0:0:0:0:
481,125,116039,5,0,3:2:0:0:
481,125,116125,1,0,0:0:0:0:
481,125,116211,2,0,P|487:155|489:186,1,60.0000022888184
279,242,116383,2,0,P|305:220|338:220,1,60.0000022888184,8|0,0:0|0:0,0:0:0:0:
373,309,116556,2,0,P|347:331|314:331,1,60.0000022888184
206,200,116728,6,0,P|199:235|197:267,1,60.0000022888184
27,250,116901,5,0,3:2:0:0:
43,263,116987,2,0,P|49:298|52:330,1,60.0000022888184,0|8,0:0|0:0,0:0:0:0:
137,106,117159,5,0,0:0:0:0:
121,119,117245,2,0,P|114:154|112:186,1,60.0000022888184
16,28,117418,5,2,3:2:0:0:
16,28,117504,1,0,0:0:0:0:
16,28,117590,2,0,P|47:18|81:15,1,60.0000022888184
209,81,117763,5,10,0:0:0:0:
232,99,117849,1,0,0:0:0:0:
254,118,117935,2,0,P|286:112|314:111,1,60.0000022888184,2|0,0:0|0:0,0:0:0:0:
458,16,118108,6,0,P|423:17|402:42,1,60.0000022888184,2|0,0:0|0:0,0:0:0:0:
464,175,118280,2,0,P|468:144|472:102,1,60.0000022888184,0|2,3:2|0:0,0:0:0:0:
252,156,118452,6,0,P|287:157|308:182,1,60.0000022888184,8|0,0:0|0:0,0:0:0:0:
246,315,118624,2,0,P|241:284|238:242,1,60.0000022888184,2|0,3:2|3:2,0:0:0:0:
458,363,118797,5,6,3:2:0:0:
460,333,118883,1,0,0:0:0:0:
448,306,118969,1,0,0:0:0:0:
424,288,119055,1,0,0:0:0:0:
395,283,119142,2,0,P|362:288|334:296,1,60.0000022888184,10|0,0:0|0:0,0:0:0:0:
160,323,119314,2,0,P|189:330|218:334,1,60.0000022888184,2|0,0:0|0:0,0:0:0:0:
257,164,119487,5,2,0:0:0:0:
257,164,119573,1,0,0:0:0:0:
257,164,119659,2,0,P|227:156|198:152,1,60.0000022888184,0|2,3:2|0:0,0:0:0:0:
79,249,119832,2,0,P|112:239|130:213,1,60.0000022888184,8|0,0:0|0:0,0:0:0:0:
75,130,120004,2,0,P|42:140|24:166,1,60.0000022888184,2|0,0:0|0:0,0:0:0:0:
164,41,120177,5,0,3:2:0:0:
193,33,120263,1,0,0:0:0:0:
222,28,120349,1,0,0:0:0:0:
252,24,120435,1,0,0:0:0:0:
282,22,120521,2,0,P|316:26|347:35,1,60.0000022888184,8|0,0:0|0:0,0:0:0:0:
370,280,120694,5,0,0:0:0:0:
370,280,120780,1,0,0:0:0:0:
370,280,120866,2,0,P|365:250|359:217,1,60.0000022888184
272,116,121039,2,0,P|266:145|261:175,1,60.0000022888184,0|0,3:2|0:0,0:0:0:0:
170,300,121211,6,0,P|170:272|138:238,1,60.0000022888184,8|0,0:0|0:0,0:0:0:0:
28,295,121383,2,0,P|27:314|59:348,1,60.0000022888184,0|0,3:2|0:0,0:0:0:0:
262,365,121556,5,0,3:2:0:0:
265,335,121642,1,0,0:0:0:0:
282,310,121728,1,0,0:0:0:0:
307,295,121814,1,0,0:0:0:0:
337,293,121901,2,0,P|367:299|398:308,1,60.0000022888184,8|0,0:0|0:0,0:0:0:0:
452,235,122073,2,0,P|482:228|512:220,1,60.0000022888184
365,45,122245,6,0,P|331:49|309:74,1,60.0000022888184
198,61,122418,5,0,3:2:0:0:
198,84,122504,2,0,P|171:104|164:137,1,60.0000022888184,0|8,0:0|0:0,0:0:0:0:
52,126,122677,5,0,0:0:0:0:
63,145,122763,2,0,P|50:175|60:207,1,60.0000022888184,0|8,0:0|0:0,0:0:0:0:
149,320,122935,6,0,P|119:310|70:309,2,60.0000022888184,2|0|0,3:2|0:0|0:0,0:0:0:0:
238,265,123194,5,0,3:2:0:0:
250,246,123280,2,0,P|284:239|318:238,1,60.0000022888184,10|0,0:0|0:0,0:0:0:0:
405,160,123452,2,0,P|375:157|345:152,1,60.0000022888184,2|0,0:0|0:0,0:0:0:0:
76,107,123625,5,2,0:0:0:0:
109,45,123711,1,8,3:2:0:0:
166,25,123797,1,0,3:2:0:0:
198,33,123883,1,2,3:2:0:0:
166,112,123970,5,8,0:0:0:0:
238,138,124056,1,8,0:0:0:0:
299,92,124142,1,2,3:2:0:0:
295,15,124228,1,0,3:2:0:0:
382,53,124314,6,0,P|414:56|449:62,1,60.0000022888184,6|0,3:2|0:0,0:0:0:0:
493,149,124487,1,0,0:0:0:0:
493,149,124573,1,0,0:0:0:0:
493,149,124659,2,0,P|462:153|433:163,1,60.0000022888184,10|0,0:0|0:0,0:0:0:0:
388,293,124832,2,0,P|379:264|374:234,1,60.0000022888184,2|0,0:0|0:0,0:0:0:0:
299,92,125004,5,2,0:0:0:0:
299,92,125090,1,0,0:0:0:0:
299,92,125177,2,0,P|290:121|285:151,1,60.0000022888184,0|2,3:2|0:0,0:0:0:0:
260,252,125349,2,0,P|236:231|207:224,1,60.0000022888184,8|0,0:0|0:0,0:0:0:0:
78,313,125521,2,0,P|106:305|128:285,1,60.0000022888184,2|0,0:0|0:0,0:0:0:0:
42,155,125694,5,0,3:2:0:0:
42,155,125780,1,0,0:0:0:0:
42,155,125867,2,0,P|51:184|56:214,1,60.0000022888184
233,372,126039,1,8,0:0:0:0:
233,372,126125,1,0,0:0:0:0:
233,372,126211,2,0,P|202:365|170:362,1,60.0000022888184
143,149,126383,5,0,0:0:0:0:
202,141,126469,1,0,0:0:0:0:
261,130,126555,1,0,3:2:0:0:
320,118,126641,1,0,0:0:0:0:
378,104,126728,2,0,P|384:75|388:34,1,60.0000022888184,8|0,0:0|0:0,0:0:0:0:
492,176,126901,2,0,P|486:146|482:105,1,60.0000022888184,0|0,3:2|0:0,0:0:0:0:
467,322,127073,5,0,3:2:0:0:
413,347,127159,1,0,0:0:0:0:
356,336,127245,1,0,0:0:0:0:
317,291,127331,1,0,0:0:0:0:
313,233,127418,2,0,P|346:223|390:219,1,60.0000022888184,8|0,0:0|0:0,0:0:0:0:
437,117,127590,2,0,P|403:107|360:102,1,60.0000022888184
119,66,127763,5,0,0:0:0:0:
121,124,127849,1,0,0:0:0:0:
160,168,127935,1,0,3:2:0:0:
218,176,128021,1,0,0:0:0:0:
268,144,128108,2,0,P|264:113|257:80,1,60.0000022888184,8|0,0:0|0:0,0:0:0:0:
381,24,128280,2,0,P|374:53|371:83,1,60.0000022888184
394,245,128452,5,2,3:2:0:0:
394,245,128539,1,0,0:0:0:0:
394,245,128625,2,0,P|376:274|342:282,1,60.0000022888184
233,340,128797,2,0,P|266:347|297:356,1,60.0000022888184,10|0,0:0|0:0,0:0:0:0:
315,189,128970,2,0,P|286:181|256:174,1,60.0000022888184,2|0,0:0|0:0,0:0:0:0:
145,384,129142,6,0,P|139:352|131:323,1,60.0000022888184,2|0,0:0|0:0,0:0:0:0:
0,171,129314,1,0,3:2:0:0:
3,201,129401,1,2,0:0:0:0:
6,230,129487,2,0,P|35:251|80:246,1,60.0000022888184,8|0,0:0|0:0,0:0:0:0:
109,166,129659,2,0,P|114:136|122:107,1,60.0000022888184,2|0,3:2|3:2,0:0:0:0:
293,31,129832,5,6,3:2:0:0:
293,31,129918,1,0,0:0:0:0:
293,31,130004,2,0,P|326:28|357:21,1,60.0000022888184
471,6,130177,2,0,P|460:41|455:67,1,60.0000022888184,10|0,0:0|0:0,0:0:0:0:
385,178,130349,2,0,P|378:148|369:120,1,60.0000022888184,2|0,0:0|0:0,0:0:0:0:
497,239,130521,5,2,0:0:0:0:
497,239,130608,1,0,0:0:0:0:
497,239,130694,2,0,P|467:241|434:265,1,60.0000022888184,0|2,3:2|0:0,0:0:0:0:
359,365,130866,2,0,P|357:336|347:297,1,60.0000022888184,8|0,0:0|0:0,0:0:0:0:
283,176,131039,2,0,P|276:205|274:235,1,60.0000022888184,2|0,0:0|0:0,0:0:0:0:
239,333,131211,5,0,3:2:0:0:
179,338,131297,1,0,0:0:0:0:
119,344,131383,1,0,0:0:0:0:
59,350,131469,1,0,0:0:0:0:
0,356,131556,2,0,P|6:327|10:285,1,60.0000022888184,8|0,0:0|0:0,0:0:0:0:
114,90,131728,5,0,0:0:0:0:
67,125,131814,1,0,0:0:0:0:
57,183,131900,1,0,0:0:0:0:
88,232,131986,1,0,0:0:0:0:
145,246,132073,2,0,P|179:237|211:233,1,60.0000022888184,0|0,3:2|0:0,0:0:0:0:
346,120,132245,6,0,P|341:154|310:177,1,60.0000022888184,8|0,0:0|0:0,0:0:0:0:
205,116,132418,2,0,P|210:82|241:59,1,60.0000022888184,0|0,3:2|0:0,0:0:0:0:
459,27,132590,5,0,3:2:0:0:
459,27,132677,1,0,0:0:0:0:
459,27,132763,2,0,P|464:58|467:98,1,60.0000022888184
468,246,132935,6,0,P|447:222|411:214,1,60.0000022888184,8|0,0:0|0:0,0:0:0:0:
340,260,133108,2,0,P|319:284|283:292,1,60.0000022888184
30,251,133280,6,0,P|37:283|42:316,1,60.0000022888184
231,224,133452,5,0,3:2:0:0:
214,237,133539,2,0,P|206:269|202:302,1,60.0000022888184,0|8,0:0|0:0,0:0:0:0:
93,132,133711,5,0,0:0:0:0:
110,145,133798,2,0,P|117:177|122:210,1,60.0000022888184,0|8,0:0|0:0,0:0:0:0:
386,47,133970,6,0,P|355:40|316:37,2,60.0000022888184,2|0|0,3:2|0:0|0:0,0:0:0:0:
495,172,134228,5,0,3:2:0:0:
484,149,134314,2,0,P|454:145|424:139,1,60.0000022888184,10|0,0:0|0:0,0:0:0:0:
333,252,134487,2,0,P|339:222|342:192,1,60.0000022888184
231,82,134659,5,2,0:0:0:0:
207,80,134745,1,8,3:2:0:0:
159,98,134832,1,0,3:2:0:0:
133,171,134918,1,2,3:2:0:0:
216,223,135004,5,8,0:0:0:0:
140,202,135090,1,8,0:0:0:0:
120,278,135177,1,10,0:0:0:0:
195,298,135263,1,8,0:0:0:0:
213,320,135349,6,0,B|231:343|231:343|329:358|329:358|354:340,1,160,6|0,3:2|0:0,0:0:0:0:
379,353,135608,1,0,0:0:0:0:
447,245,135694,6,0,P|405:238|362:221,1,80,10|0,0:0|0:0,0:0:0:0:
351,35,135866,5,0,0:0:0:0:
359,112,135952,1,0,0:0:0:0:
294,155,136039,2,0,P|287:197|270:240,1,80,2|0,0:0|0:0,0:0:0:0:
55,108,136211,5,0,3:2:0:0:
26,30,136297,2,0,P|71:21|108:57,1,80,2|8,0:0|0:0,0:0:0:0:
135,155,136470,5,0,0:0:0:0:
106,233,136556,2,0,P|151:241|188:206,1,80,2|0,0:0|0:0,0:0:0:0:
11,318,136728,5,2,3:2:0:0:
90,329,136814,1,0,0:0:0:0:
169,340,136900,1,0,0:0:0:0:
248,352,136986,1,0,0:0:0:0:
359,261,137073,5,10,0:0:0:0:
283,282,137159,1,0,0:0:0:0:
326,348,137245,2,0,P|366:355|406:367,1,80
494,156,137418,6,0,P|481:199|472:243,1,80,2|0,0:0|0:0,0:0:0:0:
252,171,137590,2,0,P|265:127|274:84,1,80,0|2,3:2|3:2,0:0:0:0:
136,247,137763,6,0,P|149:290|158:334,1,80,8|0,0:0|0:0,0:0:0:0:
378,262,137935,2,0,P|365:218|356:175,1,80,2|0,3:2|0:0,0:0:0:0:
503,10,138108,6,0,B|417:9|410:93|375:98,1,160,2|0,3:2|0:0,0:0:0:0:
347,85,138366,1,0,0:0:0:0:
176,218,138452,5,10,0:0:0:0:
226,158,138539,1,0,0:0:0:0:
173,100,138625,2,0,P|137:89|94:85,1,80
11,201,138797,6,0,P|22:241|31:281,1,80,2|0,0:0|0:0,0:0:0:0:
290,290,138970,5,0,3:2:0:0:
240,227,139056,2,0,P|197:225|169:263,1,80,2|8,0:0|0:0,0:0:0:0:
123,357,139228,5,0,0:0:0:0:
47,384,139314,2,0,P|8:364|3:317,1,80,2|0,0:0|0:0,0:0:0:0:
174,60,139487,5,2,3:2:0:0:
197,137,139573,1,0,0:0:0:0:
120,159,139659,1,0,0:0:0:0:
94,85,139745,1,0,0:0:0:0:
186,47,139832,5,10,0:0:0:0:
264,61,139918,1,0,0:0:0:0:
343,76,140004,1,0,0:0:0:0:
422,90,140090,1,0,0:0:0:0:
489,160,140177,6,0,P|479:202|475:240,1,80,2|0,0:0|0:0,0:0:0:0:
418,356,140349,5,0,3:2:0:0:
412,333,140435,1,2,3:2:0:0:
338,265,140521,5,8,0:0:0:0:
350,185,140608,1,8,0:0:0:0:
416,125,140694,5,2,3:2:0:0:
404,45,140781,1,0,3:2:0:0:
328,0,140866,6,0,P|251:36|256:117,1,160,6|0,3:2|0:0,0:0:0:0:
234,128,141125,1,0,0:0:0:0:
144,25,141211,5,10,0:0:0:0:
69,54,141297,1,0,0:0:0:0:
66,133,141383,2,0,P|109:139|144:151,1,80
348,93,141556,6,0,P|375:123|367:173,1,80,2|0,0:0|0:0,0:0:0:0:
204,311,141728,5,0,3:2:0:0:
277,283,141814,2,0,P|282:245|296:199,1,80,2|8,0:0|0:0,0:0:0:0:
458,113,141987,5,0,0:0:0:0:
486,186,142073,2,0,P|491:223|505:269,1,80,2|0,0:0|0:0,0:0:0:0:
303,13,142245,5,2,3:2:0:0:
327,29,142331,1,0,0:0:0:0:
330,83,142417,1,0,0:0:0:0:
260,121,142503,1,0,0:0:0:0:
173,77,142590,6,0,P|135:67|93:60,1,80,10|0,0:0|0:0,0:0:0:0:
61,232,142763,2,0,P|99:241|141:249,1,80
358,305,142935,5,2,0:0:0:0:
317,300,143021,1,0,0:0:0:0:
277,296,143108,1,0,3:2:0:0:
212,358,143194,5,2,3:2:0:0:
188,361,143280,1,8,0:0:0:0:
164,364,143366,1,0,0:0:0:0:
95,325,143452,5,2,3:2:0:0:
79,322,143539,1,0,0:0:0:0:
14,384,143625,6,0,B|-2:311|72:310|55:236,1,160,2|0,3:2|0:0,0:0:0:0:
35,225,143883,1,0,0:0:0:0:
165,157,143970,5,10,0:0:0:0:
240,181,144056,1,0,0:0:0:0:
264,106,144142,1,0,0:0:0:0:
189,82,144228,1,0,0:0:0:0:
67,66,144314,6,0,P|78:105|82:144,1,80,2|0,0:0|0:0,0:0:0:0:
236,342,144487,5,0,3:2:0:0:
284,277,144573,2,0,P|288:237|299:198,1,80,2|8,0:0|0:0,0:0:0:0:
512,156,144745,5,0,0:0:0:0:
481,85,144831,2,0,P|441:80|402:69,1,80,2|0,0:0|0:0,0:0:0:0:
257,11,145004,5,2,3:2:0:0:
285,47,145090,1,0,0:0:0:0:
250,114,145176,1,0,0:0:0:0:
174,136,145262,1,0,0:0:0:0:
172,113,145349,5,10,0:0:0:0:
111,62,145435,1,0,0:0:0:0:
34,86,145521,2,0,P|27:130|23:172,1,80
233,285,145694,6,0,P|239:240|244:199,1,80,2|0,0:0|0:0,0:0:0:0:
311,143,145866,5,0,3:2:0:0:
339,139,145952,1,2,3:2:0:0:
412,65,146039,5,8,0:0:0:0:
332,56,146125,1,8,0:0:0:0:
417,144,146211,5,2,3:2:0:0:
445,140,146297,1,0,3:2:0:0:
499,217,146383,6,0,B|487:296|408:293|397:333,1,160,6|0,3:2|0:0,0:0:0:0:
409,361,146642,1,0,0:0:0:0:
324,271,146728,5,10,0:0:0:0:
284,314,146814,1,0,0:0:0:0:
210,320,146901,1,0,0:0:0:0:
156,262,146987,1,0,0:0:0:0:
230,177,147073,6,0,P|271:187|310:190,1,80,2|0,0:0|0:0,0:0:0:0:
413,1,147245,5,0,3:2:0:0:
340,30,147332,2,0,P|298:19|260:17,1,80,2|8,0:0|0:0,0:0:0:0:
35,45,147504,5,0,0:0:0:0:
91,99,147591,2,0,P|132:88|171:86,1,80,2|0,0:0|0:0,0:0:0:0:
469,61,147763,5,2,3:2:0:0:
460,140,147849,1,0,0:0:0:0:
452,220,147935,1,0,0:0:0:0:
444,299,148021,1,0,0:0:0:0:
382,351,148108,6,0,P|341:341|300:334,1,80,10|0,0:0|0:0,0:0:0:0:
195,185,148280,5,0,0:0:0:0:
116,199,148366,1,0,0:0:0:0:
140,275,148452,2,0,P|179:281|218:291,1,80,2|0,0:0|0:0,0:0:0:0:
367,199,148625,5,0,3:2:0:0:
432,151,148711,1,2,3:2:0:0:
324,131,148797,5,8,0:0:0:0:
300,135,148883,1,0,0:0:0:0:
235,187,148970,5,2,3:2:0:0:
210,184,149056,1,0,0:0:0:0:
140,136,149142,6,0,P|71:131|21:210,1,160,2|0,3:2|0:0,0:0:0:0:
37,222,149401,1,0,0:0:0:0:
81,305,149487,6,0,P|41:308|2:317,1,80,10|0,0:0|0:0,0:0:0:0:
231,349,149659,2,0,P|270:352|310:361,1,80
257,153,149832,5,2,0:0:0:0:
227,169,149918,1,0,0:0:0:0:
226,200,150004,1,0,3:2:0:0:
271,272,150090,5,2,0:0:0:0:
343,233,150176,1,8,0:0:0:0:
345,154,150262,1,0,0:0:0:0:
436,188,150349,5,2,0:0:0:0:
427,216,150435,1,0,0:0:0:0:
493,276,150521,5,2,3:2:0:0:
484,196,150607,1,0,0:0:0:0:
476,116,150693,1,0,0:0:0:0:
468,37,150779,1,0,0:0:0:0:
447,19,150866,6,0,P|410:25|355:40,1,80,10|0,0:0|0:0,0:0:0:0:
209,71,151039,2,0,P|247:80|287:87,1,80
360,288,151211,5,2,0:0:0:0:
353,264,151297,1,0,0:0:0:0:
269,215,151383,5,2,3:2:0:0:
249,291,151470,1,0,3:2:0:0:
366,310,151556,5,8,0:0:0:0:
286,308,151642,1,8,0:0:0:0:
239,372,151728,1,2,3:2:0:0:
159,368,151814,1,0,3:2:0:0:
90,254,151901,6,0,P|151:192|223:214,1,160,6|0,3:2|0:0,0:0:0:0:
239,196,152159,1,0,0:0:0:0:
326,134,152245,5,10,0:0:0:0:
312,104,152332,1,0,0:0:0:0:
241,70,152418,2,0,P|197:78|152:83,1,80
23,253,152590,5,2,0:0:0:0:
55,327,152677,1,0,0:0:0:0:
134,323,152763,1,0,3:2:0:0:
184,255,152849,5,2,0:0:0:0:
158,236,152935,1,8,0:0:0:0:
127,243,153021,1,0,0:0:0:0:
78,174,153108,5,2,0:0:0:0:
93,154,153194,1,0,0:0:0:0:
174,121,153280,6,0,P|213:136|258:146,1,80,2|0,3:2|0:0,0:0:0:0:
444,42,153452,5,0,0:0:0:0:
368,58,153538,1,0,0:0:0:0:
332,126,153624,1,10,0:0:0:0:
362,198,153710,1,0,0:0:0:0:
407,273,153797,6,0,P|449:265|494:263,1,80
280,230,153970,2,0,P|283:270|290:310,1,80,2|0,0:0|0:0,0:0:0:0:
196,163,154142,2,0,P|153:170|109:173,1,80,0|2,3:2|3:2,0:0:0:0:
22,349,154314,5,8,0:0:0:0:
98,376,154401,1,0,0:0:0:0:
162,324,154487,5,2,3:2:0:0:
191,321,154573,1,0,0:0:0:0:
224,248,154659,6,0,B|304:249|302:325|346:341,1,160,2|0,3:2|0:0,0:0:0:0:
376,331,154918,1,0,0:0:0:0:
468,288,155004,5,10,0:0:0:0:
454,260,155090,1,0,0:0:0:0:
393,241,155177,1,0,0:0:0:0:
347,177,155263,1,0,0:0:0:0:
449,83,155349,6,0,P|445:129|437:167,1,80,2|0,0:0|0:0,0:0:0:0:
205,101,155521,5,0,3:2:0:0:
260,45,155608,2,0,P|301:42|341:34,1,80,2|8,0:0|0:0,0:0:0:0:
94,159,155780,5,0,0:0:0:0:
149,215,155867,2,0,P|190:217|230:226,1,80,2|0,0:0|0:0,0:0:0:0:
493,314,156039,6,0,P|453:319|423:368,1,80,2|0,3:2|0:0,0:0:0:0:
281,143,156211,2,0,P|321:148|351:197,1,80,0|0,3:2|0:0,0:0:0:0:
256,323,156383,6,0,P|252:283|246:242,1,80,10|0,0:0|0:0,0:0:0:0:
448,140,156556,2,0,P|441:179|438:219,1,80,0|0,3:2|0:0,0:0:0:0:
294,27,156728,5,10,0:0:0:0:
216,48,156814,1,8,0:0:0:0:
176,122,156901,5,0,3:2:0:0:
205,133,156987,1,2,3:2:0:0:
127,53,157073,5,8,0:0:0:0:
48,67,157159,1,8,0:0:0:0:
64,145,157245,1,10,3:2:0:0:
143,131,157332,1,8,3:2:0:0:
29,70,157418,6,0,P|86:149|118:209,1,160,6|0,3:2|0:0,0:0:0:0:
142,203,157677,1,0,0:0:0:0:
85,287,157763,5,10,0:0:0:0:
164,298,157849,1,0,0:0:0:0:
243,310,157935,1,0,0:0:0:0:
322,322,158021,1,0,0:0:0:0:
418,299,158108,6,0,P|406:342|403:380,1,80,2|0,0:0|0:0,0:0:0:0:
291,240,158280,2,0,P|287:200|276:161,1,80,0|2,3:2|0:0,0:0:0:0:
442,22,158452,6,0,P|484:21|521:67,1,80,8|0,0:0|0:0,0:0:0:0:
473,162,158625,2,0,P|430:162|394:117,1,80,2|0,0:0|0:0,0:0:0:0:
158,18,158797,5,2,3:2:0:0:
146,96,158883,1,0,0:0:0:0:
76,136,158970,1,0,0:0:0:0:
88,214,159056,1,0,0:0:0:0:
23,280,159142,6,0,P|64:289|102:305,1,80,10|0,0:0|0:0,0:0:0:0:
250,113,159314,5,0,0:0:0:0:
299,176,159401,1,0,0:0:0:0:
236,226,159487,2,0,P|195:229|157:236,1,80,2|0,0:0|0:0,0:0:0:0:
356,365,159659,5,0,3:2:0:0:
409,305,159745,2,0,P|379:280|341:286,1,80,2|8,3:2|0:0,0:0:0:0:
250,113,159918,5,0,0:0:0:0:
198,173,160004,2,0,P|227:198|266:192,1,80,2|0,3:2|0:0,0:0:0:0:
480,7,160177,6,0,B|399:9|428:82|347:87,1,160,2|0,3:2|0:0,0:0:0:0:
327,71,160435,1,0,0:0:0:0:
239,20,160521,5,10,0:0:0:0:
210,28,160608,1,0,0:0:0:0:
158,89,160694,2,0,P|118:80|79:74,1,80
63,307,160866,6,0,P|32:278|37:217,1,80,2|0,0:0|0:0,0:0:0:0:
145,180,161039,2,0,P|176:209|171:270,1,80,0|2,3:2|0:0,0:0:0:0:
272,369,161211,5,8,0:0:0:0:
267,343,161297,1,0,0:0:0:0:
280,314,161383,2,0,P|284:275|297:218,1,80,2|0,0:0|0:0,0:0:0:0:
496,54,161556,5,2,3:2:0:0:
512,129,161642,1,0,0:0:0:0:
462,187,161728,1,0,0:0:0:0:
385,183,161814,1,0,0:0:0:0:
356,71,161901,5,10,0:0:0:0:
330,54,161987,1,0,0:0:0:0:
266,97,162073,2,0,P|229:106|182:114,1,80
1,312,162245,6,0,P|27:278|80:278,1,80,2|0,0:0|0:0,0:0:0:0:
219,272,162418,5,0,3:2:0:0:
192,281,162504,1,2,3:2:0:0:
135,181,162590,5,8,0:0:0:0:
215,190,162677,1,8,0:0:0:0:
297,246,162763,5,2,3:2:0:0:
330,238,162849,1,0,3:2:0:0:
387,131,162935,6,0,P|411:237|419:304,1,160,6|0,3:2|0:0,0:0:0:0:
401,308,163194,1,0,0:0:0:0:
313,379,163280,5,10,0:0:0:0:
289,384,163366,1,0,0:0:0:0:
219,338,163452,2,0,P|183:328|136:323,1,80
11,137,163625,6,0,P|55:127|89:161,1,80,2|0,0:0|0:0,0:0:0:0:
264,18,163797,5,0,3:2:0:0:
184,26,163883,2,0,P|180:65|168:104,1,80,2|8,0:0|0:0,0:0:0:0:
0,224,164056,5,0,0:0:0:0:
79,232,164142,2,0,P|82:271|94:309,1,80,2|0,0:0|0:0,0:0:0:0:
321,166,164314,5,2,3:2:0:0:
246,147,164400,1,0,0:0:0:0:
186,196,164486,1,0,0:0:0:0:
189,273,164572,1,0,0:0:0:0:
258,350,164659,5,10,0:0:0:0:
283,336,164745,1,0,0:0:0:0:
290,310,164832,2,0,P|283:268|271:222,1,80
493,125,165004,6,0,P|461:154|411:136,1,80,2|0,0:0|0:0,0:0:0:0:
396,60,165177,2,0,P|428:31|478:49,1,80,0|2,3:2|3:2,0:0:0:0:
398,311,165349,6,0,P|401:277|411:224,1,80,8|0,0:0|0:0,0:0:0:0:
309,62,165521,2,0,P|315:101|320:141,1,80,2|0,3:2|0:0,0:0:0:0:
47,145,165694,6,0,P|46:57|133:32,1,160,2|0,3:2|0:0,0:0:0:0:
127,41,165952,1,0,0:0:0:0:
192,147,166039,5,10,0:0:0:0:
164,144,166125,1,0,0:0:0:0:
107,199,166211,2,0,P|116:240|122:279,1,80
310,374,166383,5,2,0:0:0:0:
251,321,166470,1,0,0:0:0:0:
179,354,166556,2,0,P|139:360|100:368,1,80,0|2,3:2|0:0,0:0:0:0:
424,183,166728,5,8,0:0:0:0:
347,160,166814,1,0,0:0:0:0:
326,238,166901,1,2,0:0:0:0:
401,262,166987,1,0,0:0:0:0:
449,195,167073,5,2,3:2:0:0:
369,205,167159,1,0,0:0:0:0:
290,215,167245,1,0,0:0:0:0:
210,225,167331,1,0,0:0:0:0:
145,172,167418,6,0,P|150:135|155:86,1,80,10|0,0:0|0:0,0:0:0:0:
0,9,167590,2,0,P|3:48|9:88,1,80
19,274,167763,6,0,P|41:241|87:230,1,80,2|0,0:0|0:0,0:0:0:0:
243,149,167935,5,0,3:2:0:0:
232,173,168021,1,2,3:2:0:0:
182,255,168108,5,8,0:0:0:0:
200,331,168194,1,8,0:0:0:0:
287,291,168280,5,2,3:2:0:0:
294,263,168366,1,0,3:2:0:0:
211,260,168452,5,6,3:2:0:0:
218,337,168538,1,0,0:0:0:0:
282,380,168624,1,0,0:0:0:0:
356,359,168710,1,0,0:0:0:0:
418,295,168797,6,0,P|459:286|498:285,1,80,10|0,0:0|0:0,0:0:0:0:
472,134,168970,2,0,P|431:143|392:144,1,80
192,26,169142,5,2,0:0:0:0:
271,36,169228,1,0,0:0:0:0:
304,108,169314,1,0,3:2:0:0:
278,183,169400,1,2,0:0:0:0:
202,155,169487,6,0,P|164:161|115:173,1,80,8|0,0:0|0:0,0:0:0:0:
23,312,169659,2,0,P|62:318|101:327,1,80,2|0,0:0|0:0,0:0:0:0:
253,342,169832,5,2,3:2:0:0:
271,264,169918,1,0,0:0:0:0:
290,187,170004,1,0,0:0:0:0:
309,109,170090,1,0,0:0:0:0:
380,63,170177,6,0,P|423:61|462:54,1,80,10|0,0:0|0:0,0:0:0:0:
480,234,170349,2,0,P|436:235|398:243,1,80
221,135,170521,5,2,0:0:0:0:
210,211,170607,1,0,0:0:0:0:
145,254,170693,1,0,3:2:0:0:
71,233,170779,1,2,3:2:0:0:
38,155,170866,6,0,P|62:119|120:116,1,80,8|0,0:0|0:0,0:0:0:0:
235,3,171039,2,0,P|211:39|153:42,1,80,2|0,3:2|0:0,0:0:0:0:
0,7,171211,5,2,3:2:0:0:
9,86,171297,1,0,0:0:0:0:
18,165,171383,1,0,0:0:0:0:
28,245,171469,1,0,0:0:0:0:
94,299,171556,5,10,0:0:0:0:
114,250,171642,1,0,0:0:0:0:
160,226,171728,1,0,0:0:0:0:
211,238,171814,1,0,0:0:0:0:
259,305,171901,6,0,P|264:347|266:392,1,80,2|0,0:0|0:0,0:0:0:0:
455,273,172073,5,0,3:2:0:0:
512,216,172159,2,0,P|482:194|418:209,1,80,2|8,0:0|0:0,0:0:0:0:
316,51,172332,5,0,0:0:0:0:
373,108,172418,2,0,P|395:78|380:14,1,80,2|0,0:0|0:0,0:0:0:0:
117,43,172590,5,2,3:2:0:0:
55,94,172677,1,0,0:0:0:0:
59,147,172763,1,0,0:0:0:0:
92,176,172849,1,0,0:0:0:0:
173,192,172935,6,0,P|216:180|262:172,1,80,10|0,0:0|0:0,0:0:0:0:
284,291,173108,2,0,P|240:302|195:311,1,80
348,229,173280,2,0,P|387:236|425:247,1,80,2|0,0:0|0:0,0:0:0:0:
452,70,173452,5,0,3:2:0:0:
379,103,173539,1,2,3:2:0:0:
301,71,173625,5,8,0:0:0:0:
289,45,173711,1,8,0:0:0:0:
210,79,173797,5,2,3:2:0:0:
198,105,173883,1,0,3:2:0:0:
137,28,173970,5,6,3:2:0:0:
59,36,174056,1,0,0:0:0:0:
8,96,174142,1,0,0:0:0:0:
18,175,174228,1,0,0:0:0:0:
92,232,174314,6,0,P|133:225|176:214,1,80,10|0,0:0|0:0,0:0:0:0:
316,179,174487,2,0,P|277:169|237:162,1,80
80,334,174659,5,2,0:0:0:0:
159,342,174745,1,0,0:0:0:0:
239,351,174831,1,0,3:2:0:0:
318,359,174917,1,2,0:0:0:0:
386,308,175004,6,0,P|394:274|398:227,1,80,8|0,0:0|0:0,0:0:0:0:
314,87,175177,2,0,P|317:126|325:165,1,80,2|0,0:0|0:0,0:0:0:0:
512,256,175349,5,2,3:2:0:0:
510,176,175435,1,0,0:0:0:0:
445,128,175521,1,0,0:0:0:0:
365,132,175607,1,0,0:0:0:0:
341,57,175694,6,0,P|305:50|246:43,1,80,10|0,0:0|0:0,0:0:0:0:
156,179,175866,2,0,P|161:139|168:100,1,80
392,181,176039,5,2,0:0:0:0:
363,253,176125,1,0,0:0:0:0:
290,279,176211,1,0,3:2:0:0:
222,241,176297,1,2,3:2:0:0:
144,204,176383,6,0,P|108:206|55:218,1,80,8|0,0:0|0:0,0:0:0:0:
41,41,176556,2,0,P|76:38|130:27,1,80,2|0,3:2|0:0,0:0:0:0:
408,124,176728,5,2,3:2:0:0:
430,123,176814,1,0,0:0:0:0:
456,106,176901,1,0,0:0:0:0:
466,57,176987,1,0,0:0:0:0:
408,2,177073,1,10,0:0:0:0:
331,23,177159,1,0,0:0:0:0:
303,97,177245,1,0,0:0:0:0:
328,173,177332,1,0,0:0:0:0:
270,285,177418,5,2,0:0:0:0:
190,288,177504,1,0,0:0:0:0:
144,222,177590,1,0,3:2:0:0:
171,104,177677,5,2,0:0:0:0:
198,121,177763,1,8,0:0:0:0:
198,153,177849,1,0,0:0:0:0:
67,190,177935,5,2,0:0:0:0:
75,159,178021,1,0,0:0:0:0:
136,73,178108,6,0,P|172:75|220:86,1,80,2|0,3:2|0:0,0:0:0:0:
286,251,178280,2,0,P|294:211|297:172,1,80,0|0,3:2|0:0,0:0:0:0:
512,55,178452,6,0,P|497:18|462:1,1,80,10|0,0:0|0:0,0:0:0:0:
368,87,178625,2,0,P|382:123|417:140,1,80,0|0,3:2|0:0,0:0:0:0:
443,347,178797,5,10,0:0:0:0:
473,274,178883,1,8,0:0:0:0:
349,255,178970,5,0,3:2:0:0:
359,294,179056,1,2,3:2:0:0:
279,360,179142,5,8,0:0:0:0:
199,368,179228,1,8,0:0:0:0:
119,376,179314,1,10,3:2:0:0:
40,384,179400,1,8,3:2:0:0:
0,312,179487,6,0,P|44:282|64:274,3,60.0000022888184,6|0|0|0,3:2|0:0|0:0|0:0,0:0:0:0:
65,181,179832,2,0,P|118:177|139:180,1,60.0000022888184,10|0,0:0|0:0,0:0:0:0:
166,98,180004,2,0,P|213:121|230:134,1,60.0000022888184,2|0,0:0|0:0,0:0:0:0:
323,217,180177,6,0,P|295:195|290:164,2,60.0000022888184,2|0|0,0:0|0:0|3:2,0:0:0:0:
390,262,180435,2,0,P|420:252|449:249,2,60.0000022888184,2|8|0,0:0|0:0|0:0,0:0:0:0:
387,349,180694,6,0,P|417:358|446:362,1,60.0000022888184,2|0,0:0|0:0,0:0:0:0:
510,308,180866,5,0,3:2:0:0:
490,162,181039,1,0,0:0:0:0:
490,162,181125,1,0,0:0:0:0:
490,162,181211,2,0,P|424:147|372:141,1,120.000004577637,8|0,0:0|0:0,0:0:0:0:
351,124,181470,1,0,0:0:0:0:
351,124,181556,1,0,0:0:0:0:
261,197,181728,1,0,3:2:0:0:
225,79,181901,1,8,0:0:0:0:
134,128,182073,1,0,3:2:0:0:
0,92,182245,6,0,P|61:34|90:38,1,120.000004577637,0|0,3:2|0:0,0:0:0:0:
167,228,182590,2,0,P|106:211|45:205,1,120.000004577637,8|0,0:0|0:0,0:0:0:0:
28,222,182849,1,0,0:0:0:0:
28,222,182935,1,0,0:0:0:0:
93,304,183108,1,0,3:2:0:0:
175,131,183280,2,0,P|234:124|292:108,1,120.000004577637,8|0,0:0|0:0,0:0:0:0:
363,10,183625,5,0,3:2:0:0:
499,115,183797,1,0,0:0:0:0:
499,115,183883,1,0,0:0:0:0:
499,115,183970,2,0,P|429:127|411:178,1,120.000004577637,8|0,0:0|0:0,0:0:0:0:
390,186,184228,1,0,0:0:0:0:
390,186,184314,1,0,0:0:0:0:
460,280,184487,1,0,3:2:0:0:
285,203,184659,1,8,0:0:0:0:
285,348,184832,2,0,P|315:336|346:332,1,60.0000022888184,0|0,3:2|3:2,0:0:0:0:
231,278,185004,6,0,P|201:273|173:262,3,60.0000022888184,2|0|0|0,3:2|0:0|0:0|0:0,0:0:0:0:
178,184,185349,2,0,P|154:165|136:141,1,60.0000022888184,10|0,0:0|0:0,0:0:0:0:
182,77,185521,2,0,P|171:48|167:19,1,60.0000022888184,2|0,0:0|0:0,0:0:0:0:
322,84,185694,6,0,P|291:83|262:110,2,60.0000022888184,2|0|0,0:0|0:0|3:2,0:0:0:0:
381,140,185952,2,0,P|380:171|407:200,2,60.0000022888184,2|8|0,0:0|0:0|0:0,0:0:0:0:
497,95,186211,2,0,P|466:88|435:79,1,60.0000022888184,2|0,0:0|0:0,0:0:0:0:
299,174,186383,6,0,P|237:184|174:204,1,120.000004577637,0|0,3:2|0:0,0:0:0:0:
138,266,186642,1,0,0:0:0:0:
131,290,186728,2,0,P|161:347|221:349,1,120.000004577637,8|0,0:0|0:0,0:0:0:0:
96,186,187073,1,0,0:0:0:0:
96,186,187159,1,0,0:0:0:0:
96,186,187245,1,0,3:2:0:0:
131,371,187418,1,8,0:0:0:0:
268,278,187590,1,0,3:2:0:0:
362,345,187763,6,0,P|428:357|461:315,1,120.000004577637,0|0,3:2|0:0,0:0:0:0:
485,179,188108,1,8,0:0:0:0:
390,260,188280,1,0,0:0:0:0:
390,260,188366,1,0,0:0:0:0:
390,260,188452,1,0,0:0:0:0:
323,130,188625,1,0,3:2:0:0:
501,60,188797,2,0,P|477:121|464:180,1,120.000004577637,8|0,0:0|0:0,0:0:0:0:
343,43,189142,6,0,P|315:35|281:32,3,60.0000022888184,2|0|0|0,3:2|0:0|0:0|0:0,0:0:0:0:
224,87,189487,2,0,P|196:94|162:98,1,60.0000022888184,10|0,0:0|0:0,0:0:0:0:
106,44,189659,2,0,P|78:36|44:33,1,60.0000022888184,2|0,0:0|0:0,0:0:0:0:
105,168,189832,6,0,P|137:175|158:212,1,60.0000022888184,2|0,0:0|0:0,0:0:0:0:
85,254,190004,5,0,3:2:0:0:
91,277,190090,1,2,3:2:0:0:
162,321,190177,5,8,0:0:0:0:
221,327,190263,1,8,0:0:0:0:
281,333,190349,1,2,3:2:0:0:
341,339,190435,1,0,3:2:0:0:
361,326,190521,6,0,P|366:295|377:266,3,60.0000022888184,6|0|0|0,3:2|0:0|0:0|0:0,0:0:0:0:
446,229,190866,2,0,P|452:191|436:162,1,60.0000022888184,10|0,0:0|0:0,0:0:0:0:
369,142,191039,2,0,P|339:117|305:117,1,60.0000022888184,2|0,0:0|0:0,0:0:0:0:
211,26,191211,6,0,P|218:56|222:92,2,60.0000022888184,2|0|0,0:0|0:0|3:2,0:0:0:0:
122,78,191470,2,0,P|114:108|111:144,2,60.0000022888184,2|8|0,0:0|0:0|0:0,0:0:0:0:
50,20,191728,2,0,P|17:27|-5:62,1,60.0000022888184,2|0,0:0|0:0,0:0:0:0:
45,200,191901,5,0,3:2:0:0:
191,169,192073,1,0,0:0:0:0:
64,220,192245,2,0,P|48:279|42:340,1,120.000004577637,8|0,0:0|0:0,0:0:0:0:
64,360,192504,1,0,0:0:0:0:
64,360,192590,1,0,0:0:0:0:
175,259,192763,1,0,3:2:0:0:
309,351,192935,1,8,0:0:0:0:
158,339,193108,1,0,3:2:0:0:
345,269,193280,6,0,P|413:283|475:305,1,120.000004577637,0|0,3:2|0:0,0:0:0:0:
490,97,193625,2,0,P|423:119|419:169,1,120.000004577637,8|0,0:0|0:0,0:0:0:0:
400,184,193883,1,0,0:0:0:0:
400,184,193970,1,0,0:0:0:0:
284,97,194142,1,0,3:2:0:0:
181,249,194314,2,0,P|172:187|150:119,1,120.000004577637,8|0,0:0|0:0,0:0:0:0:
71,16,194659,6,0,P|1:63|7:109,1,120.000004577637,0|0,3:2|0:0,0:0:0:0:
112,300,195004,1,8,0:0:0:0:
123,171,195177,1,0,0:0:0:0:
123,171,195263,1,0,0:0:0:0:
123,171,195349,1,0,0:0:0:0:
14,251,195521,1,0,3:2:0:0:
197,251,195694,1,8,0:0:0:0:
139,98,195866,1,0,3:2:0:0:
139,98,195952,1,0,3:2:0:0:
139,98,196039,6,0,P|171:90|203:88,3,60.0000022888184,2|0|0|0,3:2|0:0|0:0|0:0,0:0:0:0:
277,191,196383,2,0,P|247:183|218:181,1,60.0000022888184,10|0,0:0|0:0,0:0:0:0:
166,282,196556,2,0,P|198:274|230:272,1,60.0000022888184,2|0,0:0|0:0,0:0:0:0:
318,335,196728,6,0,P|326:307|329:276,2,60.0000022888184,2|0|0,0:0|0:0|3:2,0:0:0:0:
422,312,196987,2,0,P|424:282|432:253,2,60.0000022888184,2|8|0,0:0|0:0|0:0,0:0:0:0:
512,211,197245,2,0,P|504:183|501:152,1,60.0000022888184,2|0,0:0|0:0,0:0:0:0:
432,103,197418,6,0,P|373:89|303:80,1,120.000004577637,0|0,3:2|0:0,0:0:0:0:
192,158,197763,1,8,0:0:0:0:
228,35,197935,1,0,0:0:0:0:
228,35,198021,1,0,0:0:0:0:
228,35,198108,1,0,0:0:0:0:
111,85,198280,1,0,3:2:0:0:
280,158,198452,1,8,0:0:0:0:
127,241,198625,1,0,3:2:0:0:
313,306,198797,6,0,P|281:252|224:248,1,120.000004577637,0|0,3:2|0:0,0:0:0:0:
53,328,199142,2,0,P|119:341|175:361,1,120.000004577637,8|0,0:0|0:0,0:0:0:0:
197,348,199401,1,0,0:0:0:0:
197,348,199487,1,0,0:0:0:0:
305,227,199659,1,0,3:2:0:0:
451,348,199832,2,0,P|389:340|332:325,1,120.000004577637,8|0,0:0|0:0,0:0:0:0:
414,114,200177,5,2,3:2:0:0:
414,114,200349,1,0,3:2:0:0:
468,272,200521,1,10,0:0:0:0:
356,222,200694,1,2,3:2:0:0:
352,38,200866,5,2,3:2:0:0:
346,61,200952,1,8,0:0:0:0:
274,88,201039,5,0,3:2:0:0:
268,65,201125,1,2,3:2:0:0:
193,35,201211,5,8,0:0:0:0:
134,40,201297,1,8,0:0:0:0:
92,81,201383,1,10,3:2:0:0:
87,140,201469,1,10,3:2:0:0:
144,201,201556,6,0,P|209:210|226:216,1,60.0000022888184,6|0,3:2|0:0,0:0:0:0:
194,291,201728,2,0,P|129:282|112:276,1,60.0000022888184
61,338,201901,5,10,0:0:0:0:
61,338,201987,1,0,0:0:0:0:
61,338,202073,2,0,P|57:308|48:277,1,60.0000022888184,2|0,0:0|0:0,0:0:0:0:
14,155,202245,6,0,P|42:146|72:142,2,60.0000022888184,2|0|0,0:0|0:0|3:2,0:0:0:0:
75,58,202504,2,0,P|104:65|131:76,2,60.0000022888184,2|8|0,0:0|0:0|0:0,0:0:0:0:
209,24,202763,2,0,P|235:56|266:63,1,60.0000022888184,2|0,0:0|0:0,0:0:0:0:
323,19,202935,5,0,3:2:0:0:
457,78,203108,1,0,0:0:0:0:
457,78,203194,1,0,0:0:0:0:
457,78,203280,2,0,P|379:97|341:118,1,120.000004577637,8|0,0:0|0:0,0:0:0:0:
332,142,203539,1,0,0:0:0:0:
332,142,203625,1,0,0:0:0:0:
420,223,203797,1,0,3:2:0:0:
220,171,203970,1,8,0:0:0:0:
302,300,204142,1,0,3:2:0:0:
133,354,204314,6,0,P|147:285|191:263,1,120.000004577637,0|0,3:2|0:0,0:0:0:0:
327,384,204659,1,8,0:0:0:0:
448,301,204832,1,0,0:0:0:0:
433,298,204918,1,0,0:0:0:0:
418,296,205004,1,0,0:0:0:0:
403,294,205090,1,0,0:0:0:0:
388,292,205176,1,0,3:2:0:0:
367,131,205349,2,0,P|319:164|314:222,1,120.000004577637,8|0,0:0|0:0,0:0:0:0:
511,33,205694,6,0,P|437:22|383:8,1,120.000004577637,0|0,3:2|0:0,0:0:0:0:
221,21,206039,1,8,0:0:0:0:
166,187,206211,1,0,0:0:0:0:
165,176,206297,1,0,0:0:0:0:
165,165,206383,1,0,0:0:0:0:
164,153,206470,1,0,0:0:0:0:
163,142,206556,1,0,3:2:0:0:
3,93,206728,1,8,0:0:0:0:
9,277,206901,1,0,3:2:0:0:
9,277,206987,1,0,3:2:0:0:
9,277,207073,6,0,P|41:281|87:293,1,60.0000022888184,2|0,3:2|0:0,0:0:0:0:
120,213,207245,2,0,P|152:208|198:197,1,60.0000022888184
273,321,207418,5,10,0:0:0:0:
273,321,207504,1,0,0:0:0:0:
273,321,207590,2,0,P|245:307|231:275,1,60.0000022888184,2|0,0:0|0:0,0:0:0:0:
306,187,207763,6,0,P|339:181|369:180,2,60.0000022888184,2|0|0,0:0|0:0|3:2,0:0:0:0:
254,115,208021,2,0,P|220:109|191:108,2,60.0000022888184,2|8|0,0:0|0:0|0:0,0:0:0:0:
331,79,208280,2,0,P|354:62|365:23,1,60.0000022888184,2|0,0:0|0:0,0:0:0:0:
489,71,208452,6,0,P|463:159|457:212,1,120.000004577637,0|0,3:2|0:0,0:0:0:0:
474,212,208711,1,0,0:0:0:0:
474,212,208797,1,8,0:0:0:0:
380,348,208970,1,0,0:0:0:0:
379,337,209056,1,0,0:0:0:0:
377,326,209142,1,0,0:0:0:0:
376,315,209228,1,0,0:0:0:0:
373,304,209314,1,0,3:2:0:0:
229,345,209487,1,8,0:0:0:0:
313,211,209659,1,0,3:2:0:0:
140,189,209832,6,0,P|209:211|219:263,1,120.000004577637,0|0,3:2|0:0,0:0:0:0:
81,364,210177,2,0,P|63:286|58:242,1,120.000004577637,8|0,0:0|0:0,0:0:0:0:
33,227,210435,1,0,0:0:0:0:
33,227,210521,1,0,0:0:0:0:
168,321,210694,1,0,3:2:0:0:
227,170,210866,2,0,P|304:165|355:151,1,120.000004577637,8|0,0:0|0:0,0:0:0:0:
163,11,211211,6,0,P|174:45|181:75,3,60.0000022888184,2|0|0|0,3:2|0:0|0:0|0:0,0:0:0:0:
111,121,211556,6,0,P|88:139|81:168,1,60.0000022888184,10|0,0:0|0:0,0:0:0:0:
21,221,211728,2,0,P|25:250|47:270,1,60.0000022888184,2|0,0:0|0:0,0:0:0:0:
62,348,211901,2,0,P|89:358|117:349,1,60.0000022888184,2|0,0:0|0:0,0:0:0:0:
193,238,212073,5,0,3:2:0:0:
199,261,212159,1,2,3:2:0:0:
266,301,212245,5,8,0:0:0:0:
325,306,212331,1,8,0:0:0:0:
385,312,212417,1,2,3:2:0:0:
445,318,212503,1,0,3:2:0:0:
499,260,212590,6,0,P|495:230|486:198,1,60.0000022888184,6|0,3:2|0:0,0:0:0:0:
429,89,212763,2,0,P|421:117|417:147,1,60.0000022888184
358,214,212935,5,10,0:0:0:0:
358,214,213021,1,0,0:0:0:0:
358,214,213108,2,0,P|333:236|295:238,1,60.0000022888184,2|0,0:0|0:0,0:0:0:0:
214,133,213280,6,0,P|247:135|280:144,2,60.0000022888184,2|0|0,0:0|0:0|3:2,0:0:0:0:
141,75,213539,2,0,P|107:72|75:64,2,60.0000022888184,2|8|0,0:0|0:0|0:0,0:0:0:0:
215,21,213797,2,0,P|244:23|274:29,1,60.0000022888184,2|0,0:0|0:0,0:0:0:0:
368,142,213970,6,0,P|430:134|456:68,1,120.000004577637,0|0,3:2|0:0,0:0:0:0:
281,116,214314,1,8,0:0:0:0:
330,223,214487,1,0,0:0:0:0:
315,225,214573,1,0,0:0:0:0:
300,227,214659,1,0,0:0:0:0:
285,230,214745,1,0,0:0:0:0:
270,232,214831,1,0,3:2:0:0:
146,166,215004,1,8,0:0:0:0:
197,356,215177,1,0,3:2:0:0:
0,334,215349,6,0,P|64:319|120:291,1,120.000004577637,0|0,3:2|0:0,0:0:0:0:
87,118,215694,2,0,P|23:147|15:202,1,120.000004577637,8|0,0:0|0:0,0:0:0:0:
31,218,215952,1,0,0:0:0:0:
31,218,216039,1,0,0:0:0:0:
203,187,216211,1,0,3:2:0:0:
232,315,216383,2,0,P|173:301|119:276,1,120.000004577637,8|0,0:0|0:0,0:0:0:0:
348,154,216728,6,0,P|310:206|326:256,1,120.000004577637,0|0,3:2|0:0,0:0:0:0:
486,331,217073,1,8,0:0:0:0:
268,359,217245,1,0,0:0:0:0:
280,355,217332,1,0,0:0:0:0:
292,352,217418,1,0,0:0:0:0:
303,348,217504,1,0,0:0:0:0:
313,344,217590,1,0,3:2:0:0:
459,314,217763,1,8,0:0:0:0:
340,189,217935,1,0,3:2:0:0:
340,189,218021,1,0,3:2:0:0:
340,189,218108,6,0,P|342:162|351:122,1,60.0000022888184,2|0,3:2|0:0,0:0:0:0:
285,13,218280,2,0,P|282:39|274:80,1,60.0000022888184
165,200,218452,5,10,0:0:0:0:
165,200,218539,1,0,0:0:0:0:
165,200,218625,2,0,P|139:192|115:167,1,60.0000022888184,2|0,0:0|0:0,0:0:0:0:
33,24,218797,6,0,P|39:54|42:85,2,60.0000022888184,2|0|0,0:0|0:0|3:2,0:0:0:0:
133,72,219056,2,0,P|127:102|125:132,2,60.0000022888184,2|8|0,0:0|0:0|0:0,0:0:0:0:
253,177,219314,2,0,P|222:177|193:200,1,60.0000022888184,2|0,0:0|0:0,0:0:0:0:
2,267,219487,6,0,P|74:275|129:293,1,120.000004577637,0|0,3:2|0:0,0:0:0:0:
326,343,219832,2,0,P|265:318|258:247,1,120.000004577637,8|0,0:0|0:0,0:0:0:0:
272,246,220090,1,0,0:0:0:0:
272,246,220177,1,0,0:0:0:0:
486,220,220349,1,0,3:2:0:0:
424,365,220521,1,8,0:0:0:0:
327,170,220694,1,0,3:2:0:0:
486,237,220866,6,0,P|412:249|352:269,1,120.000004577637,0|0,3:2|0:0,0:0:0:0:
306,49,221211,1,8,0:0:0:0:
410,140,221383,1,0,0:0:0:0:
410,140,221470,1,0,0:0:0:0:
410,140,221556,1,0,0:0:0:0:
241,220,221728,1,0,3:2:0:0:
130,94,221901,2,0,P|196:106|257:125,1,120.000004577637,8|0,0:0|0:0,0:0:0:0:
246,314,222245,5,2,3:2:0:0:
165,189,222418,1,0,3:2:0:0:
21,341,222590,1,10,0:0:0:0:
21,341,222763,1,2,3:2:0:0:
16,121,222935,5,2,3:2:0:0:
39,127,223021,1,8,0:0:0:0:
93,187,223108,5,0,3:2:0:0:
116,181,223194,1,2,3:2:0:0:
161,118,223280,5,8,0:0:0:0:
167,177,223366,1,8,0:0:0:0:
174,237,223452,1,10,3:2:0:0:
180,296,223538,1,10,3:2:0:0:
239,350,223625,6,0,P|270:356|302:359,1,60.0000022888184,6|0,3:2|0:0,0:0:0:0:
407,275,223797,2,0,P|377:277|347:283,1,60.0000022888184
336,159,223970,5,10,0:0:0:0:
336,129,224056,1,0,0:0:0:0:
354,106,224142,1,2,0:0:0:0:
383,98,224228,1,0,0:0:0:0:
411,109,224314,2,0,P|417:144|421:176,1,60.0000022888184,2|0,0:0|0:0,0:0:0:0:
512,42,224487,2,0,P|505:76|502:108,1,60.0000022888184,0|2,3:2|0:0,0:0:0:0:
432,273,224659,6,0,P|406:291|371:287,1,60.0000022888184,8|0,0:0|0:0,0:0:0:0:
353,201,224832,2,0,P|379:183|414:187,1,60.0000022888184,2|0,0:0|0:0,0:0:0:0:
268,339,225004,5,0,3:2:0:0:
240,328,225090,1,0,0:0:0:0:
211,322,225176,1,0,0:0:0:0:
181,320,225262,1,0,0:0:0:0:
150,322,225349,2,0,P|120:329|85:345,1,60.0000022888184,8|0,0:0|0:0,0:0:0:0:
56,170,225521,5,0,0:0:0:0:
56,170,225608,1,0,0:0:0:0:
56,170,225694,2,0,P|65:204|73:241,1,60.0000022888184
268,180,225866,2,0,P|258:145|251:109,1,60.0000022888184,0|0,3:2|0:0,0:0:0:0:
165,6,226039,6,0,P|159:36|151:65,1,60.0000022888184,8|0,0:0|0:0,0:0:0:0:
348,113,226211,2,0,P|354:83|363:55,1,60.0000022888184,0|0,3:2|0:0,0:0:0:0:
500,212,226383,5,0,3:2:0:0:
487,269,226469,1,0,0:0:0:0:
438,301,226555,1,0,0:0:0:0:
381,290,226641,1,0,0:0:0:0:
348,241,226728,2,0,P|320:235|283:232,1,60.0000022888184,8|0,0:0|0:0,0:0:0:0:
230,169,226901,2,0,P|202:177|168:193,1,60.0000022888184
48,99,227073,5,0,0:0:0:0:
98,66,227159,1,0,0:0:0:0:
153,43,227245,1,0,3:2:0:0:
211,29,227331,1,0,0:0:0:0:
271,26,227418,2,0,P|304:37|331:50,1,60.0000022888184,8|0,0:0|0:0,0:0:0:0:
440,112,227590,2,0,P|410:115|380:120,1,60.0000022888184
184,223,227763,5,0,3:2:0:0:
198,243,227850,1,0,0:0:0:0:
220,235,227936,1,0,0:0:0:0:
220,211,228022,1,0,0:0:0:0:
197,204,228108,2,0,P|166:213|129:221,1,60.0000022888184,8|0,0:0|0:0,0:0:0:0:
21,279,228280,2,0,P|51:288|89:296,1,60.0000022888184
345,362,228452,6,0,P|312:349|299:314,1,60.0000022888184
359,159,228625,5,0,3:2:0:0:
359,159,228711,1,0,0:0:0:0:
359,159,228797,2,0,P|366:198|371:234,1,60.0000022888184,8|0,0:0|0:0,0:0:0:0:
485,336,228970,2,0,P|489:306|494:276,1,60.0000022888184,0|0,3:2|3:2,0:0:0:0:
506,54,229142,6,0,P|475:57|448:65,1,60.0000022888184,6|0,3:2|0:0,0:0:0:0:
309,0,229314,2,0,P|339:3|367:11,1,60.0000022888184
254,199,229487,5,10,0:0:0:0:
224,196,229573,1,0,0:0:0:0:
200,212,229659,1,2,0:0:0:0:
190,239,229745,1,0,0:0:0:0:
196,269,229832,2,0,P|229:274|263:282,1,60.0000022888184,2|0,0:0|0:0,0:0:0:0:
327,349,230004,2,0,P|360:344|393:336,1,60.0000022888184,0|2,3:2|0:0,0:0:0:0:
459,238,230177,5,8,0:0:0:0:
459,238,230263,1,0,0:0:0:0:
459,238,230349,2,0,P|465:283|489:300,1,60.0000022888184,2|0,0:0|0:0,0:0:0:0:
323,145,230521,5,0,3:2:0:0:
312,172,230607,1,0,0:0:0:0:
288,188,230693,1,0,0:0:0:0:
258,186,230779,1,0,0:0:0:0:
234,170,230866,2,0,P|231:137|231:108,1,60.0000022888184,8|0,0:0|0:0,0:0:0:0:
15,57,231039,5,0,0:0:0:0:
15,57,231125,1,0,0:0:0:0:
15,57,231211,2,0,P|41:35|79:34,1,60.0000022888184
122,291,231383,6,0,P|85:287|61:260,1,60.0000022888184,0|0,3:2|0:0,0:0:0:0:
106,138,231556,2,0,P|143:142|167:169,1,60.0000022888184,8|0,0:0|0:0,0:0:0:0:
207,341,231728,2,0,P|244:337|268:310,1,60.0000022888184,0|0,3:2|0:0,0:0:0:0:
378,175,231901,5,0,3:2:0:0:
436,179,231987,1,0,0:0:0:0:
477,221,232073,1,0,0:0:0:0:
480,279,232159,1,0,0:0:0:0:
443,325,232245,2,0,P|413:324|383:330,1,60.0000022888184,8|0,0:0|0:0,0:0:0:0:
270,235,232418,2,0,P|300:234|330:239,1,60.0000022888184
378,12,232590,5,0,0:0:0:0:
375,70,232676,1,0,0:0:0:0:
337,116,232762,1,0,3:2:0:0:
280,130,232848,1,0,0:0:0:0:
226,107,232935,2,0,P|224:79|218:40,1,60.0000022888184,8|0,0:0|0:0,0:0:0:0:
49,61,233108,2,0,P|50:89|57:128,1,60.0000022888184
186,271,233280,5,2,3:2:0:0:
186,271,233366,1,0,0:0:0:0:
186,271,233452,2,0,P|187:242|194:203,1,60.0000022888184
384,155,233625,5,10,0:0:0:0:
384,155,233711,1,0,0:0:0:0:
384,155,233797,2,0,P|355:153|316:146,1,60.0000022888184,2|0,0:0|0:0,0:0:0:0:
322,345,233970,6,0,P|304:316|277:306,1,60.0000022888184,2|0,0:0|0:0,0:0:0:0:
33,255,234142,5,0,3:2:0:0:
5,268,234228,1,2,3:2:0:0:
50,332,234314,5,8,0:0:0:0:
130,331,234401,1,8,0:0:0:0:
165,295,234487,1,2,3:2:0:0:
171,253,234573,1,0,3:2:0:0:
112,195,234659,6,0,P|78:195|48:201,1,60.0000022888184,6|0,3:2|0:0,0:0:0:0:
39,66,234832,2,0,P|72:65|103:60,1,60.0000022888184
227,115,235004,5,10,0:0:0:0:
218,142,235090,1,0,0:0:0:0:
231,170,235176,1,2,0:0:0:0:
257,183,235262,1,0,0:0:0:0:
282,183,235349,2,0,P|295:217|303:247,1,60.0000022888184,2|0,0:0|0:0,0:0:0:0:
379,325,235521,2,0,P|387:296|398:268,1,60.0000022888184,0|2,3:2|0:0,0:0:0:0:
505,167,235694,5,8,0:0:0:0:
505,167,235780,1,0,0:0:0:0:
505,167,235866,2,0,P|482:195|440:197,1,60.0000022888184,2|0,0:0|0:0,0:0:0:0:
316,69,236039,5,0,3:2:0:0:
345,67,236125,1,0,0:0:0:0:
370,79,236211,1,0,0:0:0:0:
380,107,236297,1,0,0:0:0:0:
374,135,236383,2,0,P|343:136|310:143,1,60.0000022888184,8|0,0:0|0:0,0:0:0:0:
214,327,236556,2,0,P|245:328|278:334,1,60.0000022888184
260,233,236728,5,0,0:0:0:0:
230,229,236814,1,0,0:0:0:0:
200,225,236900,1,0,3:2:0:0:
170,223,236986,1,0,0:0:0:0:
140,220,237073,2,0,P|111:234|94:264,1,60.0000022888184,8|0,0:0|0:0,0:0:0:0:
12,291,237245,2,0,P|9:323|26:352,1,60.0000022888184,0|0,3:2|0:0,0:0:0:0:
230,384,237418,5,0,3:2:0:0:
183,348,237504,1,0,0:0:0:0:
169,291,237590,1,0,0:0:0:0:
195,238,237676,1,0,0:0:0:0:
249,215,237763,2,0,P|285:225|326:230,1,60.0000022888184,8|0,0:0|0:0,0:0:0:0:
261,45,237935,2,0,P|224:34|184:30,1,60.0000022888184
128,160,238108,5,0,0:0:0:0:
185,141,238194,1,0,0:0:0:0:
243,128,238280,1,0,3:2:0:0:
303,121,238366,1,0,0:0:0:0:
363,120,238452,2,0,P|394:125|425:137,1,60.0000022888184,8|0,0:0|0:0,0:0:0:0:
484,245,238625,2,0,P|453:240|422:228,1,60.0000022888184
215,118,238797,5,0,3:2:0:0:
215,118,238883,1,0,0:0:0:0:
215,118,238970,2,0,P|191:138|185:174,1,60.0000022888184
62,245,239142,5,8,0:0:0:0:
62,245,239228,1,0,0:0:0:0:
62,245,239315,2,0,P|86:225|92:189,1,60.0000022888184
10,31,239487,6,0,P|44:22|78:20,1,60.0000022888184
263,178,239659,5,0,3:2:0:0:
263,178,239745,1,0,0:0:0:0:
263,178,239832,2,0,P|226:172|207:147,1,60.0000022888184,8|0,0:0|0:0,0:0:0:0:
266,28,240004,2,0,P|303:34|322:59,1,60.0000022888184,0|0,3:2|3:2,0:0:0:0:
496,204,240177,5,6,3:2:0:0:
496,204,240263,1,0,0:0:0:0:
496,204,240349,2,0,P|467:205|431:213,1,60.0000022888184
345,356,240521,6,0,P|349:323|357:288,1,60.0000022888184,10|0,0:0|0:0,0:0:0:0:
285,178,240694,2,0,P|280:210|273:246,1,60.0000022888184,2|0,0:0|0:0,0:0:0:0:
155,328,240866,5,2,0:0:0:0:
132,335,240952,1,0,0:0:0:0:
108,342,241039,2,0,P|75:344|45:335,1,60.0000022888184,0|2,3:2|0:0,0:0:0:0:
77,102,241211,6,0,P|83:132|88:171,1,60.0000022888184,8|0,0:0|0:0,0:0:0:0:
185,217,241383,2,0,P|188:187|195:157,1,60.0000022888184,2|0,0:0|0:0,0:0:0:0:
346,36,241556,5,0,3:2:0:0:
375,37,241642,1,0,0:0:0:0:
398,55,241728,1,0,0:0:0:0:
405,84,241814,1,0,0:0:0:0:
395,110,241901,2,0,P|366:111|325:119,1,60.0000022888184,8|0,0:0|0:0,0:0:0:0:
295,318,242073,5,0,0:0:0:0:
285,259,242159,1,0,0:0:0:0:
242,219,242245,1,0,0:0:0:0:
184,212,242331,1,0,0:0:0:0:
133,242,242418,2,0,P|125:277|124:304,1,60.0000022888184,0|0,3:2|0:0,0:0:0:0:
73,34,242590,6,0,P|103:31|139:52,1,60.0000022888184,8|0,0:0|0:0,0:0:0:0:
178,131,242763,2,0,P|208:134|244:113,1,60.0000022888184,0|0,3:2|0:0,0:0:0:0:
461,17,242935,5,0,3:2:0:0:
461,17,243021,1,0,0:0:0:0:
461,17,243108,2,0,P|434:12|394:10,1,60.0000022888184
331,262,243280,5,8,0:0:0:0:
387,277,243366,1,0,0:0:0:0:
441,252,243452,1,0,0:0:0:0:
467,199,243538,1,0,0:0:0:0:
453,142,243624,1,0,0:0:0:0:
406,107,243711,1,0,0:0:0:0:
347,109,243797,2,0,P|317:117|289:120,1,60.0000022888184,0|0,3:2|0:0,0:0:0:0:
195,9,243970,2,0,P|202:39|205:67,1,60.0000022888184,8|0,0:0|0:0,0:0:0:0:
94,161,244142,2,0,P|124:153|152:150,1,60.0000022888184
387,341,244314,6,0,P|358:335|327:334,1,60.0000022888184,2|0,3:2|0:0,0:0:0:0:
348,99,244487,2,0,P|376:104|408:106,1,60.0000022888184,0|0,3:2|0:0,0:0:0:0:
256,278,244659,6,0,P|223:277|191:309,1,60.0000022888184,10|0,0:0|0:0,0:0:0:0:
6,347,244832,2,0,P|31:362|60:360,1,60.0000022888184,2|0,3:2|0:0,0:0:0:0:
246,130,245004,5,2,3:2:0:0:
229,113,245090,1,8,0:0:0:0:
181,94,245177,1,0,3:2:0:0:
110,132,245263,1,2,3:2:0:0:
180,184,245349,5,8,0:0:0:0:
258,170,245435,1,8,0:0:0:0:
337,156,245521,1,10,3:2:0:0:
416,142,245607,1,10,3:2:0:0:
495,356,247418,5,8,0:0:0:0:
495,356,247935,6,0,L|485:386,1,30.0000011444092,8|0,0:0|0:0,0:0:0:0:
423,307,248108,2,0,L|428:275,2,30.0000011444092,8|0|0,0:0|0:0|0:0,0:0:0:0:
346,345,248280,2,0,L|351:377,2,30.0000011444092,8|0|0,0:0|0:0|0:0,0:0:0:0:
256,299,248452,6,0,B|186:280|194:190|157:177,1,160,6|0,3:2|0:0,0:0:0:0:
127,184,248711,1,0,0:0:0:0:
32,128,248797,5,10,0:0:0:0:
60,55,248883,1,0,0:0:0:0:
133,32,248969,1,0,0:0:0:0:
198,75,249055,1,0,0:0:0:0:
270,34,249142,6,0,P|315:29|352:20,1,80,2|0,0:0|0:0,0:0:0:0:
457,240,249314,5,0,3:2:0:0:
512,184,249401,2,0,P|485:159|434:166,1,80,2|8,0:0|0:0,0:0:0:0:
270,230,249573,5,0,0:0:0:0:
325,286,249660,2,0,P|298:310|247:304,1,80,2|0,0:0|0:0,0:0:0:0:
70,112,249832,5,2,3:2:0:0:
146,123,249918,1,0,0:0:0:0:
165,175,250004,1,0,0:0:0:0:
157,203,250090,1,0,0:0:0:0:
85,255,250177,5,10,0:0:0:0:
11,281,250263,1,0,0:0:0:0:
68,336,250349,2,0,P|109:340|151:350,1,80
417,173,250521,6,0,P|407:215|400:264,1,80,2|0,0:0|0:0,0:0:0:0:
269,228,250694,2,0,P|278:185|286:137,1,80,0|2,3:2|3:2,0:0:0:0:
341,14,250866,5,8,0:0:0:0:
347,90,250952,1,0,0:0:0:0:
264,104,251039,5,2,3:2:0:0:
257,75,251125,1,0,0:0:0:0:
196,19,251211,6,0,P|96:42|36:50,1,160,2|0,3:2|0:0,0:0:0:0:
18,31,251470,1,0,0:0:0:0:
126,122,251556,5,10,0:0:0:0:
133,201,251642,1,0,0:0:0:0:
54,208,251728,1,0,0:0:0:0:
47,129,251814,1,0,0:0:0:0:
151,213,251901,6,0,P|194:218|232:226,1,80,2|0,0:0|0:0,0:0:0:0:
267,50,252073,5,0,3:2:0:0:
285,128,252159,2,0,P|323:132|368:146,1,80,2|8,0:0|0:0,0:0:0:0:
512,276,252332,5,0,0:0:0:0:
494,354,252418,2,0,P|455:358|411:372,1,80,2|0,0:0|0:0,0:0:0:0:
125,357,252590,5,2,3:2:0:0:
131,279,252676,1,0,0:0:0:0:
193,232,252762,1,0,0:0:0:0:
269,247,252848,1,0,0:0:0:0:
386,275,252935,5,10,0:0:0:0:
412,256,253021,1,0,0:0:0:0:
419,224,253108,2,0,P|413:184|406:140,1,80
328,17,253280,5,2,0:0:0:0:
296,21,253366,1,0,0:0:0:0:
241,82,253452,5,0,3:2:0:0:
168,61,253539,1,2,3:2:0:0:
70,17,253625,5,8,0:0:0:0:
6,64,253711,1,8,0:0:0:0:
0,118,253797,1,2,3:2:0:0:
25,147,253883,1,0,3:2:0:0:
100,171,253970,6,0,B|68:176|68:176|57:304,1,160,6|0,3:2|0:0,0:0:0:0:
34,317,254228,1,0,0:0:0:0:
138,358,254314,5,10,0:0:0:0:
216,345,254400,1,0,0:0:0:0:
295,332,254487,2,0,P|341:340|386:353,1,80
436,161,254659,5,2,0:0:0:0:
478,228,254745,1,0,0:0:0:0:
444,295,254832,1,0,3:2:0:0:
395,233,254918,5,2,0:0:0:0:
384,203,255005,1,8,0:0:0:0:
358,184,255091,1,0,0:0:0:0:
266,206,255177,5,2,0:0:0:0:
247,227,255263,1,0,0:0:0:0:
147,238,255349,5,2,3:2:0:0:
106,172,255435,1,0,0:0:0:0:
131,99,255521,1,0,0:0:0:0:
204,73,255607,1,0,0:0:0:0:
265,20,255694,6,0,P|306:23|350:32,1,80,10|0,0:0|0:0,0:0:0:0:
512,147,255866,2,0,P|472:154|432:157,1,80
207,168,256039,6,0,P|186:201|192:240,1,80,2|0,0:0|0:0,0:0:0:0:
339,266,256211,2,0,P|359:232|353:193,1,80,0|2,3:2|3:2,0:0:0:0:
73,30,256383,6,0,P|85:68|94:112,1,80,8|0,0:0|0:0,0:0:0:0:
0,264,256556,2,0,P|8:224|20:186,1,80,2|0,3:2|0:0,0:0:0:0:
214,78,256728,6,0,B|297:83|297:163|332:174,1,160,2|0,3:2|0:0,0:0:0:0:
367,170,256987,1,0,0:0:0:0:
475,249,257073,5,10,0:0:0:0:
443,242,257159,1,0,0:0:0:0:
398,275,257245,1,0,0:0:0:0:
413,354,257332,1,0,0:0:0:0:
493,296,257418,6,0,P|500:258|512:211,1,80,2|0,0:0|0:0,0:0:0:0:
184,126,257590,5,0,3:2:0:0:
219,198,257677,2,0,P|251:179|264:130,1,80,2|8,0:0|0:0,0:0:0:0:
79,269,257849,5,0,0:0:0:0:
0,255,257936,2,0,P|12:217|46:198,1,80,2|0,0:0|0:0,0:0:0:0:
212,266,258108,5,2,3:2:0:0:
288,287,258194,1,0,0:0:0:0:
318,360,258280,1,0,0:0:0:0:
395,378,258366,1,0,0:0:0:0:
464,251,258452,5,10,0:0:0:0:
436,231,258539,1,0,0:0:0:0:
366,270,258625,2,0,P|327:275|283:288,1,80
14,318,258797,6,0,P|52:328|92:334,1,80,2|0,0:0|0:0,0:0:0:0:
235,209,258969,5,0,3:2:0:0:
159,236,259056,1,2,3:2:0:0:
208,131,259142,5,8,0:0:0:0:
287,143,259228,1,8,0:0:0:0:
366,154,259314,1,2,3:2:0:0:
445,166,259400,1,0,3:2:0:0:
503,105,259487,6,0,B|498:77|498:77|397:61|397:61|391:32,1,160,6|0,3:2|0:0,0:0:0:0:
362,19,259745,1,0,0:0:0:0:
283,115,259832,5,10,0:0:0:0:
224,60,259918,1,0,0:0:0:0:
166,72,260004,1,0,0:0:0:0:
149,96,260090,1,0,0:0:0:0:
166,181,260177,6,0,P|206:186|251:199,1,80,2|0,0:0|0:0,0:0:0:0:
403,316,260349,5,0,3:2:0:0:
458,260,260435,2,0,P|448:223|443:179,1,80,2|8,0:0|0:0,0:0:0:0:
302,10,260608,5,0,0:0:0:0:
357,66,260694,2,0,P|347:102|342:147,1,80,2|0,0:0|0:0,0:0:0:0:
291,354,260866,5,2,3:2:0:0:
266,280,260952,1,0,0:0:0:0:
194,251,261038,1,0,0:0:0:0:
125,288,261124,1,0,0:0:0:0:
27,236,261211,5,10,0:0:0:0:
17,156,261297,1,0,0:0:0:0:
88,119,261383,2,0,P|131:131|171:138,1,80
455,285,261556,5,2,0:0:0:0:
451,207,261642,1,0,0:0:0:0:
374,182,261728,1,0,3:2:0:0:
287,196,261814,5,2,3:2:0:0:
279,164,261901,1,8,0:0:0:0:
297,137,261987,1,0,0:0:0:0:
388,154,262073,5,2,3:2:0:0:
374,182,262159,1,0,0:0:0:0:
305,237,262245,6,0,P|197:250|133:263,1,160,2|0,3:2|0:0,0:0:0:0:
147,280,262504,1,0,0:0:0:0:
0,199,262590,5,10,0:0:0:0:
27,216,262677,1,0,0:0:0:0:
82,223,262763,1,0,0:0:0:0:
145,175,262849,1,0,0:0:0:0:
153,77,262935,6,0,P|144:37|132:-3,1,80,2|0,0:0|0:0,0:0:0:0:
433,136,263108,5,0,3:2:0:0:
354,119,263194,2,0,P|342:81|334:42,1,80,2|8,0:0|0:0,0:0:0:0:
182,274,263366,5,0,0:0:0:0:
261,258,263452,2,0,P|272:219|281:180,1,80,2|0,0:0|0:0,0:0:0:0:
495,383,263625,5,2,3:2:0:0:
453,317,263711,1,0,0:0:0:0:
376,306,263797,1,0,0:0:0:0:
317,356,263883,1,0,0:0:0:0:
231,345,263970,6,0,P|196:347|149:357,1,80,10|0,0:0|0:0,0:0:0:0:
0,287,264142,2,0,P|35:285|82:275,1,80
312,121,264314,6,0,P|313:164|290:198,1,80,2|0,0:0|0:0,0:0:0:0:
16,44,264487,5,0,3:2:0:0:
31,121,264573,1,2,3:2:0:0:
111,142,264659,5,8,0:0:0:0:
117,110,264745,1,8,0:0:0:0:
166,68,264832,1,2,3:2:0:0:
240,97,264918,1,0,3:2:0:0:
318,80,265004,6,0,P|371:161|451:148,1,160,6|0,3:2|0:0,0:0:0:0:
440,144,265263,1,0,0:0:0:0:
373,283,265349,5,10,0:0:0:0:
450,301,265435,1,0,0:0:0:0:
468,224,265521,1,0,0:0:0:0:
391,206,265608,1,0,0:0:0:0:
345,278,265694,6,0,P|326:316|283:329,1,80,2|0,0:0|0:0,0:0:0:0:
114,155,265866,5,0,3:2:0:0:
38,182,265952,2,0,P|56:220|100:233,1,80,2|8,0:0|0:0,0:0:0:0:
261,84,266125,5,0,0:0:0:0:
234,8,266211,2,0,P|195:26|183:70,1,80,2|0,0:0|0:0,0:0:0:0:
471,113,266383,5,2,3:2:0:0:
449,89,266470,1,0,0:0:0:0:
393,92,266556,1,0,0:0:0:0:
348,158,266642,1,0,0:0:0:0:
396,241,266728,6,0,P|442:245|481:253,1,80,10|0,0:0|0:0,0:0:0:0:
279,299,266901,2,0,P|232:294|194:287,1,80
27,103,267073,5,2,0:0:0:0:
58,107,267159,1,0,0:0:0:0:
96,186,267245,5,0,3:2:0:0:
65,190,267331,1,2,3:2:0:0:
14,260,267418,5,8,0:0:0:0:
36,334,267504,1,0,0:0:0:0:
107,363,267590,1,2,3:2:0:0:
176,327,267676,1,0,0:0:0:0:
237,253,267763,6,0,B|322:247|297:321|376:315,1,160,2|0,3:2|0:0,0:0:0:0:
394,336,268021,1,0,0:0:0:0:
494,198,268108,5,10,0:0:0:0:
464,209,268194,1,0,0:0:0:0:
410,193,268280,1,0,0:0:0:0:
373,121,268366,1,0,0:0:0:0:
417,54,268452,6,0,P|459:47|496:34,1,80,2|0,0:0|0:0,0:0:0:0:
297,146,268625,5,0,3:2:0:0:
241,91,268711,2,0,P|198:97|162:111,1,80,2|8,0:0|0:0,0:0:0:0:
0,268,268883,5,0,0:0:0:0:
56,213,268969,2,0,P|98:219|135:233,1,80,2|0,0:0|0:0,0:0:0:0:
347,351,269142,6,0,P|314:318|322:270,1,80,2|0,3:2|0:0,0:0:0:0:
462,214,269314,2,0,P|495:247|487:295,1,80,0|0,3:2|0:0,0:0:0:0:
333,179,269487,6,0,P|297:182|243:203,1,80,10|0,0:0|0:0,0:0:0:0:
110,47,269659,2,0,P|147:60|187:64,1,80,0|0,3:2|0:0,0:0:0:0:
495,12,269832,5,10,0:0:0:0:
415,22,269918,1,8,0:0:0:0:
347,102,270004,5,2,3:2:0:0:
384,108,270090,1,0,3:2:0:0:
292,28,270177,5,8,0:0:0:0:
212,39,270263,1,8,0:0:0:0:
133,51,270349,1,10,3:2:0:0:
54,62,270435,1,8,3:2:0:0:
8,158,270521,6,0,B|23:172|23:172|90:169|123:226|123:226|144:227,1,160,6|0,3:2|0:0,0:0:0:0:
167,226,270780,1,0,0:0:0:0:
278,139,270866,5,10,0:0:0:0:
247,130,270952,1,0,0:0:0:0:
238,161,271039,1,0,0:0:0:0:
269,169,271125,1,0,0:0:0:0:
366,101,271211,5,2,0:0:0:0:
383,178,271297,1,0,0:0:0:0:
459,200,271383,1,0,3:2:0:0:
512,266,271470,5,2,0:0:0:0:
501,297,271556,1,8,0:0:0:0:
489,329,271642,1,0,0:0:0:0:
391,347,271728,5,2,0:0:0:0:
385,319,271814,1,0,0:0:0:0:
286,283,271901,6,0,P|246:290|193:306,1,80,2|0,3:2|0:0,0:0:0:0:
1,329,272073,2,0,P|39:339|78:346,1,80
244,175,272245,5,10,0:0:0:0:
172,142,272332,1,0,0:0:0:0:
106,187,272418,2,0,P|97:233|128:268,1,80
472,227,272590,6,0,P|481:181|450:146,1,80,2|0,0:0|0:0,0:0:0:0:
273,13,272763,5,0,3:2:0:0:
324,73,272849,2,0,P|362:62|410:60,1,80,2|8,3:2|0:0,0:0:0:0:
172,142,273021,5,0,0:0:0:0:
121,202,273107,2,0,P|82:191|35:189,1,80,2|0,3:2|0:0,0:0:0:0:
2,7,273280,6,0,P|91:14|108:96,1,160,2|0,3:2|0:0,0:0:0:0:
98,91,273539,1,0,0:0:0:0:
172,142,273625,5,10,0:0:0:0:
250,126,273711,1,0,0:0:0:0:
314,173,273797,1,0,0:0:0:0:
314,252,273883,1,0,0:0:0:0:
219,291,273970,5,2,0:0:0:0:
190,277,274056,1,0,0:0:0:0:
181,246,274142,1,0,3:2:0:0:
121,176,274228,5,2,0:0:0:0:
63,231,274314,1,8,0:0:0:0:
104,299,274400,1,0,0:0:0:0:
190,225,274487,5,2,0:0:0:0:
203,200,274573,1,0,0:0:0:0:
285,192,274659,5,2,3:2:0:0:
338,247,274745,1,0,0:0:0:0:
415,245,274831,1,0,0:0:0:0:
467,186,274917,1,0,0:0:0:0:
444,95,275004,6,0,P|407:97|363:105,1,80,10|0,0:0|0:0,0:0:0:0:
177,87,275177,2,0,P|213:89|258:97,1,80
451,303,275349,5,2,0:0:0:0:
464,225,275435,1,0,0:0:0:0:
350,188,275521,5,0,3:2:0:0:
352,220,275608,1,2,3:2:0:0:
424,157,275694,5,8,0:0:0:0:
416,78,275780,1,8,0:0:0:0:
295,92,275866,5,2,3:2:0:0:
305,123,275953,1,0,3:2:0:0:
348,35,276039,6,0,B|217:25|217:25|204:62,1,160,6|0,3:2|0:0,0:0:0:0:
178,70,276297,1,0,0:0:0:0:
46,125,276383,5,10,0:0:0:0:
77,120,276470,1,0,0:0:0:0:
125,147,276556,1,0,0:0:0:0:
132,226,276642,1,0,0:0:0:0:
66,289,276728,6,0,P|56:248|41:210,1,80,2|0,0:0|0:0,0:0:0:0:
262,188,276901,5,0,3:2:0:0:
204,260,276987,2,0,P|246:265|291:276,1,80,2|8,0:0|0:0,0:0:0:0:
439,278,277159,5,0,0:0:0:0:
497,350,277245,2,0,P|455:355|410:366,1,80,2|0,0:0|0:0,0:0:0:0:
361,164,277418,5,2,3:2:0:0:
382,121,277504,1,0,0:0:0:0:
445,113,277590,1,0,0:0:0:0:
467,39,277677,1,0,0:0:0:0:
356,22,277763,5,10,0:0:0:0:
303,82,277849,1,0,0:0:0:0:
228,54,277935,2,0,P|191:46|149:40,1,80
38,240,278108,5,2,0:0:0:0:
64,264,278194,1,0,0:0:0:0:
123,266,278280,1,0,3:2:0:0:
162,196,278366,1,2,0:0:0:0:
40,137,278452,5,8,0:0:0:0:
48,215,278539,1,0,0:0:0:0:
121,287,278625,5,2,3:2:0:0:
109,364,278711,1,0,0:0:0:0:
265,351,278797,6,0,B|272:278|192:263|206:206,1,160,2|0,3:2|0:0,0:0:0:0:
223,184,279056,1,0,0:0:0:0:
354,238,279142,5,10,0:0:0:0:
345,269,279228,1,0,0:0:0:0:
377,277,279314,1,0,0:0:0:0:
384,246,279401,1,0,0:0:0:0:
306,174,279487,5,2,0:0:0:0:
227,159,279573,1,0,0:0:0:0:
218,79,279659,1,0,3:2:0:0:
323,47,279745,5,2,0:0:0:0:
346,71,279831,1,8,0:0:0:0:
348,99,279917,1,0,0:0:0:0:
423,133,280004,5,2,0:0:0:0:
429,101,280090,1,0,0:0:0:0:
401,17,280177,5,2,3:2:0:0:
321,28,280263,1,0,0:0:0:0:
242,40,280349,1,0,0:0:0:0:
163,51,280435,1,0,0:0:0:0:
110,111,280521,6,0,P|71:108|29:97,1,80,10|0,0:0|0:0,0:0:0:0:
3,260,280694,2,0,P|42:263|84:274,1,80
353,205,280866,5,2,0:0:0:0:
321,207,280952,1,0,0:0:0:0:
267,269,281039,5,0,3:2:0:0:
269,301,281125,1,2,3:2:0:0:
373,368,281211,5,8,0:0:0:0:
361,289,281297,1,8,0:0:0:0:
439,252,281383,5,2,3:2:0:0:
451,173,281469,1,0,3:2:0:0:
397,112,281556,5,6,3:2:0:0:
338,162,281642,1,0,0:0:0:0:
261,153,281728,1,0,0:0:0:0:
216,90,281814,1,0,0:0:0:0:
237,12,281901,6,0,P|279:3|321:-1,1,80,10|0,0:0|0:0,0:0:0:0:
181,165,282073,2,0,P|141:160|102:152,1,80
18,371,282245,5,2,0:0:0:0:
38,295,282331,1,0,0:0:0:0:
103,252,282417,1,0,3:2:0:0:
180,266,282503,1,2,0:0:0:0:
258,305,282590,6,0,P|256:344|248:394,1,80,8|0,0:0|0:0,0:0:0:0:
420,242,282763,2,0,P|422:281|430:331,1,80,2|0,0:0|0:0,0:0:0:0:
500,147,282935,5,2,3:2:0:0:
420,138,283021,1,0,0:0:0:0:
340,130,283107,1,0,0:0:0:0:
261,122,283193,1,0,0:0:0:0:
216,50,283280,6,0,P|247:13|290:11,1,80,10|0,0:0|0:0,0:0:0:0:
356,113,283452,2,0,P|325:150|282:152,1,80
107,30,283625,5,2,0:0:0:0:
32,52,283711,1,0,0:0:0:0:
0,122,283797,1,0,3:2:0:0:
29,193,283883,1,2,3:2:0:0:
112,225,283970,6,0,P|155:215|192:215,1,80,8|0,0:0|0:0,0:0:0:0:
364,93,284142,2,0,P|324:84|285:82,1,80,2|0,3:2|0:0,0:0:0:0:
171,309,284314,5,2,3:2:0:0:
226,362,284400,1,0,0:0:0:0:
304,355,284486,1,0,0:0:0:0:
349,292,284572,1,0,0:0:0:0:
342,212,284659,5,10,0:0:0:0:
295,176,284745,1,0,0:0:0:0:
236,177,284831,1,0,0:0:0:0:
190,214,284917,1,0,0:0:0:0:
112,253,285004,6,0,P|107:215|97:170,1,80,2|0,0:0|0:0,0:0:0:0:
229,18,285177,5,0,3:2:0:0:
278,80,285263,2,0,P|243:101|196:88,1,80,2|8,0:0|0:0,0:0:0:0:
33,103,285435,5,0,0:0:0:0:
9,26,285521,2,0,P|48:20|82:41,1,80,2|0,0:0|0:0,0:0:0:0:
203,222,285694,5,2,3:2:0:0:
167,294,285780,1,0,0:0:0:0:
112,308,285866,1,0,0:0:0:0:
75,292,285952,1,0,0:0:0:0:
29,199,286039,6,0,P|71:200|108:206,1,80,10|0,0:0|0:0,0:0:0:0:
281,357,286211,2,0,P|241:363|201:364,1,80
168,138,286383,2,0,P|207:131|247:130,1,80,2|0,0:0|0:0,0:0:0:0:
431,368,286556,5,0,3:2:0:0:
447,289,286642,1,2,3:2:0:0:
350,290,286728,5,8,0:0:0:0:
353,320,286814,1,8,0:0:0:0:
452,272,286901,5,2,3:2:0:0:
466,193,286987,1,0,3:2:0:0:
395,85,287073,5,6,3:2:0:0:
383,161,287159,1,0,0:0:0:0:
319,205,287245,1,0,0:0:0:0:
243,187,287331,1,0,0:0:0:0:
185,118,287418,6,0,P|144:108|105:105,1,80,10|0,0:0|0:0,0:0:0:0:
0,228,287590,2,0,P|40:237|80:241,1,80
279,315,287763,5,2,0:0:0:0:
269,237,287849,1,0,0:0:0:0:
317,176,287935,1,0,3:2:0:0:
394,166,288021,1,2,0:0:0:0:
461,222,288108,6,0,P|471:266|474:305,1,80,8|0,0:0|0:0,0:0:0:0:
305,159,288280,2,0,P|308:119|317:80,1,80,2|0,0:0|0:0,0:0:0:0:
113,33,288452,5,2,3:2:0:0:
125,112,288538,1,0,0:0:0:0:
137,191,288624,1,0,0:0:0:0:
149,270,288710,1,0,0:0:0:0:
213,322,288797,6,0,P|248:346|290:341,1,80,10|0,0:0|0:0,0:0:0:0:
447,210,288970,2,0,P|407:208|375:231,1,80
223,153,289142,5,2,0:0:0:0:
214,229,289228,1,0,0:0:0:0:
149,270,289314,1,0,3:2:0:0:
76,244,289400,1,2,3:2:0:0:
50,158,289487,6,0,P|90:142|130:138,1,80,8|0,0:0|0:0,0:0:0:0:
267,56,289659,2,0,P|307:72|347:76,1,80,2|0,3:2|0:0,0:0:0:0:
474,291,289832,5,2,3:2:0:0:
465,260,289918,1,0,0:0:0:0:
427,230,290004,1,0,0:0:0:0:
365,246,290090,1,0,0:0:0:0:
322,305,290177,1,10,0:0:0:0:
243,317,290263,1,0,0:0:0:0:
172,278,290349,1,0,0:0:0:0:
154,200,290435,1,0,0:0:0:0:
234,142,290521,5,2,0:0:0:0:
240,173,290608,1,0,0:0:0:0:
245,204,290694,1,0,3:2:0:0:
323,161,290780,5,2,0:0:0:0:
329,129,290867,1,8,0:0:0:0:
334,97,290953,1,0,0:0:0:0:
228,29,291039,5,2,0:0:0:0:
149,42,291125,1,0,0:0:0:0:
126,121,291211,6,0,P|117:167|116:205,1,80,2|0,3:2|0:0,0:0:0:0:
84,351,291383,2,0,P|43:352|8:314,1,80,0|0,3:2|0:0,0:0:0:0:
13,80,291556,6,0,P|21:126|23:164,1,80,10|0,0:0|0:0,0:0:0:0:
155,285,291728,2,0,P|196:286|231:248,1,80,0|0,3:2|0:0,0:0:0:0:
328,24,291901,5,10,0:0:0:0:
406,40,291987,1,8,0:0:0:0:
444,139,292073,5,0,3:2:0:0:
475,132,292159,1,2,3:2:0:0:
491,43,292245,5,8,0:0:0:0:
413,59,292331,1,8,0:0:0:0:
330,136,292418,5,10,3:2:0:0:
252,120,292504,1,8,3:2:0:0:
176,48,292590,6,0,P|150:41|109:37,3,60.0000022888184,6|0|0|0,3:2|0:0|0:0|0:0,0:0:0:0:
42,87,292935,6,0,P|35:112|31:154,1,60.0000022888184,10|0,0:0|0:0,0:0:0:0:
106,197,293108,2,0,P|112:222|117:264,1,60.0000022888184,2|0,0:0|0:0,0:0:0:0:
78,363,293280,6,0,P|113:362|143:389,2,60.0000022888184,2|0|0,0:0|0:0|3:2,0:0:0:0:
191,301,293539,2,0,P|226:302|256:275,2,60.0000022888184,2|8|0,0:0|0:0|0:0,0:0:0:0:
313,352,293797,2,0,P|346:357|378:365,1,60.0000022888184,2|0,0:0|0:0,0:0:0:0:
460,293,293970,6,0,P|443:216|428:165,1,120.000004577637,0|0,3:2|0:0,0:0:0:0:
461,27,294314,2,0,P|388:39|369:84,1,120.000004577637,8|0,0:0|0:0,0:0:0:0:
346,94,294573,1,0,0:0:0:0:
346,94,294659,1,0,0:0:0:0:
171,30,294832,1,0,3:2:0:0:
287,219,295004,1,8,0:0:0:0:
254,76,295177,1,0,3:2:0:0:
77,138,295349,6,0,P|156:152|197:165,1,120.000004577637,0|0,3:2|0:0,0:0:0:0:
348,154,295694,1,8,0:0:0:0:
211,259,295866,1,0,0:0:0:0:
211,259,295952,1,0,0:0:0:0:
211,259,296039,1,0,0:0:0:0:
382,244,296211,1,0,3:2:0:0:
256,384,296383,2,0,P|246:313|230:254,1,120.000004577637,8|0,0:0|0:0,0:0:0:0:
11,197,296728,5,0,3:2:0:0:
1,360,296901,1,0,0:0:0:0:
1,360,296987,1,0,0:0:0:0:
1,360,297073,2,0,P|71:327|117:318,1,120.000004577637,8|0,0:0|0:0,0:0:0:0:
125,291,297332,1,0,0:0:0:0:
125,291,297418,1,0,0:0:0:0:
290,338,297590,1,0,3:2:0:0:
194,188,297763,1,8,0:0:0:0:
366,234,297935,1,0,3:2:0:0:
366,234,298021,1,0,3:2:0:0:
366,234,298108,6,0,P|397:226|431:222,3,60.0000022888184,2|0|0|0,3:2|0:0|0:0|0:0,0:0:0:0:
477,146,298452,2,0,P|445:138|412:134,1,60.0000022888184,10|0,0:0|0:0,0:0:0:0:
366,71,298625,2,0,P|334:80|303:93,1,60.0000022888184,2|0,0:0|0:0,0:0:0:0:
177,155,298797,6,0,P|146:149|123:129,2,60.0000022888184,2|0|0,0:0|0:0|3:2,0:0:0:0:
240,214,299056,2,0,P|262:195|292:190,2,60.0000022888184,2|8|0,0:0|0:0|0:0,0:0:0:0:
173,274,299314,2,0,P|175:307|181:337,1,60.0000022888184,2|0,0:0|0:0,0:0:0:0:
78,275,299487,6,0,P|60:191|42:147,1,120.000004577637,0|0,3:2|0:0,0:0:0:0:
16,146,299745,1,0,0:0:0:0:
16,146,299832,1,8,0:0:0:0:
144,107,300004,1,0,0:0:0:0:
144,107,300090,1,0,0:0:0:0:
144,107,300177,1,0,0:0:0:0:
304,209,300349,1,0,3:2:0:0:
359,72,300521,1,8,0:0:0:0:
214,222,300694,1,0,3:2:0:0:
399,143,300866,6,0,P|467:168|477:214,1,120.000004577637,0|0,3:2|0:0,0:0:0:0:
360,332,301211,2,0,P|295:340|236:353,1,120.000004577637,8|0,0:0|0:0,0:0:0:0:
213,336,301470,1,0,0:0:0:0:
213,336,301556,1,0,0:0:0:0:
298,177,301728,1,0,3:2:0:0:
120,221,301901,2,0,P|185:229|244:242,1,120.000004577637,8|0,0:0|0:0,0:0:0:0:
44,96,302245,6,0,P|51:123|59:157,3,60.0000022888184,2|0|0|0,3:2|0:0|0:0|0:0,0:0:0:0:
132,79,302590,6,0,P|155:53|188:49,1,60.0000022888184,10|0,0:0|0:0,0:0:0:0:
255,90,302763,2,0,P|289:96|308:123,1,60.0000022888184,2|0,0:0|0:0,0:0:0:0:
388,141,302935,6,0,P|381:176|379:203,1,60.0000022888184,2|0,0:0|0:0,0:0:0:0:
435,268,303108,5,0,3:2:0:0:
441,291,303194,1,2,3:2:0:0:
384,343,303280,5,8,0:0:0:0:
324,348,303366,1,8,0:0:0:0:
264,353,303452,1,2,3:2:0:0:
204,358,303538,1,0,3:2:0:0:
182,342,303625,6,0,P|154:343|112:354,3,60.0000022888184,6|0|0|0,3:2|0:0|0:0|0:0,0:0:0:0:
45,299,303970,6,0,P|38:269|37:239,1,60.0000022888184,10|0,0:0|0:0,0:0:0:0:
115,207,304142,2,0,P|123:178|137:151,1,60.0000022888184,2|0,0:0|0:0,0:0:0:0:
273,120,304314,6,0,P|246:142|215:140,2,60.0000022888184,2|0|0,0:0|0:0|3:2,0:0:0:0:
342,69,304573,2,0,P|369:91|400:89,2,60.0000022888184,2|8|0,0:0|0:0|0:0,0:0:0:0:
262,38,304832,2,0,P|230:30|197:29,1,60.0000022888184,2|0,0:0|0:0,0:0:0:0:
139,88,305004,6,0,P|72:66|18:56,1,120.000004577637,0|0,3:2|0:0,0:0:0:0:
6,35,305263,1,0,0:0:0:0:
6,35,305349,1,8,0:0:0:0:
14,189,305521,1,0,0:0:0:0:
28,186,305607,1,0,0:0:0:0:
43,183,305693,1,0,0:0:0:0:
58,180,305779,1,0,0:0:0:0:
72,177,305865,1,0,3:2:0:0:
227,151,306039,1,8,0:0:0:0:
142,316,306211,1,0,3:2:0:0:
341,307,306383,6,0,P|302:245|252:240,1,120.000004577637,0|0,3:2|0:0,0:0:0:0:
233,257,306642,1,0,0:0:0:0:
233,257,306728,1,8,0:0:0:0:
410,229,306901,1,0,0:0:0:0:
410,229,306987,1,0,0:0:0:0:
410,229,307073,1,0,0:0:0:0:
246,343,307245,1,0,3:2:0:0:
468,383,307418,2,0,P|487:307|511:247,1,120.000004577637,8|0,0:0|0:0,0:0:0:0:
366,58,307763,6,0,P|440:73|457:121,1,120.000004577637,0|0,3:2|0:0,0:0:0:0:
251,209,308108,2,0,P|327:195|379:176,1,120.000004577637,8|0,0:0|0:0,0:0:0:0:
374,152,308366,1,0,0:0:0:0:
374,152,308452,1,0,0:0:0:0:
218,78,308625,1,0,3:2:0:0:
159,257,308797,1,8,0:0:0:0:
41,98,308970,1,0,3:2:0:0:
41,98,309056,1,0,3:2:0:0:
41,98,309142,6,0,P|75:101|105:108,3,60.0000022888184,2|0|0|0,3:2|0:0|0:0|0:0,0:0:0:0:
59,184,309487,6,0,P|27:194|10:221,1,60.0000022888184,10|0,0:0|0:0,0:0:0:0:
53,284,309659,2,0,P|45:316|60:344,1,60.0000022888184,2|0,0:0|0:0,0:0:0:0:
139,364,309832,6,0,P|172:355|201:353,2,60.0000022888184,2|0|0,0:0|0:0|3:2,0:0:0:0:
198,271,310090,2,0,P|164:262|136:260,2,60.0000022888184,2|8|0,0:0|0:0|0:0,0:0:0:0:
270,221,310349,2,0,P|289:190|318:182,1,60.0000022888184,2|0,0:0|0:0,0:0:0:0:
446,243,310521,6,0,P|424:319|417:377,1,120.000004577637,0|0,3:2|0:0,0:0:0:0:
391,376,310780,1,0,0:0:0:0:
391,376,310866,1,8,0:0:0:0:
220,313,311039,1,0,0:0:0:0:
234,310,311125,1,0,0:0:0:0:
249,307,311211,1,0,0:0:0:0:
264,305,311297,1,0,0:0:0:0:
279,302,311383,1,0,3:2:0:0:
365,145,311556,1,8,0:0:0:0:
477,310,311728,1,0,3:2:0:0:
497,143,311901,6,0,P|417:157|365:177,1,120.000004577637,0|0,3:2|0:0,0:0:0:0:
210,70,312245,2,0,P|245:14|308:16,1,120.000004577637,8|0,0:0|0:0,0:0:0:0:
318,28,312504,1,0,0:0:0:0:
318,28,312590,1,0,0:0:0:0:
261,157,312763,1,0,3:2:0:0:
116,103,312935,2,0,P|57:72|4:105,1,120.000004577637,8|0,0:0|0:0,0:0:0:0:
51,237,313280,6,0,P|57:208|59:176,1,60.0000022888184,2|0,3:2|0:0,0:0:0:0:
152,188,313452,2,0,P|145:216|144:249,1,60.0000022888184,0|0,3:2|0:0,0:0:0:0:
288,338,313625,6,0,P|321:339|351:305,1,60.0000022888184,10|0,0:0|0:0,0:0:0:0:
317,224,313797,2,0,P|284:223|254:257,1,60.0000022888184,2|0,3:2|0:0,0:0:0:0:
185,359,313970,5,2,3:2:0:0:
178,336,314056,1,8,0:0:0:0:
105,306,314142,5,0,3:2:0:0:
98,329,314228,1,2,3:2:0:0:
24,368,314314,5,8,0:0:0:0:
19,308,314400,1,8,0:0:0:0:
14,248,314486,1,10,3:2:0:0:
10,188,314572,1,10,3:2:0:0:
76,133,314659,6,0,P|111:136|142:142,3,60.0000022888184,6|0|0|0,3:2|0:0|0:0|0:0,0:0:0:0:
215,94,315004,6,0,P|221:130|246:152,1,60.0000022888184,10|0,0:0|0:0,0:0:0:0:
248,226,315177,2,0,P|282:238|313:228,1,60.0000022888184,2|0,0:0|0:0,0:0:0:0:
429,302,315349,6,0,P|399:293|366:288,2,60.0000022888184,2|0|0,0:0|0:0|3:2,0:0:0:0:
448,222,315608,2,0,P|418:213|385:208,2,60.0000022888184,2|8|0,0:0|0:0|0:0,0:0:0:0:
436,136,315866,2,0,P|459:113|489:109,1,60.0000022888184,2|0,0:0|0:0,0:0:0:0:
378,50,316039,6,0,P|347:101|282:102,1,120.000004577637,0|0,3:2|0:0,0:0:0:0:
265,122,316297,1,0,0:0:0:0:
265,122,316383,1,8,0:0:0:0:
198,226,316556,1,0,0:0:0:0:
187,226,316642,1,0,0:0:0:0:
176,227,316728,1,0,0:2:0:0:
165,227,316814,1,0,0:0:0:0:
153,229,316901,1,0,3:2:0:0:
52,137,317073,1,8,0:0:0:0:
42,334,317245,1,0,3:2:0:0:
141,178,317418,6,0,P|128:258|125:309,1,120.000004577637,0|0,3:2|0:0,0:0:0:0:
366,355,317763,2,0,P|334:299|276:306,1,120.000004577637,8|0,0:0|0:0,0:0:0:0:
268,321,318021,1,0,0:0:0:0:
268,321,318108,1,0,0:0:0:0:
110,316,318280,1,0,3:2:0:0:
229,146,318452,2,0,P|261:202|319:195,1,120.000004577637,8|0,0:0|0:0,0:0:0:0:
455,289,318797,6,0,P|470:219|494:163,1,120.000004577637,0|0,3:2|0:0,0:0:0:0:
473,147,319056,1,0,0:0:0:0:
473,147,319142,1,8,0:0:0:0:
333,108,319314,1,0,0:0:0:0:
332,120,319401,1,0,0:0:0:0:
331,131,319487,1,0,0:0:0:0:
330,142,319573,1,0,0:0:0:0:
329,153,319659,1,0,3:2:0:0:
214,84,319832,1,8,0:0:0:0:
66,198,320004,1,0,3:2:0:0:
66,198,320090,1,0,3:2:0:0:
66,198,320177,6,0,P|62:167|53:134,3,60.0000022888184,2|0|0|0,3:2|0:0|0:0|0:0,0:0:0:0:
147,50,320521,6,0,P|139:79|135:108,1,60.0000022888184,10|0,0:0|0:0,0:0:0:0:
202,175,320694,2,0,P|231:182|260:186,1,60.0000022888184,2|0,0:0|0:0,0:0:0:0:
346,228,320866,6,0,P|353:198|357:169,2,60.0000022888184,2|0|0,0:0|0:0|3:2,0:0:0:0:
429,261,321125,2,0,P|432:290|440:319,2,60.0000022888184,2|8|0,0:0|0:0|0:0,0:0:0:0:
494,200,321383,2,0,P|501:170|505:141,1,60.0000022888184,2|0,0:0|0:0,0:0:0:0:
462,61,321556,6,0,P|406:22|346:56,1,120.000004577637,0|0,3:2|0:0,0:0:0:0:
339,189,321901,1,8,0:0:0:0:
208,49,322073,1,0,0:0:0:0:
222,47,322159,1,0,0:0:0:0:
237,46,322245,1,0,0:0:0:0:
252,45,322331,1,0,0:0:0:0:
267,44,322417,1,0,3:2:0:0:
236,195,322590,1,8,0:0:0:0:
93,67,322763,1,0,3:2:0:0:
23,233,322935,6,0,P|103:253|145:276,1,120.000004577637,0|0,3:2|0:0,0:0:0:0:
144,292,323194,1,0,0:0:0:0:
144,292,323280,1,8,0:0:0:0:
277,176,323452,1,0,0:0:0:0:
276,188,323539,1,0,0:0:0:0:
275,199,323625,1,0,0:0:0:0:
274,210,323711,1,0,0:0:0:0:
272,221,323797,1,0,3:2:0:0:
480,313,323970,2,0,P|402:290|357:282,1,120.000004577637,8|0,0:0|0:0,0:0:0:0:
264,124,324314,6,0,P|298:120|326:111,3,60.0000022888184,2|0|0|0,3:2|0:0|0:0|0:0,0:0:0:0:
449,120,324659,6,0,P|417:133|403:164,1,60.0000022888184,10|0,0:0|0:0,0:0:0:0:
331,197,324832,2,0,P|326:231|346:258,1,60.0000022888184,2|0,0:0|0:0,0:0:0:0:
386,355,325004,6,0,P|356:347|321:343,1,60.0000022888184,2|0,0:0|0:0,0:0:0:0:
231,260,325177,5,0,3:2:0:0:
225,236,325263,1,2,3:2:0:0:
264,167,325349,5,8,0:0:0:0:
204,160,325435,1,8,0:0:0:0:
144,153,325521,1,2,3:2:0:0:
85,147,325607,1,0,3:2:0:0:
39,78,325694,6,0,P|35:49|27:20,3,60.0000022888184,6|0|0|0,3:2|0:0|0:0|0:0,0:0:0:0:
121,34,326039,6,0,P|155:26|189:22,1,60.0000022888184,10|0,0:0|0:0,0:0:0:0:
252,64,326211,2,0,P|281:68|310:75,1,60.0000022888184,2|0,0:0|0:0,0:0:0:0:
371,146,326383,6,0,P|330:156|313:188,2,60.0000022888184,2|0|0,0:0|0:0|3:2,0:0:0:0:
383,228,326642,2,0,P|371:268|390:299,2,60.0000022888184,2|8|0,0:0|0:0|0:0,0:0:0:0:
454,263,326901,2,0,P|486:266|519:279,1,60.0000022888184,2|0,0:0|0:0,0:0:0:0:
313,343,327073,6,0,P|232:330|179:328,1,120.000004577637,0|0,3:2|0:0,0:0:0:0:
27,353,327418,2,0,P|43:273|82:264,1,120.000004577637,8|0,0:0|0:0,0:0:0:0:
91,238,327677,1,0,0:0:0:0:
91,238,327763,1,0,0:0:0:0:
188,358,327935,1,0,3:2:0:0:
323,225,328108,1,8,0:0:0:0:
177,276,328280,1,0,3:2:0:0:
112,122,328452,6,0,P|162:90|218:114,1,120.000004577637,0|0,3:2|0:0,0:0:0:0:
361,20,328797,2,0,P|337:90|330:139,1,120.000004577637,8|0,0:0|0:0,0:0:0:0:
348,158,329056,1,0,0:0:0:0:
348,158,329142,1,0,0:0:0:0:
473,110,329314,1,0,3:2:0:0:
503,256,329487,2,0,P|453:295|400:279,1,120.000004577637,8|0,0:0|0:0,0:0:0:0:
251,171,329832,6,0,P|270:237|279:294,1,120.000004577637,0|0,3:2|0:0,0:0:0:0:
41,351,330177,1,8,0:0:0:0:
106,252,330349,1,0,0:0:0:0:
103,237,330435,1,0,0:0:0:0:
100,222,330521,1,0,0:0:0:0:
97,207,330607,1,0,0:0:0:0:
95,192,330693,1,0,0:0:0:0:
193,85,330866,1,8,0:0:0:0:
53,37,331039,1,0,3:2:0:0:
53,37,331125,1,0,3:2:0:0:
53,37,331211,6,0,P|47:70|46:102,3,60.0000022888184,2|0|0|0,3:2|0:0|0:0|0:0,0:0:0:0:
131,144,331556,6,0,P|154:121|191:121,1,60.0000022888184,10|0,0:0|0:0,0:0:0:0:
241,60,331728,2,0,P|272:68|290:100,1,60.0000022888184,2|0,0:0|0:0,0:0:0:0:
363,137,331901,6,0,P|356:171|355:201,2,60.0000022888184,2|0|0,0:0|0:0|3:2,0:0:0:0:
444,95,332159,2,0,P|437:60|436:31,2,60.0000022888184,2|8|0,0:0|0:0|0:0,0:0:0:0:
506,161,332418,2,0,P|499:195|498:225,1,60.0000022888184,2|0,0:0|0:0,0:0:0:0:
447,302,332590,6,0,P|377:314|324:333,1,120.000004577637,0|0,3:2|0:0,0:0:0:0:
203,224,332935,1,8,0:0:0:0:
132,354,333108,1,0,0:0:0:0:
146,350,333194,1,0,0:0:0:0:
161,347,333280,1,0,0:0:0:0:
176,344,333366,1,0,0:0:0:0:
190,341,333452,1,0,3:2:0:0:
299,206,333625,1,8,0:0:0:0:
129,158,333797,1,0,3:2:0:0:
317,336,333970,6,0,P|387:348|440:367,1,120.000004577637,0|0,3:2|0:0,0:0:0:0:
492,147,334314,2,0,P|426:167|413:223,1,120.000004577637,8|0,0:0|0:0,0:0:0:0:
429,238,334573,1,0,0:0:0:0:
429,238,334659,1,0,0:0:0:0:
341,103,334832,1,0,3:2:0:0:
200,234,335004,2,0,P|278:225|322:210,1,120.000004577637,8|0,0:0|0:0,0:0:0:0:
237,6,335349,6,0,P|228:41|225:75,1,60.0000022888184,2|0,3:2|0:0,0:0:0:0:
153,96,335521,2,0,P|156:125|164:154,1,60.0000022888184,0|0,3:2|0:0,0:0:0:0:
20,261,335694,6,0,P|33:229|60:214,1,60.0000022888184,10|0,0:0|0:0,0:0:0:0:
130,247,335866,2,0,P|164:242|190:258,1,60.0000022888184,2|0,3:2|0:0,0:0:0:0:
254,318,336039,5,2,3:2:0:0:
277,312,336125,1,8,0:0:0:0:
331,249,336211,5,0,3:2:0:0:
354,255,336297,1,2,3:2:0:0:
427,290,336383,5,8,0:0:0:0:
432,218,336469,1,8,0:0:0:0:
437,146,336555,1,10,3:2:0:0:
441,74,336641,1,10,3:2:0:0:
