osu file format v14

[General]
AudioFilename: audio.mp3
AudioLeadIn: 0
PreviewTime: -1
Countdown: 0
SampleSet: None
StackLeniency: 0.7
Mode: 0
LetterboxInBreaks: 0
WidescreenStoryboard: 1

[Editor]
DistanceSpacing: 0.5
BeatDivisor: 2
GridSize: 8
TimelineZoom: 2.2

[Metadata]
Title:loli fantasy
TitleUnicode:loli fantasy
Artist:goreshit
ArtistUnicode:goreshit
Creator:No0b
Version:O_O (CS 3)
Source:goreshit
Tags:goreshit loli fantasy
BeatmapID:3172945
BeatmapSetID:1496904

[Difficulty]
HPDrainRate:0
CircleSize:3
OverallDifficulty:8
ApproachRate:10
SliderMultiplier:1.4
SliderTickRate:1

[Events]
//Background and Video events
0,0,"EkMpyeDVgAA-dV1.png",0,0
//Break Periods
//Storyboard Layer 0 (Background)
//Storyboard Layer 1 (Fail)
//Storyboard Layer 2 (Pass)
//Storyboard Layer 3 (Foreground)
//Storyboard Layer 4 (Overlay)
//Storyboard Sound Samples

[TimingPoints]
0,259.74025974026,4,1,0,100,1,0
239,259.74025974026,4,1,0,100,1,0
8551,-66.6666666666667,4,1,0,100,0,0
16992,-50,4,1,0,100,0,0
80888,-100,4,1,0,100,0,0
82057,-50,4,1,0,100,0,0
82576,-100,4,1,0,100,0,0
83355,-50,4,1,0,100,0,0
167511,-50,4,1,0,5,0,0

[HitObjects]
131,167,0,5,0,0:0:0:0:
274,34,129,1,0,0:0:0:0:
378,187,239,2,0,P|363:245|338:270,1,70
136,283,499,5,0,0:0:0:0:
116,253,564,1,0,0:0:0:0:
112,218,629,1,0,0:0:0:0:
113,183,694,1,0,0:0:0:0:
130,152,759,2,0,P|200:138|223:142,1,70
404,320,1018,5,0,0:0:0:0:
144,241,1148,1,0,0:0:0:0:
161,206,1213,1,0,0:0:0:0:
185,176,1278,1,0,0:0:0:0:
216,153,1343,1,0,0:0:0:0:
250,136,1408,2,0,P|303:171|299:198,1,70
404,340,1668,5,0,0:0:0:0:
381,82,1798,1,0,0:0:0:0:
162,213,1928,1,0,0:0:0:0:
450,200,2057,1,0,0:0:0:0:
260,343,2187,1,0,0:0:0:0:
191,70,2317,6,0,P|249:48|267:54,1,70
92,275,2577,1,0,0:0:0:0:
127,302,2642,1,0,0:0:0:0:
170,316,2707,1,0,0:0:0:0:
214,327,2772,1,0,0:0:0:0:
259,325,2837,2,0,P|319:292|323:278,1,70
304,46,3096,5,0,0:0:0:0:
261,63,3161,1,0,0:0:0:0:
224,90,3226,1,0,0:0:0:0:
207,132,3291,1,0,0:0:0:0:
201,177,3356,2,0,P|233:239|259:250,1,70
461,236,3616,5,0,0:0:0:0:
182,331,3746,1,0,0:0:0:0:
90,67,3875,1,0,0:0:0:0:
90,67,4005,5,0,0:0:0:0:
350,69,4135,1,0,0:0:0:0:
153,212,4264,1,0,0:0:0:0:
426,167,4395,6,0,P|448:242|447:250,1,70
431,282,4590,1,0,0:0:0:0:
389,314,4655,1,0,0:0:0:0:
338,328,4720,1,0,0:0:0:0:
285,335,4785,1,0,0:0:0:0:
232,330,4850,1,0,0:0:0:0:
182,311,4915,2,0,P|154:249|162:234,1,70
452,186,5174,5,0,0:0:0:0:
423,142,5239,1,0,0:0:0:0:
382,108,5304,1,0,0:0:0:0:
334,85,5369,1,0,0:0:0:0:
284,68,5434,2,0,P|228:95|212:111,1,70
168,330,5694,5,0,0:0:0:0:
382,144,5824,1,0,0:0:0:0:
78,112,5953,1,0,0:0:0:0:
311,292,6083,1,0,0:0:0:0:
78,112,6213,5,0,0:0:0:0:
330,79,6343,1,0,0:0:0:0:
436,296,6473,6,0,P|367:348|358:349,1,70
122,284,6733,1,0,0:0:0:0:
104,230,6798,1,0,0:0:0:0:
110,174,6863,1,0,0:0:0:0:
143,128,6928,1,0,0:0:0:0:
182,88,6992,2,0,B|225:83|252:114|256:116,1,70
438,243,7252,5,0,0:0:0:0:
399,284,7317,1,0,0:0:0:0:
351,313,7382,1,0,0:0:0:0:
296,327,7447,1,0,0:0:0:0:
240,318,7512,2,0,P|211:257|211:233,1,70
467,312,7771,5,0,0:0:0:0:
282,70,7902,1,0,0:0:0:0:
342,327,8031,1,0,0:0:0:0:
380,76,8161,1,0,0:0:0:0:
385,70,8291,5,0,0:0:0:0:
158,296,8421,1,0,0:0:0:0:
127,86,8551,2,0,P|204:39|247:32,1,105.000004005432
265,34,8746,5,0,0:0:0:0:
315,62,8811,1,0,0:0:0:0:
354,103,8876,1,0,0:0:0:0:
372,157,8941,1,0,0:0:0:0:
358,212,9005,1,0,0:0:0:0:
318,254,9070,2,0,P|226:265|186:238,1,105.000004005432
164,89,9330,1,0,0:0:0:0:
252,332,9460,5,0,0:0:0:0:
304,333,9525,1,0,0:0:0:0:
352,312,9590,1,0,0:0:0:0:
387,273,9655,1,0,0:0:0:0:
413,227,9720,1,0,0:0:0:0:
406,174,9785,1,0,0:0:0:0:
386,128,9850,2,0,P|327:81|260:73,1,105.000004005432
242,341,10109,1,0,0:0:0:0:
71,138,10239,5,0,0:0:0:0:
240,341,10369,1,0,0:0:0:0:
413,194,10499,1,0,0:0:0:0:
262,39,10629,2,0,P|189:54|165:89,1,105.000004005432
148,128,10824,5,0,0:0:0:0:
152,185,10889,1,0,0:0:0:0:
173,238,10954,1,0,0:0:0:0:
211,279,11018,1,0,0:0:0:0:
266,296,11083,1,0,0:0:0:0:
323,287,11148,2,0,P|411:239|432:206,1,105.000004005432
456,83,11407,5,0,0:0:0:0:
290,41,11537,1,0,0:0:0:0:
242,42,11602,1,0,0:0:0:0:
195,50,11667,1,0,0:0:0:0:
155,76,11732,1,0,0:0:0:0:
131,117,11797,1,0,0:0:0:0:
123,163,11862,1,0,0:0:0:0:
129,209,11927,2,0,P|168:241|232:242,1,105.000004005432
284,99,12187,5,0,0:0:0:0:
284,99,12316,1,0,0:0:0:0:
447,258,12446,5,0,0:0:0:0:
284,99,12576,1,0,0:0:0:0:
298,300,12706,2,0,P|222:309|186:279,1,105.000004005432
97,148,12966,5,0,0:0:0:0:
127,105,13031,1,0,0:0:0:0:
171,77,13096,1,0,0:0:0:0:
223,73,13161,1,0,0:0:0:0:
275,73,13226,2,0,P|339:123|355:181,1,105.000004005432
390,359,13485,5,0,0:0:0:0:
337,353,13550,1,0,0:0:0:0:
285,341,13615,1,0,0:0:0:0:
239,315,13680,1,0,0:0:0:0:
199,280,13745,2,0,P|164:215|184:153,1,105.000004005432
358,305,14005,5,0,0:0:0:0:
399,272,14070,1,0,0:0:0:0:
422,225,14135,1,0,0:0:0:0:
428,172,14200,1,0,0:0:0:0:
407,124,14264,2,0,P|371:68|328:42,1,105.000004005432
218,316,14524,5,0,0:0:0:0:
78,104,14654,1,0,0:0:0:0:
340,127,14784,2,0,P|396:186|418:238,1,105.000004005432
191,266,15044,5,0,0:0:0:0:
25,71,15174,1,0,0:0:0:0:
282,49,15303,2,0,P|352:85|371:119,1,105.000004005432
376,337,15563,5,0,0:0:0:0:
407,75,15693,1,0,0:0:0:0:
173,118,15823,2,0,P|146:182|159:239,1,105.000004005432
436,315,16083,2,0,P|372:357|333:359,1,105.000004005432
303,40,16342,6,0,P|216:38|189:49,1,105.000004005432
159,78,16537,1,0,0:0:0:0:
133,123,16602,1,0,0:0:0:0:
220,335,16732,1,0,0:0:0:0:
424,276,16862,1,0,0:0:0:0:
383,86,16992,6,0,L|274:135,1,70
133,193,17122,1,0,0:0:0:0:
304,352,17251,6,0,L|333:270,1,70
378,102,17381,1,0,0:0:0:0:
172,305,17511,1,0,0:0:0:0:
471,209,17641,1,0,0:0:0:0:
238,59,17771,6,0,L|270:150,1,70
312,335,17901,1,0,0:0:0:0:
391,47,18031,1,0,0:0:0:0:
127,207,18161,1,0,0:0:0:0:
435,168,18290,1,0,0:0:0:0:
150,74,18420,1,0,0:0:0:0:
358,331,18550,1,0,0:0:0:0:
310,62,18680,1,0,0:0:0:0:
181,314,18810,1,0,0:0:0:0:
409,229,18940,1,0,0:0:0:0:
150,125,19070,1,0,0:0:0:0:
300,328,19200,1,0,0:0:0:0:
435,114,19329,6,0,L|346:114,1,70
167,114,19459,1,0,0:0:0:0:
351,341,19589,1,0,0:0:0:0:
329,53,19719,1,0,0:0:0:0:
127,211,19849,6,0,L|205:210,1,70
417,202,19979,1,0,0:0:0:0:
199,357,20109,1,0,0:0:0:0:
251,69,20239,1,0,0:0:0:0:
395,310,20368,1,0,0:0:0:0:
182,217,20498,1,0,0:0:0:0:
373,60,20628,6,0,L|285:89,1,70
59,144,20758,1,0,0:0:0:0:
275,203,20888,1,0,0:0:0:0:
150,367,21018,6,0,P|211:357|278:300,1,140
162,165,21277,1,0,0:0:0:0:
437,227,21407,6,0,L|345:268,1,70
174,322,21537,1,0,0:0:0:0:
278,72,21667,1,0,0:0:0:0:
349,330,21797,1,0,0:0:0:0:
109,294,21927,6,0,L|151:216,1,70
211,56,22057,1,0,0:0:0:0:
287,334,22187,1,0,0:0:0:0:
449,179,22316,1,0,0:0:0:0:
138,118,22446,1,0,0:0:0:0:
409,308,22576,1,0,0:0:0:0:
274,57,22706,1,0,0:0:0:0:
265,339,22836,1,0,0:0:0:0:
181,66,22966,1,0,0:0:0:0:
73,289,23096,2,0,B|68:288|116:363|240:322,1,140
271,179,23355,1,0,0:0:0:0:
457,236,23485,5,0,0:0:0:0:
437,183,23550,1,0,0:0:0:0:
398,142,23615,1,0,0:0:0:0:
354,106,23680,1,0,0:0:0:0:
302,84,23745,2,0,P|202:63|133:76,1,140
83,328,24005,6,0,L|177:330,1,70
351,328,24135,1,0,0:0:0:0:
107,154,24264,1,0,0:0:0:0:
344,65,24394,1,0,0:0:0:0:
231,319,24524,1,0,0:0:0:0:
145,86,24654,1,0,0:0:0:0:
395,81,24784,6,0,L|409:168,1,70
400,369,24914,1,0,0:0:0:0:
282,200,25044,1,0,0:0:0:0:
135,344,25174,1,0,0:0:0:0:
68,58,25303,2,0,L|125:160,1,70
291,312,25433,1,0,0:0:0:0:
205,61,25563,1,0,0:0:0:0:
93,164,25693,6,0,L|210:151,1,70
447,119,25823,2,0,L|361:151,1,70
204,329,25953,1,0,0:0:0:0:
338,114,26083,1,0,0:0:0:0:
120,34,26213,6,0,L|229:96,1,70
402,190,26342,1,0,0:0:0:0:
94,203,26472,1,0,0:0:0:0:
314,46,26602,1,0,0:0:0:0:
410,251,26732,6,0,P|403:324|324:391,1,140
89,167,26992,2,0,P|120:222|240:243,1,140
420,42,27251,2,0,P|440:110|420:198,1,140
295,339,27511,1,0,0:0:0:0:
68,245,27641,6,0,L|158:182,1,70
333,57,27771,1,0,0:0:0:0:
175,330,27901,1,0,0:0:0:0:
420,239,28031,1,0,0:0:0:0:
88,114,28161,6,0,L|164:117,1,70
385,119,28290,1,0,0:0:0:0:
128,276,28420,1,0,0:0:0:0:
242,46,28550,1,0,0:0:0:0:
452,181,28680,1,0,0:0:0:0:
306,334,28810,6,0,P|217:331|161:305,1,140
116,278,29005,1,0,0:0:0:0:
82,224,29070,1,0,0:0:0:0:
225,59,29200,1,0,0:0:0:0:
414,141,29329,2,0,L|357:226,1,70
219,327,29459,1,0,0:0:0:0:
38,182,29589,6,0,L|118:130,1,70
283,23,29719,1,0,0:0:0:0:
483,194,29849,2,0,L|419:274,1,70
325,362,29979,1,0,0:0:0:0:
264,103,30109,1,0,0:0:0:0:
137,316,30239,1,0,0:0:0:0:
71,160,30368,6,0,L|184:181,1,70
356,227,30498,1,0,0:0:0:0:
450,64,30628,1,0,0:0:0:0:
204,56,30758,1,0,0:0:0:0:
354,246,30888,1,0,0:0:0:0:
75,174,31018,1,0,0:0:0:0:
354,246,31148,5,0,0:0:0:0:
99,111,31277,1,0,0:0:0:0:
214,324,31407,1,0,0:0:0:0:
267,79,31537,1,0,0:0:0:0:
449,277,31667,1,0,0:0:0:0:
112,267,31797,6,0,L|176:192,1,70
289,28,31927,2,0,L|284:126,1,70
293,318,32057,1,0,0:0:0:0:
431,119,32187,1,0,0:0:0:0:
246,349,32316,2,0,L|176:267,1,70
113,87,32446,1,0,0:0:0:0:
352,251,32576,1,0,0:0:0:0:
196,40,32706,1,0,0:0:0:0:
146,262,32836,1,0,0:0:0:0:
318,98,32966,1,0,0:0:0:0:
49,143,33096,6,0,L|155:105,1,70
353,40,33226,1,0,0:0:0:0:
293,271,33355,1,0,0:0:0:0:
439,95,33485,6,0,P|464:165|441:245,1,140
229,339,33745,2,0,P|157:318|116:255,1,140
210,47,34005,5,0,0:0:0:0:
229,329,34135,1,0,0:0:0:0:
274,54,34264,1,0,0:0:0:0:
300,330,34394,1,0,0:0:0:0:
354,59,34524,1,0,0:0:0:0:
151,285,34654,5,0,0:0:0:0:
383,183,34784,1,0,0:0:0:0:
120,142,34914,1,0,0:0:0:0:
267,341,35044,1,0,0:0:0:0:
258,40,35174,5,0,0:0:0:0:
342,67,35239,1,0,0:0:0:0:
412,119,35303,2,0,P|441:195|433:257,1,140
113,302,35563,2,0,P|182:354|258:359,1,140
264,67,35823,1,0,0:0:0:0:
385,297,35953,1,0,0:0:0:0:
156,121,36083,1,0,0:0:0:0:
401,34,36213,1,0,0:0:0:0:
254,328,36342,1,0,0:0:0:0:
189,53,36472,6,0,L|247:118,1,70
369,237,36602,1,0,0:0:0:0:
94,242,36732,1,0,0:0:0:0:
300,62,36862,1,0,0:0:0:0:
236,339,36992,1,0,0:0:0:0:
413,94,37122,1,0,0:0:0:0:
144,302,37251,6,0,L|131:210,1,70
107,28,37381,1,0,0:0:0:0:
434,220,37511,5,0,0:0:0:0:
395,269,37576,1,0,0:0:0:0:
334,287,37641,2,0,P|261:290|182:253,1,140
353,67,37901,1,0,0:0:0:0:
378,319,38031,1,0,0:0:0:0:
126,126,38161,1,0,0:0:0:0:
384,64,38290,1,0,0:0:0:0:
215,316,38420,1,0,0:0:0:0:
271,53,38550,6,0,L|200:101,1,70
48,214,38680,1,0,0:0:0:0:
331,336,38810,1,0,0:0:0:0:
258,88,38940,1,0,0:0:0:0:
100,256,39070,1,0,0:0:0:0:
382,221,39200,1,0,0:0:0:0:
143,98,39329,6,0,L|231:90,1,70
429,68,39459,1,0,0:0:0:0:
156,283,39589,5,0,0:0:0:0:
216,318,39654,1,0,0:0:0:0:
282,339,39719,2,0,P|340:337|412:284,1,140
174,72,39979,1,0,0:0:0:0:
419,213,40109,1,0,0:0:0:0:
130,142,40239,1,0,0:0:0:0:
413,80,40368,1,0,0:0:0:0:
164,270,40498,1,0,0:0:0:0:
468,110,40628,6,0,L|356:170,1,70
158,225,40758,1,0,0:0:0:0:
465,248,40888,1,0,0:0:0:0:
211,95,41018,1,0,0:0:0:0:
263,319,41148,1,0,0:0:0:0:
324,92,41277,1,0,0:0:0:0:
397,286,41407,6,0,L|293:224,1,70
139,111,41537,1,0,0:0:0:0:
229,318,41667,5,0,0:0:0:0:
169,281,41732,1,0,0:0:0:0:
136,219,41797,2,0,P|118:119|133:83,1,140
298,32,42057,5,0,0:0:0:0:
327,51,42122,1,0,0:0:0:0:
356,70,42187,1,0,0:0:0:0:
438,179,42316,5,0,0:0:0:0:
429,212,42381,1,0,0:0:0:0:
418,245,42446,1,0,0:0:0:0:
173,181,42576,1,0,0:0:0:0:
372,331,42706,1,0,0:0:0:0:
399,93,42836,5,0,0:0:0:0:
364,90,42901,1,0,0:0:0:0:
329,88,42966,1,0,0:0:0:0:
243,296,43096,1,0,0:0:0:0:
177,39,43226,5,0,0:0:0:0:
211,39,43290,1,0,0:0:0:0:
245,41,43355,1,0,0:0:0:0:
416,38,43485,5,0,0:0:0:0:
433,68,43550,1,0,0:0:0:0:
446,100,43615,1,0,0:0:0:0:
453,134,43680,1,0,0:0:0:0:
457,168,43745,1,0,0:0:0:0:
451,202,43810,1,0,0:0:0:0:
440,235,43875,2,0,P|360:281|298:283,1,140
184,101,44135,1,0,0:0:0:0:
273,352,44264,5,0,0:0:0:0:
314,350,44329,1,0,0:0:0:0:
355,347,44394,1,0,0:0:0:0:
394,333,44459,1,0,0:0:0:0:
420,310,44524,2,0,P|464:237|461:166,1,140
318,54,44784,5,0,0:0:0:0:
282,53,44849,1,0,0:0:0:0:
247,51,44914,2,0,P|141:65|110:81,1,140
218,326,45174,1,0,0:0:0:0:
367,102,45303,1,0,0:0:0:0:
78,163,45433,1,0,0:0:0:0:
372,282,45563,6,0,L|283:209,1,70
257,96,45693,2,0,L|247:198,1,70
188,323,45823,2,0,L|289:263,1,70
405,189,45953,2,0,P|382:89|320:50,1,140
98,70,46213,1,0,0:0:0:0:
131,312,46342,5,0,0:0:0:0:
165,310,46407,1,0,0:0:0:0:
199,307,46472,2,0,P|268:268|340:225,1,140
328,69,46732,1,0,0:0:0:0:
104,128,46862,5,0,0:0:0:0:
109,162,46927,1,0,0:0:0:0:
115,196,46992,1,0,0:0:0:0:
282,324,47122,1,0,0:0:0:0:
470,184,47251,1,0,0:0:0:0:
187,277,47381,5,0,0:0:0:0:
222,276,47446,1,0,0:0:0:0:
256,274,47511,1,0,0:0:0:0:
391,105,47641,1,0,0:0:0:0:
162,226,47771,1,0,0:0:0:0:
240,35,47901,1,0,0:0:0:0:
404,207,48031,2,0,P|361:294|277:325,1,140
75,141,48290,5,0,0:0:0:0:
99,115,48355,1,0,0:0:0:0:
130,99,48420,1,0,0:0:0:0:
164,91,48485,1,0,0:0:0:0:
199,89,48550,1,0,0:0:0:0:
233,93,48615,1,0,0:0:0:0:
264,109,48680,2,0,P|317:147|373:252,1,140
109,283,48940,5,0,0:0:0:0:
135,306,49005,1,0,0:0:0:0:
168,315,49070,1,0,0:0:0:0:
422,234,49200,1,0,0:0:0:0:
107,133,49329,1,0,0:0:0:0:
298,348,49459,1,0,0:0:0:0:
301,64,49589,1,0,0:0:0:0:
73,288,49719,1,0,0:0:0:0:
412,88,49849,1,0,0:0:0:0:
69,70,49979,1,0,0:0:0:0:
290,332,50109,6,0,L|396:310,1,70
256,192,50303,12,0,50368,0:0:0:0:
256,192,50433,12,0,50498,0:0:0:0:
256,192,50498,12,0,50563,0:0:0:0:
256,192,50563,12,0,50628,0:0:0:0:
256,192,50628,12,0,50693,0:0:0:0:
256,192,50693,12,0,50758,0:0:0:0:
256,192,50823,12,0,50888,0:0:0:0:
256,192,50953,12,0,51018,0:0:0:0:
256,192,51083,12,0,51148,0:0:0:0:
256,192,51213,12,0,51278,0:0:0:0:
256,192,51342,12,0,51407,0:0:0:0:
256,192,51472,12,0,51537,0:0:0:0:
256,192,51537,12,0,51602,0:0:0:0:
256,192,51602,12,0,51667,0:0:0:0:
256,192,51732,12,0,51797,0:0:0:0:
256,192,51862,12,0,51927,0:0:0:0:
256,192,51927,12,0,51992,0:0:0:0:
256,192,51992,12,0,52057,0:0:0:0:
256,192,52122,12,0,52187,0:0:0:0:
256,192,52251,12,0,52316,0:0:0:0:
256,192,52381,12,0,52446,0:0:0:0:
256,192,52511,12,0,52576,0:0:0:0:
256,192,52576,12,0,52641,0:0:0:0:
256,192,52641,12,0,52706,0:0:0:0:
256,192,52771,12,0,52836,0:0:0:0:
256,192,52901,12,0,52966,0:0:0:0:
256,192,52966,12,0,53031,0:0:0:0:
256,192,53031,12,0,53096,0:0:0:0:
256,192,53161,12,0,53226,0:0:0:0:
256,192,53290,12,0,53355,0:0:0:0:
256,192,53420,12,0,53485,0:0:0:0:
256,192,53550,12,0,53615,0:0:0:0:
256,192,53615,12,0,53680,0:0:0:0:
256,192,53680,12,0,53745,0:0:0:0:
256,192,53745,12,0,53810,0:0:0:0:
256,192,53875,12,0,54005,0:0:0:0:
256,192,54135,12,0,54265,0:0:0:0:
236,43,54264,5,0,0:0:0:0:
104,200,54394,1,0,0:0:0:0:
248,328,54524,1,0,0:0:0:0:
378,193,54654,5,0,0:0:0:0:
343,191,54719,1,0,0:0:0:0:
307,192,54784,1,0,0:0:0:0:
271,190,54849,1,0,0:0:0:0:
235,191,54914,1,0,0:0:0:0:
116,321,55044,5,0,0:0:0:0:
78,289,55109,1,0,0:0:0:0:
54,245,55174,1,0,0:0:0:0:
50,196,55239,1,0,0:0:0:0:
65,142,55303,2,0,P|120:72|196:54,1,140
254,192,55563,1,0,0:0:0:0:
406,190,55693,5,0,0:0:0:0:
410,245,55758,1,0,0:0:0:0:
378,291,55823,1,0,0:0:0:0:
244,127,55953,1,0,0:0:0:0:
191,297,56083,1,0,0:0:0:0:
369,217,56213,1,0,0:0:0:0:
198,70,56342,2,0,P|125:127|106:190,1,140
273,301,56602,1,0,0:0:0:0:
384,84,56732,5,0,0:0:0:0:
420,126,56797,1,0,0:0:0:0:
433,180,56862,1,0,0:0:0:0:
416,233,56927,1,0,0:0:0:0:
390,282,56992,2,0,P|303:326|247:324,1,140
306,223,57251,5,0,0:0:0:0:
323,162,57316,1,0,0:0:0:0:
318,99,57381,1,0,0:0:0:0:
280,57,57446,1,0,0:0:0:0:
227,36,57511,1,0,0:0:0:0:
170,37,57576,1,0,0:0:0:0:
117,57,57641,2,0,P|64:136|69:184,1,140
224,301,57901,5,0,0:0:0:0:
175,272,57966,1,0,0:0:0:0:
170,216,58031,1,0,0:0:0:0:
188,163,58096,1,0,0:0:0:0:
239,140,58161,2,0,P|323:116|386:127,1,140
293,342,58420,6,0,P|167:348|127:306,1,140
285,76,58680,1,0,0:0:0:0:
82,259,58810,1,0,0:0:0:0:
357,186,58940,1,0,0:0:0:0:
141,63,59070,1,0,0:0:0:0:
262,321,59200,1,0,0:0:0:0:
364,54,59329,1,0,0:0:0:0:
179,305,59459,6,0,P|136:202|158:159,1,140
435,116,59719,1,0,0:0:0:0:
246,359,59849,1,0,0:0:0:0:
199,84,59979,1,0,0:0:0:0:
364,318,60109,1,0,0:0:0:0:
85,163,60239,5,0,0:0:0:0:
108,112,60303,1,0,0:0:0:0:
148,72,60368,1,0,0:0:0:0:
198,48,60433,1,0,0:0:0:0:
253,40,60498,2,0,P|336:50|421:96,1,140
163,332,60758,1,0,0:0:0:0:
340,65,60888,1,0,0:0:0:0:
362,334,61018,1,0,0:0:0:0:
114,143,61148,1,0,0:0:0:0:
373,179,61277,1,0,0:0:0:0:
119,305,61407,1,0,0:0:0:0:
266,34,61537,6,0,P|159:30|109:49,1,140
317,352,61797,1,0,0:0:0:0:
43,91,61927,1,0,0:0:0:0:
331,151,62057,1,0,0:0:0:0:
96,292,62187,5,0,0:0:0:0:
76,240,62251,1,0,0:0:0:0:
76,183,62316,1,0,0:0:0:0:
354,133,62446,1,0,0:0:0:0:
163,312,62576,6,0,P|232:346|302:321,1,140
121,101,62836,1,0,0:0:0:0:
384,156,62966,1,0,0:0:0:0:
120,309,63096,1,0,0:0:0:0:
256,45,63226,1,0,0:0:0:0:
387,274,63355,6,0,P|322:318|233:314,1,140
129,110,63615,2,0,P|109:205|146:245,1,140
398,196,63875,1,0,0:0:0:0:
158,66,64005,1,0,0:0:0:0:
180,336,64135,1,0,0:0:0:0:
398,196,64264,1,0,0:0:0:0:
84,131,64394,1,0,0:0:0:0:
340,318,64524,1,0,0:0:0:0:
80,124,64654,6,0,P|128:53|179:36,1,140
41,341,64914,1,0,0:0:0:0:
322,170,65044,1,0,0:0:0:0:
69,85,65174,1,0,0:0:0:0:
276,327,65303,1,0,0:0:0:0:
360,59,65433,1,0,0:0:0:0:
123,253,65563,1,0,0:0:0:0:
409,302,65693,6,0,P|427:218|414:165,1,140
157,321,65953,2,0,P|94:258|91:199,1,140
318,46,66213,1,0,0:0:0:0:
97,298,66342,1,0,0:0:0:0:
413,316,66472,1,0,0:0:0:0:
127,115,66602,1,0,0:0:0:0:
416,122,66732,6,0,P|413:205|377:276,1,140
265,21,66992,1,0,0:0:0:0:
196,354,67122,1,0,0:0:0:0:
366,63,67251,1,0,0:0:0:0:
269,373,67381,1,0,0:0:0:0:
170,67,67511,1,0,0:0:0:0:
378,327,67641,1,0,0:0:0:0:
254,54,67771,5,0,0:0:0:0:
217,362,67901,1,0,0:0:0:0:
409,112,68031,1,0,0:0:0:0:
112,208,68161,1,0,0:0:0:0:
317,340,68290,1,0,0:0:0:0:
376,44,68420,1,0,0:0:0:0:
102,182,68550,1,0,0:0:0:0:
235,316,68680,5,0,0:0:0:0:
179,324,68745,1,0,0:0:0:0:
124,310,68810,2,0,P|47:251|28:190,1,140
363,304,69070,1,0,0:0:0:0:
239,39,69200,1,0,0:0:0:0:
157,329,69329,1,0,0:0:0:0:
391,167,69459,1,0,0:0:0:0:
107,170,69589,1,0,0:0:0:0:
364,281,69719,1,0,0:0:0:0:
228,37,69849,6,0,P|136:86|113:133,1,140
369,56,70109,1,0,0:0:0:0:
94,207,70239,1,0,0:0:0:0:
464,245,70368,1,0,0:0:0:0:
240,52,70498,5,0,0:0:0:0:
184,46,70563,1,0,0:0:0:0:
128,51,70628,1,0,0:0:0:0:
82,84,70693,1,0,0:0:0:0:
67,138,70758,6,0,P|102:233|158:280,1,140
291,72,71018,1,0,0:0:0:0:
294,342,71148,1,0,0:0:0:0:
171,88,71277,1,0,0:0:0:0:
393,337,71407,1,0,0:0:0:0:
377,93,71537,1,0,0:0:0:0:
168,334,71667,5,0,0:0:0:0:
291,72,71797,1,0,0:0:0:0:
38,88,71927,1,0,0:0:0:0:
334,126,72057,1,0,0:0:0:0:
54,266,72187,1,0,0:0:0:0:
257,92,72316,1,0,0:0:0:0:
275,330,72446,5,0,0:0:0:0:
65,107,72576,1,0,0:0:0:0:
427,232,72706,1,0,0:0:0:0:
188,54,72836,1,0,0:0:0:0:
163,345,72966,6,0,P|91:285|78:227,1,140
255,187,73226,1,0,0:0:0:0:
387,336,73355,1,0,0:0:0:0:
431,129,73485,6,0,P|347:92|264:93,1,140
396,291,73745,1,0,0:0:0:0:
206,204,73875,1,0,0:0:0:0:
290,354,74005,6,0,P|161:340|130:314,1,140
391,161,74264,2,0,P|296:124|205:114,1,140
69,208,74524,2,0,P|112:284|185:324,1,140
209,326,74719,1,0,0:0:0:0:
264,331,74784,1,0,0:0:0:0:
189,94,74914,1,0,0:0:0:0:
431,165,75044,6,0,P|444:254|395:310,1,140
157,32,75693,6,0,P|99:101|70:176,1,140
245,202,75953,1,0,0:0:0:0:
369,112,76213,2,0,P|397:216|380:256,1,140
230,306,76472,2,0,P|135:294|103:252,1,140
159,34,76732,2,0,P|71:94|78:135,1,140
211,201,76992,1,0,0:0:0:0:
393,144,77122,2,0,P|407:212|358:280,1,140
221,47,77771,5,0,0:0:0:0:
115,132,77901,1,0,0:0:0:0:
128,263,78031,2,0,P|189:329|253:330,1,140
400,315,78290,2,0,P|463:246|456:181,1,140
350,96,78550,2,0,P|320:203|267:220,1,140
178,199,78810,2,0,P|120:122|139:57,1,140
226,44,79070,2,0,P|323:42|397:73,1,140
167,218,79849,5,0,0:0:0:0:
345,215,79979,2,0,P|400:148|372:83,1,140
270,63,80239,2,0,P|174:48|107:81,1,140
71,192,80498,2,0,P|120:293|184:310,1,140
256,212,80758,1,0,0:0:0:0:
427,141,80888,6,0,P|423:250|401:279,1,140
199,292,81277,2,0,P|96:261|75:178,1,175
71,183,81667,2,0,P|91:103|176:56,1,175
344,43,82057,6,0,P|402:92|424:179,1,140
182,297,82316,2,0,P|235:329|338:292,1,140
420,190,82576,1,0,0:0:0:0:
343,63,82706,2,0,P|229:50|187:54,1,140
136,293,83096,1,0,0:0:0:0:
329,85,83226,1,0,0:0:0:0:
136,293,83355,5,0,0:0:0:0:
390,187,83485,1,0,0:0:0:0:
191,317,83615,5,0,0:0:0:0:
162,286,83680,1,0,0:0:0:0:
133,254,83745,1,0,0:0:0:0:
114,216,83810,1,0,0:0:0:0:
101,175,83875,1,0,0:0:0:0:
105,133,83940,1,0,0:0:0:0:
121,94,84005,2,0,P|157:52|191:34,1,70
299,308,84135,2,0,L|298:218,1,70
302,70,84264,2,0,L|216:125,1,70
97,228,84394,5,0,0:0:0:0:
116,265,84459,1,0,0:0:0:0:
148,292,84524,1,0,0:0:0:0:
186,309,84589,1,0,0:0:0:0:
228,310,84654,6,0,P|313:301|325:288,1,70
430,181,84784,2,0,P|390:104|370:98,1,70
307,47,84914,2,0,P|231:33|199:39,1,70
209,345,85044,2,0,P|156:268|157:240,1,70
162,165,85174,2,0,P|213:112|251:104,1,70
344,79,85303,2,0,P|398:151|393:183,1,70
413,267,85433,2,0,P|334:306|314:305,1,70
186,309,85563,5,0,0:0:0:0:
159,275,85628,1,0,0:0:0:0:
148,234,85693,1,0,0:0:0:0:
150,192,85758,1,0,0:0:0:0:
128,156,85823,1,0,0:0:0:0:
121,197,85888,1,0,0:0:0:0:
155,220,85953,1,0,0:0:0:0:
193,236,86018,1,0,0:0:0:0:
227,241,86083,6,0,P|277:254|332:241,1,70
378,80,86213,2,0,P|409:157|406:181,1,70
280,316,86342,2,0,P|197:294|190:278,1,70
182,294,86472,5,0,0:0:0:0:
176,259,86537,1,0,0:0:0:0:
193,236,86602,6,0,P|256:187|270:182,1,70
391,315,86732,2,0,P|404:234|398:198,1,70
372,85,86862,2,0,P|295:54|240:54,1,70
141,134,86992,2,0,P|144:208|169:241,1,70
229,307,87122,2,0,P|320:294|340:271,1,70
304,70,87251,2,0,P|214:54|189:60,1,70
227,292,87381,2,0,P|304:313|331:291,1,70
427,162,87511,2,0,P|371:94|336:85,1,70
362,80,87641,5,0,0:0:0:0:
331,63,87706,1,0,0:0:0:0:
298,49,87771,1,0,0:0:0:0:
264,38,87836,1,0,0:0:0:0:
229,46,87901,1,0,0:0:0:0:
248,74,87966,1,0,0:0:0:0:
266,103,88031,1,0,0:0:0:0:
272,130,88096,1,0,0:0:0:0:
273,151,88161,6,0,P|244:225|224:240,1,70
146,64,88290,2,0,P|120:139|135:172,1,70
210,298,88420,2,0,P|278:318|300:305,1,70
315,315,88550,5,0,0:0:0:0:
354,299,88615,1,0,0:0:0:0:
388,274,88680,2,0,P|427:197|429:189,1,70
435,81,88810,5,0,0:0:0:0:
394,92,88875,1,0,0:0:0:0:
354,105,88940,2,0,L|251:144,1,70
98,211,89070,5,0,0:0:0:0:
124,243,89135,1,0,0:0:0:0:
154,271,89200,2,0,P|229:323|246:325,1,70
368,322,89329,2,0,P|418:270|422:236,1,70
327,57,89459,2,0,P|246:63|217:72,1,70
228,250,89589,2,0,P|226:330|196:331,1,70
196,312,89719,5,0,0:0:0:0:
142,294,89784,1,0,0:0:0:0:
96,261,89849,1,0,0:0:0:0:
71,210,89914,1,0,0:0:0:0:
76,154,89979,1,0,0:0:0:0:
107,107,90044,1,0,0:0:0:0:
154,76,90109,2,0,P|241:48|279:52,1,70
330,318,90239,5,0,0:0:0:0:
383,287,90303,1,0,0:0:0:0:
408,229,90368,1,0,0:0:0:0:
410,165,90433,1,0,0:0:0:0:
390,105,90498,2,0,P|327:51|287:48,1,70
158,154,90628,5,0,0:0:0:0:
196,204,90693,1,0,0:0:0:0:
252,232,90758,2,0,P|327:245|343:232,1,70
419,76,90888,5,0,0:0:0:0:
426,313,91018,1,0,0:0:0:0:
210,318,91148,5,0,0:0:0:0:
160,278,91213,1,0,0:0:0:0:
136,228,91277,1,0,0:0:0:0:
133,178,91342,1,0,0:0:0:0:
138,136,91407,1,0,0:0:0:0:
289,46,91537,1,0,0:0:0:0:
434,127,91667,6,0,P|466:244|464:302,1,140
189,61,91927,1,0,0:0:0:0:
248,314,92057,1,0,0:0:0:0:
269,59,92187,1,0,0:0:0:0:
193,317,92316,1,0,0:0:0:0:
127,75,92446,5,0,0:0:0:0:
120,318,92576,1,0,0:0:0:0:
310,58,92706,1,0,0:0:0:0:
311,342,92836,1,0,0:0:0:0:
150,111,92966,1,0,0:0:0:0:
397,174,93096,1,0,0:0:0:0:
184,317,93226,1,0,0:0:0:0:
230,55,93355,5,0,0:0:0:0:
271,59,93420,1,0,0:0:0:0:
312,63,93485,1,0,0:0:0:0:
129,208,93615,1,0,0:0:0:0:
368,276,93745,6,0,P|446:196|440:148,1,140
141,122,94005,1,0,0:0:0:0:
321,336,94135,5,0,0:0:0:0:
324,87,94264,1,0,0:0:0:0:
130,263,94394,5,0,0:0:0:0:
393,148,94524,1,0,0:0:0:0:
220,316,94654,1,0,0:0:0:0:
473,199,94784,1,0,0:0:0:0:
308,351,94914,1,0,0:0:0:0:
260,87,95044,1,0,0:0:0:0:
400,230,95174,5,0,0:0:0:0:
344,233,95239,1,0,0:0:0:0:
288,232,95303,1,0,0:0:0:0:
326,35,95433,5,0,0:0:0:0:
269,35,95498,1,0,0:0:0:0:
212,34,95563,1,0,0:0:0:0:
155,34,95628,1,0,0:0:0:0:
98,34,95693,6,0,L|100:212,1,140
256,352,95953,1,0,0:0:0:0:
74,154,96083,1,0,0:0:0:0:
344,260,96213,1,0,0:0:0:0:
80,233,96342,5,0,0:0:0:0:
300,65,96472,1,0,0:0:0:0:
169,278,96602,1,0,0:0:0:0:
376,120,96732,1,0,0:0:0:0:
249,305,96862,5,0,0:0:0:0:
171,67,96992,1,0,0:0:0:0:
372,234,97122,1,0,0:0:0:0:
149,262,97251,1,0,0:0:0:0:
322,61,97381,1,0,0:0:0:0:
374,356,97511,5,0,0:0:0:0:
311,351,97576,1,0,0:0:0:0:
248,346,97641,1,0,0:0:0:0:
112,190,97771,1,0,0:0:0:0:
232,44,97901,6,0,P|327:72|360:114,1,140
155,292,98161,1,0,0:0:0:0:
430,199,98290,1,0,0:0:0:0:
120,164,98420,1,0,0:0:0:0:
412,303,98550,1,0,0:0:0:0:
187,85,98680,5,0,0:0:0:0:
277,329,98810,1,0,0:0:0:0:
398,87,98940,1,0,0:0:0:0:
164,238,99070,1,0,0:0:0:0:
408,218,99200,1,0,0:0:0:0:
189,112,99329,5,0,0:0:0:0:
259,110,99394,1,0,0:0:0:0:
329,110,99459,1,0,0:0:0:0:
240,323,99589,5,0,0:0:0:0:
187,302,99654,1,0,0:0:0:0:
145,264,99719,1,0,0:0:0:0:
128,210,99784,1,0,0:0:0:0:
133,154,99849,1,0,0:0:0:0:
173,115,99914,1,0,0:0:0:0:
225,95,99979,6,0,P|318:141|333:185,1,140
345,339,100239,1,0,0:0:0:0:
211,244,100368,5,0,0:0:0:0:
232,207,100433,1,0,0:0:0:0:
257,173,100498,1,0,0:0:0:0:
420,232,100628,1,0,0:0:0:0:
257,65,100758,1,0,0:0:0:0:
129,190,100888,5,0,0:0:0:0:
159,219,100953,1,0,0:0:0:0:
183,253,101018,1,0,0:0:0:0:
345,339,101148,1,0,0:0:0:0:
349,304,101213,1,0,0:0:0:0:
351,269,101277,1,0,0:0:0:0:
313,83,101407,1,0,0:0:0:0:
278,87,101472,1,0,0:0:0:0:
242,87,101537,1,0,0:0:0:0:
120,240,101667,5,0,0:0:0:0:
145,273,101732,1,0,0:0:0:0:
174,303,101797,1,0,0:0:0:0:
207,328,101862,1,0,0:0:0:0:
247,337,101927,1,0,0:0:0:0:
288,339,101992,1,0,0:0:0:0:
329,331,102057,6,0,P|411:275|428:221,1,140
200,109,102316,1,0,0:0:0:0:
364,336,102446,5,0,0:0:0:0:
399,313,102511,1,0,0:0:0:0:
425,280,102576,1,0,0:0:0:0:
135,236,102706,1,0,0:0:0:0:
309,90,102836,1,0,0:0:0:0:
283,348,102966,5,0,0:0:0:0:
241,339,103031,1,0,0:0:0:0:
202,322,103096,1,0,0:0:0:0:
107,128,103226,1,0,0:0:0:0:
129,92,103290,1,0,0:0:0:0:
158,62,103355,1,0,0:0:0:0:
373,59,103485,1,0,0:0:0:0:
398,92,103550,1,0,0:0:0:0:
418,128,103615,1,0,0:0:0:0:
400,287,103745,5,0,0:0:0:0:
367,313,103810,1,0,0:0:0:0:
327,327,103875,1,0,0:0:0:0:
285,322,103940,1,0,0:0:0:0:
246,304,104005,1,0,0:0:0:0:
212,278,104070,1,0,0:0:0:0:
186,244,104135,6,0,P|147:168|164:115,1,140
373,230,104394,1,0,0:0:0:0:
264,56,104524,5,0,0:0:0:0:
222,60,104589,1,0,0:0:0:0:
180,62,104654,1,0,0:0:0:0:
62,220,104784,1,0,0:0:0:0:
269,165,104914,1,0,0:0:0:0:
316,321,105044,5,0,0:0:0:0:
358,319,105109,1,0,0:0:0:0:
399,313,105174,1,0,0:0:0:0:
425,130,105303,1,0,0:0:0:0:
393,101,105368,1,0,0:0:0:0:
362,71,105433,1,0,0:0:0:0:
133,74,105563,1,0,0:0:0:0:
109,109,105628,1,0,0:0:0:0:
85,151,105693,1,0,0:0:0:0:
218,328,105823,5,0,0:0:0:0:
266,319,105888,1,0,0:0:0:0:
311,299,105953,1,0,0:0:0:0:
350,270,106018,1,0,0:0:0:0:
382,233,106083,1,0,0:0:0:0:
409,192,106148,1,0,0:0:0:0:
423,145,106213,6,0,P|378:75|296:49,1,140
202,291,106472,1,0,0:0:0:0:
122,114,106602,5,0,0:0:0:0:
166,79,106667,1,0,0:0:0:0:
212,48,106732,1,0,0:0:0:0:
420,142,106862,1,0,0:0:0:0:
242,200,106992,1,0,0:0:0:0:
322,341,107122,5,0,0:0:0:0:
375,323,107187,1,0,0:0:0:0:
417,288,107251,1,0,0:0:0:0:
243,119,107381,1,0,0:0:0:0:
178,321,107511,1,0,0:0:0:0:
69,114,107641,1,0,0:0:0:0:
304,36,107771,5,0,0:0:0:0:
355,58,107836,1,0,0:0:0:0:
388,93,107901,1,0,0:0:0:0:
412,135,107966,1,0,0:0:0:0:
424,182,108031,1,0,0:0:0:0:
432,230,108096,1,0,0:0:0:0:
424,278,108161,1,0,0:0:0:0:
396,318,108226,1,0,0:0:0:0:
355,343,108290,2,0,L|266:348,1,70
256,192,109264,12,0,109329,0:0:0:0:
256,192,109329,12,0,109459,0:0:0:0:
256,192,109589,12,0,109719,0:0:0:0:
256,192,109849,12,0,109979,0:0:0:0:
256,192,110109,12,0,110239,0:0:0:0:
256,192,110239,12,0,110369,0:0:0:0:
256,192,110368,12,0,110498,0:0:0:0:
256,192,110628,12,0,110758,0:0:0:0:
256,192,110758,12,0,110888,0:0:0:0:
256,192,110888,12,0,111018,0:0:0:0:
256,192,111018,12,0,111148,0:0:0:0:
256,192,111148,12,0,111278,0:0:0:0:
256,192,111277,12,0,111407,0:0:0:0:
256,192,111407,12,0,111537,0:0:0:0:
256,192,111667,12,0,111797,0:0:0:0:
256,192,111927,12,0,112057,0:0:0:0:
256,192,112187,12,0,112317,0:0:0:0:
256,192,112316,12,0,112446,0:0:0:0:
256,192,112446,12,0,112576,0:0:0:0:
256,192,112706,12,0,112836,0:0:0:0:
256,192,112836,12,0,112966,0:0:0:0:
256,192,112966,12,0,113096,0:0:0:0:
256,192,113096,12,0,113226,0:0:0:0:
256,192,113161,12,0,113226,0:0:0:0:
256,192,113355,12,0,113485,0:0:0:0:
345,131,113485,5,0,0:0:0:0:
131,57,113615,1,0,0:0:0:0:
177,259,113745,1,0,0:0:0:0:
355,312,113875,5,0,0:0:0:0:
377,276,113940,1,0,0:0:0:0:
402,242,114005,1,0,0:0:0:0:
421,204,114070,1,0,0:0:0:0:
436,165,114135,1,0,0:0:0:0:
454,127,114200,1,0,0:0:0:0:
473,90,114264,2,0,P|384:46|360:47,1,70
109,78,114394,6,0,P|131:153|159:170,1,70
148,178,114524,1,0,0:0:0:0:
177,207,114589,1,0,0:0:0:0:
203,229,114654,1,0,0:0:0:0:
229,251,114719,1,0,0:0:0:0:
269,274,114784,6,0,P|358:285|368:281,1,70
459,225,114914,2,0,P|413:152|391:142,1,70
232,38,115044,2,0,P|204:127|206:154,1,70
129,301,115174,2,0,P|219:332|253:334,1,70
330,104,115303,2,0,P|367:172|369:201,1,70
349,310,115433,2,0,P|256:328|238:323,1,70
247,327,115563,5,0,0:0:0:0:
212,320,115628,1,0,0:0:0:0:
183,300,115693,1,0,0:0:0:0:
161,272,115758,1,0,0:0:0:0:
150,238,115823,1,0,0:0:0:0:
156,203,115888,1,0,0:0:0:0:
188,189,115953,1,0,0:0:0:0:
216,219,116018,1,0,0:0:0:0:
275,256,116083,1,0,0:0:0:0:
344,266,116148,1,0,0:0:0:0:
406,254,116213,1,0,0:0:0:0:
454,215,116277,1,0,0:0:0:0:
472,154,116342,6,0,P|456:82|448:74,1,70
199,43,116472,2,0,P|133:70|131:87,1,70
104,278,116602,6,0,P|164:320|190:324,1,70
237,328,116732,1,0,0:0:0:0:
313,334,116797,1,0,0:0:0:0:
389,324,116862,2,0,P|460:290|476:254,1,70
413,99,116992,2,0,P|330:91|307:94,1,70
279,85,117122,5,0,0:0:0:0:
229,86,117187,1,0,0:0:0:0:
181,91,117251,1,0,0:0:0:0:
135,108,117316,1,0,0:0:0:0:
95,136,117381,2,0,P|95:228|133:288,1,140
422,92,117641,6,0,P|453:163|447:250,1,140
164,305,117901,1,0,0:0:0:0:
338,59,118031,5,0,0:0:0:0:
376,89,118096,1,0,0:0:0:0:
408,125,118161,1,0,0:0:0:0:
420,172,118226,1,0,0:0:0:0:
420,220,118290,2,0,B|411:289|388:323|345:345,1,140
231,323,118550,5,0,0:0:0:0:
182,328,118615,1,0,0:0:0:0:
133,319,118680,1,0,0:0:0:0:
87,300,118745,1,0,0:0:0:0:
48,269,118810,2,0,P|19:173|39:120,1,140
195,341,119070,5,0,0:0:0:0:
244,339,119135,1,0,0:0:0:0:
292,336,119200,1,0,0:0:0:0:
426,200,119329,1,0,0:0:0:0:
157,72,119459,1,0,0:0:0:0:
211,312,119589,1,0,0:0:0:0:
343,58,119719,6,0,P|416:139|430:202,1,140
156,208,119979,1,0,0:0:0:0:
401,89,120109,5,0,0:0:0:0:
414,136,120174,1,0,0:0:0:0:
419,184,120239,1,0,0:0:0:0:
403,229,120303,1,0,0:0:0:0:
372,275,120368,1,0,0:0:0:0:
325,305,120433,1,0,0:0:0:0:
271,321,120498,2,0,P|191:308|111:261,1,140
291,47,120758,5,0,0:0:0:0:
235,54,120823,1,0,0:0:0:0:
182,72,120888,1,0,0:0:0:0:
129,92,120953,1,0,0:0:0:0:
99,131,121018,2,0,P|98:239|136:292,1,140
316,326,121277,5,0,0:0:0:0:
367,304,121342,1,0,0:0:0:0:
399,258,121407,1,0,0:0:0:0:
412,203,121472,1,0,0:0:0:0:
413,146,121537,2,0,P|374:67|305:33,1,140
49,252,121797,6,0,P|142:320|200:323,1,140
260,52,122057,1,0,0:0:0:0:
354,323,122187,5,0,0:0:0:0:
305,323,122251,1,0,0:0:0:0:
256,313,122316,1,0,0:0:0:0:
209,296,122381,1,0,0:0:0:0:
163,263,122446,2,0,P|82:163|83:110,1,140
314,48,122706,5,0,0:0:0:0:
352,65,122771,1,0,0:0:0:0:
379,96,122836,1,0,0:0:0:0:
397,133,122901,1,0,0:0:0:0:
407,180,122966,2,0,P|334:260|286:268,1,140
156,58,123226,5,0,0:0:0:0:
120,90,123290,1,0,0:0:0:0:
101,135,123355,1,0,0:0:0:0:
105,183,123420,1,0,0:0:0:0:
127,226,123485,2,0,P|203:294|238:304,1,140
271,156,123745,1,0,0:0:0:0:
431,227,123875,2,0,P|436:141|409:85,1,140
277,270,124135,1,0,0:0:0:0:
129,58,124264,5,0,0:0:0:0:
107,101,124329,1,0,0:0:0:0:
99,149,124394,1,0,0:0:0:0:
95,197,124459,1,0,0:0:0:0:
113,242,124524,2,0,P|191:332|236:343,1,140
400,87,124784,5,0,0:0:0:0:
407,135,124849,1,0,0:0:0:0:
407,184,124914,1,0,0:0:0:0:
404,232,124979,1,0,0:0:0:0:
400,280,125044,2,0,P|342:354|278:361,1,140
201,61,125303,1,0,0:0:0:0:
92,245,125433,1,0,0:0:0:0:
342,101,125563,5,0,0:0:0:0:
302,71,125628,1,0,0:0:0:0:
255,55,125693,1,0,0:0:0:0:
205,55,125758,1,0,0:0:0:0:
161,77,125823,1,0,0:0:0:0:
125,110,125888,1,0,0:0:0:0:
132,158,125953,2,0,P|200:261|249:286,1,140
418,105,126213,1,0,0:0:0:0:
239,332,126342,5,0,0:0:0:0:
183,326,126407,1,0,0:0:0:0:
132,300,126472,1,0,0:0:0:0:
407,245,126602,1,0,0:0:0:0:
220,43,126732,1,0,0:0:0:0:
93,241,126862,5,0,0:0:0:0:
142,267,126927,1,0,0:0:0:0:
195,282,126992,1,0,0:0:0:0:
424,182,127122,1,0,0:0:0:0:
187,69,127251,1,0,0:0:0:0:
347,291,127381,5,0,0:0:0:0:
384,249,127446,1,0,0:0:0:0:
414,202,127511,1,0,0:0:0:0:
240,48,127641,5,0,0:0:0:0:
187,69,127706,1,0,0:0:0:0:
137,95,127771,1,0,0:0:0:0:
436,111,127901,1,0,0:0:0:0:
282,348,128031,2,0,P|195:323|149:267,1,140
308,79,128290,1,0,0:0:0:0:
106,225,128420,5,0,0:0:0:0:
148,226,128485,1,0,0:0:0:0:
190,226,128550,1,0,0:0:0:0:
401,118,128680,1,0,0:0:0:0:
178,307,128810,1,0,0:0:0:0:
204,93,128940,5,0,0:0:0:0:
246,94,129005,1,0,0:0:0:0:
288,94,129070,1,0,0:0:0:0:
435,221,129200,5,0,0:0:0:0:
399,241,129264,1,0,0:0:0:0:
361,260,129329,1,0,0:0:0:0:
148,252,129459,5,0,0:0:0:0:
162,212,129524,1,0,0:0:0:0:
176,172,129589,1,0,0:0:0:0:
402,83,129719,1,0,0:0:0:0:
434,292,129849,1,0,0:0:0:0:
191,170,129979,5,0,0:0:0:0:
149,166,130044,1,0,0:0:0:0:
107,157,130109,2,0,P|154:76|214:52,1,140
176,299,130368,1,0,0:0:0:0:
313,83,130498,5,0,0:0:0:0:
343,111,130563,1,0,0:0:0:0:
369,143,130628,1,0,0:0:0:0:
394,176,130693,1,0,0:0:0:0:
398,217,130758,2,0,P|335:310|289:326,1,140
208,72,131018,5,0,0:0:0:0:
169,89,131083,1,0,0:0:0:0:
132,110,131148,1,0,0:0:0:0:
437,150,131277,1,0,0:0:0:0:
209,298,131407,1,0,0:0:0:0:
242,58,131537,1,0,0:0:0:0:
370,296,131667,1,0,0:0:0:0:
151,110,131797,1,0,0:0:0:0:
438,214,131927,1,0,0:0:0:0:
193,65,132057,1,0,0:0:0:0:
399,291,132187,6,0,P|319:355|224:348,1,140
282,109,132446,1,0,0:0:0:0:
66,154,132576,5,0,0:0:0:0:
80,193,132641,1,0,0:0:0:0:
102,228,132706,1,0,0:0:0:0:
129,260,132771,1,0,0:0:0:0:
162,284,132836,2,0,P|256:325|307:326,1,140
411,106,133096,5,0,0:0:0:0:
381,76,133161,1,0,0:0:0:0:
344,54,133226,2,0,P|253:43|227:47,1,70
139,119,133355,2,0,P|170:191|197:205,1,70
451,70,133615,6,0,P|467:158|464:166,1,70
293,290,133745,2,0,P|278:200|278:180,1,70
232,43,133875,2,0,P|160:99|158:112,1,70
93,227,134005,2,0,P|153:305|170:312,1,70
162,311,134135,5,0,0:0:0:0:
201,325,134200,1,0,0:0:0:0:
241,333,134264,1,0,0:0:0:0:
416,259,134394,6,0,L|350:194,2,70
159,241,134654,2,0,L|280:270,2,70
406,165,134914,1,0,0:0:0:0:
216,109,135044,1,0,0:0:0:0:
378,45,135174,6,0,L|362:146,2,70
224,203,135433,1,0,0:0:0:0:
397,276,135563,1,0,0:0:0:0:
252,105,135693,1,0,0:0:0:0:
258,301,135823,1,0,0:0:0:0:
382,141,135953,1,0,0:0:0:0:
258,301,136083,1,0,0:0:0:0:
140,131,136213,1,0,0:0:0:0:
258,301,136342,6,0,P|379:320|413:300,1,140
296,85,136602,1,0,0:0:0:0:
421,251,136732,2,0,L|344:305,2,70
236,255,136992,1,0,0:0:0:0:
150,98,137122,1,0,0:0:0:0:
311,74,137251,6,0,L|411:93,2,70
205,250,137511,1,0,0:0:0:0:
422,214,137641,1,0,0:0:0:0:
178,181,137771,1,0,0:0:0:0:
281,341,137901,5,0,0:0:0:0:
281,341,138031,1,0,0:0:0:0:
378,166,138161,5,0,0:0:0:0:
281,341,138290,5,0,0:0:0:0:
273,341,138420,1,0,0:0:0:0:
125,247,138550,6,0,L|160:172,6,70
389,316,139070,2,0,L|282:272,6,70
322,112,139589,5,0,0:0:0:0:
216,242,139719,1,0,0:0:0:0:
400,263,139849,2,0,L|333:207,2,70
193,160,140109,5,0,0:0:0:0:
402,265,140239,1,0,0:0:0:0:
380,61,140368,1,0,0:0:0:0:
407,271,140498,2,0,P|293:316|227:310,1,140
132,199,140758,1,0,0:0:0:0:
244,101,140888,2,0,L|293:37,2,70
232,288,141148,5,0,0:0:0:0:
370,186,141277,2,0,L|438:160,2,70
169,148,141537,1,0,0:0:0:0:
316,276,141667,5,0,0:0:0:0:
113,252,141797,1,0,0:0:0:0:
336,127,141927,5,0,0:0:0:0:
252,309,142057,1,0,0:0:0:0:
336,127,142187,5,0,0:0:0:0:
333,120,142316,5,0,0:0:0:0:
474,270,142446,1,0,0:0:0:0:
148,233,142576,2,0,P|145:122|164:90,1,140
186,76,142771,1,0,0:0:0:0:
225,62,142836,1,0,0:0:0:0:
266,53,142901,1,0,0:0:0:0:
307,58,142966,1,0,0:0:0:0:
347,68,143031,1,0,0:0:0:0:
378,83,143096,5,0,0:0:0:0:
420,296,143226,1,0,0:0:0:0:
294,221,143355,1,0,0:0:0:0:
62,279,143485,6,0,L|108:191,2,70
257,92,143745,1,0,0:0:0:0:
440,232,143875,1,0,0:0:0:0:
265,325,144005,6,0,L|196:265,2,70
257,92,144264,2,0,L|336:158,2,70
122,253,144524,1,0,0:0:0:0:
412,263,144654,1,0,0:0:0:0:
412,263,144784,1,0,0:0:0:0:
321,92,144914,1,0,0:0:0:0:
147,187,145044,6,0,L|187:264,2,70
318,85,145303,1,0,0:0:0:0:
103,51,145433,1,0,0:0:0:0:
149,262,145563,2,0,L|261:238,2,70
246,56,145823,1,0,0:0:0:0:
387,235,145953,1,0,0:0:0:0:
270,313,146083,6,0,L|176:281,1,70
149,262,146213,1,0,0:0:0:0:
149,262,146342,1,0,0:0:0:0:
317,141,146472,1,0,0:0:0:0:
149,262,146602,1,0,0:0:0:0:
351,317,146732,6,0,P|430:263|453:216,1,140
461,184,146927,1,0,0:0:0:0:
456,142,146992,1,0,0:0:0:0:
434,105,147057,1,0,0:0:0:0:
410,70,147122,2,0,P|303:52|229:55,1,140
337,197,147381,1,0,0:0:0:0:
136,165,147511,1,0,0:0:0:0:
239,317,147641,1,0,0:0:0:0:
249,73,147771,6,0,P|344:53|405:72,1,140
414,92,147966,1,0,0:0:0:0:
436,127,148031,1,0,0:0:0:0:
454,164,148096,1,0,0:0:0:0:
464,204,148161,2,0,P|422:298|372:319,1,140
178,219,148420,5,0,0:0:0:0:
340,141,148550,1,0,0:0:0:0:
247,319,148680,1,0,0:0:0:0:
338,133,148810,2,0,P|243:83|189:87,1,140
352,315,149070,5,0,0:0:0:0:
100,243,149200,1,0,0:0:0:0:
382,186,149329,2,0,P|447:127|450:66,1,140
267,361,149589,1,0,0:0:0:0:
109,121,149719,1,0,0:0:0:0:
420,147,149849,6,0,P|382:68|299:35,1,140
218,311,150109,2,0,P|118:235|94:206,1,140
402,41,150368,2,0,P|458:144|457:199,1,140
448,205,150563,1,0,0:0:0:0:
432,244,150628,1,0,0:0:0:0:
414,282,150693,1,0,0:0:0:0:
383,311,150758,1,0,0:0:0:0:
344,328,150823,1,0,0:0:0:0:
302,336,150888,6,0,P|200:303|147:274,1,140
346,83,151148,5,0,0:0:0:0:
304,75,151213,1,0,0:0:0:0:
262,75,151277,1,0,0:0:0:0:
98,145,151407,5,0,0:0:0:0:
113,184,151472,1,0,0:0:0:0:
137,218,151537,1,0,0:0:0:0:
389,245,151667,1,0,0:0:0:0:
236,69,151797,1,0,0:0:0:0:
241,323,151927,6,0,P|140:261|132:226,1,140
406,154,152187,1,0,0:0:0:0:
129,121,152316,1,0,0:0:0:0:
312,307,152446,1,0,0:0:0:0:
238,87,152576,1,0,0:0:0:0:
173,300,152706,1,0,0:0:0:0:
301,94,152836,1,0,0:0:0:0:
229,316,152966,2,0,P|316:328|389:311,1,140
146,119,153226,1,0,0:0:0:0:
372,76,153355,5,0,0:0:0:0:
386,115,153420,1,0,0:0:0:0:
398,155,153485,1,0,0:0:0:0:
140,52,153615,1,0,0:0:0:0:
222,266,153745,1,0,0:0:0:0:
356,113,153875,5,0,0:0:0:0:
314,114,153940,1,0,0:0:0:0:
271,112,154005,1,0,0:0:0:0:
229,328,154135,1,0,0:0:0:0:
127,159,154264,1,0,0:0:0:0:
361,255,154394,5,0,0:0:0:0:
319,261,154459,1,0,0:0:0:0:
277,264,154524,1,0,0:0:0:0:
91,99,154654,5,0,0:0:0:0:
91,141,154719,1,0,0:0:0:0:
98,182,154784,1,0,0:0:0:0:
339,333,154914,1,0,0:0:0:0:
238,108,155044,2,0,P|152:185|137:243,1,140
425,195,155303,1,0,0:0:0:0:
216,327,155433,5,0,0:0:0:0:
187,295,155498,1,0,0:0:0:0:
154,268,155563,1,0,0:0:0:0:
372,243,155693,1,0,0:0:0:0:
121,151,155823,1,0,0:0:0:0:
392,57,155953,5,0,0:0:0:0:
364,88,156018,1,0,0:0:0:0:
333,116,156083,1,0,0:0:0:0:
293,312,156213,5,0,0:0:0:0:
265,281,156277,1,0,0:0:0:0:
240,246,156342,1,0,0:0:0:0:
356,53,156472,5,0,0:0:0:0:
321,60,156537,1,0,0:0:0:0:
286,66,156602,1,0,0:0:0:0:
362,308,156732,1,0,0:0:0:0:
229,45,156862,1,0,0:0:0:0:
180,289,156992,1,0,0:0:0:0:
378,107,157122,6,0,P|433:219|416:259,1,140
128,66,157381,1,0,0:0:0:0:
267,325,157511,5,0,0:0:0:0:
304,306,157576,1,0,0:0:0:0:
337,281,157641,1,0,0:0:0:0:
369,254,157706,1,0,0:0:0:0:
396,222,157771,2,0,P|407:144|393:84,1,140
206,239,158031,1,0,0:0:0:0:
182,47,158161,5,0,0:0:0:0:
147,71,158226,1,0,0:0:0:0:
120,102,158290,1,0,0:0:0:0:
102,140,158355,1,0,0:0:0:0:
89,180,158420,2,0,P|76:282|110:324,1,140
419,210,158680,1,0,0:0:0:0:
158,71,158810,1,0,0:0:0:0:
367,329,158940,1,0,0:0:0:0:
190,61,159070,1,0,0:0:0:0:
284,334,159200,6,0,P|167:322|136:285,1,140
358,115,159459,1,0,0:0:0:0:
108,210,159589,5,0,0:0:0:0:
132,244,159654,1,0,0:0:0:0:
165,269,159719,1,0,0:0:0:0:
201,289,159784,1,0,0:0:0:0:
240,302,159849,2,0,P|334:319|390:310,1,140
428,92,160109,5,0,0:0:0:0:
391,70,160174,1,0,0:0:0:0:
351,56,160239,1,0,0:0:0:0:
310,48,160303,1,0,0:0:0:0:
268,41,160368,2,0,P|163:48|100:63,1,140
334,293,160628,5,0,0:0:0:0:
292,300,160693,1,0,0:0:0:0:
250,303,160758,1,0,0:0:0:0:
458,163,160888,1,0,0:0:0:0:
152,154,161018,1,0,0:0:0:0:
441,91,161148,1,0,0:0:0:0:
126,232,161277,2,0,P|201:305|278:339,1,140
336,44,161537,1,0,0:0:0:0:
402,303,161667,5,0,0:0:0:0:
361,315,161732,1,0,0:0:0:0:
319,321,161797,1,0,0:0:0:0:
277,315,161862,1,0,0:0:0:0:
235,308,161927,2,0,P|149:268|102:219,1,140
251,41,162187,5,0,0:0:0:0:
287,60,162251,1,0,0:0:0:0:
321,83,162316,1,0,0:0:0:0:
354,108,162381,1,0,0:0:0:0:
387,132,162446,2,0,P|445:210|464:280,1,140
165,141,162706,5,0,0:0:0:0:
156,182,162771,1,0,0:0:0:0:
151,223,162836,1,0,0:0:0:0:
369,103,162966,5,0,0:0:0:0:
409,142,163031,1,0,0:0:0:0:
443,186,163096,1,0,0:0:0:0:
201,48,163226,1,0,0:0:0:0:
122,305,163355,2,0,P|224:335|286:340,1,140
284,105,163615,1,0,0:0:0:0:
464,260,163745,5,0,0:0:0:0:
427,280,163810,1,0,0:0:0:0:
387,294,163875,1,0,0:0:0:0:
346,304,163940,1,0,0:0:0:0:
304,310,164005,2,0,P|221:296|142:261,1,140
371,76,164264,5,0,0:0:0:0:
328,75,164329,1,0,0:0:0:0:
287,87,164394,1,0,0:0:0:0:
247,102,164459,1,0,0:0:0:0:
208,118,164524,2,0,P|128:203|122:241,1,140
309,330,164784,1,0,0:0:0:0:
421,107,164914,1,0,0:0:0:0:
403,339,165044,1,0,0:0:0:0:
253,84,165174,5,0,0:0:0:0:
253,84,165303,1,0,0:0:0:0:
253,84,165433,6,0,P|133:102|83:142,1,140
422,222,165693,1,0,0:0:0:0:
191,323,165823,5,0,0:0:0:0:
159,294,165888,1,0,0:0:0:0:
137,266,165953,1,0,0:0:0:0:
341,99,166083,1,0,0:0:0:0:
342,336,166213,1,0,0:0:0:0:
178,110,166342,5,0,0:0:0:0:
189,142,166407,1,0,0:0:0:0:
199,175,166472,1,0,0:0:0:0:
465,183,166602,5,0,0:0:0:0:
460,217,166667,1,0,0:0:0:0:
454,251,166732,1,0,0:0:0:0:
251,56,166862,1,0,0:0:0:0:
287,335,166992,1,0,0:0:0:0:
391,62,167122,5,0,0:0:0:0:
277,73,167187,1,0,0:0:0:0:
165,88,167251,1,0,0:0:0:0:
480,293,167381,1,0,0:0:0:0:
256,192,167479,12,0,167512,0:0:0:0:
256,192,167544,12,0,167577,0:0:0:0:
256,192,167609,12,0,167642,0:0:0:0:
256,192,167739,12,0,167772,0:0:0:0:
256,192,167868,12,0,167901,0:0:0:0:
256,192,167933,12,0,167966,0:0:0:0:
256,192,167998,12,0,168031,0:0:0:0:
256,192,168128,12,0,168161,0:0:0:0:
256,192,168258,12,0,168291,0:0:0:0:
256,192,168323,12,0,168356,0:0:0:0:
256,192,168388,12,0,168421,0:0:0:0:
256,192,168518,12,0,168551,0:0:0:0:
256,192,168648,12,0,168681,0:0:0:0:
256,192,168713,12,0,168746,0:0:0:0:
256,192,168777,12,0,168810,0:0:0:0:
256,192,168907,12,0,168940,0:0:0:0:
256,192,169037,12,0,169070,0:0:0:0:
256,192,169102,12,0,169135,0:0:0:0:
256,192,169167,12,0,169200,0:0:0:0:
256,192,169297,12,0,169330,0:0:0:0:
256,192,169427,12,0,169460,0:0:0:0:
256,192,169492,12,0,169525,0:0:0:0:
256,192,169557,12,0,169590,0:0:0:0:
256,192,169687,12,0,170368,0:0:0:0:
