osu file format v14

[General]
AudioFilename: audio120.mp3
AudioLeadIn: 0
PreviewTime: -1
Countdown: 0
SampleSet: Normal
StackLeniency: 0.7
Mode: 0
LetterboxInBreaks: 0
WidescreenStoryboard: 0

[Editor]
DistanceSpacing: 0.5
BeatDivisor: 2
GridSize: 8
TimelineZoom: 2.2

[Metadata]
Title:loli fantasy
TitleUnicode:loli fantasy
Artist:goreshit
ArtistUnicode:goreshit
Creator:No0b
Version:O_O [1.2x Rate]
Source:goreshit
Tags:goreshit loli fantasy
BeatmapID:3068401
BeatmapSetID:1496904

[Difficulty]
HPDrainRate:0
CircleSize:4
OverallDifficulty:8
ApproachRate:10
SliderMultiplier:1.4
SliderTickRate:1

[Events]
//Background and Video events
0,0,"EkMpyeDVgAA-dV1.png",0,0
//Break Periods
//Storyboard Layer 0 (Background)
//Storyboard Layer 1 (Fail)
//Storyboard Layer 2 (Pass)
//Storyboard Layer 3 (Foreground)
//Storyboard Layer 4 (Overlay)
//Storyboard Sound Samples

[TimingPoints]
40,216.450216450217,4,1,0,100,1,0
239,216.450216450217,4,1,0,100,1,0
7166,-66.6666666666667,4,1,0,100,0,0
14200,-50,4,1,0,100,0,0
67447,-100,4,1,0,100,0,0
68421,-50,4,1,0,100,0,0
68853,-100,4,1,0,100,0,0
69502,-50,4,1,0,100,0,0
139632,-50,4,1,0,5,0,0

[HitObjects]
131,167,40,5,0,0:0:0:0:
274,34,148,1,0,0:0:0:0:
378,187,239,2,0,P|363:245|338:270,1,70
136,283,456,5,0,0:0:0:0:
116,253,510,1,0,0:0:0:0:
112,218,564,1,0,0:0:0:0:
113,183,618,1,0,0:0:0:0:
130,152,672,2,0,P|200:138|223:142,1,70
404,320,888,5,0,0:0:0:0:
144,241,997,1,0,0:0:0:0:
161,206,1051,1,0,0:0:0:0:
185,176,1105,1,0,0:0:0:0:
216,153,1159,1,0,0:0:0:0:
250,136,1213,2,0,P|303:171|299:198,1,70
404,340,1430,5,0,0:0:0:0:
381,82,1538,1,0,0:0:0:0:
162,213,1647,1,0,0:0:0:0:
450,200,1754,1,0,0:0:0:0:
260,343,1862,1,0,0:0:0:0:
191,70,1971,6,0,P|249:48|267:54,1,70
92,275,2188,1,0,0:0:0:0:
127,302,2242,1,0,0:0:0:0:
170,316,2296,1,0,0:0:0:0:
214,327,2350,1,0,0:0:0:0:
259,325,2404,2,0,P|319:292|323:278,1,70
304,46,2620,5,0,0:0:0:0:
261,63,2674,1,0,0:0:0:0:
224,90,2728,1,0,0:0:0:0:
207,132,2782,1,0,0:0:0:0:
201,177,2837,2,0,P|233:239|259:250,1,70
461,236,3053,5,0,0:0:0:0:
182,331,3162,1,0,0:0:0:0:
90,67,3269,1,0,0:0:0:0:
90,67,3378,5,0,0:0:0:0:
350,69,3486,1,0,0:0:0:0:
153,212,3593,1,0,0:0:0:0:
426,167,3702,6,0,P|448:242|447:250,1,70
431,282,3865,1,0,0:0:0:0:
389,314,3919,1,0,0:0:0:0:
338,328,3973,1,0,0:0:0:0:
285,335,4028,1,0,0:0:0:0:
232,330,4082,1,0,0:0:0:0:
182,311,4136,2,0,P|154:249|162:234,1,70
452,186,4352,5,0,0:0:0:0:
423,142,4406,1,0,0:0:0:0:
382,108,4460,1,0,0:0:0:0:
334,85,4514,1,0,0:0:0:0:
284,68,4568,2,0,P|228:95|212:111,1,70
168,330,4785,5,0,0:0:0:0:
382,144,4893,1,0,0:0:0:0:
78,112,5001,1,0,0:0:0:0:
311,292,5109,1,0,0:0:0:0:
78,112,5218,5,0,0:0:0:0:
330,79,5326,1,0,0:0:0:0:
436,296,5434,6,0,P|367:348|358:349,1,70
122,284,5651,1,0,0:0:0:0:
104,230,5705,1,0,0:0:0:0:
110,174,5759,1,0,0:0:0:0:
143,128,5813,1,0,0:0:0:0:
182,88,5867,2,0,B|225:83|252:114|256:116,1,70
438,243,6083,5,0,0:0:0:0:
399,284,6138,1,0,0:0:0:0:
351,313,6192,1,0,0:0:0:0:
296,327,6246,1,0,0:0:0:0:
240,318,6300,2,0,P|211:257|211:233,1,70
467,312,6516,5,0,0:0:0:0:
282,70,6625,1,0,0:0:0:0:
342,327,6732,1,0,0:0:0:0:
380,76,6841,1,0,0:0:0:0:
385,70,6949,5,0,0:0:0:0:
158,296,7058,1,0,0:0:0:0:
127,86,7166,2,0,P|204:39|247:32,1,105.000004005432
265,34,7328,5,0,0:0:0:0:
315,62,7382,1,0,0:0:0:0:
354,103,7437,1,0,0:0:0:0:
372,157,7491,1,0,0:0:0:0:
358,212,7544,1,0,0:0:0:0:
318,254,7598,2,0,P|226:265|186:238,1,105.000004005432
164,89,7815,1,0,0:0:0:0:
252,332,7923,5,0,0:0:0:0:
304,333,7978,1,0,0:0:0:0:
352,312,8032,1,0,0:0:0:0:
387,273,8086,1,0,0:0:0:0:
413,227,8140,1,0,0:0:0:0:
406,174,8194,1,0,0:0:0:0:
386,128,8248,2,0,P|327:81|260:73,1,105.000004005432
242,341,8464,1,0,0:0:0:0:
71,138,8572,5,0,0:0:0:0:
240,341,8681,1,0,0:0:0:0:
413,194,8789,1,0,0:0:0:0:
262,39,8898,2,0,P|189:54|165:89,1,105.000004005432
148,128,9060,5,0,0:0:0:0:
152,185,9114,1,0,0:0:0:0:
173,238,9168,1,0,0:0:0:0:
211,279,9222,1,0,0:0:0:0:
266,296,9276,1,0,0:0:0:0:
323,287,9330,2,0,P|411:239|432:206,1,105.000004005432
456,83,9546,5,0,0:0:0:0:
290,41,9654,1,0,0:0:0:0:
242,42,9708,1,0,0:0:0:0:
195,50,9762,1,0,0:0:0:0:
155,76,9817,1,0,0:0:0:0:
131,117,9871,1,0,0:0:0:0:
123,163,9925,1,0,0:0:0:0:
129,209,9979,2,0,P|168:241|232:242,1,105.000004005432
284,99,10196,5,0,0:0:0:0:
284,99,10303,1,0,0:0:0:0:
447,258,10412,5,0,0:0:0:0:
284,99,10520,1,0,0:0:0:0:
298,300,10628,2,0,P|222:309|186:279,1,105.000004005432
97,148,10845,5,0,0:0:0:0:
127,105,10899,1,0,0:0:0:0:
171,77,10953,1,0,0:0:0:0:
223,73,11008,1,0,0:0:0:0:
275,73,11062,2,0,P|339:123|355:181,1,105.000004005432
390,359,11278,5,0,0:0:0:0:
337,353,11332,1,0,0:0:0:0:
285,341,11386,1,0,0:0:0:0:
239,315,11440,1,0,0:0:0:0:
199,280,11494,2,0,P|164:215|184:153,1,105.000004005432
358,305,11711,5,0,0:0:0:0:
399,272,11765,1,0,0:0:0:0:
422,225,11819,1,0,0:0:0:0:
428,172,11873,1,0,0:0:0:0:
407,124,11927,2,0,P|371:68|328:42,1,105.000004005432
218,316,12143,5,0,0:0:0:0:
78,104,12252,1,0,0:0:0:0:
340,127,12360,2,0,P|396:186|418:238,1,105.000004005432
191,266,12577,5,0,0:0:0:0:
25,71,12685,1,0,0:0:0:0:
282,49,12792,2,0,P|352:85|371:119,1,105.000004005432
376,337,13009,5,0,0:0:0:0:
407,75,13118,1,0,0:0:0:0:
173,118,13226,2,0,P|146:182|159:239,1,105.000004005432
436,315,13442,2,0,P|372:357|333:359,1,105.000004005432
303,40,13658,6,0,P|216:38|189:49,1,105.000004005432
159,78,13821,1,0,0:0:0:0:
133,123,13875,1,0,0:0:0:0:
220,335,13983,1,0,0:0:0:0:
424,276,14092,1,0,0:0:0:0:
383,86,14200,6,0,L|274:135,1,70
133,193,14308,1,0,0:0:0:0:
304,352,14416,6,0,L|333:270,1,70
378,102,14524,1,0,0:0:0:0:
172,305,14632,1,0,0:0:0:0:
471,209,14741,1,0,0:0:0:0:
238,59,14849,6,0,L|270:150,1,70
312,335,14958,1,0,0:0:0:0:
391,47,15066,1,0,0:0:0:0:
127,207,15174,1,0,0:0:0:0:
435,168,15282,1,0,0:0:0:0:
150,74,15390,1,0,0:0:0:0:
358,331,15498,1,0,0:0:0:0:
310,62,15607,1,0,0:0:0:0:
181,314,15715,1,0,0:0:0:0:
409,229,15823,1,0,0:0:0:0:
150,125,15932,1,0,0:0:0:0:
300,328,16040,1,0,0:0:0:0:
435,114,16148,6,0,L|346:114,1,70
167,114,16256,1,0,0:0:0:0:
351,341,16364,1,0,0:0:0:0:
329,53,16472,1,0,0:0:0:0:
127,211,16581,6,0,L|205:210,1,70
417,202,16689,1,0,0:0:0:0:
199,357,16798,1,0,0:0:0:0:
251,69,16906,1,0,0:0:0:0:
395,310,17013,1,0,0:0:0:0:
182,217,17122,1,0,0:0:0:0:
373,60,17230,6,0,L|285:89,1,70
59,144,17338,1,0,0:0:0:0:
275,203,17447,1,0,0:0:0:0:
150,367,17555,6,0,P|211:357|278:300,1,140
162,165,17771,1,0,0:0:0:0:
437,227,17879,6,0,L|345:268,1,70
174,322,17988,1,0,0:0:0:0:
278,72,18096,1,0,0:0:0:0:
349,330,18204,1,0,0:0:0:0:
109,294,18312,6,0,L|151:216,1,70
211,56,18421,1,0,0:0:0:0:
287,334,18529,1,0,0:0:0:0:
449,179,18637,1,0,0:0:0:0:
138,118,18745,1,0,0:0:0:0:
409,308,18853,1,0,0:0:0:0:
274,57,18962,1,0,0:0:0:0:
265,339,19070,1,0,0:0:0:0:
181,66,19178,1,0,0:0:0:0:
73,289,19287,2,0,B|68:288|116:363|240:322,1,140
271,179,19502,1,0,0:0:0:0:
457,236,19611,5,0,0:0:0:0:
437,183,19665,1,0,0:0:0:0:
398,142,19719,1,0,0:0:0:0:
354,106,19773,1,0,0:0:0:0:
302,84,19828,2,0,P|202:63|133:76,1,140
83,328,20044,6,0,L|177:330,1,70
351,328,20152,1,0,0:0:0:0:
107,154,20260,1,0,0:0:0:0:
344,65,20368,1,0,0:0:0:0:
231,319,20477,1,0,0:0:0:0:
145,86,20585,1,0,0:0:0:0:
395,81,20693,6,0,L|409:168,1,70
400,369,20802,1,0,0:0:0:0:
282,200,20910,1,0,0:0:0:0:
135,344,21018,1,0,0:0:0:0:
68,58,21126,2,0,L|125:160,1,70
291,312,21234,1,0,0:0:0:0:
205,61,21342,1,0,0:0:0:0:
93,164,21451,6,0,L|210:151,1,70
447,119,21559,2,0,L|361:151,1,70
204,329,21668,1,0,0:0:0:0:
338,114,21776,1,0,0:0:0:0:
120,34,21884,6,0,L|229:96,1,70
402,190,21992,1,0,0:0:0:0:
94,203,22100,1,0,0:0:0:0:
314,46,22208,1,0,0:0:0:0:
410,251,22317,6,0,P|403:324|324:391,1,140
89,167,22533,2,0,P|120:222|240:243,1,140
420,42,22749,2,0,P|440:110|420:198,1,140
295,339,22966,1,0,0:0:0:0:
68,245,23074,6,0,L|158:182,1,70
333,57,23182,1,0,0:0:0:0:
175,330,23291,1,0,0:0:0:0:
420,239,23399,1,0,0:0:0:0:
88,114,23508,6,0,L|164:117,1,70
385,119,23615,1,0,0:0:0:0:
128,276,23723,1,0,0:0:0:0:
242,46,23832,1,0,0:0:0:0:
452,181,23940,1,0,0:0:0:0:
306,334,24048,6,0,P|217:331|161:305,1,140
116,278,24211,1,0,0:0:0:0:
82,224,24265,1,0,0:0:0:0:
225,59,24373,1,0,0:0:0:0:
414,141,24481,2,0,L|357:226,1,70
219,327,24589,1,0,0:0:0:0:
38,182,24698,6,0,L|118:130,1,70
283,23,24806,1,0,0:0:0:0:
483,194,24914,2,0,L|419:274,1,70
325,362,25022,1,0,0:0:0:0:
264,103,25131,1,0,0:0:0:0:
137,316,25239,1,0,0:0:0:0:
71,160,25347,6,0,L|184:181,1,70
356,227,25455,1,0,0:0:0:0:
450,64,25563,1,0,0:0:0:0:
204,56,25672,1,0,0:0:0:0:
354,246,25780,1,0,0:0:0:0:
75,174,25888,1,0,0:0:0:0:
354,246,25997,5,0,0:0:0:0:
99,111,26104,1,0,0:0:0:0:
214,324,26212,1,0,0:0:0:0:
267,79,26321,1,0,0:0:0:0:
449,277,26429,1,0,0:0:0:0:
112,267,26538,6,0,L|176:192,1,70
289,28,26646,2,0,L|284:126,1,70
293,318,26754,1,0,0:0:0:0:
431,119,26862,1,0,0:0:0:0:
246,349,26970,2,0,L|176:267,1,70
113,87,27078,1,0,0:0:0:0:
352,251,27187,1,0,0:0:0:0:
196,40,27295,1,0,0:0:0:0:
146,262,27403,1,0,0:0:0:0:
318,98,27512,1,0,0:0:0:0:
49,143,27620,6,0,L|155:105,1,70
353,40,27728,1,0,0:0:0:0:
293,271,27836,1,0,0:0:0:0:
439,95,27944,6,0,P|464:165|441:245,1,140
229,339,28161,2,0,P|157:318|116:255,1,140
210,47,28378,5,0,0:0:0:0:
229,329,28486,1,0,0:0:0:0:
274,54,28593,1,0,0:0:0:0:
300,330,28702,1,0,0:0:0:0:
354,59,28810,1,0,0:0:0:0:
151,285,28918,5,0,0:0:0:0:
383,183,29027,1,0,0:0:0:0:
120,142,29135,1,0,0:0:0:0:
267,341,29243,1,0,0:0:0:0:
258,40,29352,5,0,0:0:0:0:
342,67,29406,1,0,0:0:0:0:
412,119,29459,2,0,P|441:195|433:257,1,140
113,302,29676,2,0,P|182:354|258:359,1,140
264,67,29892,1,0,0:0:0:0:
385,297,30001,1,0,0:0:0:0:
156,121,30109,1,0,0:0:0:0:
401,34,30218,1,0,0:0:0:0:
254,328,30325,1,0,0:0:0:0:
189,53,30433,6,0,L|247:118,1,70
369,237,30542,1,0,0:0:0:0:
94,242,30650,1,0,0:0:0:0:
300,62,30758,1,0,0:0:0:0:
236,339,30867,1,0,0:0:0:0:
413,94,30975,1,0,0:0:0:0:
144,302,31082,6,0,L|131:210,1,70
107,28,31191,1,0,0:0:0:0:
434,220,31299,5,0,0:0:0:0:
395,269,31353,1,0,0:0:0:0:
334,287,31408,2,0,P|261:290|182:253,1,140
353,67,31624,1,0,0:0:0:0:
378,319,31732,1,0,0:0:0:0:
126,126,31841,1,0,0:0:0:0:
384,64,31948,1,0,0:0:0:0:
215,316,32057,1,0,0:0:0:0:
271,53,32165,6,0,L|200:101,1,70
48,214,32273,1,0,0:0:0:0:
331,336,32382,1,0,0:0:0:0:
258,88,32490,1,0,0:0:0:0:
100,256,32598,1,0,0:0:0:0:
382,221,32707,1,0,0:0:0:0:
143,98,32814,6,0,L|231:90,1,70
429,68,32922,1,0,0:0:0:0:
156,283,33031,5,0,0:0:0:0:
216,318,33085,1,0,0:0:0:0:
282,339,33139,2,0,P|340:337|412:284,1,140
174,72,33356,1,0,0:0:0:0:
419,213,33464,1,0,0:0:0:0:
130,142,33572,1,0,0:0:0:0:
413,80,33680,1,0,0:0:0:0:
164,270,33788,1,0,0:0:0:0:
468,110,33897,6,0,L|356:170,1,70
158,225,34005,1,0,0:0:0:0:
465,248,34113,1,0,0:0:0:0:
211,95,34222,1,0,0:0:0:0:
263,319,34330,1,0,0:0:0:0:
324,92,34438,1,0,0:0:0:0:
397,286,34546,6,0,L|293:224,1,70
139,111,34654,1,0,0:0:0:0:
229,318,34762,5,0,0:0:0:0:
169,281,34817,1,0,0:0:0:0:
136,219,34871,2,0,P|118:119|133:83,1,140
298,32,35088,5,0,0:0:0:0:
327,51,35142,1,0,0:0:0:0:
356,70,35196,1,0,0:0:0:0:
438,179,35303,5,0,0:0:0:0:
429,212,35358,1,0,0:0:0:0:
418,245,35412,1,0,0:0:0:0:
173,181,35520,1,0,0:0:0:0:
372,331,35628,1,0,0:0:0:0:
399,93,35737,5,0,0:0:0:0:
364,90,35791,1,0,0:0:0:0:
329,88,35845,1,0,0:0:0:0:
243,296,35953,1,0,0:0:0:0:
177,39,36062,5,0,0:0:0:0:
211,39,36115,1,0,0:0:0:0:
245,41,36169,1,0,0:0:0:0:
416,38,36278,5,0,0:0:0:0:
433,68,36332,1,0,0:0:0:0:
446,100,36386,1,0,0:0:0:0:
453,134,36440,1,0,0:0:0:0:
457,168,36494,1,0,0:0:0:0:
451,202,36548,1,0,0:0:0:0:
440,235,36602,2,0,P|360:281|298:283,1,140
184,101,36819,1,0,0:0:0:0:
273,352,36927,5,0,0:0:0:0:
314,350,36981,1,0,0:0:0:0:
355,347,37035,1,0,0:0:0:0:
394,333,37089,1,0,0:0:0:0:
420,310,37143,2,0,P|464:237|461:166,1,140
318,54,37360,5,0,0:0:0:0:
282,53,37414,1,0,0:0:0:0:
247,51,37468,2,0,P|141:65|110:81,1,140
218,326,37685,1,0,0:0:0:0:
367,102,37792,1,0,0:0:0:0:
78,163,37901,1,0,0:0:0:0:
372,282,38009,6,0,L|283:209,1,70
257,96,38118,2,0,L|247:198,1,70
188,323,38226,2,0,L|289:263,1,70
405,189,38334,2,0,P|382:89|320:50,1,140
98,70,38551,1,0,0:0:0:0:
131,312,38658,5,0,0:0:0:0:
165,310,38712,1,0,0:0:0:0:
199,307,38767,2,0,P|268:268|340:225,1,140
328,69,38983,1,0,0:0:0:0:
104,128,39092,5,0,0:0:0:0:
109,162,39146,1,0,0:0:0:0:
115,196,39200,1,0,0:0:0:0:
282,324,39308,1,0,0:0:0:0:
470,184,39416,1,0,0:0:0:0:
187,277,39524,5,0,0:0:0:0:
222,276,39578,1,0,0:0:0:0:
256,274,39632,1,0,0:0:0:0:
391,105,39741,1,0,0:0:0:0:
162,226,39849,1,0,0:0:0:0:
240,35,39958,1,0,0:0:0:0:
404,207,40066,2,0,P|361:294|277:325,1,140
75,141,40282,5,0,0:0:0:0:
99,115,40336,1,0,0:0:0:0:
130,99,40390,1,0,0:0:0:0:
164,91,40444,1,0,0:0:0:0:
199,89,40498,1,0,0:0:0:0:
233,93,40552,1,0,0:0:0:0:
264,109,40607,2,0,P|317:147|373:252,1,140
109,283,40823,5,0,0:0:0:0:
135,306,40878,1,0,0:0:0:0:
168,315,40932,1,0,0:0:0:0:
422,234,41040,1,0,0:0:0:0:
107,133,41148,1,0,0:0:0:0:
298,348,41256,1,0,0:0:0:0:
301,64,41364,1,0,0:0:0:0:
73,288,41472,1,0,0:0:0:0:
412,88,41581,1,0,0:0:0:0:
69,70,41689,1,0,0:0:0:0:
290,332,41798,6,0,L|396:310,1,70
256,192,41959,12,0,42013,0:0:0:0:
256,192,42068,12,0,42122,0:0:0:0:
256,192,42122,12,0,42176,0:0:0:0:
256,192,42176,12,0,42230,0:0:0:0:
256,192,42230,12,0,42284,0:0:0:0:
256,192,42284,12,0,42338,0:0:0:0:
256,192,42392,12,0,42447,0:0:0:0:
256,192,42501,12,0,42555,0:0:0:0:
256,192,42609,12,0,42663,0:0:0:0:
256,192,42718,12,0,42772,0:0:0:0:
256,192,42825,12,0,42879,0:0:0:0:
256,192,42933,12,0,42988,0:0:0:0:
256,192,42988,12,0,43042,0:0:0:0:
256,192,43042,12,0,43096,0:0:0:0:
256,192,43150,12,0,43204,0:0:0:0:
256,192,43258,12,0,43312,0:0:0:0:
256,192,43312,12,0,43367,0:0:0:0:
256,192,43367,12,0,43421,0:0:0:0:
256,192,43475,12,0,43529,0:0:0:0:
256,192,43582,12,0,43637,0:0:0:0:
256,192,43691,12,0,43745,0:0:0:0:
256,192,43799,12,0,43853,0:0:0:0:
256,192,43853,12,0,43908,0:0:0:0:
256,192,43908,12,0,43962,0:0:0:0:
256,192,44016,12,0,44070,0:0:0:0:
256,192,44124,12,0,44178,0:0:0:0:
256,192,44178,12,0,44232,0:0:0:0:
256,192,44232,12,0,44287,0:0:0:0:
256,192,44341,12,0,44395,0:0:0:0:
256,192,44448,12,0,44502,0:0:0:0:
256,192,44557,12,0,44611,0:0:0:0:
256,192,44665,12,0,44719,0:0:0:0:
256,192,44719,12,0,44773,0:0:0:0:
256,192,44773,12,0,44828,0:0:0:0:
256,192,44828,12,0,44882,0:0:0:0:
256,192,44936,12,0,45044,0:0:0:0:
256,192,45152,12,0,45261,0:0:0:0:
236,43,45260,5,0,0:0:0:0:
104,200,45368,1,0,0:0:0:0:
248,328,45477,1,0,0:0:0:0:
378,193,45585,5,0,0:0:0:0:
343,191,45639,1,0,0:0:0:0:
307,192,45693,1,0,0:0:0:0:
271,190,45748,1,0,0:0:0:0:
235,191,45802,1,0,0:0:0:0:
116,321,45910,5,0,0:0:0:0:
78,289,45964,1,0,0:0:0:0:
54,245,46018,1,0,0:0:0:0:
50,196,46072,1,0,0:0:0:0:
65,142,46126,2,0,P|120:72|196:54,1,140
254,192,46342,1,0,0:0:0:0:
406,190,46451,5,0,0:0:0:0:
410,245,46505,1,0,0:0:0:0:
378,291,46559,1,0,0:0:0:0:
244,127,46668,1,0,0:0:0:0:
191,297,46776,1,0,0:0:0:0:
369,217,46884,1,0,0:0:0:0:
198,70,46992,2,0,P|125:127|106:190,1,140
273,301,47208,1,0,0:0:0:0:
384,84,47317,5,0,0:0:0:0:
420,126,47371,1,0,0:0:0:0:
433,180,47425,1,0,0:0:0:0:
416,233,47479,1,0,0:0:0:0:
390,282,47533,2,0,P|303:326|247:324,1,140
306,223,47749,5,0,0:0:0:0:
323,162,47803,1,0,0:0:0:0:
318,99,47858,1,0,0:0:0:0:
280,57,47912,1,0,0:0:0:0:
227,36,47966,1,0,0:0:0:0:
170,37,48020,1,0,0:0:0:0:
117,57,48074,2,0,P|64:136|69:184,1,140
224,301,48291,5,0,0:0:0:0:
175,272,48345,1,0,0:0:0:0:
170,216,48399,1,0,0:0:0:0:
188,163,48453,1,0,0:0:0:0:
239,140,48508,2,0,P|323:116|386:127,1,140
293,342,48723,6,0,P|167:348|127:306,1,140
285,76,48940,1,0,0:0:0:0:
82,259,49048,1,0,0:0:0:0:
357,186,49157,1,0,0:0:0:0:
141,63,49265,1,0,0:0:0:0:
262,321,49373,1,0,0:0:0:0:
364,54,49481,1,0,0:0:0:0:
179,305,49589,6,0,P|136:202|158:159,1,140
435,116,49806,1,0,0:0:0:0:
246,359,49914,1,0,0:0:0:0:
199,84,50022,1,0,0:0:0:0:
364,318,50131,1,0,0:0:0:0:
85,163,50239,5,0,0:0:0:0:
108,112,50292,1,0,0:0:0:0:
148,72,50347,1,0,0:0:0:0:
198,48,50401,1,0,0:0:0:0:
253,40,50455,2,0,P|336:50|421:96,1,140
163,332,50672,1,0,0:0:0:0:
340,65,50780,1,0,0:0:0:0:
362,334,50888,1,0,0:0:0:0:
114,143,50997,1,0,0:0:0:0:
373,179,51104,1,0,0:0:0:0:
119,305,51212,1,0,0:0:0:0:
266,34,51321,6,0,P|159:30|109:49,1,140
317,352,51538,1,0,0:0:0:0:
43,91,51646,1,0,0:0:0:0:
331,151,51754,1,0,0:0:0:0:
96,292,51862,5,0,0:0:0:0:
76,240,51916,1,0,0:0:0:0:
76,183,51970,1,0,0:0:0:0:
354,133,52078,1,0,0:0:0:0:
163,312,52187,6,0,P|232:346|302:321,1,140
121,101,52403,1,0,0:0:0:0:
384,156,52512,1,0,0:0:0:0:
120,309,52620,1,0,0:0:0:0:
256,45,52728,1,0,0:0:0:0:
387,274,52836,6,0,P|322:318|233:314,1,140
129,110,53052,2,0,P|109:205|146:245,1,140
398,196,53269,1,0,0:0:0:0:
158,66,53378,1,0,0:0:0:0:
180,336,53486,1,0,0:0:0:0:
398,196,53593,1,0,0:0:0:0:
84,131,53702,1,0,0:0:0:0:
340,318,53810,1,0,0:0:0:0:
80,124,53918,6,0,P|128:53|179:36,1,140
41,341,54135,1,0,0:0:0:0:
322,170,54243,1,0,0:0:0:0:
69,85,54352,1,0,0:0:0:0:
276,327,54459,1,0,0:0:0:0:
360,59,54568,1,0,0:0:0:0:
123,253,54676,1,0,0:0:0:0:
409,302,54784,6,0,P|427:218|414:165,1,140
157,321,55001,2,0,P|94:258|91:199,1,140
318,46,55218,1,0,0:0:0:0:
97,298,55325,1,0,0:0:0:0:
413,316,55433,1,0,0:0:0:0:
127,115,55542,1,0,0:0:0:0:
416,122,55650,6,0,P|413:205|377:276,1,140
265,21,55867,1,0,0:0:0:0:
196,354,55975,1,0,0:0:0:0:
366,63,56082,1,0,0:0:0:0:
269,373,56191,1,0,0:0:0:0:
170,67,56299,1,0,0:0:0:0:
378,327,56408,1,0,0:0:0:0:
254,54,56516,5,0,0:0:0:0:
217,362,56624,1,0,0:0:0:0:
409,112,56732,1,0,0:0:0:0:
112,208,56841,1,0,0:0:0:0:
317,340,56948,1,0,0:0:0:0:
376,44,57057,1,0,0:0:0:0:
102,182,57165,1,0,0:0:0:0:
235,316,57273,5,0,0:0:0:0:
179,324,57328,1,0,0:0:0:0:
124,310,57382,2,0,P|47:251|28:190,1,140
363,304,57598,1,0,0:0:0:0:
239,39,57707,1,0,0:0:0:0:
157,329,57814,1,0,0:0:0:0:
391,167,57922,1,0,0:0:0:0:
107,170,58031,1,0,0:0:0:0:
364,281,58139,1,0,0:0:0:0:
228,37,58248,6,0,P|136:86|113:133,1,140
369,56,58464,1,0,0:0:0:0:
94,207,58572,1,0,0:0:0:0:
464,245,58680,1,0,0:0:0:0:
240,52,58788,5,0,0:0:0:0:
184,46,58842,1,0,0:0:0:0:
128,51,58897,1,0,0:0:0:0:
82,84,58951,1,0,0:0:0:0:
67,138,59005,6,0,P|102:233|158:280,1,140
291,72,59222,1,0,0:0:0:0:
294,342,59330,1,0,0:0:0:0:
171,88,59438,1,0,0:0:0:0:
393,337,59546,1,0,0:0:0:0:
377,93,59654,1,0,0:0:0:0:
168,334,59762,5,0,0:0:0:0:
291,72,59871,1,0,0:0:0:0:
38,88,59979,1,0,0:0:0:0:
334,126,60088,1,0,0:0:0:0:
54,266,60196,1,0,0:0:0:0:
257,92,60303,1,0,0:0:0:0:
275,330,60412,5,0,0:0:0:0:
65,107,60520,1,0,0:0:0:0:
427,232,60628,1,0,0:0:0:0:
188,54,60737,1,0,0:0:0:0:
163,345,60845,6,0,P|91:285|78:227,1,140
255,187,61062,1,0,0:0:0:0:
387,336,61169,1,0,0:0:0:0:
431,129,61278,6,0,P|347:92|264:93,1,140
396,291,61494,1,0,0:0:0:0:
206,204,61602,1,0,0:0:0:0:
290,354,61711,6,0,P|161:340|130:314,1,140
391,161,61927,2,0,P|296:124|205:114,1,140
69,208,62143,2,0,P|112:284|185:324,1,140
209,326,62306,1,0,0:0:0:0:
264,331,62360,1,0,0:0:0:0:
189,94,62468,1,0,0:0:0:0:
431,165,62577,6,0,P|444:254|395:310,1,140
157,32,63118,6,0,P|99:101|70:176,1,140
245,202,63334,1,0,0:0:0:0:
369,112,63551,2,0,P|397:216|380:256,1,140
230,306,63767,2,0,P|135:294|103:252,1,140
159,34,63983,2,0,P|71:94|78:135,1,140
211,201,64200,1,0,0:0:0:0:
393,144,64308,2,0,P|407:212|358:280,1,140
221,47,64849,5,0,0:0:0:0:
115,132,64958,1,0,0:0:0:0:
128,263,65066,2,0,P|189:329|253:330,1,140
400,315,65282,2,0,P|463:246|456:181,1,140
350,96,65498,2,0,P|320:203|267:220,1,140
178,199,65715,2,0,P|120:122|139:57,1,140
226,44,65932,2,0,P|323:42|397:73,1,140
167,218,66581,5,0,0:0:0:0:
345,215,66689,2,0,P|400:148|372:83,1,140
270,63,66906,2,0,P|174:48|107:81,1,140
71,192,67122,2,0,P|120:293|184:310,1,140
256,212,67338,1,0,0:0:0:0:
427,141,67447,6,0,P|423:250|401:279,1,140
199,292,67771,2,0,P|96:261|75:178,1,175
71,183,68096,2,0,P|91:103|176:56,1,175
344,43,68421,6,0,P|402:92|424:179,1,140
182,297,68637,2,0,P|235:329|338:292,1,140
420,190,68853,1,0,0:0:0:0:
343,63,68962,2,0,P|229:50|187:54,1,140
136,293,69287,1,0,0:0:0:0:
329,85,69395,1,0,0:0:0:0:
136,293,69502,5,0,0:0:0:0:
390,187,69611,1,0,0:0:0:0:
191,317,69719,5,0,0:0:0:0:
162,286,69773,1,0,0:0:0:0:
133,254,69828,1,0,0:0:0:0:
114,216,69882,1,0,0:0:0:0:
101,175,69936,1,0,0:0:0:0:
105,133,69990,1,0,0:0:0:0:
121,94,70044,2,0,P|157:52|191:34,1,70
299,308,70152,2,0,L|298:218,1,70
302,70,70260,2,0,L|216:125,1,70
97,228,70368,5,0,0:0:0:0:
116,265,70422,1,0,0:0:0:0:
148,292,70477,1,0,0:0:0:0:
186,309,70531,1,0,0:0:0:0:
228,310,70585,6,0,P|313:301|325:288,1,70
430,181,70693,2,0,P|390:104|370:98,1,70
307,47,70802,2,0,P|231:33|199:39,1,70
209,345,70910,2,0,P|156:268|157:240,1,70
162,165,71018,2,0,P|213:112|251:104,1,70
344,79,71126,2,0,P|398:151|393:183,1,70
413,267,71234,2,0,P|334:306|314:305,1,70
186,309,71342,5,0,0:0:0:0:
159,275,71397,1,0,0:0:0:0:
148,234,71451,1,0,0:0:0:0:
150,192,71505,1,0,0:0:0:0:
128,156,71559,1,0,0:0:0:0:
121,197,71613,1,0,0:0:0:0:
155,220,71668,1,0,0:0:0:0:
193,236,71722,1,0,0:0:0:0:
227,241,71776,6,0,P|277:254|332:241,1,70
378,80,71884,2,0,P|409:157|406:181,1,70
280,316,71992,2,0,P|197:294|190:278,1,70
182,294,72100,5,0,0:0:0:0:
176,259,72154,1,0,0:0:0:0:
193,236,72208,6,0,P|256:187|270:182,1,70
391,315,72317,2,0,P|404:234|398:198,1,70
372,85,72425,2,0,P|295:54|240:54,1,70
141,134,72533,2,0,P|144:208|169:241,1,70
229,307,72642,2,0,P|320:294|340:271,1,70
304,70,72749,2,0,P|214:54|189:60,1,70
227,292,72858,2,0,P|304:313|331:291,1,70
427,162,72966,2,0,P|371:94|336:85,1,70
362,80,73074,5,0,0:0:0:0:
331,63,73128,1,0,0:0:0:0:
298,49,73182,1,0,0:0:0:0:
264,38,73237,1,0,0:0:0:0:
229,46,73291,1,0,0:0:0:0:
248,74,73345,1,0,0:0:0:0:
266,103,73399,1,0,0:0:0:0:
272,130,73453,1,0,0:0:0:0:
273,151,73508,6,0,P|244:225|224:240,1,70
146,64,73615,2,0,P|120:139|135:172,1,70
210,298,73723,2,0,P|278:318|300:305,1,70
315,315,73832,5,0,0:0:0:0:
354,299,73886,1,0,0:0:0:0:
388,274,73940,2,0,P|427:197|429:189,1,70
435,81,74048,5,0,0:0:0:0:
394,92,74102,1,0,0:0:0:0:
354,105,74157,2,0,L|251:144,1,70
98,211,74265,5,0,0:0:0:0:
124,243,74319,1,0,0:0:0:0:
154,271,74373,2,0,P|229:323|246:325,1,70
368,322,74481,2,0,P|418:270|422:236,1,70
327,57,74589,2,0,P|246:63|217:72,1,70
228,250,74698,2,0,P|226:330|196:331,1,70
196,312,74806,5,0,0:0:0:0:
142,294,74860,1,0,0:0:0:0:
96,261,74914,1,0,0:0:0:0:
71,210,74968,1,0,0:0:0:0:
76,154,75022,1,0,0:0:0:0:
107,107,75077,1,0,0:0:0:0:
154,76,75131,2,0,P|241:48|279:52,1,70
330,318,75239,5,0,0:0:0:0:
383,287,75292,1,0,0:0:0:0:
408,229,75347,1,0,0:0:0:0:
410,165,75401,1,0,0:0:0:0:
390,105,75455,2,0,P|327:51|287:48,1,70
158,154,75563,5,0,0:0:0:0:
196,204,75618,1,0,0:0:0:0:
252,232,75672,2,0,P|327:245|343:232,1,70
419,76,75780,5,0,0:0:0:0:
426,313,75888,1,0,0:0:0:0:
210,318,75997,5,0,0:0:0:0:
160,278,76051,1,0,0:0:0:0:
136,228,76104,1,0,0:0:0:0:
133,178,76158,1,0,0:0:0:0:
138,136,76212,1,0,0:0:0:0:
289,46,76321,1,0,0:0:0:0:
434,127,76429,6,0,P|466:244|464:302,1,140
189,61,76646,1,0,0:0:0:0:
248,314,76754,1,0,0:0:0:0:
269,59,76862,1,0,0:0:0:0:
193,317,76970,1,0,0:0:0:0:
127,75,77078,5,0,0:0:0:0:
120,318,77187,1,0,0:0:0:0:
310,58,77295,1,0,0:0:0:0:
311,342,77403,1,0,0:0:0:0:
150,111,77512,1,0,0:0:0:0:
397,174,77620,1,0,0:0:0:0:
184,317,77728,1,0,0:0:0:0:
230,55,77836,5,0,0:0:0:0:
271,59,77890,1,0,0:0:0:0:
312,63,77944,1,0,0:0:0:0:
129,208,78052,1,0,0:0:0:0:
368,276,78161,6,0,P|446:196|440:148,1,140
141,122,78378,1,0,0:0:0:0:
321,336,78486,5,0,0:0:0:0:
324,87,78593,1,0,0:0:0:0:
130,263,78702,5,0,0:0:0:0:
393,148,78810,1,0,0:0:0:0:
220,316,78918,1,0,0:0:0:0:
473,199,79027,1,0,0:0:0:0:
308,351,79135,1,0,0:0:0:0:
260,87,79243,1,0,0:0:0:0:
400,230,79352,5,0,0:0:0:0:
344,233,79406,1,0,0:0:0:0:
288,232,79459,1,0,0:0:0:0:
326,35,79568,5,0,0:0:0:0:
269,35,79622,1,0,0:0:0:0:
212,34,79676,1,0,0:0:0:0:
155,34,79730,1,0,0:0:0:0:
98,34,79784,6,0,L|100:212,1,140
256,352,80001,1,0,0:0:0:0:
74,154,80109,1,0,0:0:0:0:
344,260,80218,1,0,0:0:0:0:
80,233,80325,5,0,0:0:0:0:
300,65,80433,1,0,0:0:0:0:
169,278,80542,1,0,0:0:0:0:
376,120,80650,1,0,0:0:0:0:
249,305,80758,5,0,0:0:0:0:
171,67,80867,1,0,0:0:0:0:
372,234,80975,1,0,0:0:0:0:
149,262,81082,1,0,0:0:0:0:
322,61,81191,1,0,0:0:0:0:
374,356,81299,5,0,0:0:0:0:
311,351,81353,1,0,0:0:0:0:
248,346,81408,1,0,0:0:0:0:
112,190,81516,1,0,0:0:0:0:
232,44,81624,6,0,P|327:72|360:114,1,140
155,292,81841,1,0,0:0:0:0:
430,199,81948,1,0,0:0:0:0:
120,164,82057,1,0,0:0:0:0:
412,303,82165,1,0,0:0:0:0:
187,85,82273,5,0,0:0:0:0:
277,329,82382,1,0,0:0:0:0:
398,87,82490,1,0,0:0:0:0:
164,238,82598,1,0,0:0:0:0:
408,218,82707,1,0,0:0:0:0:
189,112,82814,5,0,0:0:0:0:
259,110,82868,1,0,0:0:0:0:
329,110,82922,1,0,0:0:0:0:
240,323,83031,5,0,0:0:0:0:
187,302,83085,1,0,0:0:0:0:
145,264,83139,1,0,0:0:0:0:
128,210,83193,1,0,0:0:0:0:
133,154,83248,1,0,0:0:0:0:
173,115,83302,1,0,0:0:0:0:
225,95,83356,6,0,P|318:141|333:185,1,140
345,339,83572,1,0,0:0:0:0:
211,244,83680,5,0,0:0:0:0:
232,207,83734,1,0,0:0:0:0:
257,173,83788,1,0,0:0:0:0:
420,232,83897,1,0,0:0:0:0:
257,65,84005,1,0,0:0:0:0:
129,190,84113,5,0,0:0:0:0:
159,219,84168,1,0,0:0:0:0:
183,253,84222,1,0,0:0:0:0:
345,339,84330,1,0,0:0:0:0:
349,304,84384,1,0,0:0:0:0:
351,269,84438,1,0,0:0:0:0:
313,83,84546,1,0,0:0:0:0:
278,87,84600,1,0,0:0:0:0:
242,87,84654,1,0,0:0:0:0:
120,240,84762,5,0,0:0:0:0:
145,273,84817,1,0,0:0:0:0:
174,303,84871,1,0,0:0:0:0:
207,328,84925,1,0,0:0:0:0:
247,337,84979,1,0,0:0:0:0:
288,339,85033,1,0,0:0:0:0:
329,331,85088,6,0,P|411:275|428:221,1,140
200,109,85303,1,0,0:0:0:0:
364,336,85412,5,0,0:0:0:0:
399,313,85466,1,0,0:0:0:0:
425,280,85520,1,0,0:0:0:0:
135,236,85628,1,0,0:0:0:0:
309,90,85737,1,0,0:0:0:0:
283,348,85845,5,0,0:0:0:0:
241,339,85899,1,0,0:0:0:0:
202,322,85953,1,0,0:0:0:0:
107,128,86062,1,0,0:0:0:0:
129,92,86115,1,0,0:0:0:0:
158,62,86169,1,0,0:0:0:0:
373,59,86278,1,0,0:0:0:0:
398,92,86332,1,0,0:0:0:0:
418,128,86386,1,0,0:0:0:0:
400,287,86494,5,0,0:0:0:0:
367,313,86548,1,0,0:0:0:0:
327,327,86602,1,0,0:0:0:0:
285,322,86657,1,0,0:0:0:0:
246,304,86711,1,0,0:0:0:0:
212,278,86765,1,0,0:0:0:0:
186,244,86819,6,0,P|147:168|164:115,1,140
373,230,87035,1,0,0:0:0:0:
264,56,87143,5,0,0:0:0:0:
222,60,87198,1,0,0:0:0:0:
180,62,87252,1,0,0:0:0:0:
62,220,87360,1,0,0:0:0:0:
269,165,87468,1,0,0:0:0:0:
316,321,87577,5,0,0:0:0:0:
358,319,87631,1,0,0:0:0:0:
399,313,87685,1,0,0:0:0:0:
425,130,87792,1,0,0:0:0:0:
393,101,87847,1,0,0:0:0:0:
362,71,87901,1,0,0:0:0:0:
133,74,88009,1,0,0:0:0:0:
109,109,88063,1,0,0:0:0:0:
85,151,88118,1,0,0:0:0:0:
218,328,88226,5,0,0:0:0:0:
266,319,88280,1,0,0:0:0:0:
311,299,88334,1,0,0:0:0:0:
350,270,88388,1,0,0:0:0:0:
382,233,88442,1,0,0:0:0:0:
409,192,88497,1,0,0:0:0:0:
423,145,88551,6,0,P|378:75|296:49,1,140
202,291,88767,1,0,0:0:0:0:
122,114,88875,5,0,0:0:0:0:
166,79,88929,1,0,0:0:0:0:
212,48,88983,1,0,0:0:0:0:
420,142,89092,1,0,0:0:0:0:
242,200,89200,1,0,0:0:0:0:
322,341,89308,5,0,0:0:0:0:
375,323,89362,1,0,0:0:0:0:
417,288,89416,1,0,0:0:0:0:
243,119,89524,1,0,0:0:0:0:
178,321,89632,1,0,0:0:0:0:
69,114,89741,1,0,0:0:0:0:
304,36,89849,5,0,0:0:0:0:
355,58,89903,1,0,0:0:0:0:
388,93,89958,1,0,0:0:0:0:
412,135,90012,1,0,0:0:0:0:
424,182,90066,1,0,0:0:0:0:
432,230,90120,1,0,0:0:0:0:
424,278,90174,1,0,0:0:0:0:
396,318,90228,1,0,0:0:0:0:
355,343,90282,2,0,L|266:348,1,70
256,192,91093,12,0,91148,0:0:0:0:
256,192,91148,12,0,91256,0:0:0:0:
256,192,91364,12,0,91472,0:0:0:0:
256,192,91581,12,0,91689,0:0:0:0:
256,192,91798,12,0,91906,0:0:0:0:
256,192,91906,12,0,92014,0:0:0:0:
256,192,92013,12,0,92122,0:0:0:0:
256,192,92230,12,0,92338,0:0:0:0:
256,192,92338,12,0,92447,0:0:0:0:
256,192,92447,12,0,92555,0:0:0:0:
256,192,92555,12,0,92663,0:0:0:0:
256,192,92663,12,0,92772,0:0:0:0:
256,192,92771,12,0,92879,0:0:0:0:
256,192,92879,12,0,92988,0:0:0:0:
256,192,93096,12,0,93204,0:0:0:0:
256,192,93312,12,0,93421,0:0:0:0:
256,192,93529,12,0,93638,0:0:0:0:
256,192,93637,12,0,93745,0:0:0:0:
256,192,93745,12,0,93853,0:0:0:0:
256,192,93962,12,0,94070,0:0:0:0:
256,192,94070,12,0,94178,0:0:0:0:
256,192,94178,12,0,94287,0:0:0:0:
256,192,94287,12,0,94395,0:0:0:0:
256,192,94341,12,0,94395,0:0:0:0:
256,192,94502,12,0,94611,0:0:0:0:
345,131,94611,5,0,0:0:0:0:
131,57,94719,1,0,0:0:0:0:
177,259,94828,1,0,0:0:0:0:
355,312,94936,5,0,0:0:0:0:
377,276,94990,1,0,0:0:0:0:
402,242,95044,1,0,0:0:0:0:
421,204,95098,1,0,0:0:0:0:
436,165,95152,1,0,0:0:0:0:
454,127,95207,1,0,0:0:0:0:
473,90,95260,2,0,P|384:46|360:47,1,70
109,78,95368,6,0,P|131:153|159:170,1,70
148,178,95477,1,0,0:0:0:0:
177,207,95531,1,0,0:0:0:0:
203,229,95585,1,0,0:0:0:0:
229,251,95639,1,0,0:0:0:0:
269,274,95693,6,0,P|358:285|368:281,1,70
459,225,95802,2,0,P|413:152|391:142,1,70
232,38,95910,2,0,P|204:127|206:154,1,70
129,301,96018,2,0,P|219:332|253:334,1,70
330,104,96126,2,0,P|367:172|369:201,1,70
349,310,96234,2,0,P|256:328|238:323,1,70
247,327,96342,5,0,0:0:0:0:
212,320,96397,1,0,0:0:0:0:
183,300,96451,1,0,0:0:0:0:
161,272,96505,1,0,0:0:0:0:
150,238,96559,1,0,0:0:0:0:
156,203,96613,1,0,0:0:0:0:
188,189,96668,1,0,0:0:0:0:
216,219,96722,1,0,0:0:0:0:
275,256,96776,1,0,0:0:0:0:
344,266,96830,1,0,0:0:0:0:
406,254,96884,1,0,0:0:0:0:
454,215,96938,1,0,0:0:0:0:
472,154,96992,6,0,P|456:82|448:74,1,70
199,43,97100,2,0,P|133:70|131:87,1,70
104,278,97208,6,0,P|164:320|190:324,1,70
237,328,97317,1,0,0:0:0:0:
313,334,97371,1,0,0:0:0:0:
389,324,97425,2,0,P|460:290|476:254,1,70
413,99,97533,2,0,P|330:91|307:94,1,70
279,85,97642,5,0,0:0:0:0:
229,86,97696,1,0,0:0:0:0:
181,91,97749,1,0,0:0:0:0:
135,108,97803,1,0,0:0:0:0:
95,136,97858,2,0,P|95:228|133:288,1,140
422,92,98074,6,0,P|453:163|447:250,1,140
164,305,98291,1,0,0:0:0:0:
338,59,98399,5,0,0:0:0:0:
376,89,98453,1,0,0:0:0:0:
408,125,98508,1,0,0:0:0:0:
420,172,98562,1,0,0:0:0:0:
420,220,98615,2,0,B|411:289|388:323|345:345,1,140
231,323,98832,5,0,0:0:0:0:
182,328,98886,1,0,0:0:0:0:
133,319,98940,1,0,0:0:0:0:
87,300,98994,1,0,0:0:0:0:
48,269,99048,2,0,P|19:173|39:120,1,140
195,341,99265,5,0,0:0:0:0:
244,339,99319,1,0,0:0:0:0:
292,336,99373,1,0,0:0:0:0:
426,200,99481,1,0,0:0:0:0:
157,72,99589,1,0,0:0:0:0:
211,312,99698,1,0,0:0:0:0:
343,58,99806,6,0,P|416:139|430:202,1,140
156,208,100022,1,0,0:0:0:0:
401,89,100131,5,0,0:0:0:0:
414,136,100185,1,0,0:0:0:0:
419,184,100239,1,0,0:0:0:0:
403,229,100292,1,0,0:0:0:0:
372,275,100347,1,0,0:0:0:0:
325,305,100401,1,0,0:0:0:0:
271,321,100455,2,0,P|191:308|111:261,1,140
291,47,100672,5,0,0:0:0:0:
235,54,100726,1,0,0:0:0:0:
182,72,100780,1,0,0:0:0:0:
129,92,100834,1,0,0:0:0:0:
99,131,100888,2,0,P|98:239|136:292,1,140
316,326,101104,5,0,0:0:0:0:
367,304,101158,1,0,0:0:0:0:
399,258,101212,1,0,0:0:0:0:
412,203,101267,1,0,0:0:0:0:
413,146,101321,2,0,P|374:67|305:33,1,140
49,252,101538,6,0,P|142:320|200:323,1,140
260,52,101754,1,0,0:0:0:0:
354,323,101862,5,0,0:0:0:0:
305,323,101916,1,0,0:0:0:0:
256,313,101970,1,0,0:0:0:0:
209,296,102024,1,0,0:0:0:0:
163,263,102078,2,0,P|82:163|83:110,1,140
314,48,102295,5,0,0:0:0:0:
352,65,102349,1,0,0:0:0:0:
379,96,102403,1,0,0:0:0:0:
397,133,102458,1,0,0:0:0:0:
407,180,102512,2,0,P|334:260|286:268,1,140
156,58,102728,5,0,0:0:0:0:
120,90,102782,1,0,0:0:0:0:
101,135,102836,1,0,0:0:0:0:
105,183,102890,1,0,0:0:0:0:
127,226,102944,2,0,P|203:294|238:304,1,140
271,156,103161,1,0,0:0:0:0:
431,227,103269,2,0,P|436:141|409:85,1,140
277,270,103486,1,0,0:0:0:0:
129,58,103593,5,0,0:0:0:0:
107,101,103648,1,0,0:0:0:0:
99,149,103702,1,0,0:0:0:0:
95,197,103756,1,0,0:0:0:0:
113,242,103810,2,0,P|191:332|236:343,1,140
400,87,104027,5,0,0:0:0:0:
407,135,104081,1,0,0:0:0:0:
407,184,104135,1,0,0:0:0:0:
404,232,104189,1,0,0:0:0:0:
400,280,104243,2,0,P|342:354|278:361,1,140
201,61,104459,1,0,0:0:0:0:
92,245,104568,1,0,0:0:0:0:
342,101,104676,5,0,0:0:0:0:
302,71,104730,1,0,0:0:0:0:
255,55,104784,1,0,0:0:0:0:
205,55,104838,1,0,0:0:0:0:
161,77,104892,1,0,0:0:0:0:
125,110,104947,1,0,0:0:0:0:
132,158,105001,2,0,P|200:261|249:286,1,140
418,105,105218,1,0,0:0:0:0:
239,332,105325,5,0,0:0:0:0:
183,326,105379,1,0,0:0:0:0:
132,300,105433,1,0,0:0:0:0:
407,245,105542,1,0,0:0:0:0:
220,43,105650,1,0,0:0:0:0:
93,241,105758,5,0,0:0:0:0:
142,267,105812,1,0,0:0:0:0:
195,282,105867,1,0,0:0:0:0:
424,182,105975,1,0,0:0:0:0:
187,69,106082,1,0,0:0:0:0:
347,291,106191,5,0,0:0:0:0:
384,249,106245,1,0,0:0:0:0:
414,202,106299,1,0,0:0:0:0:
240,48,106408,5,0,0:0:0:0:
187,69,106462,1,0,0:0:0:0:
137,95,106516,1,0,0:0:0:0:
436,111,106624,1,0,0:0:0:0:
282,348,106732,2,0,P|195:323|149:267,1,140
308,79,106948,1,0,0:0:0:0:
106,225,107057,5,0,0:0:0:0:
148,226,107111,1,0,0:0:0:0:
190,226,107165,1,0,0:0:0:0:
401,118,107273,1,0,0:0:0:0:
178,307,107382,1,0,0:0:0:0:
204,93,107490,5,0,0:0:0:0:
246,94,107544,1,0,0:0:0:0:
288,94,107598,1,0,0:0:0:0:
435,221,107707,5,0,0:0:0:0:
399,241,107760,1,0,0:0:0:0:
361,260,107814,1,0,0:0:0:0:
148,252,107922,5,0,0:0:0:0:
162,212,107977,1,0,0:0:0:0:
176,172,108031,1,0,0:0:0:0:
402,83,108139,1,0,0:0:0:0:
434,292,108248,1,0,0:0:0:0:
191,170,108356,5,0,0:0:0:0:
149,166,108410,1,0,0:0:0:0:
107,157,108464,2,0,P|154:76|214:52,1,140
176,299,108680,1,0,0:0:0:0:
313,83,108788,5,0,0:0:0:0:
343,111,108842,1,0,0:0:0:0:
369,143,108897,1,0,0:0:0:0:
394,176,108951,1,0,0:0:0:0:
398,217,109005,2,0,P|335:310|289:326,1,140
208,72,109222,5,0,0:0:0:0:
169,89,109276,1,0,0:0:0:0:
132,110,109330,1,0,0:0:0:0:
437,150,109438,1,0,0:0:0:0:
209,298,109546,1,0,0:0:0:0:
242,58,109654,1,0,0:0:0:0:
370,296,109762,1,0,0:0:0:0:
151,110,109871,1,0,0:0:0:0:
438,214,109979,1,0,0:0:0:0:
193,65,110088,1,0,0:0:0:0:
399,291,110196,6,0,P|319:355|224:348,1,140
282,109,110412,1,0,0:0:0:0:
66,154,110520,5,0,0:0:0:0:
80,193,110574,1,0,0:0:0:0:
102,228,110628,1,0,0:0:0:0:
129,260,110682,1,0,0:0:0:0:
162,284,110737,2,0,P|256:325|307:326,1,140
411,106,110953,5,0,0:0:0:0:
381,76,111008,1,0,0:0:0:0:
344,54,111062,2,0,P|253:43|227:47,1,70
139,119,111169,2,0,P|170:191|197:205,1,70
451,70,111386,6,0,P|467:158|464:166,1,70
293,290,111494,2,0,P|278:200|278:180,1,70
232,43,111602,2,0,P|160:99|158:112,1,70
93,227,111711,2,0,P|153:305|170:312,1,70
162,311,111819,5,0,0:0:0:0:
201,325,111873,1,0,0:0:0:0:
241,333,111927,1,0,0:0:0:0:
416,259,112035,6,0,L|350:194,2,70
159,241,112252,2,0,L|280:270,2,70
406,165,112468,1,0,0:0:0:0:
216,109,112577,1,0,0:0:0:0:
378,45,112685,6,0,L|362:146,2,70
224,203,112901,1,0,0:0:0:0:
397,276,113009,1,0,0:0:0:0:
252,105,113118,1,0,0:0:0:0:
258,301,113226,1,0,0:0:0:0:
382,141,113334,1,0,0:0:0:0:
258,301,113442,1,0,0:0:0:0:
140,131,113551,1,0,0:0:0:0:
258,301,113658,6,0,P|379:320|413:300,1,140
296,85,113875,1,0,0:0:0:0:
421,251,113983,2,0,L|344:305,2,70
236,255,114200,1,0,0:0:0:0:
150,98,114308,1,0,0:0:0:0:
311,74,114416,6,0,L|411:93,2,70
205,250,114632,1,0,0:0:0:0:
422,214,114741,1,0,0:0:0:0:
178,181,114849,1,0,0:0:0:0:
281,341,114958,5,0,0:0:0:0:
281,341,115066,1,0,0:0:0:0:
378,166,115174,5,0,0:0:0:0:
281,341,115282,5,0,0:0:0:0:
273,341,115390,1,0,0:0:0:0:
125,247,115498,6,0,L|160:172,6,70
389,316,115932,2,0,L|282:272,6,70
322,112,116364,5,0,0:0:0:0:
216,242,116472,1,0,0:0:0:0:
400,263,116581,2,0,L|333:207,2,70
193,160,116798,5,0,0:0:0:0:
402,265,116906,1,0,0:0:0:0:
380,61,117013,1,0,0:0:0:0:
407,271,117122,2,0,P|293:316|227:310,1,140
132,199,117338,1,0,0:0:0:0:
244,101,117447,2,0,L|293:37,2,70
232,288,117663,5,0,0:0:0:0:
370,186,117771,2,0,L|438:160,2,70
169,148,117988,1,0,0:0:0:0:
316,276,118096,5,0,0:0:0:0:
113,252,118204,1,0,0:0:0:0:
336,127,118312,5,0,0:0:0:0:
252,309,118421,1,0,0:0:0:0:
336,127,118529,5,0,0:0:0:0:
333,120,118637,5,0,0:0:0:0:
474,270,118745,1,0,0:0:0:0:
148,233,118853,2,0,P|145:122|164:90,1,140
186,76,119016,1,0,0:0:0:0:
225,62,119070,1,0,0:0:0:0:
266,53,119124,1,0,0:0:0:0:
307,58,119178,1,0,0:0:0:0:
347,68,119232,1,0,0:0:0:0:
378,83,119287,5,0,0:0:0:0:
420,296,119395,1,0,0:0:0:0:
294,221,119502,1,0,0:0:0:0:
62,279,119611,6,0,L|108:191,2,70
257,92,119828,1,0,0:0:0:0:
440,232,119936,1,0,0:0:0:0:
265,325,120044,6,0,L|196:265,2,70
257,92,120260,2,0,L|336:158,2,70
122,253,120477,1,0,0:0:0:0:
412,263,120585,1,0,0:0:0:0:
412,263,120693,1,0,0:0:0:0:
321,92,120802,1,0,0:0:0:0:
147,187,120910,6,0,L|187:264,2,70
318,85,121126,1,0,0:0:0:0:
103,51,121234,1,0,0:0:0:0:
149,262,121342,2,0,L|261:238,2,70
246,56,121559,1,0,0:0:0:0:
387,235,121668,1,0,0:0:0:0:
270,313,121776,6,0,L|176:281,1,70
149,262,121884,1,0,0:0:0:0:
149,262,121992,1,0,0:0:0:0:
317,141,122100,1,0,0:0:0:0:
149,262,122208,1,0,0:0:0:0:
351,317,122317,6,0,P|430:263|453:216,1,140
461,184,122479,1,0,0:0:0:0:
456,142,122533,1,0,0:0:0:0:
434,105,122588,1,0,0:0:0:0:
410,70,122642,2,0,P|303:52|229:55,1,140
337,197,122858,1,0,0:0:0:0:
136,165,122966,1,0,0:0:0:0:
239,317,123074,1,0,0:0:0:0:
249,73,123182,6,0,P|344:53|405:72,1,140
414,92,123345,1,0,0:0:0:0:
436,127,123399,1,0,0:0:0:0:
454,164,123453,1,0,0:0:0:0:
464,204,123508,2,0,P|422:298|372:319,1,140
178,219,123723,5,0,0:0:0:0:
340,141,123832,1,0,0:0:0:0:
247,319,123940,1,0,0:0:0:0:
338,133,124048,2,0,P|243:83|189:87,1,140
352,315,124265,5,0,0:0:0:0:
100,243,124373,1,0,0:0:0:0:
382,186,124481,2,0,P|447:127|450:66,1,140
267,361,124698,1,0,0:0:0:0:
109,121,124806,1,0,0:0:0:0:
420,147,124914,6,0,P|382:68|299:35,1,140
218,311,125131,2,0,P|118:235|94:206,1,140
402,41,125347,2,0,P|458:144|457:199,1,140
448,205,125509,1,0,0:0:0:0:
432,244,125563,1,0,0:0:0:0:
414,282,125618,1,0,0:0:0:0:
383,311,125672,1,0,0:0:0:0:
344,328,125726,1,0,0:0:0:0:
302,336,125780,6,0,P|200:303|147:274,1,140
346,83,125997,5,0,0:0:0:0:
304,75,126051,1,0,0:0:0:0:
262,75,126104,1,0,0:0:0:0:
98,145,126212,5,0,0:0:0:0:
113,184,126267,1,0,0:0:0:0:
137,218,126321,1,0,0:0:0:0:
389,245,126429,1,0,0:0:0:0:
236,69,126538,1,0,0:0:0:0:
241,323,126646,6,0,P|140:261|132:226,1,140
406,154,126862,1,0,0:0:0:0:
129,121,126970,1,0,0:0:0:0:
312,307,127078,1,0,0:0:0:0:
238,87,127187,1,0,0:0:0:0:
173,300,127295,1,0,0:0:0:0:
301,94,127403,1,0,0:0:0:0:
229,316,127512,2,0,P|316:328|389:311,1,140
146,119,127728,1,0,0:0:0:0:
372,76,127836,5,0,0:0:0:0:
386,115,127890,1,0,0:0:0:0:
398,155,127944,1,0,0:0:0:0:
140,52,128052,1,0,0:0:0:0:
222,266,128161,1,0,0:0:0:0:
356,113,128269,5,0,0:0:0:0:
314,114,128323,1,0,0:0:0:0:
271,112,128378,1,0,0:0:0:0:
229,328,128486,1,0,0:0:0:0:
127,159,128593,1,0,0:0:0:0:
361,255,128702,5,0,0:0:0:0:
319,261,128756,1,0,0:0:0:0:
277,264,128810,1,0,0:0:0:0:
91,99,128918,5,0,0:0:0:0:
91,141,128972,1,0,0:0:0:0:
98,182,129027,1,0,0:0:0:0:
339,333,129135,1,0,0:0:0:0:
238,108,129243,2,0,P|152:185|137:243,1,140
425,195,129459,1,0,0:0:0:0:
216,327,129568,5,0,0:0:0:0:
187,295,129622,1,0,0:0:0:0:
154,268,129676,1,0,0:0:0:0:
372,243,129784,1,0,0:0:0:0:
121,151,129892,1,0,0:0:0:0:
392,57,130001,5,0,0:0:0:0:
364,88,130055,1,0,0:0:0:0:
333,116,130109,1,0,0:0:0:0:
293,312,130218,5,0,0:0:0:0:
265,281,130271,1,0,0:0:0:0:
240,246,130325,1,0,0:0:0:0:
356,53,130433,5,0,0:0:0:0:
321,60,130488,1,0,0:0:0:0:
286,66,130542,1,0,0:0:0:0:
362,308,130650,1,0,0:0:0:0:
229,45,130758,1,0,0:0:0:0:
180,289,130867,1,0,0:0:0:0:
378,107,130975,6,0,P|433:219|416:259,1,140
128,66,131191,1,0,0:0:0:0:
267,325,131299,5,0,0:0:0:0:
304,306,131353,1,0,0:0:0:0:
337,281,131408,1,0,0:0:0:0:
369,254,131462,1,0,0:0:0:0:
396,222,131516,2,0,P|407:144|393:84,1,140
206,239,131732,1,0,0:0:0:0:
182,47,131841,5,0,0:0:0:0:
147,71,131895,1,0,0:0:0:0:
120,102,131948,1,0,0:0:0:0:
102,140,132002,1,0,0:0:0:0:
89,180,132057,2,0,P|76:282|110:324,1,140
419,210,132273,1,0,0:0:0:0:
158,71,132382,1,0,0:0:0:0:
367,329,132490,1,0,0:0:0:0:
190,61,132598,1,0,0:0:0:0:
284,334,132707,6,0,P|167:322|136:285,1,140
358,115,132922,1,0,0:0:0:0:
108,210,133031,5,0,0:0:0:0:
132,244,133085,1,0,0:0:0:0:
165,269,133139,1,0,0:0:0:0:
201,289,133193,1,0,0:0:0:0:
240,302,133248,2,0,P|334:319|390:310,1,140
428,92,133464,5,0,0:0:0:0:
391,70,133518,1,0,0:0:0:0:
351,56,133572,1,0,0:0:0:0:
310,48,133626,1,0,0:0:0:0:
268,41,133680,2,0,P|163:48|100:63,1,140
334,293,133897,5,0,0:0:0:0:
292,300,133951,1,0,0:0:0:0:
250,303,134005,1,0,0:0:0:0:
458,163,134113,1,0,0:0:0:0:
152,154,134222,1,0,0:0:0:0:
441,91,134330,1,0,0:0:0:0:
126,232,134438,2,0,P|201:305|278:339,1,140
336,44,134654,1,0,0:0:0:0:
402,303,134762,5,0,0:0:0:0:
361,315,134817,1,0,0:0:0:0:
319,321,134871,1,0,0:0:0:0:
277,315,134925,1,0,0:0:0:0:
235,308,134979,2,0,P|149:268|102:219,1,140
251,41,135196,5,0,0:0:0:0:
287,60,135249,1,0,0:0:0:0:
321,83,135303,1,0,0:0:0:0:
354,108,135358,1,0,0:0:0:0:
387,132,135412,2,0,P|445:210|464:280,1,140
165,141,135628,5,0,0:0:0:0:
156,182,135682,1,0,0:0:0:0:
151,223,135737,1,0,0:0:0:0:
369,103,135845,5,0,0:0:0:0:
409,142,135899,1,0,0:0:0:0:
443,186,135953,1,0,0:0:0:0:
201,48,136062,1,0,0:0:0:0:
122,305,136169,2,0,P|224:335|286:340,1,140
284,105,136386,1,0,0:0:0:0:
464,260,136494,5,0,0:0:0:0:
427,280,136548,1,0,0:0:0:0:
387,294,136602,1,0,0:0:0:0:
346,304,136657,1,0,0:0:0:0:
304,310,136711,2,0,P|221:296|142:261,1,140
371,76,136927,5,0,0:0:0:0:
328,75,136981,1,0,0:0:0:0:
287,87,137035,1,0,0:0:0:0:
247,102,137089,1,0,0:0:0:0:
208,118,137143,2,0,P|128:203|122:241,1,140
309,330,137360,1,0,0:0:0:0:
421,107,137468,1,0,0:0:0:0:
403,339,137577,1,0,0:0:0:0:
253,84,137685,5,0,0:0:0:0:
253,84,137792,1,0,0:0:0:0:
253,84,137901,6,0,P|133:102|83:142,1,140
422,222,138118,1,0,0:0:0:0:
191,323,138226,5,0,0:0:0:0:
159,294,138280,1,0,0:0:0:0:
137,266,138334,1,0,0:0:0:0:
341,99,138442,1,0,0:0:0:0:
342,336,138551,1,0,0:0:0:0:
178,110,138658,5,0,0:0:0:0:
189,142,138712,1,0,0:0:0:0:
199,175,138767,1,0,0:0:0:0:
465,183,138875,5,0,0:0:0:0:
460,217,138929,1,0,0:0:0:0:
454,251,138983,1,0,0:0:0:0:
251,56,139092,1,0,0:0:0:0:
287,335,139200,1,0,0:0:0:0:
391,62,139308,5,0,0:0:0:0:
277,73,139362,1,0,0:0:0:0:
165,88,139416,1,0,0:0:0:0:
480,293,139524,1,0,0:0:0:0:
256,192,139606,12,0,139633,0:0:0:0:
256,192,139660,12,0,139688,0:0:0:0:
256,192,139714,12,0,139742,0:0:0:0:
256,192,139822,12,0,139850,0:0:0:0:
256,192,139930,12,0,139958,0:0:0:0:
256,192,139984,12,0,140012,0:0:0:0:
256,192,140038,12,0,140066,0:0:0:0:
256,192,140147,12,0,140174,0:0:0:0:
256,192,140255,12,0,140282,0:0:0:0:
256,192,140309,12,0,140337,0:0:0:0:
256,192,140363,12,0,140391,0:0:0:0:
256,192,140472,12,0,140499,0:0:0:0:
256,192,140580,12,0,140608,0:0:0:0:
256,192,140634,12,0,140662,0:0:0:0:
256,192,140688,12,0,140715,0:0:0:0:
256,192,140796,12,0,140823,0:0:0:0:
256,192,140904,12,0,140932,0:0:0:0:
256,192,140958,12,0,140986,0:0:0:0:
256,192,141012,12,0,141040,0:0:0:0:
256,192,141121,12,0,141148,0:0:0:0:
256,192,141229,12,0,141257,0:0:0:0:
256,192,141283,12,0,141311,0:0:0:0:
256,192,141338,12,0,141365,0:0:0:0:
256,192,141446,12,0,142013,0:0:0:0:
