osu file format v14

[General]
AudioFilename: audio.mp3
AudioLeadIn: 0
PreviewTime: 25899
Countdown: 0
SampleSet: Normal
StackLeniency: 0.7
Mode: 1
LetterboxInBreaks: 0
WidescreenStoryboard: 1

[Editor]
DistanceSpacing: 1.1
BeatDivisor: 4
GridSize: 32
TimelineZoom: 3.099999

[Metadata]
Title:kaorin no amen
TitleUnicode:kaorin no amen
Artist:goreshit
ArtistUnicode:goreshit
Creator:Lexa14
Version:oni
Source:
Tags:electronic japanese instrumental breakcore hardcore amen break ambient With All My Heart KESSENCHU split ohayou
BeatmapID:3129923
BeatmapSetID:1530194

[Difficulty]
HPDrainRate:6
CircleSize:2
OverallDifficulty:5.5
ApproachRate:4
SliderMultiplier:1.4
SliderTickRate:1

[Events]
//Background and Video events
0,0,"19cfc208894c44ca9889231edfd7dba5.jpeg",0,30
//Break Periods
//Storyboard Layer 0 (Background)
//Storyboard Layer 1 (Fail)
//Storyboard Layer 2 (Pass)
//Storyboard Layer 3 (Foreground)
//Storyboard Layer 4 (Overlay)
//Storyboard Sound Samples

[TimingPoints]
448,319.148936170213,4,1,0,40,1,0
448,-200,4,1,0,40,0,0
22738,-222.222222222222,4,1,0,30,0,0
25929,-100,4,1,0,70,0,0
36191,-100,4,1,0,80,0,1
50234,-100,4,1,0,80,0,0

[HitObjects]
256,192,448,5,0,0:0:0:0:
256,192,1086,1,8,0:0:0:0:
256,192,1405,1,8,0:0:0:0:
256,192,1724,1,0,0:0:0:0:
256,192,2362,1,0,0:0:0:0:
256,192,2682,1,0,0:0:0:0:
256,192,3001,1,8,0:0:0:0:
256,192,3639,1,8,0:0:0:0:
256,192,3958,1,0,0:0:0:0:
256,192,4118,1,8,0:0:0:0:
256,192,5235,1,0,0:0:0:0:
256,192,5394,1,0,0:0:0:0:
256,192,5554,1,8,0:0:0:0:
256,192,6511,1,0,0:0:0:0:
256,192,6830,1,8,0:0:0:0:
256,192,7469,1,8,0:0:0:0:
256,192,7788,1,8,0:0:0:0:
256,192,8107,1,8,0:0:0:0:
256,192,8426,1,0,0:0:0:0:
256,192,8745,1,0,0:0:0:0:
256,192,9065,1,8,0:0:0:0:
256,192,10341,1,0,0:0:0:0:
256,192,10660,1,8,0:0:0:0:
256,192,11299,1,8,0:0:0:0:
256,192,11618,1,8,0:0:0:0:
256,192,11937,1,0,0:0:0:0:
256,192,12575,1,0,0:0:0:0:
256,192,12894,1,0,0:0:0:0:
256,192,13213,1,8,0:0:0:0:
256,192,13533,1,8,0:0:0:0:
256,192,13852,1,8,0:0:0:0:
256,192,14171,1,8,0:0:0:0:
256,192,15448,1,0,0:0:0:0:
256,192,15607,1,0,0:0:0:0:
256,192,15767,1,8,0:0:0:0:
256,192,16405,1,0,0:0:0:0:
256,192,16724,1,8,0:0:0:0:
256,192,17043,1,0,0:0:0:0:
256,192,17362,1,0,0:0:0:0:
256,192,18001,1,0,0:0:0:0:
256,192,18320,1,8,0:0:0:0:
256,192,18639,1,8,0:0:0:0:
256,192,19277,1,0,0:0:0:0:
256,192,19437,1,8,0:0:0:0:
256,192,19596,1,0,0:0:0:0:
256,192,19916,1,0,0:0:0:0:
256,192,20235,1,0,0:0:0:0:
256,192,20554,1,8,0:0:0:0:
256,192,22788,1,0,0:0:0:0:
256,192,23107,1,0,0:0:0:0:
256,192,23426,1,8,0:0:0:0:
256,192,25979,1,0,0:0:0:0:
256,192,26138,1,0,0:0:0:0:
256,192,26298,1,8,0:0:0:0:
256,192,26457,1,0,0:0:0:0:
256,192,26537,1,8,0:0:0:0:
256,192,26697,1,8,0:0:0:0:
256,192,26776,1,0,0:0:0:0:
256,192,26936,1,8,0:0:0:0:
256,192,27255,1,0,0:0:0:0:
256,192,27415,1,0,0:0:0:0:
256,192,27494,1,8,0:0:0:0:
256,192,27574,1,0,0:0:0:0:
256,192,27734,1,8,0:0:0:0:
256,192,27973,1,8,0:0:0:0:
256,192,28053,1,8,0:0:0:0:
256,192,28292,1,8,0:0:0:0:
256,192,28372,1,8,0:0:0:0:
256,192,28532,1,0,0:0:0:0:
256,192,28692,1,0,0:0:0:0:
256,192,28851,1,8,0:0:0:0:
256,192,29010,1,0,0:0:0:0:
256,192,29090,1,8,0:0:0:0:
256,192,29250,1,8,0:0:0:0:
256,192,29330,1,0,0:0:0:0:
256,192,29489,1,8,0:0:0:0:
256,192,29808,1,0,0:0:0:0:
256,192,29968,1,0,0:0:0:0:
256,192,30127,1,8,0:0:0:0:
256,192,30287,1,0,0:0:0:0:
256,192,30447,1,0,0:0:0:0:
256,192,30606,1,8,0:0:0:0:
256,192,30766,1,8,0:0:0:0:
256,192,30925,1,0,0:0:0:0:
256,192,31085,1,0,0:0:0:0:
256,192,31244,1,0,0:0:0:0:
256,192,31404,1,8,0:0:0:0:
256,192,31564,1,8,0:0:0:0:
256,192,31643,1,8,0:0:0:0:
256,192,31803,1,8,0:0:0:0:
256,192,31883,1,0,0:0:0:0:
256,192,32042,1,8,0:0:0:0:
256,192,32361,1,0,0:0:0:0:
256,192,32521,1,0,0:0:0:0:
256,192,32681,1,8,0:0:0:0:
256,192,32840,1,8,0:0:0:0:
256,192,33000,1,0,0:0:0:0:
256,192,33080,1,8,0:0:0:0:
256,192,33159,1,8,0:0:0:0:
256,192,33319,1,0,0:0:0:0:
256,192,33399,1,8,0:0:0:0:
256,192,33479,1,8,0:0:0:0:
256,192,33638,1,0,0:0:0:0:
256,192,33798,1,0,0:0:0:0:
256,192,33957,1,8,0:0:0:0:
256,192,34117,1,0,0:0:0:0:
256,192,34197,1,8,0:0:0:0:
256,192,34356,1,8,0:0:0:0:
256,192,34436,1,0,0:0:0:0:
256,192,34596,1,8,0:0:0:0:
256,192,34755,1,0,0:0:0:0:
256,192,34835,1,0,0:0:0:0:
256,192,34915,1,0,0:0:0:0:
256,192,35234,1,8,0:0:0:0:
256,192,35393,1,0,0:0:0:0:
256,192,35633,1,0,0:0:0:0:
256,192,35713,1,8,0:0:0:0:
256,192,35872,1,0,0:0:0:0:
256,192,36032,1,0,0:0:0:0:
256,192,36112,1,8,0:0:0:0:
256,192,36191,1,0,0:0:0:0:
256,192,36271,1,8,0:0:0:0:
256,192,36352,1,0,0:0:0:0:
256,192,36510,1,8,0:0:0:0:
256,192,36750,1,8,0:0:0:0:
256,192,36830,1,0,0:0:0:0:
256,192,36909,1,8,0:0:0:0:
256,192,36989,1,0,0:0:0:0:
256,192,37149,1,8,0:0:0:0:
256,192,37388,1,8,0:0:0:0:
256,192,37468,1,0,0:0:0:0:
256,192,37627,1,0,0:0:0:0:
256,192,37787,1,8,0:0:0:0:
256,192,37947,1,0,0:0:0:0:
256,192,38026,1,8,0:0:0:0:
256,192,38186,1,0,0:0:0:0:
256,192,38266,1,8,0:0:0:0:
256,192,38585,1,8,0:0:0:0:
256,192,38744,1,8,0:0:0:0:
256,192,39064,1,8,0:0:0:0:
256,192,39223,1,0,0:0:0:0:
256,192,39383,1,0,0:0:0:0:
256,192,39463,1,8,0:0:0:0:
256,192,39542,1,0,0:0:0:0:
256,192,39622,1,0,0:0:0:0:
256,192,39702,1,8,0:0:0:0:
256,192,39861,1,8,0:0:0:0:
256,192,40021,1,8,0:0:0:0:
256,192,40340,1,8,0:0:0:0:
256,192,40500,1,0,0:0:0:0:
256,192,40580,1,8,0:0:0:0:
256,192,40659,1,0,0:0:0:0:
256,192,40819,1,8,0:0:0:0:
256,192,40979,1,8,0:0:0:0:
256,192,41058,1,0,0:0:0:0:
256,192,41138,1,8,0:0:0:0:
256,192,41218,1,8,0:0:0:0:
256,192,41298,1,0,0:0:0:0:
256,192,41457,1,0,0:0:0:0:
256,192,41617,1,8,0:0:0:0:
256,192,41776,1,8,0:0:0:0:
256,192,41856,1,8,0:0:0:0:
256,192,41936,1,8,0:0:0:0:
256,192,42096,1,0,0:0:0:0:
256,192,42175,1,0,0:0:0:0:
256,192,42255,1,8,0:0:0:0:
256,192,42415,1,0,0:0:0:0:
256,192,42494,1,8,0:0:0:0:
256,192,42574,1,0,0:0:0:0:
256,192,42734,1,0,0:0:0:0:
256,192,42893,1,8,0:0:0:0:
256,192,43213,1,0,0:0:0:0:
256,192,43292,1,0,0:0:0:0:
256,192,43372,1,8,0:0:0:0:
256,192,43532,1,0,0:0:0:0:
256,192,43691,1,8,0:0:0:0:
256,192,43771,1,0,0:0:0:0:
256,192,43851,1,8,0:0:0:0:
256,192,44010,1,0,0:0:0:0:
256,192,44090,1,8,0:0:0:0:
256,192,44170,1,8,0:0:0:0:
256,192,44330,1,0,0:0:0:0:
256,192,44489,1,0,0:0:0:0:
256,192,44649,1,8,0:0:0:0:
256,192,44808,1,8,0:0:0:0:
256,192,44968,1,0,0:0:0:0:
256,192,45048,1,0,0:0:0:0:
256,192,45127,1,0,0:0:0:0:
256,192,45207,1,8,0:0:0:0:
256,192,45287,1,0,0:0:0:0:
256,192,45447,1,8,0:0:0:0:
256,192,45606,1,8,0:0:0:0:
256,192,45925,1,8,0:0:0:0:
256,192,46085,1,0,0:0:0:0:
256,192,46244,1,8,0:0:0:0:
256,192,46404,1,0,0:0:0:0:
256,192,46723,1,8,0:0:0:0:
256,192,46883,1,8,0:0:0:0:
256,192,46963,1,8,0:0:0:0:
256,192,47122,1,8,0:0:0:0:
256,192,47202,1,0,0:0:0:0:
256,192,47361,1,8,0:0:0:0:
256,192,47521,1,8,0:0:0:0:
256,192,47601,1,8,0:0:0:0:
256,192,47681,1,0,0:0:0:0:
256,192,47840,1,0,0:0:0:0:
256,192,47920,1,8,0:0:0:0:
256,192,48000,1,8,0:0:0:0:
256,192,48159,1,8,0:0:0:0:
256,192,48319,1,8,0:0:0:0:
256,192,48479,1,8,0:0:0:0:
256,192,48638,1,8,0:0:0:0:
256,192,48718,1,8,0:0:0:0:
256,192,48798,1,8,0:0:0:0:
256,192,48877,1,8,0:0:0:0:
256,192,48957,1,0,0:0:0:0:
256,192,49117,1,0,0:0:0:0:
256,192,49276,1,8,0:0:0:0:
256,192,49516,1,8,0:0:0:0:
256,192,49675,1,8,0:0:0:0:
256,192,49755,1,0,0:0:0:0:
256,192,49915,1,8,0:0:0:0:
256,192,50074,1,8,0:0:0:0:
256,192,50154,1,8,0:0:0:0:
256,192,50234,1,8,0:0:0:0:
